osu file format v14

[General]
AudioFilename: ayfull.mp3
AudioLeadIn: 0
PreviewTime: 73657
Countdown: 0
SampleSet: Soft
StackLeniency: 0.5
Mode: 0
LetterboxInBreaks: 0
WidescreenStoryboard: 1

[Editor]
Bookmarks: 10371,19371,28514,37657,56086,65300,74371,90228,92514,101800,103943,122371,126943,136086,145228,161086,163371,177228,179514,184086,193228,202371,204657,218300,225086,243371,252514
DistanceSpacing: 1
BeatDivisor: 4
GridSize: 32
TimelineZoom: 2.899999

[Metadata]
Title:Shirayuki
TitleUnicode:白ゆき
Artist:nameless
ArtistUnicode:nameless
Creator:Milan-
Version:Extra
Source:
Tags:utaite n-buna nbuna snow white shira yuki japanese novelty cover
BeatmapID:2242290
BeatmapSetID:493305

[Difficulty]
HPDrainRate:6
CircleSize:4.2
OverallDifficulty:8.5
ApproachRate:9.3
SliderMultiplier:1.8
SliderTickRate:1

[Events]
//Background and Video events
0,0,"yuri.jpg",0,0
//Break Periods
2,122604,124208
2,180619,183351
2,193228,201636
//Storyboard Layer 0 (Background)
//Storyboard Layer 1 (Fail)
//Storyboard Layer 2 (Pass)
//Storyboard Layer 3 (Foreground)
//Storyboard Layer 4 (Overlay)
//Storyboard Sound Samples

[TimingPoints]
48,285.714285714286,4,2,1,65,1,0
19333,-71.4285714285714,4,2,1,65,0,0
19619,-83.3333333333333,4,2,1,65,0,0
19762,-100,4,2,1,65,0,0
20476,-83.3333333333333,4,2,1,65,0,0
20905,-100,4,2,1,65,0,0
21190,-71.4285714285714,4,2,1,65,0,0
21333,-55.5555555555556,4,2,1,65,0,0
21619,-71.4285714285714,4,2,1,65,0,0
21905,-83.3333333333333,4,2,1,65,0,0
22048,-100,4,2,1,65,0,0
22762,-83.3333333333333,4,2,1,65,0,0
23190,-100,4,2,1,65,0,0
23476,-83.3333333333333,4,2,1,65,0,0
23905,-71.4285714285714,4,2,1,65,0,0
24190,-83.3333333333333,4,2,1,65,0,0
24333,-100,4,2,1,65,0,0
25048,-83.3333333333333,4,2,1,65,0,0
25476,-100,4,2,1,65,0,0
25762,-71.4285714285714,4,2,1,65,0,0
26190,-71.4285714285714,4,2,1,65,0,0
26476,-83.3333333333333,4,2,1,65,0,0
26619,-100,4,2,1,65,0,0
27333,-71.4285714285714,4,2,1,65,0,0
27619,-83.3333333333333,4,2,1,65,0,0
27762,-100,4,2,1,65,0,0
28048,-71.4285714285714,4,2,1,65,0,0
28476,-71.4285714285714,4,2,1,65,0,0
28762,-83.3333333333333,4,2,1,65,0,0
28905,-100,4,2,1,65,0,0
29619,-83.3333333333333,4,2,1,65,0,0
30048,-100,4,2,1,65,0,0
30333,-71.4285714285714,4,2,1,65,0,0
30476,-55.5555555555556,4,2,1,65,0,0
30762,-71.4285714285714,4,2,1,65,0,0
31048,-83.3333333333333,4,2,1,65,0,0
31190,-100,4,2,1,65,0,0
31905,-83.3333333333333,4,2,1,65,0,0
32333,-100,4,2,1,65,0,0
32619,-83.3333333333333,4,2,1,65,0,0
33048,-71.4285714285714,4,2,1,65,0,0
33333,-83.3333333333333,4,2,1,65,0,0
33476,-100,4,2,1,65,0,0
34190,-83.3333333333333,4,2,1,65,0,0
34619,-100,4,2,1,65,0,0
34905,-71.4285714285714,4,2,1,65,0,0
35333,-71.4285714285714,4,2,1,65,0,0
35619,-83.3333333333333,4,2,1,65,0,0
35762,-100,4,2,1,65,0,0
36476,-71.4285714285714,4,2,1,65,0,0
36762,-83.3333333333333,4,2,1,65,0,0
36905,-100,4,2,1,65,0,0
37191,-71.4285714285714,4,2,1,65,0,0
37619,-111.111111111111,4,2,1,50,0,0
41476,-99.9999999999999,4,2,1,50,0,0
41762,-90.9090909090909,4,2,1,50,0,0
42048,-83.3333333333333,4,2,1,50,0,0
42190,-111.111111111111,4,2,1,50,0,0
43762,-100,4,2,1,50,0,0
44048,-83.3333333333333,4,2,1,50,0,0
44476,-100,4,2,1,50,0,0
45333,-90.9090909090909,4,2,1,50,0,0
46762,-111.111111111111,4,2,1,50,0,0
50619,-99.9999999999999,4,2,1,50,0,0
50905,-90.9090909090909,4,2,1,50,0,0
51333,-111.111111111111,4,2,1,50,0,0
54048,-90.9090909090909,4,2,1,50,0,0
56048,-166.666666666667,4,2,1,50,0,0
59762,-125,4,2,1,50,0,0
60048,-111.111111111111,4,2,1,50,0,0
60333,-100,4,2,1,50,0,0
60619,-166.666666666667,4,2,1,50,0,0
64333,-125,4,2,1,50,0,0
65190,-125,4,2,1,60,0,0
68905,-111.111111111111,4,2,1,60,0,0
69762,-125,4,2,1,60,0,0
72048,-166.666666666667,4,2,1,60,0,0
73476,-125,4,2,1,60,0,0
74333,-62.5,4,2,1,75,0,1
74619,-71.4285714285714,4,2,1,75,0,1
74905,-83.3333333333333,4,2,1,75,0,1
77619,-71.4285714285714,4,2,1,75,0,1
78905,-83.3333333333333,4,2,1,75,0,1
81190,-71.4285714285714,4,2,1,75,0,1
81619,-66.6666666666667,4,2,1,75,0,1
82190,-62.5,4,2,1,75,0,1
83333,-55.5555555555556,4,2,1,75,0,0
83476,-71.4285714285714,4,2,1,75,0,1
84048,-83.3333333333333,4,2,1,75,0,1
86762,-71.4285714285714,4,2,1,75,0,1
88048,-83.3333333333333,4,2,1,75,0,1
91048,-76.9230769230769,4,2,1,75,0,1
91333,-71.4285714285714,4,2,1,75,0,1
91619,-66.6666666666667,4,2,1,75,0,1
92333,-100,4,2,1,75,0,0
92476,-71.4285714285714,4,2,1,75,0,1
92762,-83.3333333333333,4,2,1,75,0,1
95905,-71.4285714285714,4,2,1,75,0,1
96333,-83.3333333333333,4,2,1,75,0,1
97048,-71.4285714285714,4,2,1,75,0,1
97333,-83.3333333333333,4,2,1,75,0,1
100476,-71.4285714285714,4,2,1,75,0,1
100762,-83.3333333333333,4,2,1,75,0,1
101476,-100,4,2,1,75,0,1
101762,-200,4,2,1,50,0,0
102905,-166.666666666667,4,2,1,50,0,0
103905,-111.111111111111,4,2,1,50,0,0
107762,-99.9999999999999,4,2,1,50,0,0
108048,-90.9090909090909,4,2,1,50,0,0
108333,-83.3333333333333,4,2,1,50,0,0
108476,-111.111111111111,4,2,1,50,0,0
110048,-100,4,2,1,50,0,0
110333,-83.3333333333333,4,2,1,50,0,0
110762,-100,4,2,1,50,0,0
111619,-90.9090909090909,4,2,1,50,0,0
113048,-111.111111111111,4,2,1,50,0,0
116905,-99.9999999999999,4,2,1,50,0,0
117190,-90.9090909090909,4,2,1,50,0,0
117619,-111.111111111111,4,2,1,50,0,0
120333,-90.9090909090909,4,2,1,50,0,0
122333,-200,4,2,1,50,0,0
124762,-166.666666666667,4,2,1,50,0,0
125762,-125,4,2,1,50,0,0
126048,-166.666666666667,4,2,1,50,0,0
126619,-125,4,2,1,50,0,0
126905,-166.666666666667,4,2,1,50,0,0
130619,-125,4,2,1,50,0,0
130905,-111.111111111111,4,2,1,50,0,0
131190,-100,4,2,1,50,0,0
131476,-166.666666666667,4,2,1,50,0,0
135190,-125,4,2,1,50,0,0
136047,-125,4,2,1,60,0,0
139762,-111.111111111111,4,2,1,60,0,0
140619,-125,4,2,1,60,0,0
142905,-166.666666666667,4,2,1,60,0,0
144333,-125,4,2,1,60,0,0
145190,-62.5,4,2,1,80,0,1
145476,-71.4285714285714,4,2,1,80,0,1
145762,-83.3333333333333,4,2,1,80,0,1
148476,-71.4285714285714,4,2,1,80,0,1
149762,-83.3333333333333,4,2,1,80,0,1
152047,-71.4285714285714,4,2,1,80,0,1
152476,-66.6666666666667,4,2,1,80,0,1
153047,-62.5,4,2,1,80,0,1
154190,-55.5555555555556,4,2,1,80,0,0
154333,-71.4285714285714,4,2,1,80,0,1
154905,-83.3333333333333,4,2,1,80,0,1
157619,-71.4285714285714,4,2,1,80,0,1
158905,-83.3333333333333,4,2,1,80,0,1
161905,-76.9230769230769,4,2,1,80,0,1
162190,-71.4285714285714,4,2,1,80,0,1
162476,-66.6666666666667,4,2,1,80,0,1
163190,-66.6666666666667,4,2,1,80,0,0
163333,-83.3333333333333,4,2,1,80,0,1
166762,-71.4285714285714,4,2,1,80,0,1
167190,-83.3333333333333,4,2,1,80,0,1
171333,-71.4285714285714,4,2,1,80,0,1
171762,-83.3333333333333,4,2,1,80,0,1
175905,-71.4285714285714,4,2,1,80,0,1
176333,-83.3333333333333,4,2,1,80,0,1
177048,-83.3333333333333,4,2,1,60,0,0
183905,-125,4,2,1,50,0,0
184048,-166.666666666667,4,2,1,50,0,0
202190,-125,4,2,1,50,0,0
202290,-166.666666666667,4,2,1,50,0,0
203476,-125,4,2,1,60,0,0
203762,-100,4,2,1,60,0,0
204405,-100,4,2,1,70,0,0
204619,-83.3333333333333,4,2,1,70,0,1
204905,-71.4285714285714,4,2,1,75,0,1
205190,-83.3333333333333,4,2,1,75,0,1
205619,-71.4285714285714,4,2,1,75,0,1
206905,-83.3333333333333,4,2,1,75,0,1
209190,-71.4285714285714,4,2,1,75,0,1
209619,-66.6666666666667,4,2,1,75,0,1
210190,-62.5,4,2,1,75,0,1
211333,-55.5555555555556,4,2,1,75,0,0
211476,-71.4285714285714,4,2,1,75,0,1
212048,-83.3333333333333,4,2,1,75,0,1
214762,-71.4285714285714,4,2,1,75,0,1
216048,-83.3333333333333,4,2,1,75,0,1
219048,-76.9230769230769,4,2,1,75,0,1
219333,-71.4285714285714,4,2,1,75,0,1
219619,-83.3333333333333,4,2,1,75,0,1
224333,-71.4285714285714,4,2,1,75,0,0
224905,-71.4285714285714,4,2,1,75,0,0
225048,-71.4285714285714,4,2,1,75,0,1
225476,-83.3333333333333,4,2,1,75,0,1
229619,-71.4285714285714,4,2,1,75,0,1
230048,-83.3333333333333,4,2,1,75,0,1
234048,-83.3333333333333,4,2,1,75,0,0
234190,-90.9090909090909,4,2,1,70,0,1
237619,-76.9230769230769,4,2,1,70,0,1
237905,-90.9090909090909,4,2,1,70,0,1
243333,-83.3333333333333,4,2,1,65,0,0
243762,-100,4,2,1,65,0,0
244476,-83.3333333333333,4,2,1,65,0,0
244905,-71.4285714285714,4,2,1,65,0,0
245190,-66.6666666666667,4,2,1,65,0,0
245619,-71.4285714285714,4,2,1,65,0,0
245905,-83.3333333333333,4,2,1,65,0,0
246762,-71.4285714285714,4,2,1,65,0,0
247190,-83.3333333333333,4,2,1,65,0,0
247905,-71.4285714285714,4,2,1,65,0,0
248190,-83.3333333333333,4,2,1,65,0,0
248333,-100,4,2,1,65,0,0
248905,-83.3333333333333,4,2,1,65,0,0
249048,-71.4285714285714,4,2,1,65,0,0
249333,-83.3333333333333,4,2,1,65,0,0
250190,-71.4285714285714,4,2,1,65,0,0
250619,-83.3333333333333,4,2,1,65,0,0
251333,-100,4,2,1,65,0,0
251905,-83.3333333333333,4,2,1,65,0,0

[Colours]
Combo1 : 168,196,159
Combo2 : 187,198,208
Combo3 : 226,215,173
Combo4 : 208,187,198

[HitObjects]
85,336,19333,6,0,B|77:377|25:376|5:316|7:253|58:223,1,188.999994232178,4|0,0:1|0:0,0:0:0:0:
88,171,19619,2,0,P|114:205|116:229,1,53.9999983520508,4|0,0:3|0:0,0:0:0:0:
150,283,19762,2,0,L|252:263,1,90,8|0,0:0|0:0,0:0:0:0:
410,349,20048,1,4,0:3:0:0:
284,202,20190,1,4,0:3:0:0:
452,181,20333,1,10,0:0:0:0:
452,181,20405,1,2,0:0:0:0:
452,181,20476,6,0,P|362:234|369:322,1,161.999995056153,6|0,0:0|0:0,0:0:0:0:
410,349,20762,2,0,P|429:323|423:264,1,53.9999983520508,4|0,0:3|0:0,0:0:0:0:
284,202,20905,2,0,L|188:215,1,90,12|0,0:0|0:0,0:0:0:0:
390,78,21190,2,0,L|461:87,2,62.9999980773926,14|0|10,0:0|0:0|0:0,0:0:0:0:
390,78,21619,6,0,B|388:104|388:104|291:132|245:48,1,188.999994232178,4|0,0:0|0:0,0:0:0:0:
188,7,21905,2,0,L|124:19,1,53.9999983520508,4|0,0:3|0:0,0:0:0:0:
29,66,22048,2,0,P|73:68|114:87,1,90,8|0,0:0|0:0,0:0:0:0:
186,314,22333,1,4,0:3:0:0:
228,172,22476,1,8,0:0:0:0:
228,172,22762,6,0,P|164:179|118:291,1,161.999995056153,4|0,0:0|0:0,0:0:0:0:
74,314,23048,2,0,P|53:299|42:274,1,53.9999983520508,4|0,0:3|0:0,0:0:0:0:
210,244,23190,2,0,L|299:253,1,90,12|0,0:0|0:0,0:0:0:0:
508,169,23476,2,0,L|500:224,1,53.9999983520508,14|0,0:0|0:0,0:0:0:0:
498,243,23619,1,0,0:0:0:0:
366,58,23762,2,0,L|378:130,1,53.9999983520508,10|0,0:0|0:0,0:0:0:0:
396,205,23905,6,0,B|426:189|425:177|425:177|410:142|318:135|279:187,1,188.999994232178,4|0,0:0|0:0,0:0:0:0:
220,160,24190,2,0,L|206:82,1,53.9999983520508,4|2,0:3|0:0,0:0:0:0:
145,182,24333,2,0,P|102:163|28:165,1,90,10|0,0:0|0:0,0:0:0:0:
181,252,24619,1,4,0:3:0:0:
126,94,24762,1,4,0:3:0:0:
0,208,24905,1,8,0:0:0:0:
28,364,25048,6,0,B|94:348|94:348|111:350|111:350|190:333,1,161.999995056153,4|0,0:0|0:0,0:0:0:0:
234,261,25333,2,0,L|154:247,1,53.9999983520508,4|0,0:3|0:0,0:0:0:0:
68,181,25476,2,0,L|188:154,1,90,12|0,0:0|0:0,0:0:0:0:
266,44,25762,2,0,P|270:75|263:105,2,62.9999980773926,14|0|10,0:0|0:0|0:0,0:0:0:0:
266,44,26190,6,0,P|245:132|319:180,1,188.999994232178,4|0,0:0|0:0,0:0:0:0:
390,204,26476,2,0,L|469:182,1,53.9999983520508,4|0,0:3|0:0,0:0:0:0:
328,254,26619,2,0,L|320:353,1,90,8|0,0:0|0:0,0:0:0:0:
142,260,26905,1,4,0:3:0:0:
229,382,27048,2,0,L|221:283,1,90,8|2,0:0|0:0,0:0:0:0:
46,136,27333,6,0,B|12:143|-6:183|39:220|113:211|141:144,1,188.999994232178,4|0,0:0|0:0,0:0:0:0:
198,198,27619,2,0,P|209:173|211:147,1,53.9999983520508,4|0,0:3|0:0,0:0:0:0:
261,13,27762,2,0,P|252:56|270:97,1,90,12|0,0:0|0:0,0:0:0:0:
399,185,28048,2,0,L|460:173,2,62.9999980773926,14|0|10,0:0|0:0|0:0,0:0:0:0:
399,185,28476,6,0,B|440:210|463:269|440:317|440:317|400:329|360:298,1,188.999994232178,4|0,0:0|0:0,0:0:0:0:
325,336,28762,2,0,P|297:321|273:316,1,53.9999983520508,4|0,0:3|0:0,0:0:0:0:
203,301,28905,2,0,P|159:317|114:318,1,90,8|0,0:0|0:0,0:0:0:0:
7,141,29190,1,4,0:3:0:0:
48,354,29333,1,4,0:3:0:0:
211,224,29476,1,10,0:0:0:0:
211,224,29548,1,2,0:0:0:0:
211,224,29619,6,0,P|126:196|111:124,1,161.999995056153,6|0,0:0|0:0,0:0:0:0:
163,83,29905,2,0,P|182:57|177:1,1,53.9999983520508,4|0,0:3|0:0,0:0:0:0:
308,136,30048,2,0,L|212:149,1,90,12|0,0:0|0:0,0:0:0:0:
375,59,30333,2,0,L|446:68,2,62.9999980773926,14|0|10,0:0|0:0|0:0,0:0:0:0:
375,59,30762,6,0,B|437:82|464:125|460:181|460:181|453:197|399:196,1,188.999994232178,4|0,0:0|0:0,0:0:0:0:
372,237,31048,2,0,P|360:261|361:316,1,53.9999983520508,4|0,0:3|0:0,0:0:0:0:
288,361,31190,2,0,P|281:317|251:283,1,90,8|0,0:0|0:0,0:0:0:0:
94,358,31476,1,4,0:3:0:0:
239,207,31619,1,8,0:0:0:0:
239,207,31905,6,0,P|167:282|97:260,1,161.999995056153,4|0,0:0|0:0,0:0:0:0:
45,292,32190,2,0,P|44:255|74:219,1,53.9999983520508,4|0,0:3|0:0,0:0:0:0:
147,121,32333,2,0,L|255:131,1,90,8|0,0:0|0:0,0:0:0:0:
470,254,32619,2,0,L|462:199,1,53.9999983520508,14|0,0:0|0:0,0:0:0:0:
460,180,32762,1,0,0:0:0:0:
350,24,32905,2,0,L|338:96,1,53.9999983520508,10|0,0:0|0:0,0:0:0:0:
331,172,33048,6,0,B|350:178|383:157|383:157|361:318,1,188.999994232178,4|0,0:0|0:0,0:0:0:0:
312,344,33333,2,0,L|252:331,1,53.9999983520508,4|2,0:3|0:0,0:0:0:0:
203,276,33476,2,0,L|90:308,1,90,10|0,0:0|0:0,0:0:0:0:
111,212,33762,1,4,0:3:0:0:
72,364,33905,1,4,0:3:0:0:
137,200,34048,1,8,0:0:0:0:
48,377,34190,6,0,B|38:304|38:304|41:282|41:282|27:180,1,161.999995056153,4|0,0:0|0:0,0:0:0:0:
16,134,34476,2,0,L|0:228,1,53.9999983520508,4|0,0:3|0:0,0:0:0:0:
117,286,34619,2,0,L|210:290,1,90,12|0,0:0|0:0,0:0:0:0:
415,358,34905,2,0,L|335:366,2,62.9999980773926,14|0|10,0:0|0:0|0:0,0:0:0:0:
415,358,35333,6,0,P|352:295|397:217,1,188.999994232178,4|0,0:0|0:0,0:0:0:0:
467,237,35619,2,0,P|467:207|443:162,1,53.9999983520508,4|0,0:3|0:0,0:0:0:0:
395,141,35762,2,0,L|277:157,1,90,8|0,0:0|0:0,0:0:0:0:
431,54,36048,1,4,0:3:0:0:
252,53,36190,2,0,L|370:69,1,90,8|2,0:0|0:0,0:0:0:0:
179,5,36476,6,0,B|155:41|155:41|182:137|182:137|151:185,1,188.999994232178,4|0,0:0|0:0,0:0:0:0:
101,218,36762,2,0,L|121:286,1,53.9999983520508,4|0,0:3|0:0,0:0:0:0:
86,369,36905,1,12,0:0:0:0:
212,325,37048,1,2,0:0:0:0:
324,346,37190,5,2,0:0:0:0:
419,315,37333,1,4,0:3:0:0:
496,337,37476,5,10,0:0:0:0:
493,181,37619,6,0,B|386:169|444:206|314:201,1,161.999995056153,4|4,0:0|0:3,0:0:0:0:
303,92,38048,2,0,P|233:114|257:183,1,161.999995056153,8|4,0:0|0:3,0:0:0:0:
278,260,38476,1,4,0:3:0:0:
199,239,38619,1,8,0:0:0:0:
0,301,38762,6,0,B|107:288|49:325|179:320,1,161.999995056153,2|0,0:0|0:0,0:0:0:0:
60,221,39190,2,0,P|51:157|138:97,1,161.999995056153,10|2,0:0|0:0,0:0:0:0:
195,116,39619,1,4,0:3:0:0:
258,69,39762,1,10,0:0:0:0:
408,198,39905,5,4,0:3:0:0:
351,142,40048,2,0,L|362:40,1,80.9999975280763,2|4,0:0|0:3,0:0:0:0:
266,147,40333,2,0,L|286:272,1,121.499996292114,10|0,0:0|0:0,0:0:0:0:
343,330,40619,2,0,P|369:306|347:244,1,80.9999975280763,4|10,0:3|0:0,0:0:0:0:
292,273,40833,1,10,0:0:0:0:
292,273,40905,2,0,L|232:279,1,40.4999987640381,10|0,0:0|0:0,0:0:0:0:
100,359,41048,2,0,B|171:353|171:353|184:360|184:360|278:354,1,161.999995056153,8|4,0:0|0:3,0:0:0:0:
123,278,41476,6,0,B|95:261|95:261|78:157,1,135,8|0,0:0|0:0,0:0:0:0:
220,71,41762,2,0,B|184:95|184:95|167:199,1,148.50000453186,8|0,0:0|0:0,0:0:0:0:
238,272,42048,2,0,L|300:267,1,53.9999983520508,8|0,0:0|0:0,0:0:0:0:
349,162,42190,6,0,B|452:148|412:188|530:171,1,161.999995056153,4|4,0:0|0:3,0:0:0:0:
512,10,42619,2,0,P|485:62|373:62,1,161.999995056153,8|4,0:0|0:3,0:0:0:0:
311,88,43048,1,4,0:3:0:0:
168,154,43190,1,8,0:0:0:0:
239,198,43333,2,0,B|250:158|250:158|240:119,2,80.9999975280763,0|4|4,0:0|0:3|0:3,0:0:0:0:
21,274,43762,6,0,B|64:292|64:292|176:252,1,135,8|0,0:0|0:0,0:0:0:0:
223,274,44048,2,0,L|305:288,2,53.9999983520508,8|0|4,0:0|0:0|0:3,0:0:0:0:
223,274,44476,6,0,P|302:338|385:322,1,180,4|4,0:0|0:3,0:0:0:0:
512,168,44905,2,0,P|443:182|396:248,1,135,10|0,0:0|0:0,0:0:0:0:
402,247,45190,1,4,0:3:0:0:
344,63,45333,6,0,P|307:115|315:211,1,148.50000453186,10|0,0:0|0:0,0:0:0:0:
253,245,45619,2,0,P|191:204|161:138,1,148.50000453186,12|0,0:0|0:0,0:0:0:0:
169,69,45905,1,4,0:3:0:0:
220,318,46048,2,0,P|148:307|84:342,1,148.50000453186,14|0,0:0|0:0,0:0:0:0:
0,234,46333,2,0,P|24:252|69:262,1,49.5000015106202,14|0,0:0|0:0,0:0:0:0:
177,213,46476,1,4,0:3:0:0:
177,213,46762,6,0,B|280:195|237:230|347:214,1,161.999995056153,4|4,0:0|0:3,0:0:0:0:
469,280,47190,2,0,L|491:370,1,80.9999975280763,8|0,0:0|0:0,0:0:0:0:
428,204,47476,1,4,0:3:0:0:
471,135,47619,1,4,0:3:0:0:
412,78,47762,2,0,L|434:-12,1,80.9999975280763,8|2,0:0|0:0,0:0:0:0:
242,20,48048,5,4,0:3:0:0:
299,75,48190,1,4,0:3:0:0:
354,133,48333,2,0,P|278:105|197:105,1,161.999995056153,10|2,0:0|0:0,0:0:0:0:
10,179,48762,1,4,0:3:0:0:
118,98,48905,1,10,0:0:0:0:
211,199,49048,6,0,P|226:267|185:367,1,161.999995056153,2|4,0:0|0:3,0:0:0:0:
2,308,49476,2,0,B|41:320|41:320|131:292,1,121.499996292114,8|0,0:0|0:0,0:0:0:0:
139,289,49762,1,4,0:3:0:0:
38,193,49905,1,2,0:0:0:0:
165,139,50048,1,8,0:0:0:0:
268,236,50190,2,0,B|342:222|342:222|359:225|359:225|452:208,1,161.999995056153,6|4,0:0|0:3,0:0:0:0:
512,82,50619,6,0,B|488:110|488:110|380:101,1,135,8|0,0:0|0:0,0:0:0:0:
328,63,50905,2,0,L|249:83,1,49.5000015106202,8|0,0:0|0:0,0:0:0:0:
181,47,51048,1,2,0:0:0:0:
324,140,51190,1,8,0:0:0:0:
204,264,51333,6,0,P|156:199|200:107,1,161.999995056153,4|4,0:0|0:3,0:0:0:0:
390,101,51762,2,0,P|438:166|394:258,1,161.999995056153,8|4,0:0|0:3,0:0:0:0:
281,294,52190,1,4,0:3:0:0:
468,347,52333,1,8,0:0:0:0:
395,316,52476,2,0,L|223:357,1,161.999995056153,4|4,0:0|0:3,0:0:0:0:
57,292,52905,2,0,P|39:240|67:192,1,80.9999975280763,8|0,0:0|0:0,0:0:0:0:
176,126,53190,2,0,P|193:177|165:225,1,80.9999975280763,2|4,0:0|0:3,0:0:0:0:
25,56,53476,1,10,0:0:0:0:
98,25,53619,2,0,L|270:66,1,161.999995056153,4|4,0:0|0:3,0:0:0:0:
451,15,54048,6,0,P|445:67|366:111,1,148.50000453186,8|0,0:0|0:0,0:0:0:0:
351,107,54333,1,4,0:3:0:0:
449,225,54476,6,0,P|400:245|323:199,1,148.50000453186,8|0,0:0|0:0,0:0:0:0:
319,184,54762,1,4,0:3:0:0:
176,83,54905,6,0,P|127:102|105:189,1,148.50000453186,8|0,0:0|0:0,0:0:0:0:
112,204,55190,1,4,0:3:0:0:
0,168,55333,6,0,P|-7:219|57:282,1,148.50000453186,8|0,0:0|0:0,0:0:0:0:
72,283,55619,1,4,0:3:0:0:
294,379,55762,6,0,P|301:327|236:264,1,148.50000453186,8|0,0:0|0:0,0:0:0:0:
237,264,56048,6,0,L|347:251,1,107.999996704102,4|0,0:0|0:0,0:0:0:0:
257,125,56476,2,0,L|358:168,1,107.999996704102,4|0,0:0|0:0,0:0:0:0:
344,18,56905,2,0,L|410:106,1,107.999996704102,4|0,0:0|0:0,0:0:0:0:
456,167,57333,1,4,0:3:0:0:
406,317,57476,2,0,L|433:237,1,80.9999975280763,10|0,0:0|0:0,0:0:0:0:
444,243,57762,2,0,L|505:262,2,53.9999983520508,2|4|10,0:0|0:3|0:0,0:0:0:0:
245,12,58333,6,0,P|293:33|317:80,1,107.999996704102,4|2,0:0|0:0,0:0:0:0:
218,213,58762,2,0,P|246:168|240:115,1,107.999996704102,4|2,0:0|0:0,0:0:0:0:
87,133,59190,2,0,L|166:149,2,80.9999975280763,4|0|4,0:0|0:0|0:3,0:0:0:0:
0,334,59762,6,0,B|-11:309|-11:309|15:210,1,108,10|0,0:0|0:0,0:0:0:0:
106,210,60048,2,0,B|87:244|87:244|116:345,1,121.499996292114,10|0,0:0|0:0,0:0:0:0:
197,361,60333,2,0,B|286:354|236:345|338:338,1,135,2|0,0:0|0:0,0:0:0:0:
412,368,60619,6,0,L|468:266,1,107.999996704102,4|0,0:0|0:0,0:0:0:0:
333,258,61048,2,0,L|432:197,1,107.999996704102,4|0,0:0|0:0,0:0:0:0:
322,121,61476,2,0,L|438:118,1,107.999996704102,4|0,0:0|0:0,0:0:0:0:
305,33,61905,1,4,0:3:0:0:
131,75,62048,2,0,P|168:89|208:88,1,80.9999975280763,10|0,0:0|0:0,0:0:0:0:
221,77,62333,2,0,L|228:13,2,53.9999983520508,2|4|10,0:0|0:3|0:0,0:0:0:0:
40,293,62905,6,0,L|151:259,1,107.999996704102,4|2,0:0|0:0,0:0:0:0:
231,181,63333,2,0,L|342:215,1,107.999996704102,4|2,0:0|0:0,0:0:0:0:
406,241,63690,1,8,0:0:0:0:
406,241,63762,1,12,0:0:0:0:
496,331,63905,2,0,P|442:326|394:348,1,107.999996704102,0|4,0:0|0:3,0:0:0:0:
209,382,64333,6,0,B|185:331|185:331|209:271,1,108,10|0,0:0|0:0,0:0:0:0:
217,268,64619,1,10,0:0:0:0:
84,338,64762,1,4,0:3:0:0:
84,338,65048,5,8,0:0:0:0:
0,164,65190,2,0,L|112:179,1,108,4|0,0:0|0:0,0:0:0:0:
127,180,65476,1,8,0:0:0:0:
222,52,65619,2,0,L|64:73,1,144,4|4,0:0|0:3,0:0:0:0:
217,156,66048,2,0,L|290:166,1,72,12|0,0:0|0:0,0:0:0:0:
435,126,66333,1,4,0:3:0:0:
395,186,66476,1,4,0:3:0:0:
451,231,66619,2,0,P|464:264|464:313,1,72,10|0,0:0|0:0,0:0:0:0:
320,365,66905,2,0,P|321:329|335:295,1,72,2|0,0:0|0:0,0:0:0:0:
151,196,67190,2,0,P|180:235|181:299,1,108,10|0,0:0|0:0,0:0:0:0:
175,306,67476,6,0,P|109:329|41:309,1,144,4|8,0:0|0:0,0:0:0:0:
0,120,67905,1,4,0:3:0:0:
78,242,68048,2,0,L|63:148,1,72,0|8,0:0|0:0,0:0:0:0:
100,108,68262,1,8,0:0:0:0:
100,108,68333,2,0,L|155:100,2,36,8|0|0,0:0|0:0|0:0,0:0:0:0:
196,37,68619,1,4,0:3:0:0:
276,127,68762,1,4,0:3:0:0:
182,202,68905,6,0,B|164:231|164:231|187:342,1,121.499996292114,8|8,0:0|0:0,0:0:0:0:
188,333,69190,2,0,L|249:322,1,40.4999987640381,8|0,0:0|0:0,0:0:0:0:
302,307,69333,1,2,0:0:0:0:
467,363,69476,2,0,P|483:325|487:285,1,80.9999975280763,0|0,0:0|0:0,0:0:0:0:
370,106,69762,6,0,P|349:167|370:227,1,108,4|0,0:0|0:0,0:0:0:0:
372,222,70048,1,8,0:0:0:0:
467,363,70190,2,0,L|308:355,1,144,4|0,0:0|0:0,0:0:0:0:
142,384,70619,2,0,B|131:349|131:349|148:301,1,72,12|0,0:0|0:0,0:0:0:0:
261,188,70905,2,0,P|288:252|268:311,1,108,4|0,0:3|0:0,0:0:0:0:
267,290,71190,2,0,L|216:289,1,36,8|0,0:0|0:0,0:0:0:0:
74,235,71333,2,0,P|68:166|102:95,1,144,4|4,0:0|0:3,0:0:0:0:
271,82,71762,1,12,0:0:0:0:
190,226,71905,1,4,0:3:0:0:
356,294,72048,6,0,L|482:281,1,107.999996704102,4|2,0:0|0:0,0:0:0:0:
301,361,72476,1,4,0:3:0:0:
409,212,72619,1,8,0:0:0:0:
338,186,72762,1,8,0:0:0:0:
338,186,72833,1,8,0:0:0:0:
338,186,72905,1,8,0:0:0:0:
227,340,73048,6,0,L|101:327,1,107.999996704102,4|4,0:0|0:3,0:0:0:0:
13,277,73476,2,0,L|28:362,2,72,10|2|4,0:0|0:0|0:0,0:0:0:0:
37,178,74333,6,0,P|94:229|254:212,1,216,4|0,0:1|0:0,0:0:0:0:
279,159,74619,2,0,P|225:214|90:215,1,188.999994232178,12|0,0:0|0:0,0:0:0:0:
106,133,74905,2,0,P|149:79|190:85,1,107.999996704102,4|4,0:3|0:3,0:0:0:0:
277,80,75119,1,0,0:0:0:0:
277,80,75190,2,2,L|266:5,1,53.9999983520508,10|2,0:0|0:0,0:0:0:0:
365,92,75333,2,2,L|356:25,1,53.9999983520508
466,0,75476,6,0,L|461:123,1,107.999996704102,4|4,0:3|0:3,0:0:0:0:
375,264,75762,1,8,0:0:0:0:
375,178,75905,2,0,P|464:229|428:326,1,215.999993408203,4|2,0:3|0:0,0:0:0:0:
331,384,76262,1,2,0:0:0:0:
331,384,76333,2,0,P|314:351|311:299,1,53.9999983520508,10|8,0:0|0:0,0:0:0:0:
220,228,76476,2,0,P|212:253|199:277,1,53.9999983520508,10|8,0:0|0:0,0:0:0:0:
287,173,76619,5,4,0:0:0:0:
238,349,76762,1,4,0:3:0:0:
287,173,76905,2,0,P|221:189|129:121,1,161.999995056153,8|0,0:0|0:0,0:0:0:0:
67,145,77190,2,0,L|62:85,1,53.9999983520508,4|0,0:3|0:0,0:0:0:0:
204,89,77333,1,8,0:0:0:0:
34,230,77476,1,2,0:0:0:0:
34,230,77548,1,2,0:0:0:0:
34,230,77619,6,0,B|160:194|86:257|263:220,1,188.999994232178,6|0,0:0|0:0,0:0:0:0:
286,269,77905,2,0,L|350:255,1,62.9999980773926,4|0,0:3|0:0,0:0:0:0:
475,117,78048,5,14,0:0:0:0:
464,194,78190,1,0,0:0:0:0:
361,242,78333,5,14,0:0:0:0:
337,55,78476,1,0,0:0:0:0:
188,157,78619,5,14,0:0:0:0:
280,181,78762,1,2,0:0:0:0:
280,181,78833,1,2,0:0:0:0:
280,181,78905,5,6,0:0:0:0:
254,100,79048,1,4,0:3:0:0:
216,240,79190,2,0,P|171:273|6:253,1,215.999993408203,8|4,0:0|0:3,0:0:0:0:
0,184,79619,1,4,0:3:0:0:
173,310,79762,1,8,0:0:0:0:
102,156,79905,1,2,0:0:0:0:
102,156,79976,1,2,0:0:0:0:
100,156,80048,6,0,P|90:208|114:255,1,107.999996704102,6|4,0:0|0:3,0:0:0:0:
350,204,80333,1,8,0:0:0:0:
181,200,80476,1,2,0:0:0:0:
181,200,80548,1,2,0:0:0:0:
181,200,80619,2,0,B|220:221|220:221|359:183,1,161.999995056153,8|2,0:0|0:0,0:0:0:0:
439,141,80905,2,0,L|427:217,1,53.9999983520508,10|2,0:0|0:0,0:0:0:0:
360,112,81048,2,0,L|371:53,1,53.9999983520508,2|2,0:0|0:0,0:0:0:0:
276,38,81190,6,0,L|69:61,1,188.999994232178,4|0,0:0|0:0,0:0:0:0:
22,26,81476,1,8,0:0:0:0:
238,120,81619,6,0,L|458:143,1,202.500007724762,4|0,0:0|0:0,0:0:0:0:
508,119,81905,1,4,0:3:0:0:
268,198,82048,1,8,0:0:0:0:
511,240,82190,6,0,L|285:267,1,216,4|0,0:0|0:0,0:0:0:0:
236,302,82476,2,0,P|223:338|235:376,1,72,4|0,0:3|0:0,0:0:0:0:
303,363,82619,5,10,0:0:0:0:
308,345,82762,1,0,0:0:0:0:
143,262,82905,5,10,0:0:0:0:
348,187,83048,1,4,0:3:0:0:
136,146,83190,5,10,0:0:0:0:
289,30,83333,1,10,0:0:0:0:
289,30,83405,1,10,0:0:0:0:
289,30,83476,6,0,B|289:74|304:88|304:88|236:126|250:217,1,188.999994232178,4|0,0:0|0:0,0:0:0:0:
218,262,83762,2,0,P|237:194|182:86,1,188.999994232178,12|0,0:0|0:0,0:0:0:0:
118,75,84048,2,0,P|66:89|31:129,1,107.999996704102,4|4,0:3|0:3,0:0:0:0:
42,213,84262,1,0,0:0:0:0:
42,213,84333,2,2,L|119:205,1,53.9999983520508,10|2,0:0|0:0,0:0:0:0:
141,288,84476,2,2,L|64:280,1,53.9999983520508
26,336,84619,5,6,0:0:0:0:
169,218,84762,1,4,0:3:0:0:
294,368,84905,1,8,0:0:0:0:
294,368,84976,1,2,0:0:0:0:
294,368,85048,5,2,0:0:0:0:
242,293,85190,1,4,0:3:0:0:
331,291,85333,1,2,0:0:0:0:
331,291,85405,1,2,0:0:0:0:
330,291,85476,2,0,P|357:285|383:277,1,53.9999983520508,10|2,0:0|0:0,0:0:0:0:
490,126,85619,6,0,B|355:87|406:180|268:152,1,215.999993408203,6|4,0:0|0:3,0:0:0:0:
130,42,86048,2,0,P|234:75|218:128,1,161.999995056153,8|0,0:0|0:0,0:0:0:0:
214,174,86333,2,0,L|138:166,1,53.9999983520508,4|0,0:3|0:0,0:0:0:0:
60,85,86476,1,8,0:0:0:0:
0,308,86619,1,2,0:0:0:0:
0,308,86690,1,2,0:0:0:0:
0,308,86762,6,0,B|94:264|62:350|182:300,1,188.999994232178,4|0,0:0|0:0,0:0:0:0:
255,336,87048,2,0,L|318:324,1,62.9999980773926,4|0,0:3|0:0,0:0:0:0:
214,174,87190,5,12,0:0:0:0:
227,244,87333,1,0,0:0:0:0:
387,273,87476,5,12,0:0:0:0:
401,159,87619,1,0,0:0:0:0:
198,95,87762,5,12,0:0:0:0:
327,212,87905,1,2,0:0:0:0:
327,212,87976,1,2,0:0:0:0:
332,213,88048,5,6,0:0:0:0:
312,132,88190,1,4,0:3:0:0:
461,226,88333,1,8,0:0:0:0:
316,324,88476,2,0,P|236:324|117:234,1,215.999993408203,0|4,0:0|0:3,0:0:0:0:
87,60,88905,1,8,0:0:0:0:
200,159,89048,5,2,0:0:0:0:
200,159,89119,1,2,0:0:0:0:
200,159,89190,2,0,P|150:157|91:138,1,107.999996704102,4|4,0:0|0:3,0:0:0:0:
354,169,89476,2,0,P|317:202|258:234,1,107.999996704102,12|0,0:0|0:0,0:0:0:0:
475,66,89762,2,0,P|473:116|454:180,1,107.999996704102,12|4,0:0|0:3,0:0:0:0:
493,341,90048,1,10,0:0:0:0:
493,341,90119,1,10,0:0:0:0:
493,341,90190,6,0,P|426:285|338:321,1,161.999995056153,4|0,0:0|0:0,0:0:0:0:
301,345,90476,2,0,L|204:322,1,53.9999983520508,4|0,0:3|0:0,0:0:0:0:
135,376,90619,2,0,L|121:246,1,107.999996704102,8|0,0:0|0:0,0:0:0:0:
108,89,90905,1,4,0:3:0:0:
1,219,91048,6,0,B|35:182|35:182|181:196,1,175.499991966248,8|0,0:0|0:0,0:0:0:0:
226,236,91333,2,0,P|305:204|276:113,1,188.999994232178,8|0,0:0|0:0,0:0:0:0:
395,23,91619,6,0,P|378:52|376:85,1,67.5000025749208,4|0,0:3|0:0,0:0:0:0:
468,157,91762,1,8,0:0:0:0:
284,117,91905,2,0,P|300:145|328:164,1,67.5000025749208,0|0,0:0|0:0,0:0:0:0:
476,128,92048,1,8,0:0:0:0:
298,265,92190,6,0,P|331:264|361:249,1,67.5000025749208,4|0,0:3|0:0,0:0:0:0:
361,249,92476,6,0,B|380:273|384:282|384:282|365:352|255:365,1,188.999994232178,6|0,0:0|0:0,0:0:0:0:
197,374,92762,2,0,P|168:366|139:343,1,53.9999983520508,4|0,0:3|0:0,0:0:0:0:
74,347,92905,2,0,P|80:293|72:240,1,107.999996704102,10|0,0:0|0:0,0:0:0:0:
163,17,93190,2,0,P|157:70|165:123,1,107.999996704102,10|0,0:0|0:0,0:0:0:0:
288,277,93476,5,10,0:0:0:0:
288,277,93548,1,2,0:0:0:0:
288,277,93619,1,6,0:0:0:0:
271,193,93762,1,8,0:0:0:0:
431,141,93905,5,4,0:3:0:0:
421,314,94048,1,10,0:0:0:0:
205,246,94190,5,0,0:0:0:0:
365,221,94333,2,0,P|419:222|500:240,1,107.999996704102,10|4,0:0|0:3,0:0:0:0:
288,277,94619,1,10,0:0:0:0:
431,141,94762,2,0,P|401:146|366:145,1,53.9999983520508,8|0,0:0|0:0,0:0:0:0:
294,167,94905,6,0,P|287:123|306:47,1,107.999996704102,4|8,0:0|0:0,0:0:0:0:
25,71,95190,2,0,P|103:55|166:102,1,161.999995056153,12|0,0:0|0:0,0:0:0:0:
180,177,95476,2,0,P|155:221|69:237,1,107.999996704102,12|0,0:0|0:0,0:0:0:0:
294,167,95762,2,0,L|369:179,1,53.9999983520508,4|0,0:3|0:0,0:0:0:0:
494,224,95905,6,0,B|413:230|413:230|392:246|392:246|304:250,1,188.999994232178,4|0,0:0|0:0,0:0:0:0:
289,251,96190,1,4,0:3:0:0:
427,78,96333,2,2,L|417:159,1,53.9999983520508,10|10,0:0|0:0,0:0:0:0:
495,145,96476,2,2,L|501:91,1,53.9999983520508,10|10,0:0|0:0,0:0:0:0:
324,0,96619,2,0,B|371:63|329:128|329:128|275:133|261:83,1,215.999993408203,8|10,0:0|0:0,0:0:0:0:
200,57,96976,1,2,0:0:0:0:
200,57,97048,6,0,B|173:27|152:24|152:24|90:63|116:166,1,188.999994232178,6|0,0:0|0:0,0:0:0:0:
168,182,97333,2,0,L|157:261,1,53.9999983520508,4|0,0:3|0:0,0:0:0:0:
72,356,97476,2,0,B|55:304|55:304|93:232,1,107.999996704102,10|0,0:0|0:0,0:0:0:0:
235,265,97762,2,0,B|252:317|252:317|214:389,1,107.999996704102,10|0,0:0|0:0,0:0:0:0:
155,318,98048,5,10,0:0:0:0:
155,318,98119,1,2,0:0:0:0:
155,318,98190,1,6,0:0:0:0:
335,317,98333,1,8,0:0:0:0:
199,185,98476,5,4,0:3:0:0:
286,198,98619,1,10,0:0:0:0:
361,89,98762,5,4,0:3:0:0:
179,110,98905,1,10,0:0:0:0:
299,41,99048,5,4,0:3:0:0:
217,24,99190,1,10,0:0:0:0:
439,59,99333,6,0,L|449:131,1,53.9999983520508,10|10,0:0|0:0,0:0:0:0:
381,205,99476,2,0,L|361:69,1,107.999996704102,6|4,0:0|0:0,0:0:0:0:
114,119,99762,2,0,P|137:51|248:35,1,161.999995056153,12|0,0:0|0:0,0:0:0:0:
275,73,100048,2,0,L|257:196,1,107.999996704102,12|0,0:0|0:0,0:0:0:0:
59,179,100333,1,8,0:0:0:0:
184,330,100476,6,0,B|173:351|175:375|175:375|137:365|128:292|166:246,1,188.999994232178,4|0,0:0|0:0,0:0:0:0:
238,248,100762,2,0,L|298:256,1,53.9999983520508,4|0,0:3|0:0,0:0:0:0:
389,276,100905,2,0,P|322:283|256:367,1,161.999995056153,12|0,0:0|0:0,0:0:0:0:
329,384,101190,1,2,0:0:0:0:
479,293,101333,1,2,0:0:0:0:
337,187,101476,2,0,P|313:121|376:82,1,135,8|0,0:0|0:0,0:0:0:0:
364,91,101762,6,0,L|180:75,1,180,4|4,0:0|0:3,0:0:0:0:
4,28,102762,5,8,0:0:0:0:
4,28,102833,1,8,0:0:0:0:
4,28,102905,2,0,L|19:147,1,107.999996704102,12|8,0:0|0:0,0:0:0:0:
45,321,103333,2,0,L|141:333,1,80.9999975280763,8|0,0:0|0:0,0:0:0:0:
135,339,103619,2,0,L|231:351,1,80.9999975280763,8|0,0:0|0:0,0:0:0:0:
278,384,103905,6,0,P|360:349|343:270,1,161.999995056153,4|4,0:0|0:3,0:0:0:0:
266,151,104333,2,0,P|231:226|294:280,1,161.999995056153,8|4,0:0|0:3,0:0:0:0:
357,287,104762,1,4,0:3:0:0:
400,220,104905,1,8,0:0:0:0:
278,384,105048,6,0,L|117:365,1,161.999995056153,2|0,0:0|0:0,0:0:0:0:
48,231,105476,2,0,P|43:274|71:321,1,80.9999975280763,10|0,0:0|0:0,0:0:0:0:
135,291,105762,2,0,P|140:248|112:201,1,80.9999975280763,2|4,0:0|0:3,0:0:0:0:
10,94,106048,1,10,0:0:0:0:
156,17,106190,5,4,0:3:0:0:
96,69,106333,2,0,L|85:171,1,80.9999975280763,2|4,0:0|0:3,0:0:0:0:
234,254,106619,2,0,L|250:130,1,121.499996292114,10|0,0:0|0:0,0:0:0:0:
206,74,106905,2,0,P|178:95|194:159,1,80.9999975280763,4|8,0:3|0:0,0:0:0:0:
256,140,107119,1,8,0:0:0:0:
256,140,107190,2,0,L|316:134,1,40.4999987640381,8|0,0:0|0:0,0:0:0:0:
376,28,107333,2,0,B|370:99|370:99|377:112|377:112|371:206,1,161.999995056153,8|4,0:0|0:3,0:0:0:0:
470,354,107762,6,0,B|434:366|434:366|330:325,1,135,8|0,0:0|0:0,0:0:0:0:
388,260,108048,2,0,B|374:288|374:288|231:321,1,148.50000453186,8|0,0:0|0:0,0:0:0:0:
199,358,108333,2,0,L|138:344,1,53.9999983520508,8|0,0:0|0:0,0:0:0:0:
26,372,108476,6,0,B|12:269|52:309|35:191,1,161.999995056153,4|4,0:0|0:3,0:0:0:0:
0,69,108905,2,0,P|27:121|139:121,1,161.999995056153,8|4,0:0|0:3,0:0:0:0:
185,86,109333,1,4,0:3:0:0:
324,175,109476,1,8,0:0:0:0:
253,131,109619,2,0,B|242:171|242:171|252:210,2,80.9999975280763,0|4|4,0:0|0:3|0:3,0:0:0:0:
501,104,110048,6,0,B|458:86|458:86|346:126,1,135,8|0,0:0|0:0,0:0:0:0:
324,175,110333,2,0,L|339:226,2,53.9999983520508,8|0|4,0:0|0:0|0:3,0:0:0:0:
324,175,110762,6,0,P|399:257|380:354,1,180,4|4,0:0|0:3,0:0:0:0:
248,384,111190,2,0,P|230:339|254:245,1,135,10|0,0:0|0:0,0:0:0:0:
266,243,111476,1,4,0:3:0:0:
69,237,111619,6,0,P|98:198|204:172,1,148.50000453186,10|0,0:0|0:0,0:0:0:0:
235,112,111905,2,0,P|282:118|358:196,1,148.50000453186,12|0,0:0|0:0,0:0:0:0:
426,205,112190,1,4,0:3:0:0:
509,16,112333,2,0,P|460:69|373:78,1,148.50000453186,14|0,0:0|0:0,0:0:0:0:
320,48,112619,2,0,P|296:30|251:20,1,49.5000015106202,14|0,0:0|0:0,0:0:0:0:
110,11,112762,1,4,0:3:0:0:
110,11,113048,6,0,B|92:114|127:71|111:181,1,161.999995056153,4|4,0:0|0:3,0:0:0:0:
30,306,113476,2,0,P|25:267|49:217,1,80.9999975280763,8|0,0:0|0:0,0:0:0:0:
192,169,113762,1,4,0:3:0:0:
149,238,113905,1,4,0:3:0:0:
210,293,114048,2,0,L|188:383,1,80.9999975280763,8|2,0:0|0:0,0:0:0:0:
368,339,114333,5,4,0:3:0:0:
311,284,114476,1,4,0:3:0:0:
256,226,114619,2,0,P|277:147|262:46,1,161.999995056153,10|2,0:0|0:0,0:0:0:0:
340,37,115048,1,4,0:3:0:0:
358,208,115190,1,10,0:0:0:0:
192,169,115333,6,0,P|113:190|12:175,1,161.999995056153,4|4,0:3|0:3,0:0:0:0:
6,10,115762,2,0,B|45:-2|45:-2|135:26,1,121.499996292114,8|0,0:0|0:0,0:0:0:0:
189,49,116048,2,0,L|196:124,2,40.4999987640381,4|0|2,0:3|0:0|0:0,0:0:0:0:
0,84,116333,1,8,0:0:0:0:
192,169,116476,2,0,B|198:243|198:243|206:259|206:259|215:353,1,161.999995056153,4|4,0:0|0:3,0:0:0:0:
13,312,116905,6,0,B|43:287|43:287|145:306,1,135,8|0,0:0|0:0,0:0:0:0:
213,328,117190,2,0,L|292:308,1,49.5000015106202,8|0,0:0|0:0,0:0:0:0:
328,361,117333,1,2,0:0:0:0:
275,205,117476,1,8,0:0:0:0:
332,370,117619,6,0,P|404:343|429:236,1,161.999995056153,4|4,0:0|0:3,0:0:0:0:
461,38,118048,2,0,P|389:65|364:172,1,161.999995056153,8|4,0:0|0:3,0:0:0:0:
420,191,118476,1,4,0:3:0:0:
307,37,118619,1,8,0:0:0:0:
239,75,118762,2,0,L|68:52,1,161.999995056153,4|4,0:0|0:3,0:0:0:0:
239,151,119190,2,0,P|257:203|229:251,1,80.9999975280763,10|0,0:0|0:0,0:0:0:0:
96,289,119476,2,0,P|79:238|107:190,1,80.9999975280763,2|4,0:0|0:3,0:0:0:0:
239,75,119762,1,10,0:0:0:0:
307,113,119905,2,0,L|478:90,1,161.999995056153,4|4,0:0|0:3,0:0:0:0:
494,294,120333,6,0,P|488:242|409:198,1,148.50000453186,10|0,0:0|0:0,0:0:0:0:
394,202,120619,1,4,0:3:0:0:
259,371,120762,6,0,P|265:319|344:275,1,148.50000453186,10|0,0:0|0:0,0:0:0:0:
359,279,121048,1,4,0:3:0:0:
239,75,121190,6,0,P|271:116|246:202,1,148.50000453186,10|0,0:0|0:0,0:0:0:0:
233,210,121476,1,4,0:3:0:0:
155,348,121619,6,0,P|103:355|40:290,1,148.50000453186,10|0,0:0|0:0,0:0:0:0:
41,275,121905,1,4,0:3:0:0:
3,117,122048,6,0,P|22:68|109:46,1,148.50000453186,10|0,0:0|0:0,0:0:0:0:
119,57,122333,6,0,L|116:93,1,22.5,12|0,0:3|0:0,0:0:0:0:
429,32,124762,5,4,0:3:0:0:
332,52,124905,2,0,L|330:145,1,80.9999975280763,4|0,0:0|0:0,0:0:0:0:
330,153,125190,1,4,0:3:0:0:
453,293,125333,2,0,L|451:200,1,80.9999975280763,4|0,0:0|0:0,0:0:0:0:
451,192,125619,1,4,0:3:0:0:
380,348,125762,2,0,L|247:328,1,108,8|0,0:0|0:0,0:0:0:0:
202,368,126048,6,0,P|234:325|182:228,1,161.999995056153,4|4,0:0|0:3,0:0:0:0:
28,176,126619,2,0,L|161:156,1,108,8|0,0:0|0:0,0:0:0:0:
209,149,126905,6,0,L|171:35,1,107.999996704102,4|0,0:0|0:0,0:0:0:0:
286,178,127333,2,0,L|310:60,1,107.999996704102,4|0,0:0|0:0,0:0:0:0:
330,248,127762,2,0,L|409:158,1,107.999996704102,4|0,0:0|0:0,0:0:0:0:
455,110,128190,1,4,0:3:0:0:
494,302,128333,2,0,L|397:281,1,80.9999975280763,10|0,0:0|0:0,0:0:0:0:
416,292,128619,2,0,L|433:356,2,53.9999983520508,2|4|10,0:0|0:3|0:0,0:0:0:0:
95,358,129190,6,0,P|70:316|76:245,1,107.999996704102,4|2,0:0|0:0,0:0:0:0:
180,321,129619,2,0,P|179:272|220:213,1,107.999996704102,4|2,0:0|0:0,0:0:0:0:
288,210,129976,1,0,0:0:0:0:
288,210,130048,2,0,L|367:226,2,80.9999975280763,4|0|4,0:0|0:0|0:3,0:0:0:0:
113,37,130619,6,0,B|138:51|138:51|236:32,1,108,10|0,0:0|0:0,0:0:0:0:
309,111,130905,2,0,B|284:97|284:97|186:117,1,121.499996292114,10|0,0:0|0:0,0:0:0:0:
120,127,131190,2,0,B|113:216|104:166|97:268,1,135,2|0,0:0|0:0,0:0:0:0:
150,331,131476,6,0,L|273:297,1,107.999996704102,4|0,0:0|0:0,0:0:0:0:
199,197,131905,2,0,L|322:229,1,107.999996704102,4|0,0:0|0:0,0:0:0:0:
310,109,132333,2,0,L|400:198,1,107.999996704102,4|0,0:0|0:0,0:0:0:0:
445,239,132762,1,4,0:3:0:0:
512,67,132905,2,0,P|475:81|435:80,1,80.9999975280763,10|0,0:0|0:0,0:0:0:0:
428,72,133190,2,0,L|433:18,1,53.9999983520508,2|4,0:0|0:3,0:0:0:0:
318,42,133476,2,0,L|312:95,1,53.9999983520508,10|0,0:0|0:0,0:0:0:0:
201,6,133762,6,0,L|89:25,1,107.999996704102,4|0,0:0|0:0,0:0:0:0:
0,127,134190,2,0,L|112:146,1,107.999996704102,4|0,0:0|0:0,0:0:0:0:
179,161,134548,1,8,0:0:0:0:
179,161,134619,1,12,0:0:0:0:
31,268,134762,2,0,P|34:241|44:216,2,53.9999983520508,0|0|4,0:0|0:0|0:3,0:0:0:0:
165,376,135190,6,0,B|189:325|189:325|165:265,1,108,10|0,0:0|0:0,0:0:0:0:
157,262,135476,1,10,0:0:0:0:
290,332,135619,1,4,0:3:0:0:
290,332,135905,5,8,0:0:0:0:
512,220,136048,2,0,L|400:205,1,108,4|0,0:0|0:0,0:0:0:0:
385,204,136333,1,8,0:0:0:0:
290,332,136476,2,0,L|448:311,1,144,4|4,0:0|0:3,0:0:0:0:
295,228,136905,2,0,L|222:218,1,72,12|0,0:0|0:0,0:0:0:0:
77,258,137190,1,4,0:3:0:0:
117,198,137333,1,4,0:3:0:0:
61,153,137476,2,0,P|48:120|48:71,1,72,10|0,0:0|0:0,0:0:0:0:
192,19,137762,2,0,P|191:55|177:89,1,72,2|4,0:0|0:3,0:0:0:0:
361,188,138048,2,0,P|332:149|331:85,1,108,10|0,0:0|0:0,0:0:0:0:
337,78,138333,6,0,P|403:55|471:75,1,144,4|8,0:0|0:0,0:0:0:0:
512,264,138762,1,4,0:3:0:0:
434,142,138905,2,0,L|449:236,1,72,0|8,0:0|0:0,0:0:0:0:
412,276,139119,1,8,0:0:0:0:
412,276,139190,2,0,L|357:284,2,36,8|0|0,0:0|0:0|0:0,0:0:0:0:
316,347,139476,1,4,0:3:0:0:
236,257,139619,1,4,0:3:0:0:
330,182,139762,6,0,B|348:153|348:153|325:42,1,121.499996292114,8|8,0:0|0:0,0:0:0:0:
324,51,140048,2,0,L|263:62,1,40.4999987640381,8|0,0:0|0:0,0:0:0:0:
210,77,140190,1,2,0:0:0:0:
45,21,140333,2,0,P|29:59|25:99,1,80.9999975280763,4|0,0:3|0:0,0:0:0:0:
142,278,140619,6,0,P|163:217|142:157,1,108,4|0,0:0|0:0,0:0:0:0:
140,162,140905,1,8,0:0:0:0:
45,21,141048,2,0,L|204:29,1,144,4|4,0:0|0:3,0:0:0:0:
370,0,141476,2,0,B|381:35|381:35|364:83,1,72,12|0,0:0|0:0,0:0:0:0:
251,196,141762,2,0,P|224:132|244:73,1,108,4|0,0:3|0:0,0:0:0:0:
245,94,142048,2,0,L|296:95,1,36,8|0,0:0|0:0,0:0:0:0:
438,149,142190,2,0,P|444:218|410:289,1,144,4|4,0:0|0:3,0:0:0:0:
241,302,142619,1,12,0:0:0:0:
322,158,142762,1,4,0:3:0:0:
156,90,142905,6,0,L|30:103,1,107.999996704102,4|2,0:0|0:0,0:0:0:0:
211,23,143333,1,4,0:3:0:0:
103,172,143476,1,8,0:0:0:0:
187,195,143619,1,8,0:0:0:0:
187,195,143690,1,8,0:0:0:0:
187,195,143762,1,8,0:0:0:0:
285,44,143905,6,0,L|411:57,1,107.999996704102,4|4,0:0|0:3,0:0:0:0:
499,107,144333,2,0,L|484:22,2,72,10|2|4,0:0|0:0|0:0,0:0:0:0:
475,206,145190,6,0,P|418:155|258:172,1,216,4|0,0:0|0:0,0:0:0:0:
233,225,145476,2,0,P|287:170|422:169,1,188.999994232178,12|0,0:0|0:0,0:0:0:0:
406,251,145762,2,0,P|363:305|322:299,1,107.999996704102,4|4,0:3|0:3,0:0:0:0:
235,304,145976,1,0,0:0:0:0:
235,304,146048,2,2,L|246:379,1,53.9999983520508,10|2,0:0|0:0,0:0:0:0:
147,292,146190,2,2,L|156:359,1,53.9999983520508
46,384,146333,6,0,L|51:261,1,107.999996704102,2|4,0:0|0:3,0:0:0:0:
137,120,146619,1,8,0:0:0:0:
137,206,146762,2,0,P|48:155|84:58,1,215.999993408203,4|0,0:3|0:0,0:0:0:0:
181,0,147119,1,0,0:0:0:0:
181,0,147190,2,0,P|198:33|201:85,1,53.9999983520508,8|8,0:0|0:0,0:0:0:0:
292,156,147333,2,0,P|300:131|313:107,1,53.9999983520508,8|8,0:0|0:0,0:0:0:0:
225,211,147476,5,4,0:0:0:0:
274,35,147619,1,4,0:3:0:0:
225,211,147762,2,0,P|291:195|383:263,1,161.999995056153,8|0,0:0|0:0,0:0:0:0:
445,239,148048,2,0,L|450:299,1,53.9999983520508,4|0,0:3|0:0,0:0:0:0:
308,295,148190,1,8,0:0:0:0:
478,154,148333,1,2,0:0:0:0:
478,154,148405,1,2,0:0:0:0:
478,154,148476,6,0,B|352:190|426:127|249:164,1,188.999994232178,6|0,0:0|0:0,0:0:0:0:
226,115,148762,2,0,L|162:129,1,62.9999980773926,4|0,0:3|0:0,0:0:0:0:
37,267,148905,5,12,0:0:0:0:
48,190,149048,1,0,0:0:0:0:
151,142,149190,5,12,0:0:0:0:
175,329,149333,1,0,0:0:0:0:
324,227,149476,5,12,0:0:0:0:
232,203,149619,1,2,0:0:0:0:
232,203,149690,1,2,0:0:0:0:
232,203,149762,5,6,0:0:0:0:
258,284,149905,1,4,0:3:0:0:
296,144,150048,2,0,P|341:111|506:131,1,215.999993408203,8|4,0:0|0:3,0:0:0:0:
512,200,150476,1,4,0:3:0:0:
339,74,150619,1,8,0:0:0:0:
410,228,150762,1,2,0:0:0:0:
410,228,150833,1,2,0:0:0:0:
412,228,150905,6,0,P|422:176|398:129,1,107.999996704102,6|4,0:0|0:3,0:0:0:0:
162,180,151190,1,8,0:0:0:0:
331,184,151333,1,2,0:0:0:0:
331,184,151405,1,2,0:0:0:0:
331,184,151476,2,0,B|292:163|292:163|153:201,1,161.999995056153,10|2,0:0|0:0,0:0:0:0:
73,243,151762,2,0,L|85:167,1,53.9999983520508,10|2,0:0|0:0,0:0:0:0:
152,272,151905,2,0,L|141:331,1,53.9999983520508,2|2,0:0|0:0,0:0:0:0:
236,346,152048,6,0,L|443:323,1,188.999994232178,4|0,0:0|0:0,0:0:0:0:
490,358,152333,1,8,0:0:0:0:
274,264,152476,6,0,L|54:241,1,202.500007724762,4|0,0:0|0:0,0:0:0:0:
4,265,152762,1,4,0:3:0:0:
244,186,152905,1,8,0:0:0:0:
1,144,153048,6,0,L|227:117,1,216,4|0,0:0|0:0,0:0:0:0:
276,82,153333,2,0,P|289:46|277:8,1,72,4|0,0:3|0:0,0:0:0:0:
209,21,153476,5,10,0:0:0:0:
204,39,153619,1,0,0:0:0:0:
369,122,153762,5,10,0:0:0:0:
164,197,153905,1,4,0:3:0:0:
376,238,154048,5,10,0:0:0:0:
223,354,154190,1,8,0:0:0:0:
223,354,154262,1,8,0:0:0:0:
223,354,154333,6,0,B|223:310|208:296|208:296|276:258|262:167,1,188.999994232178,4|0,0:0|0:0,0:0:0:0:
294,122,154619,2,0,P|275:190|330:298,1,188.999994232178,12|0,0:0|0:0,0:0:0:0:
394,309,154905,2,0,P|446:295|481:255,1,107.999996704102,4|4,0:3|0:3,0:0:0:0:
470,171,155119,1,0,0:0:0:0:
470,171,155190,2,2,L|393:179,1,53.9999983520508,10|2,0:0|0:0,0:0:0:0:
371,96,155333,2,2,L|448:104,1,53.9999983520508
486,48,155476,5,6,0:0:0:0:
343,166,155619,1,4,0:3:0:0:
218,16,155762,1,8,0:0:0:0:
218,16,155833,1,2,0:0:0:0:
218,16,155905,5,2,0:0:0:0:
270,91,156048,1,8,0:0:0:0:
181,93,156190,1,2,0:0:0:0:
181,93,156262,1,2,0:0:0:0:
182,93,156333,2,0,P|155:99|129:107,1,53.9999983520508,10|0,0:0|0:0,0:0:0:0:
16,252,156476,6,0,B|137:199|98:290|238:226,1,215.999993408203,6|4,0:0|0:3,0:0:0:0:
382,342,156905,2,0,P|278:309|294:256,1,161.999995056153,8|0,0:0|0:0,0:0:0:0:
298,210,157190,2,0,L|374:218,1,53.9999983520508,4|0,0:3|0:0,0:0:0:0:
452,299,157333,1,8,0:0:0:0:
512,67,157476,1,2,0:0:0:0:
512,67,157548,1,2,0:0:0:0:
512,67,157619,6,0,B|406:38|445:104|306:72,1,188.999994232178,4|0,0:0|0:0,0:0:0:0:
257,48,157905,2,0,L|194:60,1,62.9999980773926,4|0,0:3|0:0,0:0:0:0:
298,210,158048,5,12,0:0:0:0:
285,140,158190,1,0,0:0:0:0:
125,111,158333,5,12,0:0:0:0:
111,225,158476,1,0,0:0:0:0:
314,289,158619,5,12,0:0:0:0:
185,172,158762,1,2,0:0:0:0:
185,172,158833,1,2,0:0:0:0:
185,172,158905,5,6,0:0:0:0:
200,252,159048,1,4,0:3:0:0:
51,158,159190,1,8,0:0:0:0:
196,60,159333,2,0,P|276:60|395:150,1,215.999993408203,0|4,0:0|0:3,0:0:0:0:
425,324,159762,1,8,0:0:0:0:
312,225,159905,5,2,0:0:0:0:
312,225,159976,1,2,0:0:0:0:
312,225,160048,2,0,P|362:227|421:246,1,107.999996704102,4|0,0:0|0:0,0:0:0:0:
158,215,160333,2,0,P|195:182|254:150,1,107.999996704102,4|0,0:0|0:0,0:0:0:0:
37,318,160619,2,0,P|39:268|58:204,1,107.999996704102,12|4,0:0|0:3,0:0:0:0:
19,43,160905,1,10,0:0:0:0:
19,43,160976,1,10,0:0:0:0:
19,43,161048,6,0,P|86:99|174:63,1,161.999995056153,4|0,0:0|0:0,0:0:0:0:
211,39,161333,2,0,L|308:62,1,53.9999983520508,4|0,0:3|0:0,0:0:0:0:
377,8,161476,2,0,L|391:138,1,107.999996704102,8|0,0:0|0:0,0:0:0:0:
404,295,161762,1,4,0:3:0:0:
511,165,161905,6,0,B|477:202|477:202|331:188,1,175.499991966248,8|0,0:0|0:0,0:0:0:0:
286,148,162190,2,0,P|207:180|236:271,1,188.999994232178,8|0,0:0|0:0,0:0:0:0:
117,361,162476,6,0,P|134:332|136:299,1,67.5000025749208,4|0,0:3|0:0,0:0:0:0:
44,227,162619,1,8,0:0:0:0:
228,267,162762,2,0,P|212:239|184:220,1,67.5000025749208,0|0,0:0|0:0,0:0:0:0:
36,256,162905,1,8,0:0:0:0:
214,119,163048,6,0,P|181:120|151:135,1,67.5000025749208,4|0,0:3|0:0,0:0:0:0:
150,135,163333,6,0,L|127:21,1,107.999996704102,6|0,0:0|0:0,0:0:0:0:
255,51,163619,1,4,0:3:0:0:
50,105,163762,2,0,L|26:219,1,107.999996704102,8|0,0:0|0:0,0:0:0:0:
272,185,164048,2,0,L|293:290,1,107.999996704102,8|0,0:0|0:0,0:0:0:0:
45,306,164333,1,8,0:0:0:0:
182,384,164476,6,0,P|211:341|188:255,1,107.999996704102,4|8,0:0|0:0,0:0:0:0:
392,98,164762,2,0,P|363:141|386:227,1,107.999996704102,0|8,0:0|0:0,0:0:0:0:
489,264,165048,1,0,0:0:0:0:
272,185,165190,5,8,0:0:0:0:
444,165,165333,1,4,0:3:0:0:
345,29,165476,1,8,0:0:0:0:
444,165,165619,5,8,0:0:0:0:
231,79,165762,2,0,L|123:93,1,107.999996704102,4|8,0:0|0:0,0:0:0:0:
51,103,165976,1,2,0:0:0:0:
51,103,166048,2,0,P|31:153|60:225,1,107.999996704102,2|0,0:0|0:0,0:0:0:0:
173,371,166333,2,0,L|281:357,1,107.999996704102,8|8,0:0|0:0,0:0:0:0:
355,348,166548,1,8,0:0:0:0:
355,348,166619,2,0,L|345:287,1,53.9999983520508,8|0,0:0|0:0,0:0:0:0:
444,165,166762,6,0,P|377:215|449:336,1,251.999992309571,4|4,0:0|0:3,0:0:0:0:
507,102,167190,2,0,B|458:80|458:80|388:91,1,107.999996704102,8|2,0:0|0:0,0:0:0:0:
213,116,167476,1,2,0:0:0:0:
340,6,167619,2,0,L|325:83,1,53.9999983520508,8|8,0:0|0:0,0:0:0:0:
261,179,167762,2,0,L|246:102,1,53.9999983520508,8|8,0:0|0:0,0:0:0:0:
195,13,167905,6,0,P|132:-7|-1:75,1,215.999993408203,4|4,0:0|0:3,0:0:0:0:
32,251,168333,1,8,0:0:0:0:
55,169,168476,1,4,0:3:0:0:
175,286,168619,1,8,0:0:0:0:
143,121,168762,1,4,0:3:0:0:
249,246,168905,1,8,0:0:0:0:
272,164,169048,1,4,0:0:0:0:
328,345,169190,5,8,0:0:0:0:
486,269,169333,2,0,L|364:255,1,107.999996704102,4|8,0:3|0:0,0:0:0:0:
242,85,169619,1,0,0:0:0:0:
373,12,169762,2,0,B|391:35|391:35|383:126,1,107.999996704102,8|4,0:0|0:3,0:0:0:0:
278,261,170048,1,8,0:0:0:0:
449,180,170190,1,10,0:0:0:0:
270,105,170333,5,6,0:0:0:0:
112,190,170476,2,0,L|-2:180,1,107.999996704102,12|2,0:0|0:0,0:0:0:0:
176,119,170762,1,2,0:0:0:0:
254,345,170905,2,0,P|308:345|359:299,1,107.999996704102,12|0,0:0|0:0,0:0:0:0:
190,282,171190,1,8,0:0:0:0:
431,374,171333,6,0,B|456:319|456:319|424:197|424:197|453:122,1,251.999992309571,4|4,0:0|0:3,0:0:0:0:
504,3,171762,2,2,L|438:13,1,53.9999983520508,10|2,0:0|0:0,0:0:0:0:
373,83,171905,2,2,L|307:73,1,53.9999983520508,2|2,0:0|0:0,0:0:0:0:
239,20,172048,1,0,0:0:0:0:
332,165,172190,2,0,B|342:192|342:192|320:302,1,107.999996704102,8|4,0:0|0:3,0:0:0:0:
69,366,172476,6,0,P|42:319|49:263,1,107.999996704102,4|0,0:0|0:0,0:0:0:0:
208,150,172762,1,4,0:3:0:0:
132,301,172905,2,0,L|269:281,1,107.999996704102,8|0,0:0|0:0,0:0:0:0:
403,343,173190,1,8,0:0:0:0:
332,165,173333,1,4,0:3:0:0:
458,201,173476,1,8,0:0:0:0:
445,274,173619,1,4,0:0:0:0:
384,95,173762,5,8,0:0:0:0:
208,150,173905,2,0,P|154:144|109:116,1,107.999996704102,4|8,0:3|0:0,0:0:0:0:
285,78,174190,1,0,0:0:0:0:
112,33,174333,2,0,P|157:4|210:0,1,107.999996704102,8|4,0:0|0:3,0:0:0:0:
403,19,174619,1,8,0:0:0:0:
332,165,174762,1,8,0:0:0:0:
464,98,174905,5,4,0:0:0:0:
371,93,175048,1,8,0:0:0:0:
512,211,175190,1,4,0:3:0:0:
367,237,175333,1,0,0:0:0:0:
467,376,175476,2,0,B|487:330|487:330|461:265,1,107.999996704102,8|8,0:0|0:0,0:0:0:0:
408,158,175762,1,4,0:3:0:0:
362,355,175905,6,0,P|265:360|179:227,1,251.999992309571,4|4,0:0|0:3,0:0:0:0:
308,67,176333,2,0,P|302:145|239:193,1,161.999995056153,8|2,0:0|0:0,0:0:0:0:
165,164,176619,2,0,P|147:120|158:51,1,107.999996704102,2|8,0:0|0:0,0:0:0:0:
218,20,176833,1,8,0:0:0:0:
218,20,176905,1,8,0:0:0:0:
69,94,177048,1,4,0:0:0:0:
122,234,177190,5,0,0:0:0:0:
122,234,177333,1,4,0:3:0:0:
201,261,177476,1,10,0:0:0:0:
201,261,177619,1,0,0:0:0:0:
280,286,177762,1,10,0:0:0:0:
280,286,177905,1,0,0:0:0:0:
357,310,178048,1,10,0:0:0:0:
357,310,178190,1,0,0:0:0:0:
387,236,178333,5,10,0:0:0:0:
357,310,178476,1,0,0:0:0:0:
310,212,178619,5,10,0:0:0:0:
280,286,178762,1,0,0:0:0:0:
231,187,178905,5,10,0:0:0:0:
201,261,179048,1,0,0:0:0:0:
138,127,179190,5,10,0:0:0:0:
279,79,179333,2,0,L|334:60,2,53.9999983520508,10|10|0,0:0|0:0|0:0,0:0:0:0:
408,262,183905,6,0,P|389:269|370:281,1,36,2|2,0:0|0:0,0:0:0:0:
371,288,184048,6,0,P|425:263|473:262,1,107.999996704102,2|0,1:2|0:0,0:0:0:0:
472,262,184619,6,0,P|418:260|370:236,1,107.999996704102,0|0,1:3|0:0,0:0:0:0:
370,236,185190,6,0,P|316:237|268:261,1,107.999996704102,2|0,1:2|0:0,0:0:0:0:
268,261,185762,6,0,L|253:145,1,107.999996704102,0|0,1:0|0:0,0:0:0:0:
254,153,186333,6,0,P|200:151|152:127,1,107.999996704102,2|0,1:2|0:0,0:0:0:0:
152,127,186905,6,0,L|147:64,2,53.9999983520508,0|2|0,1:0|0:0|0:0,0:0:0:0:
222,23,187333,1,6,0:0:0:0:
69,159,187476,6,0,L|59:51,1,107.999996704102,2|0,1:2|0:0,0:0:0:0:
59,51,188048,6,0,P|112:49|160:25,1,107.999996704102,0|0,1:0|0:0,0:0:0:0:
160,25,188619,6,0,L|284:44,1,107.999996704102,2|0,1:2|0:0,0:0:0:0:
266,41,189190,6,0,L|372:24,1,107.999996704102,0|0,1:0|0:0,0:0:0:0:
372,24,189762,6,0,P|355:75|378:136,1,107.999996704102,2|0,1:2|0:0,0:0:0:0:
369,125,190333,6,0,L|475:141,1,107.999996704102,0|0,1:0|0:0,0:0:0:0:
475,141,190905,6,0,P|492:192|469:253,1,107.999996704102,2|0,1:2|0:0,0:0:0:0:
477,242,191476,6,0,L|408:240,1,53.9999983520508,2|0,1:2|0:0,0:0:0:0:
293,265,191762,2,0,L|347:269,1,53.9999983520508,0|0,0:0|0:0,0:0:0:0:
215,302,192048,6,0,P|208:251|247:193,1,107.999996704102,2|2,1:2|0:0,0:0:0:0:
234,202,192476,1,0,0:0:0:0:
118,250,192619,2,0,P|133:201|146:184,1,53.9999983520508,2|0,1:2|0:0,0:0:0:0:
193,132,192905,1,2,0:0:0:0:
139,63,202190,6,0,P|157:70|177:82,1,36,2|2,0:0|0:0,0:0:0:0:
176,89,202333,6,0,P|122:64|73:63,1,107.999996704102,2|0,1:2|0:0,0:0:0:0:
242,166,202905,2,0,P|296:141|344:140,1,107.999996704102,0|0,1:0|0:0,0:0:0:0:
212,349,203476,6,0,P|196:308|215:236,1,108,8|0,1:2|0:0,0:0:0:0:
299,259,203762,2,0,P|282:273|270:293,2,45,8|0|2,0:0|0:0|0:0,0:0:0:0:
496,349,204476,5,2,0:0:0:0:
504,189,204619,2,0,L|502:272,1,53.9999983520508,12|0,0:0|0:0,0:0:0:0:
497,330,204762,1,8,0:0:0:0:
427,137,204905,6,0,P|396:103|229:112,1,188.999994232178,4|0,0:0|0:0,0:0:0:0:
190,76,205190,2,0,P|143:104|90:104,1,107.999996704102,4|8,0:3|0:0,0:0:0:0:
239,18,205476,1,2,0:0:0:0:
377,194,205619,6,0,P|379:239|254:351,1,188.999994232178,4|0,0:0|0:0,0:0:0:0:
218,367,205905,2,0,L|117:351,1,62.9999980773926,4|0,0:3|0:0,0:0:0:0:
21,308,206048,5,12,0:0:0:0:
150,263,206190,1,0,0:0:0:0:
0,156,206333,5,12,0:0:0:0:
166,180,206476,1,0,0:0:0:0:
79,74,206619,5,12,0:0:0:0:
96,156,206762,1,2,0:0:0:0:
96,156,206833,1,2,0:0:0:0:
96,156,206905,5,6,0:0:0:0:
155,104,207048,1,4,0:3:0:0:
150,263,207190,2,0,P|225:306|357:288,1,215.999993408203,8|4,0:0|0:3,0:0:0:0:
507,346,207619,1,4,0:3:0:0:
376,218,207762,1,8,0:0:0:0:
509,94,207905,1,2,0:0:0:0:
509,94,207976,1,2,0:0:0:0:
511,94,208048,6,0,P|521:146|497:193,1,107.999996704102,6|4,0:0|0:3,0:0:0:0:
293,178,208333,1,8,0:0:0:0:
443,264,208476,1,0,0:0:0:0:
265,340,208619,2,0,B|288:357|288:357|455:339,1,161.999995056153,8|2,0:0|0:0,0:0:0:0:
494,366,208905,2,0,L|502:312,1,53.9999983520508,10|2,0:0|0:0,0:0:0:0:
368,270,209048,2,0,L|359:216,1,53.9999983520508,2|2,0:0|0:0,0:0:0:0:
459,37,209190,6,0,B|435:81|435:81|272:60,1,188.999994232178,4|0,0:0|0:0,0:0:0:0:
223,48,209476,1,8,0:0:0:0:
19,156,209619,6,0,B|43:200|43:200|222:177,1,202.500007724762,4|0,0:0|0:0,0:0:0:0:
268,171,209905,1,4,0:3:0:0:
142,334,210048,1,8,0:0:0:0:
340,371,210190,6,0,B|378:333|378:333|357:166,1,216,4|0,0:0|0:0,0:0:0:0:
410,114,210476,2,0,P|438:163|426:201,1,72,4|0,0:3|0:0,0:0:0:0:
327,103,210619,5,10,0:0:0:0:
386,33,210762,1,0,0:0:0:0:
261,147,210905,5,10,0:0:0:0:
258,0,211048,1,4,0:3:0:0:
243,233,211190,5,10,0:0:0:0:
46,143,211333,1,10,0:0:0:0:
46,143,211405,1,10,0:0:0:0:
46,143,211476,2,0,P|107:89|222:86,1,188.999994232178,4|0,0:0|0:0,0:0:0:0:
186,154,211762,2,0,P|126:212|140:346,1,188.999994232178,12|0,0:0|0:0,0:0:0:0:
179,371,212048,2,0,L|295:355,1,107.999996704102,4|4,0:3|0:3,0:0:0:0:
342,304,212262,1,0,0:0:0:0:
342,304,212333,2,2,L|416:321,1,53.9999983520508,10|2,0:0|0:0,0:0:0:0:
467,230,212476,2,2,L|393:247,1,53.9999983520508
265,286,212619,5,6,0:0:0:0:
386,167,212762,1,4,0:3:0:0:
251,86,212905,1,8,0:0:0:0:
251,86,212976,1,2,0:0:0:0:
251,86,213048,5,2,0:0:0:0:
291,156,213190,1,8,0:0:0:0:
337,92,213333,1,2,0:0:0:0:
337,92,213405,1,2,0:0:0:0:
336,92,213476,2,0,P|363:86|389:78,1,53.9999983520508,10|2,0:0|0:0,0:0:0:0:
172,27,213619,6,0,B|145:160|209:91|169:241,1,215.999993408203,6|4,0:0|0:3,0:0:0:0:
31,359,214048,2,0,P|46:260|141:252,1,161.999995056153,8|0,0:0|0:0,0:0:0:0:
170,253,214333,2,0,L|231:250,1,53.9999983520508,4|0,0:3|0:0,0:0:0:0:
116,308,214476,1,8,0:0:0:0:
327,373,214619,1,2,0:0:0:0:
327,373,214690,1,2,0:0:0:0:
327,373,214762,6,0,B|352:250|294:302|330:146,1,188.999994232178,4|0,0:0|0:0,0:0:0:0:
383,145,215048,2,0,L|453:143,1,62.9999980773926,4|0,0:3|0:0,0:0:0:0:
488,51,215190,5,12,0:0:0:0:
464,134,215333,1,0,0:0:0:0:
343,60,215476,5,12,0:0:0:0:
396,223,215619,1,0,0:0:0:0:
235,153,215762,5,12,0:0:0:0:
322,186,215905,1,2,0:0:0:0:
322,186,215976,1,2,0:0:0:0:
322,186,216048,5,6,0:0:0:0:
251,239,216190,1,4,0:3:0:0:
266,76,216333,1,8,0:0:0:0:
112,143,216476,2,0,P|69:228|101:361,1,215.999993408203,0|4,0:0|0:3,0:0:0:0:
329,370,216905,1,8,0:0:0:0:
156,302,217048,5,2,0:0:0:0:
156,302,217119,1,2,0:0:0:0:
156,302,217190,2,0,P|151:246|177:193,1,107.999996704102,4|4,0:0|0:3,0:0:0:0:
427,122,217476,2,0,P|432:178|406:231,1,107.999996704102,12|0,0:0|0:0,0:0:0:0:
213,130,217762,2,0,L|197:5,1,107.999996704102,0|4,0:0|0:3,0:0:0:0:
365,296,218048,1,10,0:0:0:0:
365,296,218119,1,10,0:0:0:0:
365,296,218190,6,0,P|313:253|210:276,1,161.999995056153,4|0,0:0|0:0,0:0:0:0:
165,313,218476,2,0,L|163:388,1,53.9999983520508,4|0,0:3|0:0,0:0:0:0:
290,333,218619,1,8,0:0:0:0:
81,318,218762,6,0,L|54:117,1,161.999995056153,4|0,0:0|0:0,0:0:0:0:
0,102,219048,2,0,B|34:139|34:139|180:125,1,175.499991966248,4|0,0:0|0:0,0:0:0:0:
207,188,219333,2,0,P|286:156|257:65,1,188.999994232178,4|0,0:0|0:0,0:0:0:0:
201,37,219619,5,4,0:3:0:0:
355,59,219762,2,0,P|408:53|458:33,1,107.999996704102,8|0,0:0|0:0,0:0:0:0:
364,225,220048,1,8,0:0:0:0:
272,88,220190,1,4,0:3:0:0:
447,136,220333,2,2,L|440:200,1,53.9999983520508,10|2,0:0|0:0,0:0:0:0:
370,236,220476,2,2,L|377:300,1,53.9999983520508
470,370,220619,6,0,P|427:329|261:336,1,215.999993408203,4|8,0:0|0:0,0:0:0:0:
76,353,221048,2,0,P|140:331|177:263,1,107.999996704102,0|4,0:0|0:3,0:0:0:0:
200,131,221333,1,4,0:3:0:0:
86,262,221476,2,0,L|88:142,1,107.999996704102,8|4,0:0|0:0,0:0:0:0:
46,91,221690,1,2,0:0:0:0:
46,91,221762,5,4,0:3:0:0:
3,246,221905,1,4,0:3:0:0:
171,215,222048,2,0,L|302:216,1,107.999996704102,12|0,0:0|0:0,0:0:0:0:
450,105,222333,2,0,P|413:156|370:172,1,107.999996704102,12|4,0:0|0:3,0:0:0:0:
204,137,222619,1,8,0:0:0:0:
377,183,222762,6,0,P|446:234|424:393,1,215.999993408203,4|4,0:0|0:3,0:0:0:0:
215,381,223190,2,0,P|212:331|260:267,1,107.999996704102,8|0,0:0|0:0,0:0:0:0:
317,284,223405,1,2,0:0:0:0:
317,284,223476,1,2,0:0:0:0:
125,371,223619,2,0,B|104:342|104:342|116:207,1,161.999995056153,8|0,0:0|0:0,0:0:0:0:
44,180,223905,6,0,P|137:197|227:118,1,215.999993408203,12|4,0:0|0:3,0:0:0:0:
345,16,224333,2,0,P|319:58|315:98,1,62.9999980773926,12|0,0:0|0:0,0:0:0:0:
310,198,224476,1,0,0:0:0:0:
442,85,224619,2,0,P|390:106|363:134,1,62.9999980773926,12|0,0:0|0:0,0:0:0:0:
326,217,224762,1,4,0:3:0:0:
45,312,225048,6,0,B|206:273|121:347|302:299,1,251.999992309571,6|4,0:0|0:3,0:0:0:0:
487,357,225476,2,0,P|502:317|465:241,1,107.999996704102,8|0,0:0|0:0,0:0:0:0:
322,116,225762,2,0,P|307:156|344:232,1,107.999996704102,8|0,0:0|0:0,0:0:0:0:
478,160,226048,1,10,0:0:0:0:
478,160,226119,1,2,0:0:0:0:
478,160,226190,5,6,0:0:0:0:
390,168,226333,1,8,0:0:0:0:
323,29,226476,5,4,0:3:0:0:
483,68,226619,1,8,0:0:0:0:
466,236,226762,1,4,0:3:0:0:
306,197,226905,2,0,L|189:218,1,107.999996704102,8|4,0:0|0:3,0:0:0:0:
100,75,227190,1,8,0:0:0:0:
213,27,227333,5,8,0:0:0:0:
213,27,227405,1,8,0:0:0:0:
213,27,227476,2,0,B|236:75|236:75|216:129,1,107.999996704102,4|8,0:0|0:0,0:0:0:0:
12,207,227762,2,0,P|90:215|139:277,1,161.999995056153,12|0,0:0|0:0,0:0:0:0:
214,272,228048,2,0,L|221:386,1,107.999996704102,12|0,0:0|0:0,0:0:0:0:
402,204,228333,2,0,L|398:272,1,53.9999983520508,8|0,0:0|0:0,0:0:0:0:
308,322,228476,6,0,L|315:208,1,107.999996704102,4|0,0:0|0:0,0:0:0:0:
486,202,228762,1,4,0:0:0:0:
320,225,228905,2,0,P|259:227|167:166,1,161.999995056153,4|8,0:0|0:0,0:0:0:0:
99,189,229190,2,0,L|97:68,1,107.999996704102,8|0,0:0|0:0,0:0:0:0:
319,47,229476,1,8,0:0:0:0:
174,176,229619,6,0,B|335:137|250:211|431:163,1,251.999992309571,4|4,0:0|0:3,0:0:0:0:
506,341,230048,2,0,P|464:295|395:293,1,107.999996704102,8|4,0:0|0:3,0:0:0:0:
255,244,230333,2,0,P|194:257|157:316,1,107.999996704102,8|0,0:0|0:0,0:0:0:0:
17,372,230619,1,10,0:0:0:0:
17,372,230690,1,2,0:0:0:0:
17,372,230761,5,6,0:0:0:0:
0,277,230904,1,8,0:0:0:0:
127,188,231047,5,4,0:3:0:0:
105,368,231190,1,8,0:0:0:0:
285,334,231333,5,4,0:3:0:0:
307,154,231476,2,0,L|288:36,1,107.999996704102,8|4,0:0|0:3,0:0:0:0:
185,108,231761,1,8,0:0:0:0:
398,44,231904,5,10,0:0:0:0:
398,44,231976,1,10,0:0:0:0:
398,44,232047,2,0,B|421:92|421:92|401:146,1,107.999996704102,6|8,0:0|0:0,0:0:0:0:
478,294,232333,2,0,P|440:251|315:250,1,161.999995056153,12|0,0:0|0:0,0:0:0:0:
280,273,232619,2,0,L|156:270,1,107.999996704102,12|0,0:0|0:0,0:0:0:0:
10,371,232904,2,0,L|22:294,1,53.9999983520508,8|0,0:0|0:0,0:0:0:0:
102,243,233048,6,0,L|84:109,1,107.999996704102,4|0,0:0|0:0,0:0:0:0:
114,321,233333,1,4,0:0:0:0:
245,48,233476,2,0,P|188:113|226:217,1,161.999995056153,12|8,0:0|0:0,0:0:0:0:
262,230,233762,2,0,L|380:221,1,107.999996704102,10|2,0:0|0:0,0:0:0:0:
210,299,234048,1,8,0:0:0:0:
475,332,234190,6,0,B|346:332|412:369|269:366,1,198.000006042481,4|4,0:0|0:3,0:0:0:0:
56,361,234619,2,0,P|25:325|52:218,1,148.50000453186,8|0,0:0|0:0,0:0:0:0:
97,189,234905,2,0,L|90:80,1,99.0000030212403,4|4,0:3|0:3,0:0:0:0:
247,16,235190,1,8,0:0:0:0:
193,188,235333,6,0,P|174:134|194:71,1,99.0000030212403,4|0,0:0|0:0,0:0:0:0:
346,12,235619,2,0,P|365:66|345:129,1,99.0000030212403,4|8,0:0|0:0,0:0:0:0:
251,253,235905,1,4,0:3:0:0:
416,189,236048,1,8,0:0:0:0:
260,271,236190,1,4,0:3:0:0:
435,343,236333,1,2,0:0:0:0:
435,343,236405,1,2,0:0:0:0:
435,343,236476,6,0,P|381:323|229:400,1,198.000006042481,6|4,0:0|0:3,0:0:0:0:
92,255,236905,2,0,L|94:147,1,99.0000030212403,12|0,0:0|0:0,0:0:0:0:
24,312,237190,1,4,0:3:0:0:
175,209,237333,1,12,0:0:0:0:
26,103,237476,1,4,0:3:0:0:
177,0,237619,6,0,B|211:23|211:23|368:8,1,175.499991966248,4|0,0:0|0:0,0:0:0:0:
417,28,237905,2,0,P|437:72|432:120,1,99.0000030212403,4|8,0:3|0:0,0:0:0:0:
300,223,238190,1,4,0:3:0:0:
493,166,238333,1,8,0:0:0:0:
301,201,238476,1,4,0:3:0:0:
431,335,238619,1,8,0:0:0:0:
239,370,238762,6,0,P|197:333|222:192,1,198.000006042481,4|4,0:0|0:3,0:0:0:0:
149,31,239190,2,0,P|163:78|134:140,1,99.0000030212403,8|0,0:0|0:0,0:0:0:0:
59,236,239476,1,4,0:3:0:0:
227,127,239619,1,4,0:3:0:0:
376,256,239762,1,8,0:0:0:0:
208,365,239905,6,0,L|83:347,1,99.0000030212403,4|0,0:0|0:0,0:0:0:0:
278,191,240190,2,0,L|403:173,1,99.0000030212403,4|8,0:0|0:0,0:0:0:0:
221,267,240476,1,0,0:0:0:0:
339,86,240619,2,0,L|443:96,1,99.0000030212403,8|4,0:0|0:3,0:0:0:0:
272,18,240905,1,2,0:0:0:0:
102,92,241048,6,0,P|58:152|90:288,1,198.000006042481,6|4,0:0|0:3,0:0:0:0:
204,369,241476,1,8,0:0:0:0:
170,205,241619,1,2,0:0:0:0:
340,246,241762,1,2,0:0:0:0:
256,292,241905,2,0,L|141:279,1,99.0000030212403,8|0,0:0|0:0,0:0:0:0:
318,110,242190,6,0,B|403:100|403:100|422:111|422:111|537:101,1,198.000006042481,4|4,0:0|0:3,0:0:0:0:
372,200,242619,1,12,0:0:0:0:
437,23,242762,1,4,0:3:0:0:
393,190,242905,1,12,0:0:0:0:
249,62,243048,1,4,0:3:0:0:
249,62,243333,6,0,P|288:124|248:270,1,215.999993408203,6|4,0:0|0:3,0:0:0:0:
106,294,243762,2,0,L|6:281,1,90,8|0,0:0|0:0,0:0:0:0:
144,130,244048,1,4,0:3:0:0:
208,190,244190,1,4,0:3:0:0:
122,217,244333,1,8,0:0:0:0:
331,272,244476,6,0,B|354:130|307:229|334:29,1,215.999993408203,4|4,0:0|0:3,0:0:0:0:
512,67,244905,2,0,P|417:70|427:168,1,188.999994232178,12|0,0:0|0:0,0:0:0:0:
445,212,245190,2,0,L|518:206,2,67.5000025749208,12|0|8,0:0|0:0|0:0,0:0:0:0:
445,212,245619,6,0,B|488:241|499:310|482:348|482:348|441:351|419:317,1,188.999994232178,4|0,0:0|0:0,0:0:0:0:
369,349,245905,2,0,L|359:287,1,53.9999983520508,4|0,0:3|0:0,0:0:0:0:
290,207,246048,2,0,L|280:269,1,53.9999983520508,8|0,0:0|0:0,0:0:0:0:
276,280,246190,1,0,0:0:0:0:
376,177,246333,1,4,0:3:0:0:
228,151,246476,2,0,L|157:142,2,53.9999983520508,10|2|2,0:0|0:0|0:0,0:0:0:0:
288,106,246690,1,2,0:0:0:0:
288,106,246762,6,0,B|117:101|225:146|44:148,1,251.999992309571,4|4,0:0|0:3,0:0:0:0:
24,349,247190,2,0,P|18:322|22:295,1,53.9999983520508,12|0,0:0|0:0,0:0:0:0:
30,281,247333,1,0,0:0:0:0:
160,219,247476,2,0,P|154:245|158:272,1,53.9999983520508,12|0,0:0|0:0,0:0:0:0:
166,287,247619,1,0,0:0:0:0:
299,369,247762,2,0,P|293:342|297:315,1,53.9999983520508,12|0,0:0|0:0,0:0:0:0:
393,197,247905,6,0,B|422:212|418:254|360:273|286:243|273:181,1,188.999994232178,4|0,0:0|0:0,0:0:0:0:
215,162,248190,2,0,L|231:80,1,53.9999983520508,4|0,0:3|0:0,0:0:0:0:
127,36,248333,2,0,L|134:165,1,90,8|0,0:0|0:0,0:0:0:0:
28,254,248619,1,2,0:0:0:0:
28,254,248690,1,2,0:0:0:0:
28,254,248762,1,2,0:0:0:0:
199,310,248905,2,0,L|144:313,1,53.9999983520508,10|2,0:0|0:0,0:0:0:0:
240,228,249048,6,0,B|385:211|301:272|506:249,1,251.999992309571,4|4,0:0|0:3,0:0:0:0:
471,36,249476,2,0,P|481:62|476:107,1,53.9999983520508,12|0,0:0|0:0,0:0:0:0:
477,109,249619,1,0,0:0:0:0:
363,164,249762,2,0,L|368:93,1,53.9999983520508,14|2,0:0|0:0,0:0:0:0:
296,8,249905,2,0,L|301:79,1,53.9999983520508,2|2,0:0|0:0,0:0:0:0:
223,147,250048,2,0,L|228:76,1,53.9999983520508,2|2,0:0|0:0,0:0:0:0:
104,3,250190,6,0,B|80:59|80:59|139:175|139:175|110:244,1,251.999992309571,4|4,0:0|0:3,0:0:0:0:
15,370,250619,2,0,P|57:336|132:329,1,107.999996704102,8|0,0:0|0:0,0:0:0:0:
184,354,250833,1,0,0:0:0:0:
184,354,250905,2,0,L|251:348,1,53.9999983520508,2|2,0:0|0:0,0:0:0:0:
364,312,251048,2,0,L|297:306,1,53.9999983520508,10|2,0:0|0:0,0:0:0:0:
210,217,251190,2,0,L|277:211,1,53.9999983520508,2|2,0:0|0:0,0:0:0:0:
387,106,251333,6,0,P|430:144|410:275,1,180,4|4,0:0|0:3,0:0:0:0:
252,128,251762,2,0,L|266:14,1,90,10|2,0:0|0:0,0:0:0:0:
192,20,251976,1,2,0:0:0:0:
192,20,252048,2,2,L|121:38,1,53.9999983520508
34,102,252190,2,0,L|105:120,1,53.9999983520508,4|0,0:3|0:0,0:0:0:0:
193,184,252333,2,0,L|122:202,1,53.9999983520508,10|2,0:0|0:0,0:0:0:0:
46,253,252476,1,4,0:0:0:0:
