osu file format v14

[General]
AudioFilename: audio.mp3
AudioLeadIn: 0
PreviewTime: 44356
Countdown: 0
SampleSet: Normal
StackLeniency: 0.7
Mode: 0
LetterboxInBreaks: 0
WidescreenStoryboard: 1

[Editor]
Bookmarks: 119106,123106,141106,143356,174606
DistanceSpacing: 1
BeatDivisor: 4
GridSize: 32
TimelineZoom: 1.9

[Metadata]
Title:Sayonara Wonder Noise
TitleUnicode:さよならワンダーノイズ
Artist:nameless
ArtistUnicode:nameless
Creator:SnowNiNo_
Version:Collab Advanced
Source:
Tags:n-buna カーテンコールが止む前に hatsune miku vocaloid Underforest Milan- Nerova Riuz GX ProEzreal Akitoshi -Laura- Corinn
BeatmapID:1681124
BeatmapSetID:483885

[Difficulty]
HPDrainRate:4.5
CircleSize:3.5
OverallDifficulty:5
ApproachRate:6
SliderMultiplier:0.999999999999999
SliderTickRate:1

[Events]
//Background and Video events
0,0,"36203516_p0.png",0,0
//Break Periods
2,119306,122056
2,141106,142106
//Storyboard Layer 0 (Background)
//Storyboard Layer 1 (Fail)
//Storyboard Layer 2 (Pass)
//Storyboard Layer 3 (Foreground)
//Storyboard Sound Samples

[TimingPoints]
1106,250,4,1,1,60,1,0
5106,-100,4,1,1,60,0,0
13106,-100,4,1,1,60,0,0
13293,-100,4,1,1,60,0,0
13356,-100,4,1,1,60,0,0
21106,-100,4,1,1,50,0,0
37106,-100,4,1,1,40,0,0
41106,-100,4,1,1,60,0,0
41356,-100,4,1,1,60,0,0
45106,-100,4,1,1,80,0,1
52106,-100,4,1,1,80,0,1
52293,-100,4,1,1,80,0,1
52356,-100,4,1,1,80,0,1
61106,-100,4,1,1,60,0,0
63106,-100,4,1,1,50,0,0
71106,-100,4,1,1,50,0,0
79106,-100,4,1,1,40,0,0
83106,-100,4,1,1,60,0,0
83356,-100,4,1,1,60,0,0
87106,-100,4,1,1,80,0,1
94293,-100,4,1,1,80,0,1
94356,-100,4,1,1,80,0,1
103043,-100,4,1,1,80,0,1
103106,-100,4,1,1,70,0,0
111106,-100,4,1,1,70,0,0
122356,-100,4,1,1,30,0,0
123106,-111.111111111111,4,1,1,30,0,0
131106,-111.111111111111,4,1,1,40,0,0
143106,-111.111111111111,4,1,1,80,0,0
144106,-100,4,1,1,80,0,0
145106,-100,4,1,1,80,0,1
148293,-100,4,1,1,80,0,1
148356,-100,4,1,1,80,0,1
157106,-100,4,1,1,60,0,1
159106,-100,4,1,1,60,0,0
173106,-100,4,1,1,50,0,0
174731,-100,4,1,1,5,0,0

[Colours]
Combo1 : 255,89,89
Combo2 : 255,128,64
Combo3 : 128,0,0
Combo4 : 242,24,57

[HitObjects]
48,168,1106,6,0,B|167:153|126:222|249:202,1,200,8|8,0:0|0:0,0:0:0:0:
419,291,2106,2,0,B|300:276|341:345|218:325,1,200,8|8,0:0|0:0,0:0:0:0:
39,258,3106,6,0,P|15:162|54:68,1,200,8|8,0:0|0:0,0:0:0:0:
140,24,3856,1,8,0:0:0:0:
140,24,3981,2,0,B|192:52|192:52|295:36,1,150,8|8,0:0|0:0,0:0:0:0:
380,18,4606,1,8,0:0:0:0:
467,67,4856,1,8,0:0:0:0:
498,161,5106,6,0,P|506:216|494:260,1,99.9999999999999,2|8,0:0|0:0,0:0:0:0:
412,315,5606,2,0,L|420:379,2,50,2|2|8,0:0|0:0|0:0,0:0:0:0:
379,276,5981,2,0,B|299:267|316:315|231:299,1,150,0|8,0:0|0:0,0:0:0:0:
135,282,6606,1,2,0:0:0:0:
85,194,6856,1,8,0:0:0:0:
125,102,7106,6,0,P|174:90|233:108,1,99.9999999999999,2|8,0:0|0:0,0:0:0:0:
297,165,7606,2,0,L|351:163,2,50,2|2|8,0:0|0:0|0:0,0:0:0:0:
259,198,7981,2,0,P|239:272|263:350,1,150,0|8,0:0|0:0,0:0:0:0:
350,379,8606,1,0,0:0:0:0:
450,379,8856,1,8,0:0:0:0:
505,295,9106,6,0,L|497:180,1,99.9999999999999,6|8,0:0|0:0,0:0:0:0:
423,128,9606,2,0,L|427:70,2,50,2|2|8,0:0|0:0|0:0,0:0:0:0:
394,169,9981,2,0,P|319:157|246:147,1,150,0|8,0:0|0:0,0:0:0:0:
146,134,10606,1,2,0:0:0:0:
78,207,10856,1,8,0:0:0:0:
97,305,11106,6,0,P|143:329|208:326,1,99.9999999999999,2|8,0:0|0:0,0:0:0:0:
283,294,11606,2,0,L|338:301,2,50,2|2|8,0:0|0:0|0:0,0:0:0:0:
247,258,11981,2,0,B|225:209|225:209|243:106,1,150,0|8,0:0|0:0,0:0:0:0:
300,33,12606,1,0,0:0:0:0:
399,21,12856,2,0,P|451:27|499:58,1,99.9999999999999,8|0,0:0|0:0,0:0:0:0:
511,148,13356,5,12,0:0:0:0:
455,231,13606,2,0,L|459:295,2,50,2|2|8,0:0|0:0|0:0,0:0:0:0:
426,189,13981,2,0,P|361:183|271:177,1,150,0|8,0:0|0:0,0:0:0:0:
176,174,14606,1,2,0:0:0:0:
114,252,14856,1,8,0:0:0:0:
150,344,15106,6,0,P|201:361|253:351,1,99.9999999999999,2|8,0:0|0:0,0:0:0:0:
322,289,15606,2,0,L|379:293,2,50,2|2|8,0:0|0:0|0:0,0:0:0:0:
283,257,15981,2,0,P|278:190|270:102,1,150,0|8,0:0|0:0,0:0:0:0:
210,27,16606,1,0,0:0:0:0:
110,16,16856,1,8,0:0:0:0:
23,66,17106,6,0,P|13:114|29:175,1,99.9999999999999,6|8,0:0|0:0,0:0:0:0:
91,236,17606,2,0,L|86:306,2,50,2|2|8,0:0|0:0|0:0,0:0:0:0:
126,200,17981,2,0,B|217:189|192:226|280:213,1,150,0|8,0:0|0:0,0:0:0:0:
370,191,18606,1,2,0:0:0:0:
456,241,18856,1,8,0:0:0:0:
443,340,19106,6,0,P|391:361|336:352,1,99.9999999999999,2|8,0:0|0:0,0:0:0:0:
257,314,19606,2,0,L|201:318,2,50,2|2|8,0:0|0:0|0:0,0:0:0:0:
299,287,19981,2,0,P|315:218|285:134,1,150,0|8,0:0|0:0,0:0:0:0:
225,69,20606,1,0,0:0:0:0:
127,44,20856,1,8,0:0:0:0:
42,96,21106,6,0,P|29:151|45:210,1,99.9999999999999,6|8,0:0|0:0,0:0:0:0:
70,288,21606,2,0,P|133:278|210:321,1,150,2|0,0:0|0:0,0:0:0:0:
285,379,22231,1,0,0:0:0:0:
377,340,22481,2,0,L|371:229,1,99.9999999999999,0|0,0:0|0:0,0:0:0:0:
367,190,22856,1,8,0:0:0:0:
304,111,23106,6,0,P|250:97|189:111,1,99.9999999999999,2|8,0:0|0:0,0:0:0:0:
118,149,23606,1,2,0:0:0:0:
80,241,23856,1,8,0:0:0:0:
113,335,24106,2,0,L|214:341,1,99.9999999999999,2|8,0:0|0:0,0:0:0:0:
309,368,24606,2,0,L|410:362,1,99.9999999999999,2|8,0:0|0:0,0:0:0:0:
463,360,24981,1,8,0:0:0:0:
463,360,25106,6,0,P|474:315|460:254,1,99.9999999999999,6|8,0:0|0:0,0:0:0:0:
398,187,25606,2,0,P|387:142|401:81,1,99.9999999999999,2|8,0:0|0:0,0:0:0:0:
317,27,26106,2,0,L|209:33,1,99.9999999999999,2|8,0:0|0:0,0:0:0:0:
145,101,26606,2,0,L|139:209,1,99.9999999999999,2|8,0:0|0:0,0:0:0:0:
136,254,26981,1,8,0:0:0:0:
136,254,27106,6,0,P|89:264|31:252,1,99.9999999999999,2|8,0:0|0:0,0:0:0:0:
2,161,27606,1,2,0:0:0:0:
51,74,27856,2,0,L|105:77,1,50,8|2,0:0|0:0,0:0:0:0:
145,101,28106,2,0,P|192:111|250:99,1,99.9999999999999,0|8,0:0|0:0,0:0:0:0:
339,75,28606,2,0,L|345:140,1,50,2|8,0:0|0:0,0:0:0:0:
375,163,28856,2,0,L|369:228,1,50,8|8,0:0|0:0,0:0:0:0:
355,261,29106,6,0,P|292:271|246:264,1,99.9999999999999,6|8,0:0|0:0,0:0:0:0:
211,243,29481,2,0,P|148:233|102:240,1,99.9999999999999,0|0,0:0|0:0,0:0:0:0:
66,257,29856,1,8,0:0:0:0:
93,353,30106,2,0,L|199:357,1,99.9999999999999,2|8,0:0|0:0,0:0:0:0:
239,374,30481,2,0,L|345:370,1,99.9999999999999,0|0,0:0|0:0,0:0:0:0:
389,366,30856,1,8,0:0:0:0:
470,307,31106,6,0,P|477:236|465:201,1,99.9999999999999,2|8,0:0|0:0,0:0:0:0:
416,124,31606,1,2,0:0:0:0:
318,102,31856,1,8,0:0:0:0:
226,141,32106,2,0,L|231:206,2,50,2|2|8,0:0|0:0|0:0,0:0:0:0:
158,66,32606,2,0,P|101:57|47:70,1,99.9999999999999,0|8,0:0|0:0,0:0:0:0:
19,92,32981,1,8,0:0:0:0:
19,92,33106,6,0,P|28:149|15:203,1,99.9999999999999,6|8,0:0|0:0,0:0:0:0:
0,288,33606,2,0,P|57:297|111:284,1,99.9999999999999,2|8,0:0|0:0,0:0:0:0:
187,245,34106,2,0,L|193:140,1,99.9999999999999,2|8,0:0|0:0,0:0:0:0:
293,145,34606,2,0,L|299:250,1,99.9999999999999,2|8,0:0|0:0,0:0:0:0:
306,299,34981,1,8,0:0:0:0:
306,299,35106,6,0,P|347:288|416:307,2,99.9999999999999,2|8|2,0:0|0:0|0:0,0:0:0:0:
218,348,35856,1,8,0:0:0:0:
129,302,36106,2,0,L|123:194,1,99.9999999999999,0|8,0:0|0:0,0:0:0:0:
99,164,36481,1,8,0:0:0:0:
99,164,36606,2,0,L|43:167,2,50,4|4|4,0:3|0:3|0:3,0:0:0:0:
186,114,37106,6,0,P|240:100|334:138,2,150,4|0|2,0:0|0:0|0:0,0:0:0:0:
99,164,38106,2,0,P|86:224|97:273,1,99.9999999999999,2|0,0:0|0:0,0:0:0:0:
153,340,38606,1,0,0:0:0:0:
250,361,38856,2,0,L|308:356,1,50,2|8,0:0|0:0,0:0:0:0:
345,336,39106,6,0,P|416:356|486:332,2,150,2|0|2,0:0|0:0|0:0,0:0:0:0:
270,269,40106,2,0,L|274:157,1,99.9999999999999,2|0,0:0|0:0,0:0:0:0:
276,68,40606,1,12,0:0:0:0:
186,22,40856,2,0,P|127:19|72:41,1,99.9999999999999,4|0,0:3|0:0,0:0:0:0:
24,108,41356,5,12,0:0:0:0:
24,108,41481,2,0,L|30:215,1,99.9999999999999,0|2,0:0|0:0,0:0:0:0:
32,258,41856,1,8,0:0:0:0:
106,324,42106,2,0,P|165:327|220:305,1,99.9999999999999,2|8,0:0|0:0,0:0:0:0:
277,247,42606,1,2,0:0:0:0:
374,225,42856,1,8,0:0:0:0:
467,259,43106,6,0,L|472:377,2,99.9999999999999,2|8|2,0:0|0:0|0:0,0:0:0:0:
462,158,43856,1,8,0:0:0:0:
382,98,44106,2,0,L|325:95,1,50,8|0,1:0|1:0,0:0:0:0:
287,72,44356,2,0,L|230:75,1,50,0|0,1:0|1:0,0:0:0:0:
187,78,44606,1,8,1:0:0:0:
28,199,45106,6,0,P|17:252|32:313,1,99.9999999999999,6|8,0:0|0:0,0:0:0:0:
50,346,45481,1,0,0:0:0:0:
50,346,45606,2,0,P|103:335|164:350,1,99.9999999999999,2|8,0:0|0:0,0:0:0:0:
242,375,46106,2,0,L|245:269,1,99.9999999999999,2|8,0:0|0:0,0:0:0:0:
247,224,46481,1,0,0:0:0:0:
298,138,46731,2,0,P|346:128|406:143,1,99.9999999999999,0|8,0:0|0:0,0:0:0:0:
440,160,47106,5,2,0:0:0:0:
480,251,47356,1,8,0:0:0:0:
437,341,47606,2,0,L|332:345,1,99.9999999999999,2|8,0:0|0:0,0:0:0:0:
242,375,48106,2,0,L|137:371,1,99.9999999999999,2|8,0:0|0:0,0:0:0:0:
92,365,48481,2,0,P|72:310|81:253,1,99.9999999999999,2|8,0:0|0:0,0:0:0:0:
90,221,48856,1,8,0:0:0:0:
172,164,49106,6,0,P|227:184|284:175,1,99.9999999999999,6|8,0:0|0:0,0:0:0:0:
314,160,49481,1,0,0:0:0:0:
314,160,49606,2,0,P|369:140|426:149,1,99.9999999999999,2|8,0:0|0:0,0:0:0:0:
492,199,50106,2,0,L|485:309,1,99.9999999999999,2|8,0:0|0:0,0:0:0:0:
463,344,50481,2,0,P|408:364|351:355,1,99.9999999999999,0|0,0:0|0:0,0:0:0:0:
319,347,50856,1,8,0:0:0:0:
240,285,51106,6,0,L|234:171,1,99.9999999999999,2|8,0:0|0:0,0:0:0:0:
230,140,51481,1,2,0:0:0:0:
230,140,51606,2,0,P|174:132|122:148,2,99.9999999999999,8|8|2,0:0|0:0|0:0,0:0:0:0:
324,173,52356,1,12,0:0:0:0:
422,187,52606,1,8,0:0:0:0:
507,135,52856,1,8,0:0:0:0:
487,37,53106,6,0,P|434:34|387:32,1,99.9999999999999,6|8,0:0|0:0,0:0:0:0:
343,23,53481,1,0,0:0:0:0:
343,23,53606,2,0,P|290:26|243:28,1,99.9999999999999,2|8,0:0|0:0,0:0:0:0:
157,79,54106,2,0,P|145:136|163:187,1,99.9999999999999,2|8,0:0|0:0,0:0:0:0:
179,219,54481,2,0,P|236:207|287:225,1,99.9999999999999,0|0,0:0|0:0,0:0:0:0:
313,250,54856,1,8,0:0:0:0:
279,344,55106,6,0,L|174:347,1,99.9999999999999,2|8,0:0|0:0,0:0:0:0:
79,343,55606,1,2,0:0:0:0:
16,265,55856,1,8,0:0:0:0:
39,167,56106,2,0,P|74:146|145:147,1,99.9999999999999,2|8,0:0|0:0,0:0:0:0:
178,160,56481,2,0,P|213:181|284:180,1,99.9999999999999,2|2,0:0|0:0,0:0:0:0:
319,171,56856,1,8,0:0:0:0:
409,127,57106,6,0,L|417:236,1,99.9999999999999,6|8,0:0|0:0,0:0:0:0:
424,280,57481,1,0,0:0:0:0:
424,280,57606,2,0,P|389:301|318:300,1,99.9999999999999,2|8,0:0|0:0,0:0:0:0:
240,259,58106,2,0,P|205:238|134:239,1,99.9999999999999,2|8,0:0|0:0,0:0:0:0:
97,241,58481,2,0,L|104:141,1,99.9999999999999,0|0,0:0|0:0,0:0:0:0:
108,91,58856,1,8,0:0:0:0:
191,35,59106,6,0,P|237:29|298:44,1,99.9999999999999,2|8,0:0|0:0,0:0:0:0:
374,92,59606,1,2,0:0:0:0:
412,184,59856,1,8,0:0:0:0:
365,272,60106,2,0,L|263:267,1,99.9999999999999,2|8,0:0|0:0,0:0:0:0:
187,203,60606,2,0,L|137:205,2,50,4|4|4,0:3|0:3|0:3,0:0:0:0:
283,173,61106,6,0,P|281:105|267:71,1,99.9999999999999,2|12,0:0|0:0,0:0:0:0:
181,28,61606,2,0,P|113:30|79:44,1,99.9999999999999,2|12,0:0|0:0,0:0:0:0:
24,121,62106,1,2,0:0:0:0:
70,209,62356,2,0,B|65:253|65:253|76:269|76:269|75:294|74:307,2,99.9999999999999,8|4|4,0:0|0:3|0:3,0:0:0:0:
127,127,63106,6,0,P|182:140|241:124,1,99.9999999999999,6|0,0:0|0:0,0:0:0:0:
308,77,63606,2,0,P|371:67|448:110,1,150,2|0,0:0|0:0,0:0:0:0:
478,200,64231,1,0,0:0:0:0:
441,293,64481,2,0,L|330:299,1,99.9999999999999,0|0,0:0|0:0,0:0:0:0:
291,303,64856,1,0,0:0:0:0:
227,225,65106,6,0,P|173:211|112:225,1,99.9999999999999,2|0,0:0|0:0,0:0:0:0:
32,237,65606,1,2,0:0:0:0:
3,141,65856,1,0,0:0:0:0:
56,56,66106,2,0,L|157:62,1,99.9999999999999,2|0,0:0|0:0,0:0:0:0:
242,111,66606,2,0,L|343:105,1,99.9999999999999,2|0,0:0|0:0,0:0:0:0:
395,100,66981,1,0,0:0:0:0:
395,100,67106,6,0,P|413:142|410:204,1,99.9999999999999,2|0,0:0|0:0,0:0:0:0:
345,269,67606,2,0,P|302:287|240:284,1,99.9999999999999,2|0,0:0|0:0,0:0:0:0:
168,229,68106,2,0,L|162:121,1,99.9999999999999,2|0,0:0|0:0,0:0:0:0:
65,104,68606,2,0,L|59:203,1,99.9999999999999,2|0,0:0|0:0,0:0:0:0:
34,247,68981,1,0,0:0:0:0:
34,247,69106,6,0,L|39:346,1,99.9999999999999,2|0,0:0|0:0,0:0:0:0:
135,376,69606,1,2,0:0:0:0:
194,295,69856,2,0,L|248:298,1,50,0|0,0:0|0:0,0:0:0:0:
293,299,70106,2,0,P|340:309|398:297,1,99.9999999999999,2|4,0:0|0:3,0:0:0:0:
470,239,70606,2,0,L|464:174,1,50,4|4,0:3|0:3,0:0:0:0:
442,144,70856,2,0,L|448:79,1,50,4|0,0:0|0:0,0:0:0:0:
452,44,71106,6,0,P|389:34|343:41,1,99.9999999999999,2|8,0:0|0:0,0:0:0:0:
253,26,71606,2,0,P|190:36|144:29,1,99.9999999999999,2|8,0:0|0:0,0:0:0:0:
105,19,71981,2,0,L|101:125,1,99.9999999999999,0|0,0:0|0:0,0:0:0:0:
56,141,72356,1,8,0:0:0:0:
59,240,72606,2,0,L|55:346,1,99.9999999999999,2|8,0:0|0:0,0:0:0:0:
150,374,73106,6,0,P|221:381|256:369,1,99.9999999999999,2|8,0:0|0:0,0:0:0:0:
325,310,73606,1,2,0:0:0:0:
345,212,73856,1,8,0:0:0:0:
268,148,74106,2,0,L|203:153,2,50,2|0|8,0:0|0:0|0:0,0:0:0:0:
327,67,74606,2,0,P|384:58|438:71,1,99.9999999999999,2|8,0:0|0:0,0:0:0:0:
474,90,74981,1,8,0:0:0:0:
474,90,75106,6,0,P|478:146|482:201,1,99.9999999999999,6|8,0:0|0:0,0:0:0:0:
398,246,75606,2,0,P|394:302|390:357,1,99.9999999999999,2|8,0:0|0:0,0:0:0:0:
294,372,76106,2,0,P|271:338|267:260,1,99.9999999999999,2|8,0:0|0:0,0:0:0:0:
271,234,76481,1,0,0:0:0:0:
271,234,76606,2,0,P|237:211|159:207,1,99.9999999999999,2|8,0:0|0:0,0:0:0:0:
85,236,77106,6,0,L|90:335,2,99.9999999999999,2|8|2,0:0|0:0|0:0,0:0:0:0:
81,136,77856,1,8,0:0:0:0:
142,57,78106,2,0,P|183:44|250:51,1,99.9999999999999,0|8,0:0|0:0,0:0:0:0:
314,113,78606,2,0,L|370:116,2,50,2|0|8,0:0|0:0|0:0,0:0:0:0:
220,150,79106,6,0,P|206:215|244:298,2,150,6|0|2,0:0|0:0|0:0,0:0:0:0:
287,76,80106,2,0,P|347:63|396:74,1,99.9999999999999,2|0,0:0|0:0,0:0:0:0:
459,135,80606,2,0,L|508:131,2,50,0|8|2,0:0|0:0|0:0,0:0:0:0:
381,199,81106,6,0,P|303:194|219:188,2,150,2|0|8,0:0|0:0|0:0,0:0:0:0:
472,241,82106,2,0,P|486:292|468:353,1,99.9999999999999,2|0,0:0|0:0,0:0:0:0:
383,373,82606,1,8,0:0:0:0:
294,327,82856,2,0,P|243:313|182:331,1,99.9999999999999,4|0,0:3|0:0,0:0:0:0:
102,343,83356,5,12,0:0:0:0:
102,343,83481,2,0,L|96:236,1,99.9999999999999,0|2,0:0|0:0,0:0:0:0:
92,192,83856,1,8,0:0:0:0:
128,98,84106,2,0,P|187:101|242:79,1,99.9999999999999,2|8,0:0|0:0,0:0:0:0:
318,50,84606,1,2,0:0:0:0:
415,70,84856,1,8,0:0:0:0:
473,150,85106,6,0,P|485:200|469:257,2,99.9999999999999,2|8|2,0:0|0:0|0:0,0:0:0:0:
415,70,85856,1,8,0:0:0:0:
336,132,86106,2,0,L|279:129,1,50,8|0,0:0|0:0,0:0:0:0:
239,110,86356,2,0,L|182:113,1,50,0|0,0:0|0:0,0:0:0:0:
139,118,86606,2,0,P|126:165|142:228,1,99.9999999999999,8|8,0:0|1:0,0:0:0:0:
195,294,87106,6,0,P|248:287|308:307,1,99.9999999999999,6|8,0:0|0:0,0:0:0:0:
339,328,87481,1,0,0:0:0:0:
339,328,87606,2,0,L|346:223,1,99.9999999999999,2|8,0:0|0:0,0:0:0:0:
430,175,88106,2,0,L|427:69,1,99.9999999999999,2|8,0:0|0:0,0:0:0:0:
426,24,88481,1,0,0:0:0:0:
332,60,88731,2,0,P|284:70|224:55,1,99.9999999999999,0|8,0:0|0:0,0:0:0:0:
192,32,89106,5,2,0:0:0:0:
104,79,89356,1,0,0:0:0:0:
113,178,89606,2,0,L|218:182,1,99.9999999999999,2|8,0:0|0:0,0:0:0:0:
308,212,90106,2,0,L|413:208,1,99.9999999999999,2|8,0:0|0:0,0:0:0:0:
457,205,90481,2,0,P|475:264|457:320,1,99.9999999999999,2|2,0:0|0:0,0:0:0:0:
432,336,90856,1,8,0:0:0:0:
332,346,91106,6,0,P|273:328|217:346,1,99.9999999999999,6|8,0:0|0:0,0:0:0:0:
192,351,91481,1,0,0:0:0:0:
192,350,91606,2,0,P|145:368|96:361,1,99.9999999999999,2|8,0:0|0:0,0:0:0:0:
34,282,92106,2,0,L|37:173,1,99.9999999999999,2|8,0:0|0:0,0:0:0:0:
38,132,92481,2,0,P|84:114|133:121,1,99.9999999999999,0|0,0:0|0:0,0:0:0:0:
179,141,92856,1,8,0:0:0:0:
268,185,93106,6,0,L|382:179,1,99.9999999999999,2|8,0:0|0:0,0:0:0:0:
421,174,93481,1,2,0:0:0:0:
421,174,93606,2,0,P|429:118|413:66,2,99.9999999999999,2|8|2,0:0|0:0|0:0,0:0:0:0:
375,262,94356,1,12,0:0:0:0:
279,291,94606,1,8,0:0:0:0:
181,270,94856,1,8,0:0:0:0:
122,189,95106,6,0,P|125:136|127:89,1,99.9999999999999,6|8,0:0|0:0,0:0:0:0:
133,43,95481,1,0,0:0:0:0:
133,43,95606,2,0,P|181:28|233:38,1,99.9999999999999,2|8,0:0|0:0,0:0:0:0:
313,90,96106,2,0,P|298:138|308:190,1,99.9999999999999,2|8,0:0|0:0,0:0:0:0:
329,230,96481,2,0,P|377:215|429:225,1,99.9999999999999,0|0,0:0|0:0,0:0:0:0:
465,252,96856,1,8,0:0:0:0:
432,346,97106,6,0,L|327:349,1,99.9999999999999,2|8,0:0|0:0,0:0:0:0:
232,352,97606,1,2,0:0:0:0:
142,307,97856,1,8,0:0:0:0:
126,208,98106,2,0,P|161:187|232:188,1,99.9999999999999,2|8,0:0|0:0,0:0:0:0:
265,202,98481,2,0,P|300:223|371:222,1,99.9999999999999,2|2,0:0|0:0,0:0:0:0:
406,215,98856,1,8,0:0:0:0:
497,173,99106,6,0,L|489:64,1,99.9999999999999,2|8,0:0|0:0,0:0:0:0:
485,28,99481,1,0,0:0:0:0:
485,28,99606,2,0,P|434:18|381:28,1,99.9999999999999,2|8,0:0|0:0,0:0:0:0:
304,82,100106,2,0,P|253:92|200:82,1,99.9999999999999,2|8,0:0|0:0,0:0:0:0:
158,67,100481,2,0,L|151:167,1,99.9999999999999,0|0,0:0|0:0,0:0:0:0:
145,216,100856,1,8,0:0:0:0:
182,308,101106,6,0,P|228:314|289:299,1,99.9999999999999,2|8,0:0|0:0,0:0:0:0:
366,252,101606,1,2,0:0:0:0:
413,164,101856,1,8,0:0:0:0:
379,69,102106,2,0,L|277:64,1,99.9999999999999,0|0,0:0|0:0,0:0:0:0:
178,59,102606,2,0,L|184:8,2,50,2|0|0,0:0|0:0|0:0,0:0:0:0:
204,156,103106,6,0,P|136:144|56:243,2,200,6|2|2,0:0|0:0|0:0,0:0:0:0:
276,225,104356,1,8,0:0:0:0:
301,321,104606,2,0,L|402:314,1,99.9999999999999,2|8,0:0|0:0,0:0:0:0:
483,256,105106,6,0,P|493:213|472:154,2,99.9999999999999,2|8|2,0:0|0:0|0:0,0:0:0:0:
391,214,105856,1,8,0:0:0:0:
298,176,106106,2,0,L|190:182,1,99.9999999999999,2|8,0:0|0:0,0:0:0:0:
98,187,106606,1,0,0:0:0:0:
29,113,106856,1,8,0:0:0:0:
88,32,107106,6,0,B|243:19|243:19|294:48,2,200,6|2|2,0:0|0:0|0:0,0:0:0:0:
29,113,108356,1,8,0:0:0:0:
98,187,108606,2,0,L|106:302,1,99.9999999999999,2|8,0:0|0:0,0:0:0:0:
183,348,109106,6,0,P|261:358|302:345,2,99.9999999999999,2|8|2,0:0|0:0|0:0,0:0:0:0:
105,286,109856,1,8,0:0:0:0:
132,189,110106,2,0,L|232:181,1,99.9999999999999,2|8,0:0|0:0,0:0:0:0:
331,169,110606,1,0,0:0:0:0:
387,86,110856,2,0,P|364:57|287:33,1,99.9999999999999,8|0,0:0|0:0,0:0:0:0:
207,29,111356,5,12,0:0:0:0:
126,89,111606,2,0,L|133:208,1,99.9999999999999,2|8,0:0|0:0,0:0:0:0:
140,288,112106,2,0,P|189:302|253:291,1,99.9999999999999,2|8,0:0|0:0,0:0:0:0:
325,250,112606,2,0,P|374:236|438:247,1,99.9999999999999,2|8,0:0|0:0,0:0:0:0:
475,257,112981,1,8,0:0:0:0:
475,257,113106,6,0,L|468:149,1,99.9999999999999,2|8,0:0|0:0,0:0:0:0:
397,86,113606,2,0,L|297:92,1,99.9999999999999,2|8,0:0|0:0,0:0:0:0:
205,131,114106,2,0,L|211:230,1,99.9999999999999,2|8,0:0|0:0,0:0:0:0:
259,318,114606,2,0,L|256:383,2,50,0|2|8,0:0|0:0|0:0,0:0:0:0:
350,278,115106,6,0,B|365:224|365:224|344:184|344:184|371:140|344:76,1,200,6|2,0:0|0:0,0:0:0:0:
263,36,115856,1,8,0:0:0:0:
169,72,116106,2,0,L|177:172,1,99.9999999999999,2|8,0:0|0:0,0:0:0:0:
236,252,116606,2,0,L|228:352,1,99.9999999999999,2|8,0:0|0:0,0:0:0:0:
130,373,117106,6,0,P|53:342|23:278,1,150,2|0,0:0|0:0,0:0:0:0:
21,184,117731,1,2,0:0:0:0:
91,113,117981,2,0,L|245:118,1,150,0|8,0:0|0:0,0:0:0:0:
326,168,118606,2,0,L|429:160,2,99.9999999999999,2|4|0,0:0|0:3|0:0,0:0:0:0:
191,74,123106,6,0,P|80:60|27:106,2,179.999994506836,6|2|2,0:0|0:0|0:0,0:0:0:0:
326,192,124606,1,0,0:0:0:0:
191,310,125106,2,0,P|80:324|27:278,2,179.999994506836,2|2|2,0:0|0:0|0:0,0:0:0:0:
326,192,126606,2,0,P|372:182|421:192,1,89.999997253418,0|0,0:0|0:0,0:0:0:0:
500,214,127106,6,0,P|505:124|511:34,2,179.999994506836,2|2|2,0:0|0:0|0:0,0:0:0:0:
372,341,128606,1,0,0:0:0:0:
244,213,129106,2,0,P|238:123|232:33,2,179.999994506836,2|2|2,0:0|0:0|0:0,0:0:0:0:
250,302,130356,1,2,0:0:0:0:
177,355,130606,2,0,P|132:366|77:356,1,89.999997253418,8|8,0:0|0:0,0:0:0:0:
18,304,131106,6,0,L|23:204,1,89.999997253418,6|8,0:0|0:0,0:0:0:0:
74,139,131606,2,0,P|119:128|174:138,1,89.999997253418,2|8,0:0|0:0,0:0:0:0:
236,184,132106,2,0,P|281:195|336:185,2,89.999997253418,2|8|2,0:0|0:0|0:0,0:0:0:0:
161,133,132856,1,8,0:0:0:0:
208,56,133106,6,0,L|306:50,1,89.999997253418,2|8,0:0|0:0,0:0:0:0:
381,17,133606,2,0,L|479:23,1,89.999997253418,2|8,0:0|0:0,0:0:0:0:
503,106,134106,2,0,P|512:152|498:209,1,89.999997253418,2|8,0:0|0:0,0:0:0:0:
475,228,134481,2,0,P|429:219|372:233,1,89.999997253418,2|2,0:0|0:0,0:0:0:0:
347,247,134856,1,8,0:0:0:0:
261,273,135106,6,0,L|253:183,1,89.999997253418,2|8,0:0|0:0,0:0:0:0:
203,108,135606,2,0,P|152:104|112:118,1,89.999997253418,2|8,0:0|0:0,0:0:0:0:
56,183,136106,2,0,L|63:272,1,89.999997253418,2|8,0:0|0:0,0:0:0:0:
84,318,136481,1,0,0:0:0:0:
84,318,136606,2,0,L|80:362,2,44.999998626709,2|0|8,0:0|0:0|0:0,0:0:0:0:
162,274,137106,6,0,P|198:258|258:265,1,89.999997253418,2|8,0:0|0:0,0:0:0:0:
328,301,137606,2,0,L|324:345,2,44.999998626709,2|2|8,0:0|0:0|0:0,0:0:0:0:
333,211,138106,1,2,0:0:0:0:
195,116,143356,6,0,L|88:130,2,89.999997253418,12|0|8,0:0|0:0|3:0,0:0:0:0:
285,73,144106,2,0,P|338:63|393:80,1,99.9999999999999,2|8,0:0|0:0,0:0:0:0:
425,98,144481,2,0,P|415:151|432:206,1,99.9999999999999,0|8,0:0|0:0,0:0:0:0:
446,240,144856,1,0,0:0:0:0:
394,325,145106,6,0,P|341:318|281:338,1,99.9999999999999,6|8,0:0|0:0,0:0:0:0:
251,351,145481,1,0,0:0:0:0:
251,351,145606,2,0,L|244:246,1,99.9999999999999,2|8,0:0|0:0,0:0:0:0:
145,239,146106,2,0,L|148:133,1,99.9999999999999,2|8,0:0|0:0,0:0:0:0:
197,130,146481,2,0,L|194:24,1,99.9999999999999,2|2,0:0|0:0,0:0:0:0:
244,24,146856,5,8,0:0:0:0:
329,76,147106,2,0,L|434:80,1,99.9999999999999,2|8,0:0|0:0,0:0:0:0:
401,175,147606,2,0,L|296:179,1,99.9999999999999,2|8,0:0|0:0,0:0:0:0:
204,212,148106,2,0,L|99:208,1,99.9999999999999,2|12,0:0|0:0,0:0:0:0:
55,205,148481,2,0,P|37:264|55:320,1,99.9999999999999,0|8,0:0|0:0,0:0:0:0:
80,336,148856,1,8,0:0:0:0:
180,346,149106,6,0,P|239:328|295:346,1,99.9999999999999,6|8,0:0|0:0,0:0:0:0:
320,351,149481,1,0,0:0:0:0:
320,350,149606,2,0,P|367:368|416:361,1,99.9999999999999,2|8,0:0|0:0,0:0:0:0:
478,282,150106,2,0,L|475:173,1,99.9999999999999,2|8,0:0|0:0,0:0:0:0:
474,132,150481,2,0,P|428:114|379:121,1,99.9999999999999,0|0,0:0|0:0,0:0:0:0:
333,141,150856,1,8,0:0:0:0:
244,185,151106,6,0,L|130:179,1,99.9999999999999,2|8,0:0|0:0,0:0:0:0:
50,213,151606,2,0,P|42:157|58:105,2,99.9999999999999,2|8|2,0:0|0:0|0:0,0:0:0:0:
131,270,152356,1,8,0:0:0:0:
228,289,152606,1,0,0:0:0:0:
326,270,152856,1,8,0:0:0:0:
385,189,153106,6,0,P|382:136|380:89,1,99.9999999999999,6|8,0:0|0:0,0:0:0:0:
379,43,153481,1,0,0:0:0:0:
379,43,153606,2,0,P|331:28|279:38,1,99.9999999999999,2|8,0:0|0:0,0:0:0:0:
199,90,154106,2,0,P|214:138|204:190,1,99.9999999999999,2|8,0:0|0:0,0:0:0:0:
183,230,154481,2,0,P|135:215|83:225,1,99.9999999999999,0|0,0:0|0:0,0:0:0:0:
47,252,154856,1,8,0:0:0:0:
80,346,155106,6,0,L|185:349,1,99.9999999999999,2|8,0:0|0:0,0:0:0:0:
280,352,155606,1,2,0:0:0:0:
370,307,155856,1,8,0:0:0:0:
386,208,156106,2,0,P|351:187|280:188,1,99.9999999999999,0|0,0:0|0:0,0:0:0:0:
247,202,156481,2,0,P|212:223|141:222,1,99.9999999999999,0|0,0:0|0:0,0:0:0:0:
106,215,156856,1,0,0:0:0:0:
15,173,157106,6,0,L|23:64,1,99.9999999999999,6|8,0:0|0:0,0:0:0:0:
27,28,157481,1,0,0:0:0:0:
27,28,157606,2,0,P|78:18|131:28,1,99.9999999999999,2|8,0:0|0:0,0:0:0:0:
208,82,158106,2,0,P|259:92|312:82,1,99.9999999999999,2|8,0:0|0:0,0:0:0:0:
354,67,158481,2,0,L|361:167,1,99.9999999999999,0|0,0:0|0:0,0:0:0:0:
367,216,158856,1,8,0:0:0:0:
330,308,159106,6,0,P|284:314|223:299,1,99.9999999999999,2|8,0:0|0:0,0:0:0:0:
136,270,159606,1,2,0:0:0:0:
121,171,159856,1,8,0:0:0:0:
178,89,160106,2,0,L|280:84,1,99.9999999999999,2|8,0:0|0:0,0:0:0:0:
378,78,160606,2,0,L|372:27,2,50,0|2|8,0:0|0:0|0:0,0:0:0:0:
444,152,161106,6,0,L|432:251,1,99.9999999999999,6|8,0:0|0:0,0:0:0:0:
414,349,161606,2,0,L|299:338,1,99.9999999999999,2|8,0:0|0:0,0:0:0:0:
246,266,162106,2,0,L|131:277,1,99.9999999999999,2|8,0:0|0:0,0:0:0:0:
46,278,162606,2,0,L|60:166,1,99.9999999999999,2|8,0:0|0:0,0:0:0:0:
66,129,162981,1,8,0:0:0:0:
106,99,163106,6,0,P|152:81|218:89,1,99.9999999999999,2|8,0:0|0:0,0:0:0:0:
269,157,163606,2,0,L|264:223,2,50,2|8|4,0:0|0:0|0:3,0:0:0:0:
341,88,164106,2,0,P|377:86|442:123,1,99.9999999999999,2|12,0:0|0:0,0:0:0:0:
466,208,164606,2,0,L|460:275,1,50,8|8,0:0|0:0,0:0:0:0:
412,268,164856,2,0,L|418:335,1,50,8|8,0:0|0:0,0:0:0:0:
388,359,165106,6,0,L|266:344,1,99.9999999999999,6|8,0:0|0:0,0:0:0:0:
221,273,165606,2,0,L|99:288,1,99.9999999999999,2|8,0:0|0:0,0:0:0:0:
72,295,165981,2,0,P|54:249|74:184,1,99.9999999999999,0|0,0:0|0:0,0:0:0:0:
95,161,166356,2,0,P|113:115|93:50,2,99.9999999999999,8|2|8,0:0|0:0|0:0,0:0:0:0:
115,207,166981,1,8,0:0:0:0:
115,207,167106,6,0,P|160:228|222:222,1,99.9999999999999,2|8,0:0|0:0,0:0:0:0:
267,144,167606,2,0,P|316:142|361:163,1,99.9999999999999,2|8,0:0|0:0,0:0:0:0:
441,223,168106,2,0,P|440:290|311:337,1,200,2|0,0:0|0:0,0:0:0:0:
235,319,168856,2,0,L|170:322,1,50,8|8,0:0|0:0,0:0:0:0:
140,344,169106,6,0,L|36:338,1,99.9999999999999,2|8,0:0|0:0,0:0:0:0:
27,238,169606,2,0,P|23:195|39:129,1,99.9999999999999,2|8,0:0|0:0,0:0:0:0:
105,68,170106,2,0,L|204:73,1,99.9999999999999,2|8,0:0|0:0,0:0:0:0:
281,137,170606,2,0,L|330:134,2,50,2|0|8,0:0|0:0|0:0,0:0:0:0:
249,176,170981,1,8,0:0:0:0:
249,176,171106,6,0,P|232:204|240:283,1,99.9999999999999,2|8,0:0|0:0,0:0:0:0:
303,341,171606,2,0,L|410:336,1,99.9999999999999,0|4,0:0|0:3,0:0:0:0:
487,282,172106,2,0,L|472:175,1,99.9999999999999,2|12,0:0|0:0,0:0:0:0:
456,84,172606,2,0,L|391:75,1,50,8|10,0:0|0:0,0:0:0:0:
369,43,172856,2,0,L|304:52,1,50,8|10,0:0|0:0,0:0:0:0:
289,90,173106,6,0,L|171:73,2,99.9999999999999,2|0|2,0:0|0:0|0:0,0:0:0:0:
367,151,173856,2,0,L|362:213,1,50,2|0,0:0|0:0,0:0:0:0:
360,251,174106,1,2,0:0:0:0:
295,327,174356,1,10,0:0:0:0:
200,294,174606,1,2,0:0:0:0:
