osu file format v14

[General]
AudioFilename: slow name.mp3
AudioLeadIn: 0
PreviewTime: 108565
Countdown: 0
SampleSet: Soft
StackLeniency: 0.5
Mode: 0
LetterboxInBreaks: 0
WidescreenStoryboard: 1

[Editor]
Bookmarks: 1674,13674,25674,37849,46662,49662,61674,67662,73674,97592,109592,119904,130592,133592,145592,159092,183092,195092,207092,219092,231092,237092,243092,261092,274592,277592,289592,295592,302904,304779
DistanceSpacing: 0.5
BeatDivisor: 4
GridSize: 32
TimelineZoom: 3.65

[Metadata]
Title:SLoWMoTIoN
TitleUnicode:すろぉもぉしょん
Artist:nameless
ArtistUnicode:nameless
Creator:aritakun
Version:aritakun's time freeze
Source:
Tags:moe kawaii desu ピノキオP様 Pinocchio slow motion
BeatmapID:1760494
BeatmapSetID:841189

[Difficulty]
HPDrainRate:6.3
CircleSize:4.4
OverallDifficulty:8
ApproachRate:9.3
SliderMultiplier:1.7
SliderTickRate:1

[Events]
//Background and Video events
0,0,"a.jpg",0,0
//Break Periods
2,15297,24105
2,100797,108105
2,196797,207293
//Storyboard Layer 0 (Background)
//Storyboard Layer 1 (Fail)
//Storyboard Layer 2 (Pass)
//Storyboard Layer 3 (Foreground)
//Storyboard Sound Samples

[TimingPoints]
1597,375,4,1,1,65,1,0
10597,-100,4,2,1,65,0,0
11909,-125,4,2,1,65,0,0
13222,-90.9090909090909,4,3,1,68,0,0
13597,-100,4,2,1,75,0,0
25597,-125,4,2,1,60,0,0
35909,-125,4,2,1,70,0,0
37972,-111.111111111111,4,2,1,70,0,0
46597,-100,4,2,1,75,0,0
48097,-100,4,2,1,70,0,0
49597,-125,4,2,1,60,0,0
59722,-125,4,2,1,70,0,0
61222,-83.3333333333333,4,2,1,70,0,0
61597,-100,4,2,1,75,0,0
67597,-125,4,2,1,70,0,0
70597,-125,4,2,1,75,0,0
73222,-100,4,3,1,65,0,0
73597,-100,4,2,1,80,0,1
85222,-100,4,3,1,75,0,0
85597,-100,4,2,1,80,0,1
94222,-100,4,3,1,80,0,1
94597,-100,4,2,1,80,0,1
96659,-125,4,2,1,80,0,1
97222,-125,4,2,1,65,0,1
97597,-100,4,2,1,75,0,0
109597,-166.666666666667,4,2,1,50,0,0
118597,-200,4,2,1,50,0,0
119909,-90.9090909090909,4,2,1,75,0,0
122159,-125,4,2,1,75,0,0
122534,-100,4,2,1,75,0,0
123284,-90.9090909090909,4,2,1,75,0,0
123659,-125,4,2,1,75,0,0
124222,-111.111111111111,4,2,1,75,0,0
124597,-111.111111111111,4,2,1,70,0,0
130597,-100,4,2,1,75,0,0
132097,-100,4,2,1,70,0,0
133597,-125,4,2,1,60,0,0
144097,-111.111111111111,4,2,1,70,0,0
144472,-100,4,2,1,70,0,0
145597,-111.111111111111,4,2,1,60,0,0
150847,-100,4,2,1,65,0,0
151597,-125,4,1,1,75,0,0
154597,-125,4,2,1,70,0,0
157597,-125,4,2,1,65,0,0
157972,-111.111111111111,4,2,1,65,0,0
158722,-125,4,2,1,65,0,0
159097,-100,4,2,1,80,0,1
170722,-100,4,2,1,75,0,0
171097,-100,4,2,1,80,0,1
182159,-125,4,2,1,80,0,1
182722,-83.3333333333333,4,2,1,70,0,1
183097,-100,4,2,1,70,0,0
184034,-125,4,2,1,70,0,0
184597,-111.111111111111,4,2,1,70,0,0
185722,-125,4,2,1,70,0,0
186097,-100,4,2,1,70,0,0
187034,-125,4,2,1,70,0,0
187597,-111.111111111111,4,2,1,70,0,0
189097,-125,4,2,1,65,0,0
193597,-111.111111111111,4,2,1,70,0,0
194722,-125,4,2,1,65,0,0
195097,-100,4,2,1,75,0,0
201097,-125,4,2,1,75,0,0
201472,-90.9090909090909,4,2,1,75,0,0
201847,-125,4,2,1,75,0,0
202222,-90.9090909090909,4,2,1,75,0,0
202597,-125,4,2,1,75,0,0
202972,-90.9090909090909,4,2,1,75,0,0
203347,-125,4,2,1,75,0,0
203722,-90.9090909090909,4,2,1,75,0,0
204097,-100,4,2,1,75,0,0
205597,-125,4,2,1,75,0,0
207097,-125,4,1,1,55,0,0
213097,-125,4,1,1,58,0,0
219097,-111.111111111111,4,1,1,62,0,0
225097,-111.111111111111,4,1,1,66,0,0
229597,-125,4,1,1,69,0,0
231097,-125,4,2,1,73,0,0
235597,-100,4,2,1,78,0,0
237097,-125,4,2,1,70,0,1
237190,-111.111111111111,4,2,1,75,0,0
238784,-125,4,2,1,75,0,0
240847,-125,4,2,1,75,0,0
241409,-111.111111111111,4,2,1,75,0,0
241784,-125,4,2,1,75,0,0
243097,-100,4,2,1,80,0,1
248722,-100,4,2,1,75,0,1
249003,-100,4,2,1,75,0,0
249472,-125,4,2,1,80,0,1
255097,-100,4,2,1,80,0,1
260534,-125,4,2,1,70,0,0
261097,-100,4,2,1,80,0,1
269722,-100,4,2,1,75,0,1
270097,-100,4,2,1,80,0,1
274597,-100,4,2,1,70,0,0
274784,-125,4,2,1,50,0,0
276659,-166.666666666667,4,2,1,60,0,0
277597,-100,4,2,1,75,0,0
301597,-100,4,2,1,70,0,0

[Colours]
Combo1 : 219,77,101
Combo2 : 198,204,149
Combo3 : 118,108,236
Combo4 : 105,209,159

[HitObjects]
128,95,1597,5,0,0:0:0:0:
348,67,1784,1,0,0:0:0:0:
373,101,1877,1,0,0:0:0:0:
398,135,1971,1,0,0:0:0:0:
372,261,2159,1,0,0:0:0:0:
346,227,2252,1,0,0:0:0:0:
320,193,2346,1,0,0:0:0:0:
178,179,2534,1,0,0:0:0:0:
207,148,2627,1,0,0:0:0:0:
236,117,2721,1,0,0:0:0:0:
113,248,2909,1,0,0:0:0:0:
53,187,3003,1,0,0:0:0:0:
83,220,3097,1,0,0:0:0:0:
199,316,3190,1,0,0:0:0:0:
262,315,3283,1,0,0:0:0:0:
326,315,3377,1,0,0:0:0:0:
424,281,3472,1,0,0:0:0:0:
460,259,3565,1,0,0:0:0:0:
487,227,3659,1,0,0:0:0:0:
502,187,3753,1,0,0:0:0:0:
503,145,3847,1,0,0:0:0:0:
490,105,3940,1,0,0:0:0:0:
464,72,4034,1,0,0:0:0:0:
429,49,4128,1,0,0:0:0:0:
387,39,4222,1,0,0:0:0:0:
345,44,4315,1,0,0:0:0:0:
307,62,4409,1,0,0:0:0:0:
278,92,4503,1,0,0:0:0:0:
260,131,4597,1,0,0:0:0:0:
361,152,4784,6,0,P|362:222|389:229,1,85
470,158,5065,2,0,P|481:224|445:240,1,85
356,213,5347,2,0,P|331:263|288:262,1,85
472,228,5628,2,0,P|470:280|503:306,1,85
304,267,5909,1,0,0:0:0:0:
265,223,6002,1,0,0:0:0:0:
218,257,6096,1,0,0:0:0:0:
490,298,6190,1,0,0:0:0:0:
512,228,6283,1,0,0:0:0:0:
457,189,6377,1,0,0:0:0:0:
347,86,6472,1,0,0:0:0:0:
330,125,6565,1,0,0:0:0:0:
303,157,6659,1,0,0:0:0:0:
264,173,6753,1,0,0:0:0:0:
222,179,6847,1,0,0:0:0:0:
180,185,6940,1,0,0:0:0:0:
139,195,7034,1,0,0:0:0:0:
99,211,7128,1,0,0:0:0:0:
63,232,7222,1,0,0:0:0:0:
62,348,7315,1,0,0:0:0:0:
437,52,7597,5,0,0:0:0:0:
436,154,7690,1,0,0:0:0:0:
436,132,7784,1,0,0:0:0:0:
454,143,7878,1,0,0:0:0:0:
362,264,7972,1,0,0:0:0:0:
362,264,8065,1,0,0:0:0:0:
256,183,8159,1,0,0:0:0:0:
256,119,8253,1,0,0:0:0:0:
311,151,8347,1,0,0:0:0:0:
52,115,8440,1,0,0:0:0:0:
162,51,8534,1,0,0:0:0:0:
162,178,8628,1,0,0:0:0:0:
336,91,8722,1,0,0:0:0:0:
501,186,8815,1,0,0:0:0:0:
335,282,8909,1,0,0:0:0:0:
256,267,9003,1,0,0:0:0:0:
180,192,9097,1,0,0:0:0:0:
256,116,9190,1,0,0:0:0:0:
331,192,9284,1,0,0:0:0:0:
256,312,9378,1,0,0:0:0:0:
135,191,9472,1,0,0:0:0:0:
256,71,9565,1,0,0:0:0:0:
376,192,9659,1,0,0:0:0:0:
255,372,9753,1,0,0:0:0:0:
75,191,9847,1,0,0:0:0:0:
256,11,9940,1,0,0:0:0:0:
436,192,10034,1,0,0:0:0:0:
332,106,10128,1,0,0:0:0:0:
338,271,10222,1,0,0:0:0:0:
101,298,10315,1,0,0:0:0:0:
136,115,10597,5,0,0:0:0:0:
159,80,10690,1,0,0:0:0:0:
196,59,10784,1,0,0:0:0:0:
238,59,10878,1,0,0:0:0:0:
275,78,10972,1,0,0:0:0:0:
300,112,11065,1,0,0:0:0:0:
305,154,11159,1,0,0:0:0:0:
290,194,11253,1,0,0:0:0:0:
259,222,11347,1,0,0:0:0:0:
251,263,11440,1,0,0:0:0:0:
261,304,11534,1,0,0:0:0:0:
287,337,11628,1,0,0:0:0:0:
325,356,11722,1,0,0:0:0:0:
416,299,11909,1,0,0:0:0:0:
429,146,12097,1,0,0:0:0:0:
278,286,12284,1,0,0:0:0:0:
272,58,12472,1,0,0:0:0:0:
141,318,12659,1,0,0:0:0:0:
60,36,12847,1,0,0:0:0:0:
20,344,13034,1,0,0:0:0:0:
145,383,13222,1,0,0:0:0:0:
145,0,13409,1,0,0:0:0:0:
477,192,13597,1,0,0:0:0:0:
256,192,13690,12,0,15097,0:0:0:0:
90,99,24659,5,0,0:0:0:0:
163,218,24847,1,0,0:0:0:0:
273,301,25034,1,0,0:0:0:0:
325,305,25127,1,0,0:0:0:0:
373,285,25221,1,0,0:0:0:0:
406,244,25315,1,0,0:0:0:0:
416,192,25409,1,0,0:0:0:0:
416,124,25503,1,0,0:0:0:0:
291,43,25597,1,0,0:0:0:0:
101,146,25784,1,0,0:0:0:0:
133,323,25972,5,0,0:0:0:0:
259,158,26347,1,0,0:0:0:0:
321,344,26722,1,0,0:0:0:0:
400,238,26909,1,0,0:0:0:0:
475,132,27097,1,0,0:0:0:0:
401,67,27284,2,0,L|350:97,1,34
334,160,27659,1,0,0:0:0:0:
311,232,27752,1,0,0:0:0:0:
239,255,27846,1,0,0:0:0:0:
179,207,27940,1,0,0:0:0:0:
185,132,28034,1,0,0:0:0:0:
252,94,28127,1,0,0:0:0:0:
320,128,28221,1,0,0:0:0:0:
378,180,28409,1,0,0:0:0:0:
442,224,28597,2,0,L|484:276,1,34
463,250,28690,2,0,L|497:210,1,34
425,80,29159,1,0,0:0:0:0:
398,58,29252,1,0,0:0:0:0:
368,42,29346,1,0,0:0:0:0:
336,32,29440,1,0,0:0:0:0:
302,29,29534,1,0,0:0:0:0:
268,32,29627,1,0,0:0:0:0:
236,42,29721,1,0,0:0:0:0:
206,58,29815,1,0,0:0:0:0:
179,79,29909,1,0,0:0:0:0:
157,105,30002,1,0,0:0:0:0:
141,135,30096,1,0,0:0:0:0:
131,167,30190,1,0,0:0:0:0:
317,66,30659,6,0,P|283:153|293:163,1,102
277,144,30940,2,0,P|360:138|361:178,1,136
364,168,31503,1,0,0:0:0:0:
368,172,31597,2,0,L|467:271,1,136
449,272,32159,2,0,P|369:246|323:289,1,136
240,272,32628,1,0,0:0:0:0:
150,272,32722,2,0,P|85:315|37:281,1,136
37,184,33284,1,0,0:0:0:0:
177,328,33659,1,0,0:0:0:0:
177,55,33847,1,0,0:0:0:0:
413,192,34034,1,0,0:0:0:0:
49,170,34222,1,0,0:0:0:0:
378,23,34409,1,0,0:0:0:0:
340,382,34597,1,0,0:0:0:0:
256,190,34784,1,0,0:0:0:0:
256,382,35159,1,0,0:0:0:0:
91,287,35347,1,0,0:0:0:0:
91,96,35534,1,0,0:0:0:0:
256,1,35722,1,0,0:0:0:0:
420,96,35909,1,0,0:0:0:0:
420,287,36097,1,0,0:0:0:0:
110,97,36472,1,0,0:0:0:0:
300,24,36659,1,0,0:0:0:0:
429,182,36847,1,0,0:0:0:0:
318,354,37034,1,0,0:0:0:0:
121,301,37222,1,0,0:0:0:0:
110,97,37409,1,0,0:0:0:0:
302,25,37597,1,0,0:0:0:0:
429,182,37784,1,0,0:0:0:0:
318,354,37972,1,0,0:0:0:0:
121,301,38159,1,0,0:0:0:0:
302,25,38347,5,0,0:0:0:0:
318,354,38534,1,0,0:0:0:0:
112,95,38722,1,0,0:0:0:0:
429,181,38909,1,0,0:0:0:0:
120,301,39097,1,0,0:0:0:0:
112,95,39284,1,0,0:0:0:0:
177,159,39472,1,0,0:0:0:0:
238,253,39659,2,0,P|288:182|252:155,1,152.999995330811
161,255,40222,1,0,0:0:0:0:
300,88,40409,1,0,0:0:0:0:
391,23,40597,6,0,P|348:77|358:123,1,101.999996887207
460,38,40972,2,0,P|460:109|420:135,1,101.999996887207
431,184,41347,2,0,P|428:251|482:275,1,101.999996887207
345,170,41722,2,0,P|326:225|278:231,1,101.999996887207
230,110,42097,1,0,0:0:0:0:
71,245,42284,1,0,0:0:0:0:
282,370,42472,1,0,0:0:0:0:
401,244,42659,1,0,0:0:0:0:
401,244,42753,1,0,0:0:0:0:
401,244,42847,1,0,0:0:0:0:
250,65,43034,1,0,0:0:0:0:
122,122,43222,1,0,0:0:0:0:
91,144,43315,1,0,0:0:0:0:
60,167,43409,1,0,0:0:0:0:
85,190,43503,1,0,0:0:0:0:
115,214,43597,1,0,0:0:0:0:
247,299,43784,1,0,0:0:0:0:
341,261,43972,1,0,0:0:0:0:
383,249,44065,1,0,0:0:0:0:
414,218,44159,1,0,0:0:0:0:
425,175,44253,1,0,0:0:0:0:
412,132,44347,1,0,0:0:0:0:
380,102,44440,1,0,0:0:0:0:
337,93,44534,1,0,0:0:0:0:
223,219,44722,1,0,0:0:0:0:
160,70,44909,1,0,0:0:0:0:
33,208,45097,1,0,0:0:0:0:
132,344,45284,1,0,0:0:0:0:
307,337,45659,6,0,P|333:281|372:279,1,76.4999976654053
342,277,46034,2,0,P|400:342|455:292,1,152.999995330811
490,233,46597,1,0,0:0:0:0:
282,122,46784,1,0,0:0:0:0:
323,111,46877,1,0,0:0:0:0:
364,101,46971,1,0,0:0:0:0:
327,200,47159,1,0,0:0:0:0:
289,213,47252,1,0,0:0:0:0:
287,253,47346,1,0,0:0:0:0:
323,269,47440,1,0,0:0:0:0:
352,242,47534,1,0,0:0:0:0:
485,156,47722,1,0,0:0:0:0:
485,89,47815,1,0,0:0:0:0:
370,53,48097,1,0,0:0:0:0:
269,23,48190,1,0,0:0:0:0:
173,63,48284,1,0,0:0:0:0:
123,154,48378,1,0,0:0:0:0:
140,257,48472,1,0,0:0:0:0:
218,326,48565,1,0,0:0:0:0:
322,332,48659,1,0,0:0:0:0:
404,263,48753,1,0,0:0:0:0:
256,95,49222,5,0,0:0:0:0:
255,282,49597,1,0,0:0:0:0:
256,190,49972,1,0,0:0:0:0:
188,260,50159,1,0,0:0:0:0:
188,123,50347,1,0,0:0:0:0:
324,124,50534,1,0,0:0:0:0:
324,260,50722,1,0,0:0:0:0:
256,336,50909,1,0,0:0:0:0:
111,191,51097,1,0,0:0:0:0:
256,47,51284,1,0,0:0:0:0:
400,192,51472,1,0,0:0:0:0:
177,328,51659,1,0,0:0:0:0:
177,55,51847,1,0,0:0:0:0:
382,90,52222,5,0,0:0:0:0:
128,285,52597,1,0,0:0:0:0:
245,347,52972,1,0,0:0:0:0:
128,285,53159,1,0,0:0:0:0:
411,299,53347,1,0,0:0:0:0:
128,285,53534,1,0,0:0:0:0:
470,166,53722,1,0,0:0:0:0:
128,285,53909,1,0,0:0:0:0:
400,25,54097,1,0,0:0:0:0:
128,285,54284,1,0,0:0:0:0:
187,2,54472,1,0,0:0:0:0:
128,285,54659,1,0,0:0:0:0:
19,2,54847,1,0,0:0:0:0:
40,113,55034,6,0,P|57:194|117:183,1,136
182,150,55597,1,0,0:0:0:0:
291,102,55784,1,0,0:0:0:0:
321,162,55877,1,0,0:0:0:0:
351,223,55971,1,0,0:0:0:0:
394,138,56159,1,0,0:0:0:0:
483,200,56347,1,0,0:0:0:0:
439,252,56440,1,0,0:0:0:0:
396,304,56534,1,0,0:0:0:0:
477,131,56628,1,0,0:0:0:0:
457,103,56721,1,0,0:0:0:0:
437,75,56815,1,0,0:0:0:0:
417,47,56909,1,0,0:0:0:0:
398,20,57003,1,0,0:0:0:0:
172,97,57190,1,0,0:0:0:0:
200,139,57284,1,0,0:0:0:0:
228,181,57377,1,0,0:0:0:0:
256,224,57471,1,0,0:0:0:0:
284,266,57565,1,0,0:0:0:0:
312,309,57659,1,0,0:0:0:0:
341,358,57753,1,0,0:0:0:0:
97,64,58222,5,0,0:0:0:0:
66,124,58409,1,0,0:0:0:0:
84,178,58597,1,0,0:0:0:0:
358,119,58784,1,0,0:0:0:0:
213,68,58972,1,0,0:0:0:0:
177,125,59159,1,0,0:0:0:0:
214,179,59347,1,0,0:0:0:0:
426,117,59534,1,0,0:0:0:0:
426,117,59722,1,0,0:0:0:0:
367,109,59815,1,0,0:0:0:0:
316,136,59909,1,0,0:0:0:0:
289,188,60003,1,0,0:0:0:0:
297,246,60097,1,0,0:0:0:0:
336,289,60190,1,0,0:0:0:0:
394,301,60284,1,0,0:0:0:0:
448,278,60378,1,0,0:0:0:0:
478,228,60472,1,0,0:0:0:0:
453,131,60565,1,0,0:0:0:0:
351,113,60659,1,0,0:0:0:0:
252,162,60753,1,0,0:0:0:0:
166,50,61222,5,0,0:0:0:0:
90,310,61409,1,0,0:0:0:0:
428,139,61597,1,0,0:0:0:0:
469,213,61690,1,0,0:0:0:0:
511,287,61784,1,0,0:0:0:0:
303,73,61972,1,0,0:0:0:0:
324,275,62159,1,0,0:0:0:0:
110,133,62347,1,0,0:0:0:0:
190,159,62440,1,0,0:0:0:0:
271,186,62534,1,0,0:0:0:0:
361,157,62722,2,0,P|434:121|443:99,1,85
308,163,63097,1,0,0:0:0:0:
454,40,63190,1,0,0:0:0:0:
487,228,63284,1,0,0:0:0:0:
416,344,63472,1,0,0:0:0:0:
370,219,63659,1,0,0:0:0:0:
293,344,63847,1,0,0:0:0:0:
370,219,64034,1,0,0:0:0:0:
293,344,64222,1,0,0:0:0:0:
195,217,64409,1,0,0:0:0:0:
79,41,64597,5,0,0:0:0:0:
413,104,64784,1,0,0:0:0:0:
413,104,64878,1,0,0:0:0:0:
413,104,64972,1,0,0:0:0:0:
151,211,65159,1,0,0:0:0:0:
374,318,65347,1,0,0:0:0:0:
374,318,65440,1,0,0:0:0:0:
287,52,65534,1,0,0:0:0:0:
52,139,65722,1,0,0:0:0:0:
128,288,65909,1,0,0:0:0:0:
451,248,66097,1,0,0:0:0:0:
419,192,66190,1,0,0:0:0:0:
388,136,66284,1,0,0:0:0:0:
303,123,66472,1,0,0:0:0:0:
285,173,66565,1,0,0:0:0:0:
268,223,66659,1,0,0:0:0:0:
251,273,66753,1,0,0:0:0:0:
233,323,66847,1,0,0:0:0:0:
79,41,67222,5,0,0:0:0:0:
79,111,67409,1,0,0:0:0:0:
142,77,67597,1,0,0:0:0:0:
134,156,67784,1,0,0:0:0:0:
196,120,67972,1,0,0:0:0:0:
193,200,68159,1,0,0:0:0:0:
258,163,68347,1,0,0:0:0:0:
256,237,68534,1,0,0:0:0:0:
448,347,68909,1,0,0:0:0:0:
306,322,69097,1,0,0:0:0:0:
437,241,69284,1,0,0:0:0:0:
246,237,69472,1,0,0:0:0:0:
410,149,69659,1,0,0:0:0:0:
223,138,69847,1,0,0:0:0:0:
128,285,70222,5,0,0:0:0:0:
378,95,70409,1,0,0:0:0:0:
338,331,70597,1,0,0:0:0:0:
232,59,70784,1,0,0:0:0:0:
241,341,70972,1,0,0:0:0:0:
199,60,71159,1,0,0:0:0:0:
127,345,71347,1,0,0:0:0:0:
292,58,71534,1,0,0:0:0:0:
77,250,71722,1,0,0:0:0:0:
386,95,71909,1,0,0:0:0:0:
357,359,72097,1,0,0:0:0:0:
50,36,72472,1,0,0:0:0:0:
88,41,72847,5,0,0:0:0:0:
124,170,72940,1,0,0:0:0:0:
213,272,73034,1,0,0:0:0:0:
337,326,73128,1,0,0:0:0:0:
472,322,73222,1,0,0:0:0:0:
468,192,73315,1,0,0:0:0:0:
332,193,73409,1,0,0:0:0:0:
337,326,73503,1,0,0:0:0:0:
464,93,73597,1,0,0:0:0:0:
333,114,73690,1,0,0:0:0:0:
281,181,73783,1,0,0:0:0:0:
229,248,73877,1,0,0:0:0:0:
180,339,73972,1,0,0:0:0:0:
106,299,74065,1,0,0:0:0:0:
75,222,74159,1,0,0:0:0:0:
100,143,74253,1,0,0:0:0:0:
170,98,74347,1,0,0:0:0:0:
252,82,74440,1,0,0:0:0:0:
276,149,74533,1,0,0:0:0:0:
345,169,74627,1,0,0:0:0:0:
402,126,74721,1,0,0:0:0:0:
397,42,74909,5,0,0:0:0:0:
328,9,75002,1,0,0:0:0:0:
253,13,75096,1,0,0:0:0:0:
189,54,75190,1,0,0:0:0:0:
152,120,75284,1,0,0:0:0:0:
152,196,75377,1,0,0:0:0:0:
188,262,75471,1,0,0:0:0:0:
252,303,75565,1,0,0:0:0:0:
327,308,75659,1,0,0:0:0:0:
396,276,75752,1,0,0:0:0:0:
440,215,75846,1,0,0:0:0:0:
360,50,76034,1,0,0:0:0:0:
267,224,76222,1,0,0:0:0:0:
180,52,76409,1,0,0:0:0:0:
180,52,76597,5,0,0:0:0:0:
252,31,76690,1,0,0:0:0:0:
323,55,76784,1,0,0:0:0:0:
367,116,76878,1,0,0:0:0:0:
367,192,76972,1,0,0:0:0:0:
324,253,77065,1,0,0:0:0:0:
253,279,77159,1,0,0:0:0:0:
181,259,77253,1,0,0:0:0:0:
133,200,77347,1,0,0:0:0:0:
134,90,77440,1,0,0:0:0:0:
248,89,77534,1,0,0:0:0:0:
250,198,77628,1,0,0:0:0:0:
133,200,77722,1,0,0:0:0:0:
133,200,77815,6,0,L|133:299,1,85
251,280,78284,1,0,0:0:0:0:
314,274,78377,1,0,0:0:0:0:
377,268,78471,1,0,0:0:0:0:
441,262,78565,1,0,0:0:0:0:
504,256,78659,1,0,0:0:0:0:
504,256,78753,1,0,0:0:0:0:
390,42,79034,1,0,0:0:0:0:
271,258,79222,1,0,0:0:0:0:
476,142,79409,1,0,0:0:0:0:
145,130,79597,1,0,0:0:0:0:
366,350,79784,1,0,0:0:0:0:
283,45,79972,1,0,0:0:0:0:
164,342,80159,1,0,0:0:0:0:
405,205,80347,1,0,0:0:0:0:
56,237,80534,1,0,0:0:0:0:
125,32,80722,1,0,0:0:0:0:
274,313,80909,1,0,0:0:0:0:
191,347,81097,5,0,0:0:0:0:
118,304,81190,1,0,0:0:0:0:
72,234,81284,1,0,0:0:0:0:
62,150,81378,1,0,0:0:0:0:
91,71,81472,1,0,0:0:0:0:
152,13,81565,1,0,0:0:0:0:
232,0,81659,1,0,0:0:0:0:
315,2,81753,1,0,0:0:0:0:
383,52,81847,1,0,0:0:0:0:
422,127,81940,1,0,0:0:0:0:
423,211,82034,1,0,0:0:0:0:
386,287,82128,1,0,0:0:0:0:
281,346,82222,1,0,0:0:0:0:
106,347,82315,1,0,0:0:0:0:
92,43,82784,5,0,0:0:0:0:
224,170,82972,1,0,0:0:0:0:
220,41,83159,1,0,0:0:0:0:
143,114,83252,1,0,0:0:0:0:
67,188,83346,1,0,0:0:0:0:
144,283,83534,1,0,0:0:0:0:
246,254,83627,1,0,0:0:0:0:
348,225,83721,1,0,0:0:0:0:
396,34,83909,1,0,0:0:0:0:
151,175,84097,1,0,0:0:0:0:
152,243,84190,1,0,0:0:0:0:
256,331,84378,1,0,0:0:0:0:
337,284,84471,1,0,0:0:0:0:
368,196,84565,1,0,0:0:0:0:
334,108,84659,1,0,0:0:0:0:
251,64,84753,1,0,0:0:0:0:
66,39,85034,5,0,0:0:0:0:
266,194,85222,1,0,0:0:0:0:
471,345,85409,1,0,0:0:0:0:
412,123,85597,1,0,0:0:0:0:
379,279,85784,1,0,0:0:0:0:
325,213,85877,1,0,0:0:0:0:
271,147,85971,1,0,0:0:0:0:
78,99,86159,1,0,0:0:0:0:
142,329,86253,1,0,0:0:0:0:
142,329,86347,1,0,0:0:0:0:
275,325,86534,1,0,0:0:0:0:
334,233,86627,1,0,0:0:0:0:
290,134,86721,1,0,0:0:0:0:
183,116,86815,1,0,0:0:0:0:
255,26,86909,1,0,0:0:0:0:
348,58,87284,1,0,0:0:0:0:
366,141,87377,1,0,0:0:0:0:
384,224,87471,1,0,0:0:0:0:
398,309,87565,1,0,0:0:0:0:
290,269,87659,1,0,0:0:0:0:
270,156,87753,1,0,0:0:0:0:
358,82,87847,1,0,0:0:0:0:
465,122,87940,1,0,0:0:0:0:
485,235,88034,1,0,0:0:0:0:
290,269,88128,1,0,0:0:0:0:
358,82,88222,1,0,0:0:0:0:
252,62,88409,6,0,P|195:63|297:141,1,340
290,161,89159,1,0,0:0:0:0:
352,155,89252,1,0,0:0:0:0:
403,192,89346,1,0,0:0:0:0:
417,253,89440,1,0,0:0:0:0:
387,308,89534,1,0,0:0:0:0:
329,330,89627,1,0,0:0:0:0:
195,333,89909,1,0,0:0:0:0:
243,279,90002,1,0,0:0:0:0:
243,206,90096,1,0,0:0:0:0:
193,153,90190,1,0,0:0:0:0:
121,148,90284,1,0,0:0:0:0:
113,230,90472,1,0,0:0:0:0:
293,50,90659,1,0,0:0:0:0:
360,287,90847,1,0,0:0:0:0:
371,217,90940,1,0,0:0:0:0:
381,149,91034,1,0,0:0:0:0:
389,82,91128,1,0,0:0:0:0:
394,13,91222,1,0,0:0:0:0:
327,46,91409,1,0,0:0:0:0:
58,36,91784,5,0,0:0:0:0:
170,136,91972,1,0,0:0:0:0:
409,229,92159,2,0,B|331:143|297:267|303:268|442:349,1,255
415,333,92722,2,0,B|509:277|509:277|497:171|400:239,1,255
410,149,93472,1,0,0:0:0:0:
371,52,93659,1,0,0:0:0:0:
197,132,93752,1,0,0:0:0:0:
23,212,93846,1,0,0:0:0:0:
196,36,94034,1,0,0:0:0:0:
194,184,94127,1,0,0:0:0:0:
192,333,94221,1,0,0:0:0:0:
324,342,94597,5,0,0:0:0:0:
287,321,94690,1,0,0:0:0:0:
271,283,94784,1,0,0:0:0:0:
282,243,94878,1,0,0:0:0:0:
315,218,94972,1,0,0:0:0:0:
357,219,95065,1,0,0:0:0:0:
389,245,95159,1,0,0:0:0:0:
398,286,95253,1,0,0:0:0:0:
398,286,95347,5,0,0:0:0:0:
453,194,95440,1,0,0:0:0:0:
440,87,95534,1,0,0:0:0:0:
363,12,95628,1,0,0:0:0:0:
257,1,95722,1,0,0:0:0:0:
166,58,95815,1,0,0:0:0:0:
130,160,95909,1,0,0:0:0:0:
165,261,96003,1,0,0:0:0:0:
165,261,96097,5,0,0:0:0:0:
285,327,96190,1,0,0:0:0:0:
417,294,96284,1,0,0:0:0:0:
492,179,96378,1,0,0:0:0:0:
469,45,96472,1,0,0:0:0:0:
361,0,96565,1,0,0:0:0:0:
89,66,96659,1,0,0:0:0:0:
286,78,97034,1,0,0:0:0:0:
338,275,97128,1,0,0:0:0:0:
142,222,97222,1,0,0:0:0:0:
286,78,97315,1,0,0:0:0:0:
357,125,97408,1,0,0:0:0:0:
414,187,97502,1,0,0:0:0:0:
456,261,97596,1,0,0:0:0:0:
176,345,97784,1,0,0:0:0:0:
256,192,97972,12,0,100597,0:0:0:0:
255,378,108659,5,0,0:0:0:0:
69,191,108847,5,0,0:0:0:0:
256,5,109034,5,0,0:0:0:0:
442,192,109222,5,0,0:0:0:0:
376,192,109409,2,0,B|296:135|318:199|360:174,1,85
324,172,109597,2,0,P|291:219|296:228,1,50.9999984436036
181,87,110159,6,0,P|238:80|212:106,1,101.999996887207
237,75,110722,1,0,0:0:0:0:
265,277,110909,1,0,0:0:0:0:
75,203,111284,1,0,0:0:0:0:
138,69,111659,5,0,0:0:0:0:
191,49,111752,1,0,0:0:0:0:
247,58,111846,1,0,0:0:0:0:
293,92,111940,1,0,0:0:0:0:
317,143,112034,1,0,0:0:0:0:
342,241,112128,1,0,0:0:0:0:
349,290,112221,1,0,0:0:0:0:
383,327,112315,1,0,0:0:0:0:
432,338,112409,1,0,0:0:0:0:
431,56,112597,1,0,0:0:0:0:
289,307,112784,1,0,0:0:0:0:
101,82,113159,5,0,0:0:0:0:
169,76,113252,1,0,0:0:0:0:
227,113,113346,1,0,0:0:0:0:
252,178,113440,1,0,0:0:0:0:
232,244,113534,1,0,0:0:0:0:
365,242,113722,1,0,0:0:0:0:
347,175,113815,1,0,0:0:0:0:
375,112,113909,1,0,0:0:0:0:
436,79,114003,1,0,0:0:0:0:
503,91,114097,1,0,0:0:0:0:
292,44,114284,1,0,0:0:0:0:
161,153,114659,5,0,0:0:0:0:
197,129,114752,1,0,0:0:0:0:
237,148,114846,1,0,0:0:0:0:
240,192,114940,1,0,0:0:0:0:
205,217,115034,1,0,0:0:0:0:
165,200,115127,1,0,0:0:0:0:
99,331,115222,1,0,0:0:0:0:
334,77,115409,1,0,0:0:0:0:
411,249,115784,1,0,0:0:0:0:
294,312,116159,1,0,0:0:0:0:
353,362,116252,1,0,0:0:0:0:
428,342,116346,1,0,0:0:0:0:
456,270,116440,1,0,0:0:0:0:
413,205,116534,1,0,0:0:0:0:
335,203,116627,1,0,0:0:0:0:
288,265,116721,1,0,0:0:0:0:
235,218,116909,2,0,B|243:188|221:160|221:160|291:146|152:151|291:112|154:109|303:105|175:89|303:82|148:82|314:61|184:77,1,203.999993774414
265,256,117847,1,0,0:0:0:0:
197,220,117940,1,0,0:0:0:0:
210,145,118034,1,0,0:0:0:0:
286,134,118128,1,0,0:0:0:0:
320,203,118222,1,0,0:0:0:0:
256,194,118409,1,0,0:0:0:0:
256,194,118784,1,0,0:0:0:0:
201,98,119159,1,0,0:0:0:0:
328,111,119253,1,0,0:0:0:0:
355,236,119347,1,0,0:0:0:0:
244,299,119440,1,0,0:0:0:0:
149,214,119534,1,0,0:0:0:0:
201,98,119722,1,0,0:0:0:0:
402,179,119909,1,0,0:0:0:0:
43,358,120284,1,0,0:0:0:0:
112,72,120659,5,0,0:0:0:0:
408,34,120847,1,0,0:0:0:0:
58,286,121034,1,0,0:0:0:0:
289,356,121222,1,0,0:0:0:0:
355,310,121315,1,0,0:0:0:0:
392,238,121409,1,0,0:0:0:0:
390,157,121503,1,0,0:0:0:0:
349,87,121597,1,0,0:0:0:0:
173,343,121784,1,0,0:0:0:0:
100,55,121972,5,0,0:0:0:0:
418,90,122159,1,0,0:0:0:0:
316,354,122347,1,0,0:0:0:0:
256,3,122534,1,0,0:0:0:0:
256,3,122628,1,0,0:0:0:0:
256,3,122722,1,0,0:0:0:0:
32,260,122909,1,0,0:0:0:0:
474,279,123097,1,0,0:0:0:0:
474,279,123190,1,0,0:0:0:0:
474,279,123284,1,0,0:0:0:0:
468,200,123659,5,0,0:0:0:0:
410,109,123752,1,0,0:0:0:0:
304,91,123846,1,0,0:0:0:0:
220,158,123940,1,0,0:0:0:0:
213,265,124034,1,0,0:0:0:0:
139,314,124222,1,0,0:0:0:0:
139,84,124315,1,0,0:0:0:0:
337,199,124409,1,0,0:0:0:0:
377,67,124597,1,0,0:0:0:0:
410,67,124784,1,0,0:0:0:0:
446,69,124972,1,0,0:0:0:0:
460,146,125159,1,0,0:0:0:0:
383,96,125252,1,0,0:0:0:0:
300,135,125346,1,0,0:0:0:0:
165,203,125440,1,0,0:0:0:0:
98,267,125534,1,0,0:0:0:0:
93,50,125722,1,0,0:0:0:0:
163,98,125815,1,0,0:0:0:0:
217,164,125909,1,0,0:0:0:0:
250,244,126003,1,0,0:0:0:0:
258,329,126097,1,0,0:0:0:0:
405,41,126284,1,0,0:0:0:0:
354,110,126659,5,0,0:0:0:0:
295,116,126752,1,0,0:0:0:0:
260,162,126846,1,0,0:0:0:0:
269,220,126940,1,0,0:0:0:0:
317,253,127034,1,0,0:0:0:0:
374,240,127127,1,0,0:0:0:0:
405,190,127221,1,0,0:0:0:0:
389,134,127315,1,0,0:0:0:0:
334,183,127409,1,0,0:0:0:0:
334,183,127784,1,0,0:0:0:0:
334,183,128159,5,0,0:0:0:0:
335,289,128252,1,0,0:0:0:0:
259,363,128346,1,0,0:0:0:0:
153,358,128440,1,0,0:0:0:0:
84,277,128534,1,0,0:0:0:0:
96,171,128627,1,0,0:0:0:0:
181,108,128721,1,0,0:0:0:0:
285,126,128815,1,0,0:0:0:0:
218,234,128909,1,0,0:0:0:0:
218,234,129284,1,0,0:0:0:0:
218,234,129659,5,0,0:0:0:0:
172,184,129752,1,0,0:0:0:0:
127,135,129846,1,0,0:0:0:0:
81,86,129940,1,0,0:0:0:0:
36,37,130034,1,0,0:0:0:0:
259,36,130222,1,0,0:0:0:0:
421,233,130409,1,0,0:0:0:0:
421,233,130597,5,0,0:0:0:0:
345,272,130690,1,0,0:0:0:0:
270,312,130784,1,0,0:0:0:0:
83,235,130972,1,0,0:0:0:0:
83,165,131065,1,0,0:0:0:0:
146,200,131159,1,0,0:0:0:0:
175,51,131347,1,0,0:0:0:0:
273,132,131440,1,0,0:0:0:0:
371,213,131534,1,0,0:0:0:0:
371,213,131722,1,0,0:0:0:0:
366,101,131815,1,0,0:0:0:0:
291,16,131909,1,0,0:0:0:0:
181,0,132003,1,0,0:0:0:0:
82,51,132097,1,0,0:0:0:0:
39,154,132190,1,0,0:0:0:0:
70,263,132284,1,0,0:0:0:0:
162,328,132378,1,0,0:0:0:0:
274,321,132472,1,0,0:0:0:0:
212,171,132847,1,0,0:0:0:0:
425,65,133222,5,0,0:0:0:0:
425,65,133315,1,0,0:0:0:0:
425,65,133409,1,0,0:0:0:0:
328,323,133597,1,0,0:0:0:0:
131,322,133784,1,0,0:0:0:0:
131,322,133878,1,0,0:0:0:0:
131,322,133972,1,0,0:0:0:0:
39,68,134159,1,0,0:0:0:0:
108,66,134347,1,0,0:0:0:0:
144,122,134534,1,0,0:0:0:0:
113,186,134722,1,0,0:0:0:0:
45,187,134909,1,0,0:0:0:0:
80,130,135003,1,0,0:0:0:0:
181,128,135097,1,0,0:0:0:0:
183,230,135190,1,0,0:0:0:0:
81,231,135284,1,0,0:0:0:0:
183,230,135378,1,0,0:0:0:0:
222,82,135472,1,0,0:0:0:0:
370,121,135565,1,0,0:0:0:0:
330,269,135659,1,0,0:0:0:0:
404,30,135753,1,0,0:0:0:0:
462,60,135847,1,0,0:0:0:0:
139,69,136222,5,0,0:0:0:0:
118,343,136409,1,0,0:0:0:0:
464,197,136597,1,0,0:0:0:0:
308,48,136784,2,0,P|306:93|327:106,1,68
402,37,137065,2,0,P|402:92|380:109,1,68
340,170,137347,2,0,P|351:209|319:237,1,68
420,167,137628,2,0,P|437:200|482:206,1,68
371,137,137909,1,0,0:0:0:0:
293,133,138002,1,0,0:0:0:0:
229,178,138096,1,0,0:0:0:0:
207,253,138190,1,0,0:0:0:0:
236,325,138284,1,0,0:0:0:0:
303,364,138377,1,0,0:0:0:0:
380,353,138471,1,0,0:0:0:0:
445,268,138565,1,0,0:0:0:0:
284,78,138658,1,0,0:0:0:0:
36,62,138752,1,0,0:0:0:0:
115,124,139222,6,0,L|116:268,1,136
115,259,139597,1,0,0:0:0:0:
282,274,139972,1,0,0:0:0:0:
186,141,140159,1,0,0:0:0:0:
343,192,140347,1,0,0:0:0:0:
186,243,140534,1,0,0:0:0:0:
281,109,140722,1,0,0:0:0:0:
219,361,140909,1,0,0:0:0:0:
185,33,141097,1,0,0:0:0:0:
406,279,141284,1,0,0:0:0:0:
83,210,141472,1,0,0:0:0:0:
385,76,141659,1,0,0:0:0:0:
256,192,141847,1,0,0:0:0:0:
256,192,142034,1,0,0:0:0:0:
180,55,142222,5,0,0:0:0:0:
107,80,142315,1,0,0:0:0:0:
68,146,142409,1,0,0:0:0:0:
80,222,142503,1,0,0:0:0:0:
137,273,142597,1,0,0:0:0:0:
214,275,142690,1,0,0:0:0:0:
275,229,142784,1,0,0:0:0:0:
292,154,142878,1,0,0:0:0:0:
355,109,142972,1,0,0:0:0:0:
423,129,143065,1,0,0:0:0:0:
464,188,143159,1,0,0:0:0:0:
458,259,143253,1,0,0:0:0:0:
409,311,143347,1,0,0:0:0:0:
338,321,143440,1,0,0:0:0:0:
277,284,143534,1,0,0:0:0:0:
253,216,143628,1,0,0:0:0:0:
235,149,143722,1,0,0:0:0:0:
159,73,143815,1,0,0:0:0:0:
56,97,143909,1,0,0:0:0:0:
19,196,144003,1,0,0:0:0:0:
82,282,144097,1,0,0:0:0:0:
185,269,144190,1,0,0:0:0:0:
289,311,144283,1,0,0:0:0:0:
398,281,144377,1,0,0:0:0:0:
466,191,144471,1,0,0:0:0:0:
466,78,144565,1,0,0:0:0:0:
397,0,144658,1,0,0:0:0:0:
146,79,144753,1,0,0:0:0:0:
42,348,144847,1,0,0:0:0:0:
239,55,145222,5,0,0:0:0:0:
352,342,145409,1,0,0:0:0:0:
64,231,145597,1,0,0:0:0:0:
64,169,145690,1,0,0:0:0:0:
117,200,145784,1,0,0:0:0:0:
187,273,145972,2,0,P|223:317|262:302,1,76.4999976654053
375,296,146347,1,0,0:0:0:0:
485,266,146440,1,0,0:0:0:0:
456,377,146534,1,0,0:0:0:0:
456,199,146722,1,0,0:0:0:0:
452,26,146909,1,0,0:0:0:0:
395,66,147097,1,0,0:0:0:0:
378,52,147190,1,0,0:0:0:0:
357,48,147284,1,0,0:0:0:0:
337,55,147378,1,0,0:0:0:0:
323,72,147472,1,0,0:0:0:0:
321,94,147565,1,0,0:0:0:0:
329,113,147659,1,0,0:0:0:0:
359,136,147753,1,0,0:0:0:0:
380,166,147846,1,0,0:0:0:0:
374,202,147940,1,0,0:0:0:0:
344,224,148034,1,0,0:0:0:0:
308,218,148128,1,0,0:0:0:0:
266,183,148222,1,0,0:0:0:0:
212,181,148315,1,0,0:0:0:0:
199,233,148409,1,0,0:0:0:0:
101,45,148784,5,0,0:0:0:0:
21,163,148972,1,0,0:0:0:0:
184,92,149159,1,0,0:0:0:0:
124,294,149347,1,0,0:0:0:0:
281,66,149534,1,0,0:0:0:0:
450,338,149722,1,0,0:0:0:0:
441,8,149909,1,0,0:0:0:0:
257,345,150097,1,0,0:0:0:0:
310,291,150190,1,0,0:0:0:0:
365,238,150283,1,0,0:0:0:0:
420,185,150377,1,0,0:0:0:0:
475,132,150471,1,0,0:0:0:0:
417,88,150565,1,0,0:0:0:0:
343,148,150658,1,0,0:0:0:0:
269,209,150752,1,0,0:0:0:0:
195,270,150846,1,0,0:0:0:0:
48,52,151222,5,0,0:0:0:0:
45,194,151409,1,0,0:0:0:0:
173,123,151597,1,0,0:0:0:0:
3,123,151784,1,0,0:0:0:0:
103,122,151972,1,0,0:0:0:0:
103,300,152159,1,0,0:0:0:0:
36,231,152347,1,0,0:0:0:0:
251,233,152534,1,0,0:0:0:0:
137,48,152722,1,0,0:0:0:0:
336,62,152909,1,0,0:0:0:0:
259,317,153097,1,0,0:0:0:0:
259,317,153190,1,0,0:0:0:0:
259,317,153284,1,0,0:0:0:0:
423,196,153472,1,0,0:0:0:0:
423,196,153565,1,0,0:0:0:0:
70,102,153753,1,0,0:0:0:0:
70,102,153847,1,0,0:0:0:0:
366,41,154034,1,0,0:0:0:0:
90,318,154222,1,0,0:0:0:0:
366,41,154409,1,0,0:0:0:0:
99,40,154597,5,0,0:0:0:0:
161,67,154690,1,0,0:0:0:0:
223,95,154784,1,0,0:0:0:0:
179,149,154878,1,0,0:0:0:0:
142,192,154971,1,0,0:0:0:0:
106,236,155065,1,0,0:0:0:0:
70,279,155159,1,0,0:0:0:0:
135,299,155253,1,0,0:0:0:0:
216,273,155346,1,0,0:0:0:0:
297,248,155440,1,0,0:0:0:0:
378,223,155534,1,0,0:0:0:0:
459,198,155628,1,0,0:0:0:0:
422,138,155722,1,0,0:0:0:0:
338,120,155815,1,0,0:0:0:0:
255,102,155909,1,0,0:0:0:0:
159,90,156003,1,0,0:0:0:0:
109,93,156096,1,0,0:0:0:0:
83,134,156190,1,0,0:0:0:0:
99,181,156284,1,0,0:0:0:0:
146,195,156378,1,0,0:0:0:0:
211,201,156472,1,0,0:0:0:0:
270,279,156565,1,0,0:0:0:0:
239,372,156659,1,0,0:0:0:0:
145,399,156753,1,0,0:0:0:0:
69,337,156847,1,0,0:0:0:0:
256,192,156940,12,0,158534,0:0:0:0:
15,83,158534,5,0,0:0:0:0:
470,214,158722,1,0,0:0:0:0:
15,83,158909,1,0,0:0:0:0:
350,32,159097,1,0,0:0:0:0:
94,229,159284,1,0,0:0:0:0:
49,301,159377,1,0,0:0:0:0:
5,374,159471,1,0,0:0:0:0:
350,32,159659,1,0,0:0:0:0:
49,301,159847,1,0,0:0:0:0:
261,331,160034,1,0,0:0:0:0:
314,328,160127,1,0,0:0:0:0:
367,325,160221,1,0,0:0:0:0:
94,226,160409,1,0,0:0:0:0:
427,40,160597,1,0,0:0:0:0:
427,40,160690,1,0,0:0:0:0:
427,40,160784,1,0,0:0:0:0:
364,119,160972,1,0,0:0:0:0:
415,201,161065,1,0,0:0:0:0:
338,260,161159,1,0,0:0:0:0:
286,185,161440,1,0,0:0:0:0:
215,255,161534,1,0,0:0:0:0:
117,62,161722,1,0,0:0:0:0:
147,175,161815,1,0,0:0:0:0:
41,226,161909,1,0,0:0:0:0:
309,46,162097,5,0,0:0:0:0:
228,329,162284,1,0,0:0:0:0:
285,282,162377,1,0,0:0:0:0:
355,257,162471,1,0,0:0:0:0:
429,257,162565,1,0,0:0:0:0:
499,280,162659,1,0,0:0:0:0:
448,43,162847,1,0,0:0:0:0:
387,102,162940,1,0,0:0:0:0:
308,131,163034,1,0,0:0:0:0:
224,125,163128,1,0,0:0:0:0:
150,85,163222,1,0,0:0:0:0:
56,72,163409,1,0,0:0:0:0:
224,312,163597,1,0,0:0:0:0:
194,91,163784,1,0,0:0:0:0:
34,365,163972,1,0,0:0:0:0:
420,105,164159,1,0,0:0:0:0:
420,83,164253,1,0,0:0:0:0:
438,94,164347,1,0,0:0:0:0:
118,260,164534,1,0,0:0:0:0:
102,244,164628,1,0,0:0:0:0:
118,229,164722,1,0,0:0:0:0:
133,244,164815,1,0,0:0:0:0:
430,89,164909,1,0,0:0:0:0:
277,37,165284,5,0,0:0:0:0:
319,74,165377,1,0,0:0:0:0:
361,112,165471,1,0,0:0:0:0:
404,149,165565,1,0,0:0:0:0:
399,228,165659,1,0,0:0:0:0:
352,184,165752,1,0,0:0:0:0:
306,140,165846,1,0,0:0:0:0:
260,96,165940,1,0,0:0:0:0:
213,52,166034,1,0,0:0:0:0:
147,72,166128,1,0,0:0:0:0:
188,110,166221,1,0,0:0:0:0:
230,148,166315,1,0,0:0:0:0:
271,187,166409,1,0,0:0:0:0:
313,225,166503,1,0,0:0:0:0:
355,264,166596,1,0,0:0:0:0:
396,302,166690,1,0,0:0:0:0:
383,372,166784,1,0,0:0:0:0:
346,340,166877,1,0,0:0:0:0:
310,309,166971,1,0,0:0:0:0:
274,278,167065,1,0,0:0:0:0:
238,246,167159,1,0,0:0:0:0:
202,215,167252,1,0,0:0:0:0:
166,184,167346,1,0,0:0:0:0:
129,153,167440,1,0,0:0:0:0:
93,121,167534,1,0,0:0:0:0:
93,121,167722,1,0,0:0:0:0:
374,51,168097,5,0,0:0:0:0:
340,38,168190,1,0,0:0:0:0:
307,50,168284,1,0,0:0:0:0:
291,82,168378,1,0,0:0:0:0:
301,116,168472,1,0,0:0:0:0:
332,135,168565,1,0,0:0:0:0:
367,128,168659,1,0,0:0:0:0:
392,96,168753,1,0,0:0:0:0:
463,103,168846,1,0,0:0:0:0:
512,149,168940,1,0,0:0:0:0:
421,215,169034,1,0,0:0:0:0:
512,286,169128,1,0,0:0:0:0:
455,328,169221,1,0,0:0:0:0:
383,331,169315,1,0,0:0:0:0:
323,292,169409,1,0,0:0:0:0:
289,229,169503,1,0,0:0:0:0:
248,124,169596,1,0,0:0:0:0:
146,77,169690,1,0,0:0:0:0:
40,114,169784,1,0,0:0:0:0:
0,215,169878,1,0,0:0:0:0:
25,322,169971,1,0,0:0:0:0:
124,374,170065,1,0,0:0:0:0:
232,343,170159,1,0,0:0:0:0:
289,229,170253,1,0,0:0:0:0:
363,118,170346,1,0,0:0:0:0:
55,59,170534,5,0,0:0:0:0:
474,175,170722,1,0,0:0:0:0:
55,59,170909,1,0,0:0:0:0:
122,363,171097,1,0,0:0:0:0:
236,52,171284,1,0,0:0:0:0:
361,74,171378,1,0,0:0:0:0:
279,171,171472,1,0,0:0:0:0:
390,296,171659,1,0,0:0:0:0:
421,304,171847,1,0,0:0:0:0:
35,273,172034,1,0,0:0:0:0:
35,273,172128,1,0,0:0:0:0:
35,273,172222,1,0,0:0:0:0:
157,109,172409,6,0,P|117:71|174:98,1,170
157,109,172784,1,0,0:0:0:0:
496,184,172972,1,0,0:0:0:0:
157,109,173159,1,0,0:0:0:0:
171,208,173347,1,0,0:0:0:0:
125,232,173440,1,0,0:0:0:0:
111,282,173534,1,0,0:0:0:0:
330,192,173722,1,0,0:0:0:0:
378,208,173815,1,0,0:0:0:0:
400,255,173909,1,0,0:0:0:0:
105,84,174097,5,0,0:0:0:0:
87,47,174190,1,0,0:0:0:0:
98,7,174284,1,0,0:0:0:0:
133,0,174378,1,0,0:0:0:0:
174,0,174472,1,0,0:0:0:0:
198,26,174565,1,0,0:0:0:0:
194,67,174659,1,0,0:0:0:0:
162,94,174753,1,0,0:0:0:0:
162,94,174847,1,0,0:0:0:0:
121,97,174940,1,0,0:0:0:0:
88,72,175034,1,0,0:0:0:0:
80,31,175128,1,0,0:0:0:0:
102,0,175222,1,0,0:0:0:0:
141,0,175315,1,0,0:0:0:0:
276,39,175409,5,0,0:0:0:0:
348,55,175502,1,0,0:0:0:0:
415,93,175596,1,0,0:0:0:0:
467,151,175690,1,0,0:0:0:0:
497,223,175784,1,0,0:0:0:0:
503,300,175877,1,0,0:0:0:0:
483,375,175971,1,0,0:0:0:0:
73,86,176159,1,0,0:0:0:0:
103,186,176252,1,0,0:0:0:0:
172,266,176346,1,0,0:0:0:0:
267,311,176440,1,0,0:0:0:0:
373,313,176534,1,0,0:0:0:0:
470,272,176627,1,0,0:0:0:0:
512,195,176721,1,0,0:0:0:0:
73,86,176909,1,0,0:0:0:0:
463,42,177097,5,0,0:0:0:0:
158,341,177284,1,0,0:0:0:0:
463,42,177472,1,0,0:0:0:0:
370,94,177565,1,0,0:0:0:0:
278,147,177659,1,0,0:0:0:0:
158,341,177847,1,0,0:0:0:0:
71,86,178034,1,0,0:0:0:0:
158,341,178222,1,0,0:0:0:0:
295,285,178315,1,0,0:0:0:0:
433,229,178409,1,0,0:0:0:0:
420,156,178503,1,0,0:0:0:0:
280,178,178596,1,0,0:0:0:0:
140,201,178690,1,0,0:0:0:0:
0,223,178784,1,0,0:0:0:0:
83,33,178878,1,0,0:0:0:0:
175,140,178971,1,0,0:0:0:0:
267,248,179065,1,0,0:0:0:0:
359,355,179159,1,0,0:0:0:0:
424,40,179253,1,0,0:0:0:0:
297,130,179346,1,0,0:0:0:0:
170,221,179440,1,0,0:0:0:0:
43,311,179534,1,0,0:0:0:0:
428,244,179628,1,0,0:0:0:0:
282,187,179721,1,0,0:0:0:0:
137,130,179815,1,0,0:0:0:0:
0,73,179909,1,0,0:0:0:0:
428,244,180097,5,0,0:0:0:0:
0,73,180284,1,0,0:0:0:0:
0,73,180378,1,0,0:0:0:0:
0,73,180472,1,0,0:0:0:0:
356,353,180659,1,0,0:0:0:0:
421,41,180847,1,0,0:0:0:0:
139,146,181034,1,0,0:0:0:0:
123,130,181128,1,0,0:0:0:0:
139,115,181222,1,0,0:0:0:0:
154,130,181315,1,0,0:0:0:0:
471,192,181597,1,0,0:0:0:0:
13,328,181784,1,0,0:0:0:0:
259,340,181972,1,0,0:0:0:0:
231,257,182065,1,0,0:0:0:0:
275,172,182159,1,0,0:0:0:0:
272,80,182253,1,0,0:0:0:0:
204,14,182347,1,0,0:0:0:0:
66,155,182440,1,0,0:0:0:0:
135,227,182533,1,0,0:0:0:0:
280,297,182628,1,0,0:0:0:0:
229,288,182722,1,0,0:0:0:0:
358,317,182815,1,0,0:0:0:0:
260,335,183097,1,0,0:0:0:0:
201,17,183284,1,0,0:0:0:0:
256,192,183472,12,0,186097,0:0:0:0:
60,77,188909,5,0,0:0:0:0:
467,171,189097,1,0,0:0:0:0:
61,82,189284,1,0,0:0:0:0:
105,173,189377,1,0,0:0:0:0:
149,265,189471,1,0,0:0:0:0:
449,33,189659,1,0,0:0:0:0:
149,265,189847,1,0,0:0:0:0:
449,33,190034,1,0,0:0:0:0:
449,33,190128,1,0,0:0:0:0:
449,33,190222,1,0,0:0:0:0:
256,191,190409,5,0,0:0:0:0:
256,204,190597,1,0,0:0:0:0:
243,192,190690,1,0,0:0:0:0:
256,179,190784,1,0,0:0:0:0:
268,192,190878,1,0,0:0:0:0:
256,240,190972,1,0,0:0:0:0:
207,192,191065,1,0,0:0:0:0:
256,143,191159,1,0,0:0:0:0:
304,192,191253,1,0,0:0:0:0:
256,276,191347,1,0,0:0:0:0:
171,192,191440,1,0,0:0:0:0:
256,107,191534,1,0,0:0:0:0:
340,192,191628,1,0,0:0:0:0:
256,336,191722,1,0,0:0:0:0:
111,191,191815,1,0,0:0:0:0:
256,47,191909,1,0,0:0:0:0:
400,192,192003,1,0,0:0:0:0:
256,192,192097,1,0,0:0:0:0:
98,34,192190,1,0,0:0:0:0:
26,193,192472,5,0,0:0:0:0:
26,193,192565,1,0,0:0:0:0:
26,193,192659,1,0,0:0:0:0:
210,34,192847,1,0,0:0:0:0:
350,364,193034,1,0,0:0:0:0:
308,285,193222,1,0,0:0:0:0:
227,135,193315,1,0,0:0:0:0:
266,210,193409,1,0,0:0:0:0:
427,43,193597,1,0,0:0:0:0:
378,47,193690,1,0,0:0:0:0:
361,92,193784,1,0,0:0:0:0:
395,127,193878,1,0,0:0:0:0:
437,160,193972,1,0,0:0:0:0:
474,247,194065,1,0,0:0:0:0:
401,309,194159,1,0,0:0:0:0:
321,258,194253,1,0,0:0:0:0:
338,168,194347,1,0,0:0:0:0:
417,160,194440,1,0,0:0:0:0:
479,210,194534,1,0,0:0:0:0:
489,289,194628,1,0,0:0:0:0:
441,353,194722,1,0,0:0:0:0:
362,365,194815,1,0,0:0:0:0:
300,319,194909,1,0,0:0:0:0:
270,235,195002,1,0,0:0:0:0:
189,201,195096,1,0,0:0:0:0:
109,237,195190,1,0,0:0:0:0:
76,328,195284,1,0,0:0:0:0:
256,192,195472,12,0,196597,0:0:0:0:
77,106,207847,6,0,P|220:60|357:93,1,272
336,82,208597,2,0,P|304:133|143:289,1,272
153,281,209347,2,0,P|314:315|405:256,1,272
399,262,210097,2,0,P|368:193|497:79,1,272
492,78,210847,1,0,0:0:0:0:
492,78,211034,1,0,0:0:0:0:
320,86,211222,1,0,0:0:0:0:
499,250,211409,1,0,0:0:0:0:
320,86,211597,1,0,0:0:0:0:
320,86,211784,2,0,P|330:151|285:88,1,204
282,90,212347,1,0,0:0:0:0:
282,90,212534,1,0,0:0:0:0:
255,152,212627,1,0,0:0:0:0:
227,214,212721,1,0,0:0:0:0:
227,214,212909,5,0,0:0:0:0:
304,282,213002,1,0,0:0:0:0:
381,349,213096,1,0,0:0:0:0:
381,349,213284,2,0,P|377:285|419:328,1,136
417,302,213847,2,0,B|408:221|408:221|375:295|482:193,1,204
473,200,214503,1,0,0:0:0:0:
473,200,214597,1,0,0:0:0:0:
449,140,214784,1,0,0:0:0:0:
341,88,214877,1,0,0:0:0:0:
234,37,214971,1,0,0:0:0:0:
234,37,215159,1,0,0:0:0:0:
234,37,215253,1,0,0:0:0:0:
234,37,215534,1,0,0:0:0:0:
277,119,215627,1,0,0:0:0:0:
321,202,215721,1,0,0:0:0:0:
364,285,215815,1,0,0:0:0:0:
407,368,215909,1,0,0:0:0:0:
407,368,216097,2,0,L|356:348,1,34
407,368,216284,2,0,L|434:330,1,34
375,354,216472,2,0,L|324:355,1,34
424,338,216659,2,0,L|423:287,1,34
339,356,216847,2,0,L|306:317,1,34
424,300,217034,2,0,L|467:274,1,34
316,328,217222,2,0,L|355:302,1,34
451,283,217409,2,0,L|405:266,1,34
346,304,217597,2,0,P|303:269|293:249,1,68
420,270,217878,2,0,P|434:234|410:188,1,68
297,261,218159,2,0,P|234:268|204:246,1,102
421,205,218534,2,0,P|440:168|412:111,1,102
200,246,218909,5,0,0:0:0:0:
318,173,219002,1,0,0:0:0:0:
435,103,219096,1,0,0:0:0:0:
435,103,219284,2,0,P|386:62|433:124,1,267.749991828919
429,131,219940,1,0,0:0:0:0:
433,136,220034,1,0,0:0:0:0:
446,226,220127,1,0,0:0:0:0:
377,286,220221,1,0,0:0:0:0:
355,199,220315,1,0,0:0:0:0:
308,100,220408,1,0,0:0:0:0:
199,100,220502,1,0,0:0:0:0:
153,199,220596,1,0,0:0:0:0:
252,194,221347,5,0,0:0:0:0:
231,330,221440,1,0,0:0:0:0:
101,368,221534,1,0,0:0:0:0:
12,266,221628,1,0,0:0:0:0:
67,142,221722,1,0,0:0:0:0:
141,248,221815,1,0,0:0:0:0:
141,75,221909,1,0,0:0:0:0:
290,161,222003,1,0,0:0:0:0:
176,163,222284,5,0,0:0:0:0:
228,252,222377,1,0,0:0:0:0:
321,297,222471,1,0,0:0:0:0:
424,282,222565,1,0,0:0:0:0:
501,213,222659,1,0,0:0:0:0:
420,202,222847,1,0,0:0:0:0:
397,91,222940,1,0,0:0:0:0:
317,11,223034,1,0,0:0:0:0:
206,0,223128,1,0,0:0:0:0:
102,33,223222,1,0,0:0:0:0:
39,127,223315,1,0,0:0:0:0:
39,240,223409,1,0,0:0:0:0:
102,334,223503,1,0,0:0:0:0:
173,280,223597,1,0,0:0:0:0:
212,238,223690,1,0,0:0:0:0:
251,196,223784,1,0,0:0:0:0:
245,331,223878,1,0,0:0:0:0:
312,263,223971,1,0,0:0:0:0:
380,195,224065,1,0,0:0:0:0:
350,359,224159,1,0,0:0:0:0:
443,263,224252,1,0,0:0:0:0:
512,167,224346,1,0,0:0:0:0:
458,178,224440,1,0,0:0:0:0:
355,113,224533,1,0,0:0:0:0:
252,177,224627,1,0,0:0:0:0:
264,297,224721,1,0,0:0:0:0:
358,227,224815,1,0,0:0:0:0:
334,316,224908,1,0,0:0:0:0:
250,355,225002,1,0,0:0:0:0:
167,314,225096,1,0,0:0:0:0:
85,259,225284,5,0,0:0:0:0:
74,184,225377,1,0,0:0:0:0:
102,114,225471,1,0,0:0:0:0:
162,68,225565,1,0,0:0:0:0:
237,60,225659,1,0,0:0:0:0:
237,60,225847,1,0,0:0:0:0:
292,52,225940,1,0,0:0:0:0:
325,96,226034,1,0,0:0:0:0:
303,146,226128,1,0,0:0:0:0:
248,151,226222,1,0,0:0:0:0:
217,103,226315,1,0,0:0:0:0:
112,134,226408,1,0,0:0:0:0:
97,242,226502,1,0,0:0:0:0:
188,301,226596,1,0,0:0:0:0:
280,243,226690,1,0,0:0:0:0:
192,200,227347,1,0,0:0:0:0:
275,136,227440,1,0,0:0:0:0:
378,157,227534,1,0,0:0:0:0:
430,248,227628,1,0,0:0:0:0:
395,347,227722,1,0,0:0:0:0:
298,386,227815,1,0,0:0:0:0:
204,339,228097,5,0,0:0:0:0:
321,291,228190,1,0,0:0:0:0:
383,180,228284,1,0,0:0:0:0:
363,55,228378,1,0,0:0:0:0:
269,0,228472,1,0,0:0:0:0:
143,0,228565,1,0,0:0:0:0:
39,34,228659,1,0,0:0:0:0:
3,156,228753,1,0,0:0:0:0:
50,273,228847,5,0,0:0:0:0:
172,339,228940,1,0,0:0:0:0:
296,367,229033,1,0,0:0:0:0:
407,301,229127,1,0,0:0:0:0:
443,179,229221,1,0,0:0:0:0:
385,64,229315,1,0,0:0:0:0:
264,21,229408,1,0,0:0:0:0:
147,72,229502,1,0,0:0:0:0:
96,189,229597,5,0,0:0:0:0:
136,315,229690,1,0,0:0:0:0:
48,199,229783,1,0,0:0:0:0:
58,56,229877,1,0,0:0:0:0:
158,0,229971,1,0,0:0:0:0:
302,0,230065,1,0,0:0:0:0:
419,25,230158,1,0,0:0:0:0:
452,165,230252,1,0,0:0:0:0:
452,165,230347,1,0,0:0:0:0:
492,192,230440,1,0,0:0:0:0:
478,238,230534,1,0,0:0:0:0:
431,239,230628,1,0,0:0:0:0:
415,194,230722,1,0,0:0:0:0:
452,165,230815,1,0,0:0:0:0:
357,127,230909,5,0,0:0:0:0:
293,206,231002,1,0,0:0:0:0:
361,286,231096,1,0,0:0:0:0:
454,254,231190,1,0,0:0:0:0:
391,315,231283,1,0,0:0:0:0:
307,338,231377,1,0,0:0:0:0:
222,317,231471,1,0,0:0:0:0:
158,257,231565,1,0,0:0:0:0:
131,174,231658,1,0,0:0:0:0:
149,88,231752,1,0,0:0:0:0:
206,22,231846,1,0,0:0:0:0:
288,0,231940,1,0,0:0:0:0:
374,6,232033,1,0,0:0:0:0:
188,362,232222,1,0,0:0:0:0:
97,316,232315,1,0,0:0:0:0:
42,232,232409,1,0,0:0:0:0:
37,131,232503,1,0,0:0:0:0:
84,41,232597,1,0,0:0:0:0:
169,0,232690,1,0,0:0:0:0:
270,0,232784,1,0,0:0:0:0:
359,31,232878,1,0,0:0:0:0:
412,117,232972,1,0,0:0:0:0:
414,218,233065,1,0,0:0:0:0:
366,306,233159,1,0,0:0:0:0:
109,57,233347,5,0,0:0:0:0:
216,118,233440,1,0,0:0:0:0:
281,222,233534,1,0,0:0:0:0:
289,346,233628,1,0,0:0:0:0:
88,298,233722,1,0,0:0:0:0:
165,174,233815,1,0,0:0:0:0:
295,110,233909,1,0,0:0:0:0:
440,125,234003,1,0,0:0:0:0:
404,338,234097,1,0,0:0:0:0:
439,220,234190,1,0,0:0:0:0:
399,104,234284,1,0,0:0:0:0:
298,34,234378,1,0,0:0:0:0:
401,29,234472,1,0,0:0:0:0:
372,193,234565,1,0,0:0:0:0:
251,307,234659,1,0,0:0:0:0:
84,325,234753,1,0,0:0:0:0:
58,254,234847,1,0,0:0:0:0:
83,149,234940,1,0,0:0:0:0:
151,65,235034,1,0,0:0:0:0:
248,18,235128,1,0,0:0:0:0:
356,18,235222,1,0,0:0:0:0:
453,65,235315,1,0,0:0:0:0:
512,148,235409,1,0,0:0:0:0:
512,253,235503,1,0,0:0:0:0:
512,359,235597,1,0,0:0:0:0:
256,192,235784,12,0,236347,0:0:0:0:
253,360,236534,5,0,0:0:0:0:
143,300,236627,1,0,0:0:0:0:
101,183,236721,1,0,0:0:0:0:
149,68,236815,1,0,0:0:0:0:
262,15,236909,1,0,0:0:0:0:
381,52,237002,1,0,0:0:0:0:
445,159,237096,1,0,0:0:0:0:
420,281,237190,1,0,0:0:0:0:
253,360,237284,1,0,0:0:0:0:
150,301,237377,1,0,0:0:0:0:
113,190,237471,1,0,0:0:0:0:
159,82,237565,1,0,0:0:0:0:
265,32,237659,1,0,0:0:0:0:
378,65,237752,1,0,0:0:0:0:
445,159,237847,1,0,0:0:0:0:
450,47,238222,2,0,P|392:98|317:64,1,152.999995330811
326,76,238690,2,0,L|311:32,1,38.2499988327027
71,351,238878,1,0,0:0:0:0:
328,76,239065,1,0,0:0:0:0:
453,343,239253,2,0,L|452:292,1,34
20,125,239440,1,0,0:0:0:0:
20,125,239534,1,0,0:0:0:0:
20,125,239628,1,0,0:0:0:0:
188,344,239815,2,0,L|225:371,1,34
159,32,240003,5,0,0:0:0:0:
187,92,240096,1,0,0:0:0:0:
250,112,240190,1,0,0:0:0:0:
308,79,240284,1,0,0:0:0:0:
324,15,240378,1,0,0:0:0:0:
369,356,240565,1,0,0:0:0:0:
361,271,240658,1,0,0:0:0:0:
354,186,240752,1,0,0:0:0:0:
98,31,241034,1,0,0:0:0:0:
82,166,241127,1,0,0:0:0:0:
66,301,241221,1,0,0:0:0:0:
189,109,241409,1,0,0:0:0:0:
252,105,241502,1,0,0:0:0:0:
316,101,241596,1,0,0:0:0:0:
379,98,241690,1,0,0:0:0:0:
430,157,241784,1,0,0:0:0:0:
339,167,241877,1,0,0:0:0:0:
249,177,241971,1,0,0:0:0:0:
159,188,242065,1,0,0:0:0:0:
104,259,242159,1,0,0:0:0:0:
197,266,242252,1,0,0:0:0:0:
290,273,242346,1,0,0:0:0:0:
383,280,242440,1,0,0:0:0:0:
473,290,242534,1,0,0:0:0:0:
473,290,242628,1,0,0:0:0:0:
473,273,242722,1,0,0:0:0:0:
487,281,242815,1,0,0:0:0:0:
104,259,242909,1,0,0:0:0:0:
111,49,243097,5,0,0:0:0:0:
236,333,243284,1,0,0:0:0:0:
234,75,243472,1,0,0:0:0:0:
57,325,243659,1,0,0:0:0:0:
335,58,243847,1,0,0:0:0:0:
373,351,244034,1,0,0:0:0:0:
454,25,244222,1,0,0:0:0:0:
244,339,244409,1,0,0:0:0:0:
357,48,244597,5,0,0:0:0:0:
46,149,244784,1,0,0:0:0:0:
46,149,244878,1,0,0:0:0:0:
445,204,244972,1,0,0:0:0:0:
445,204,245159,1,0,0:0:0:0:
445,204,245253,1,0,0:0:0:0:
10,287,245440,1,0,0:0:0:0:
10,287,245534,1,0,0:0:0:0:
10,287,245628,1,0,0:0:0:0:
63,41,245909,1,0,0:0:0:0:
301,355,246097,1,0,0:0:0:0:
380,44,246284,1,0,0:0:0:0:
341,119,246377,1,0,0:0:0:0:
302,195,246471,1,0,0:0:0:0:
27,338,246659,2,0,L|49:234,1,85
380,44,246940,1,0,0:0:0:0:
27,338,247222,1,0,0:0:0:0:
61,36,247409,1,0,0:0:0:0:
142,60,247502,1,0,0:0:0:0:
223,85,247596,1,0,0:0:0:0:
338,164,247784,1,0,0:0:0:0:
192,192,247877,1,0,0:0:0:0:
46,221,247971,1,0,0:0:0:0:
176,334,248159,1,0,0:0:0:0:
227,194,248252,1,0,0:0:0:0:
279,55,248346,1,0,0:0:0:0:
415,44,248534,1,0,0:0:0:0:
407,118,248627,1,0,0:0:0:0:
400,192,248721,1,0,0:0:0:0:
392,266,248815,1,0,0:0:0:0:
385,340,248909,1,0,0:0:0:0:
109,72,249097,5,0,0:0:0:0:
86,81,249190,1,0,0:0:0:0:
66,73,249284,1,0,0:0:0:0:
58,53,249378,1,0,0:0:0:0:
66,33,249472,1,0,0:0:0:0:
86,25,249565,1,0,0:0:0:0:
106,33,249659,1,0,0:0:0:0:
486,320,249847,1,0,0:0:0:0:
423,346,249940,1,0,0:0:0:0:
360,320,250034,1,0,0:0:0:0:
334,257,250128,1,0,0:0:0:0:
360,194,250222,1,0,0:0:0:0:
423,168,250315,1,0,0:0:0:0:
490,197,250409,1,0,0:0:0:0:
494,92,250502,1,0,0:0:0:0:
435,4,250596,1,0,0:0:0:0:
332,84,250690,1,0,0:0:0:0:
236,0,250784,1,0,0:0:0:0:
172,82,250877,1,0,0:0:0:0:
171,187,250971,1,0,0:0:0:0:
232,273,251065,1,0,0:0:0:0:
355,70,251159,1,0,0:0:0:0:
399,131,251252,1,0,0:0:0:0:
427,203,251346,1,0,0:0:0:0:
436,278,251440,1,0,0:0:0:0:
425,354,251534,1,0,0:0:0:0:
317,167,251628,1,0,0:0:0:0:
282,277,251721,1,0,0:0:0:0:
341,377,251815,1,0,0:0:0:0:
129,45,252097,5,0,0:0:0:0:
46,317,252284,1,0,0:0:0:0:
46,317,252378,1,0,0:0:0:0:
46,317,252472,1,0,0:0:0:0:
464,210,252659,1,0,0:0:0:0:
31,188,252847,1,0,0:0:0:0:
464,210,253034,1,0,0:0:0:0:
464,210,253128,1,0,0:0:0:0:
464,210,253222,1,0,0:0:0:0:
114,93,253409,1,0,0:0:0:0:
362,220,253597,1,0,0:0:0:0:
343,60,253784,1,0,0:0:0:0:
77,200,253972,1,0,0:0:0:0:
484,77,254159,1,0,0:0:0:0:
19,328,254347,1,0,0:0:0:0:
483,248,254534,1,0,0:0:0:0:
10,47,254722,1,0,0:0:0:0:
10,47,254815,1,0,0:0:0:0:
10,47,254909,1,0,0:0:0:0:
19,328,255097,1,0,0:0:0:0:
91,128,255284,5,0,0:0:0:0:
188,333,255472,1,0,0:0:0:0:
214,62,255659,1,0,0:0:0:0:
106,305,255847,1,0,0:0:0:0:
125,38,256034,1,0,0:0:0:0:
354,293,256222,1,0,0:0:0:0:
268,2,256409,1,0,0:0:0:0:
201,355,256597,1,0,0:0:0:0:
449,246,256784,1,0,0:0:0:0:
42,103,256972,1,0,0:0:0:0:
454,133,257159,1,0,0:0:0:0:
5,340,257347,1,0,0:0:0:0:
319,14,257534,1,0,0:0:0:0:
458,354,257722,1,0,0:0:0:0:
7,163,257909,1,0,0:0:0:0:
32,35,258097,5,0,0:0:0:0:
442,205,258284,1,0,0:0:0:0:
442,205,258378,1,0,0:0:0:0:
347,277,258472,1,0,0:0:0:0:
419,62,258659,1,0,0:0:0:0:
158,268,258847,1,0,0:0:0:0:
158,268,258940,1,0,0:0:0:0:
247,374,259034,1,0,0:0:0:0:
233,74,259222,1,0,0:0:0:0:
430,338,259409,1,0,0:0:0:0:
430,338,259503,1,0,0:0:0:0:
430,338,259597,1,0,0:0:0:0:
430,338,259690,1,0,0:0:0:0:
430,338,259784,1,0,0:0:0:0:
430,338,259878,1,0,0:0:0:0:
430,338,259972,1,0,0:0:0:0:
334,159,260159,1,0,0:0:0:0:
475,170,260347,1,0,0:0:0:0:
393,63,260440,1,0,0:0:0:0:
263,93,260534,1,0,0:0:0:0:
238,225,260628,1,0,0:0:0:0:
362,189,260722,5,0,0:0:0:0:
336,342,260815,1,0,0:0:0:0:
180,376,260909,1,0,0:0:0:0:
94,242,261003,1,0,0:0:0:0:
96,240,261097,1,0,0:0:0:0:
108,113,261190,1,0,0:0:0:0:
207,32,261284,1,0,0:0:0:0:
334,44,261378,1,0,0:0:0:0:
415,143,261472,1,0,0:0:0:0:
403,270,261565,1,0,0:0:0:0:
304,351,261659,1,0,0:0:0:0:
177,339,261753,1,0,0:0:0:0:
176,341,261847,1,0,0:0:0:0:
98,219,261940,1,0,0:0:0:0:
129,78,262034,1,0,0:0:0:0:
251,0,262128,1,0,0:0:0:0:
392,31,262222,1,0,0:0:0:0:
470,153,262315,1,0,0:0:0:0:
438,294,262409,1,0,0:0:0:0:
362,240,262503,1,0,0:0:0:0:
341,132,262597,1,0,0:0:0:0:
214,81,262690,1,0,0:0:0:0:
115,154,262784,1,0,0:0:0:0:
120,276,262878,1,0,0:0:0:0:
234,196,262972,1,0,0:0:0:0:
235,316,263065,1,0,0:0:0:0:
124,362,263159,1,0,0:0:0:0:
98,87,263347,5,0,0:0:0:0:
245,106,263440,1,0,0:0:0:0:
393,125,263534,1,0,0:0:0:0:
439,40,263722,1,0,0:0:0:0:
251,139,263815,1,0,0:0:0:0:
63,239,263909,1,0,0:0:0:0:
335,292,264097,1,0,0:0:0:0:
292,259,264190,1,0,0:0:0:0:
283,207,264284,1,0,0:0:0:0:
312,162,264378,1,0,0:0:0:0:
364,150,264472,1,0,0:0:0:0:
410,177,264565,1,0,0:0:0:0:
425,228,264659,1,0,0:0:0:0:
401,276,264753,1,0,0:0:0:0:
355,222,264847,1,0,0:0:0:0:
406,136,264940,1,0,0:0:0:0:
376,40,265034,1,0,0:0:0:0:
284,0,265128,1,0,0:0:0:0:
193,42,265222,1,0,0:0:0:0:
165,139,265315,1,0,0:0:0:0:
282,120,265409,1,0,0:0:0:0:
171,65,265502,1,0,0:0:0:0:
58,116,265596,1,0,0:0:0:0:
24,235,265690,1,0,0:0:0:0:
94,336,265784,1,0,0:0:0:0:
217,348,265877,1,0,0:0:0:0:
305,261,265971,1,0,0:0:0:0:
294,138,266065,1,0,0:0:0:0:
170,210,266347,1,0,0:0:0:0:
170,210,266534,1,0,0:0:0:0:
370,53,266628,1,0,0:0:0:0:
406,305,266722,1,0,0:0:0:0:
170,210,266909,1,0,0:0:0:0:
126,154,267097,6,0,B|37:14|0:243|101:223|140:215,1,255
133,215,267659,2,0,B|224:214|260:102|149:24|117:165,1,255
119,165,268409,1,0,0:0:0:0:
279,55,268597,1,0,0:0:0:0:
335,153,268690,1,0,0:0:0:0:
391,252,268784,1,0,0:0:0:0:
447,350,268878,1,0,0:0:0:0:
491,211,268972,1,0,0:0:0:0:
339,247,269065,1,0,0:0:0:0:
187,283,269159,1,0,0:0:0:0:
36,319,269253,1,0,0:0:0:0:
189,360,269347,1,0,0:0:0:0:
261,255,269440,1,0,0:0:0:0:
334,150,269534,1,0,0:0:0:0:
406,45,269628,1,0,0:0:0:0:
332,345,269722,1,0,0:0:0:0:
244,252,269815,1,0,0:0:0:0:
156,160,269909,1,0,0:0:0:0:
68,68,270003,1,0,0:0:0:0:
68,68,270097,5,0,0:0:0:0:
432,117,270284,1,0,0:0:0:0:
409,198,270377,1,0,0:0:0:0:
386,280,270471,1,0,0:0:0:0:
68,68,270659,1,0,0:0:0:0:
432,117,270847,1,0,0:0:0:0:
68,68,271034,1,0,0:0:0:0:
413,198,271222,1,0,0:0:0:0:
68,68,271409,1,0,0:0:0:0:
385,281,271597,1,0,0:0:0:0:
385,281,271784,1,0,0:0:0:0:
291,331,271877,1,0,0:0:0:0:
197,381,271971,1,0,0:0:0:0:
406,49,272159,1,0,0:0:0:0:
291,331,272347,1,0,0:0:0:0:
406,49,272534,1,0,0:0:0:0:
197,381,272722,1,0,0:0:0:0:
406,49,272909,1,0,0:0:0:0:
21,285,273097,1,0,0:0:0:0:
117,342,273284,1,0,0:0:0:0:
186,186,273377,1,0,0:0:0:0:
256,31,273471,1,0,0:0:0:0:
416,332,273659,1,0,0:0:0:0:
256,31,273847,1,0,0:0:0:0:
416,332,274034,1,0,0:0:0:0:
281,286,274127,1,0,0:0:0:0:
147,241,274221,1,0,0:0:0:0:
13,196,274315,1,0,0:0:0:0:
13,196,274409,1,0,0:0:0:0:
109,109,274502,1,0,0:0:0:0:
225,168,274596,1,0,0:0:0:0:
211,297,274690,1,0,0:0:0:0:
256,192,274784,12,0,276472,0:0:0:0:
256,192,276659,5,0,0:0:0:0:
390,326,276753,1,0,0:0:0:0:
255,381,276847,1,0,0:0:0:0:
121,326,276940,1,0,0:0:0:0:
66,191,277034,1,0,0:0:0:0:
121,57,277128,1,0,0:0:0:0:
256,2,277222,1,0,0:0:0:0:
390,57,277315,1,0,0:0:0:0:
445,192,277409,1,0,0:0:0:0:
66,191,277597,1,0,0:0:0:0:
445,192,277784,1,0,0:0:0:0:
256,192,277972,12,0,279097,0:0:0:0:
