osu file format v14

[General]
AudioFilename: audio.mp3
AudioLeadIn: 0
PreviewTime: 108565
Countdown: 0
SampleSet: None
StackLeniency: 0.7
Mode: 0
LetterboxInBreaks: 0
WidescreenStoryboard: 0

[Editor]
Bookmarks: 25597,37597,46597,61597,73597,85597,97597,109597,120659,133597,145597,159097,171097,183097,195097,207097,219097,231097,237097,243097,249097,261097,277597,289597,304972
DistanceSpacing: 0.8
BeatDivisor: 4
GridSize: 4
TimelineZoom: 1.9

[Metadata]
Title:SLoWMoTIoN
TitleUnicode:SLoWMoTIoN
Artist:nameless
ArtistUnicode:nameless
Creator:HibikiDesu
Version:GRaDUaTIoN
Source:
Tags:Slow motion nameless loli pinocchio
BeatmapID:1200331
BeatmapSetID:566660

[Difficulty]
HPDrainRate:6
CircleSize:4
OverallDifficulty:8
ApproachRate:9
SliderMultiplier:1.4
SliderTickRate:1

[Events]
//Background and Video events
0,0,"loli.jpg",0,0
//Break Periods
//Storyboard Layer 0 (Background)
//Storyboard Layer 1 (Fail)
//Storyboard Layer 2 (Pass)
//Storyboard Layer 3 (Foreground)
//Storyboard Sound Samples

[TimingPoints]
1597,375,4,3,1,100,1,0
1597,-100,4,3,1,70,0,0
7597,-100,4,3,1,80,0,0
10597,-100,4,3,1,90,0,0
13597,-100,4,3,1,100,0,0
37597,-80,4,3,1,100,0,0
49597,-125,4,3,1,100,0,0
58597,-80,4,3,1,100,0,0
72097,-200,4,3,1,100,0,0
73597,-80,4,3,1,100,0,1
84284,-160,4,3,1,100,0,1
84659,-80,4,3,1,100,0,1
96472,-160,4,3,1,100,0,0
97597,-80,4,3,1,100,0,0
109597,-160,4,2,1,60,0,0
118597,-320,4,3,1,100,0,0
119909,-160,4,3,1,100,0,0
124222,-80,4,3,1,100,0,0
133597,-125,4,3,1,100,0,0
142597,-250,4,3,1,100,0,0
145597,-80,4,3,1,100,0,0
156097,-320,4,3,1,100,0,0
157597,-160,4,3,1,100,0,0
159097,-80,4,3,1,100,0,1
169784,-160,4,3,1,100,0,1
170159,-80,4,3,1,100,0,1
181972,-160,4,3,1,100,0,0
183097,-125,4,3,1,100,0,0
189097,-160,4,3,1,100,0,0
195097,-80,4,3,1,100,0,0
201097,-160,4,3,1,100,0,0
201847,-126.582278481013,4,3,1,100,0,0
202597,-106.382978723404,4,3,1,100,0,0
203347,-90.9090909090909,4,3,1,100,0,0
204097,-80,4,3,1,100,0,0
205597,-125,4,3,1,100,0,0
207097,-80,4,3,1,50,0,0
219097,-80,4,3,1,75,0,0
228097,-80,4,3,1,80,0,0
229597,-80,4,3,1,90,0,0
231097,-80,4,3,1,100,0,0
237097,-160,4,3,1,100,0,0
242909,-80,4,3,1,100,0,0
243097,-80,4,3,1,100,0,1
247784,-160,4,3,1,100,0,1
255097,-80,4,3,1,100,0,1
259784,-160,4,3,1,100,0,1
260347,-160,4,3,1,100,0,0
261097,-80,4,3,1,100,0,1
275722,-160,4,3,1,100,0,0
277597,-80,4,3,1,100,0,0
289597,-80,4,3,1,100,0,1
301597,-80,4,3,1,100,0,0

[HitObjects]
378,132,1597,5,8,0:0:0:0:
209,174,1785,1,0,0:0:0:0:
209,174,1878,1,0,0:0:0:0:
209,174,1972,1,8,0:0:0:0:
358,265,2159,1,0,0:0:0:0:
358,265,2253,1,0,0:0:0:0:
358,265,2347,1,8,0:0:0:0:
189,307,2534,1,0,0:0:0:0:
189,307,2628,1,0,0:0:0:0:
189,307,2722,1,8,0:0:0:0:
279,158,2909,1,0,0:0:0:0:
279,158,3003,1,0,0:0:0:0:
279,158,3097,5,8,0:0:0:0:
321,327,3284,1,0,0:0:0:0:
321,327,3378,1,0,0:0:0:0:
321,327,3472,1,8,0:0:0:0:
172,238,3659,1,0,0:0:0:0:
172,238,3753,1,0,0:0:0:0:
172,238,3847,1,8,0:0:0:0:
333,120,4034,1,0,0:0:0:0:
333,120,4128,1,0,0:0:0:0:
333,120,4222,1,8,0:0:0:0:
352,148,4315,1,0,0:0:0:0:
361,182,4409,1,8,0:0:0:0:
358,216,4503,1,0,0:0:0:0:
343,248,4597,5,8,0:0:0:0:
170,273,4784,1,0,0:0:0:0:
170,273,4878,1,0,0:0:0:0:
170,273,4972,1,8,0:0:0:0:
275,133,5159,1,0,0:0:0:0:
275,133,5253,1,0,0:0:0:0:
275,133,5347,1,8,0:0:0:0:
300,307,5534,1,0,0:0:0:0:
300,307,5628,1,0,0:0:0:0:
300,307,5722,1,8,0:0:0:0:
160,202,5909,1,0,0:0:0:0:
160,202,6003,1,0,0:0:0:0:
160,202,6097,5,8,0:0:0:0:
334,178,6284,1,0,0:0:0:0:
334,178,6378,1,0,0:0:0:0:
334,178,6472,1,8,0:0:0:0:
228,319,6659,1,0,0:0:0:0:
228,319,6753,1,0,0:0:0:0:
228,319,6847,1,8,0:0:0:0:
121,144,7034,1,0,0:0:0:0:
121,144,7128,1,0,0:0:0:0:
121,144,7222,1,8,0:0:0:0:
135,113,7315,1,0,0:0:0:0:
160,88,7409,1,8,0:0:0:0:
191,74,7503,1,0,0:0:0:0:
226,71,7597,5,12,0:0:0:0:
335,207,7784,1,0,0:0:0:0:
335,207,7878,1,0,0:0:0:0:
335,207,7972,1,8,0:0:0:0:
226,343,8159,1,0,0:0:0:0:
226,343,8253,1,0,0:0:0:0:
226,343,8347,1,8,0:0:0:0:
216,169,8534,1,0,0:0:0:0:
216,169,8628,1,0,0:0:0:0:
216,169,8722,1,8,0:0:0:0:
347,285,8909,1,0,0:0:0:0:
347,285,9003,1,0,0:0:0:0:
347,285,9097,5,8,0:0:0:0:
172,295,9284,1,0,0:0:0:0:
172,295,9378,1,0,0:0:0:0:
172,295,9472,1,8,0:0:0:0:
335,207,9659,1,0,0:0:0:0:
335,207,9753,1,0,0:0:0:0:
335,207,9847,2,0,L|382:182,3,35,8|0|0|0,0:0|0:0|0:0|0:0,0:0:0:0:
335,207,10222,1,8,0:0:0:0:
310,231,10315,1,0,0:0:0:0:
279,247,10409,1,8,0:0:0:0:
244,254,10503,1,0,0:0:0:0:
209,247,10597,5,8,0:0:0:0:
459,53,10972,1,8,0:0:0:0:
161,284,11347,1,8,0:0:0:0:
126,63,11534,1,8,0:0:0:0:
456,42,11909,6,0,P|484:120|455:184,1,140,8|0,0:0|0:0,0:0:0:0:
439,194,12378,1,0,0:0:0:0:
408,176,12472,2,0,P|393:219|420:254,1,70,8|0,0:0|0:0,0:0:0:0:
469,311,12847,1,8,0:0:0:0:
340,145,13034,1,0,0:0:0:0:
365,326,13222,2,8,L|400:319,1,35
445,132,13409,2,8,L|428:98,1,35
300,67,13597,6,8,P|232:76|181:138,1,140,4|8,0:0|0:0,0:0:0:0:
286,178,14159,1,0,0:0:0:0:
286,178,14253,1,0,0:0:0:0:
286,178,14347,2,0,P|239:228|171:237,1,140,0|8,0:0|0:0,0:0:0:0:
44,36,14909,6,0,L|56:179,1,140
88,192,15378,1,0,0:0:0:0:
116,168,15472,2,0,P|157:156|188:171,1,70,8|0,0:0|0:0,0:0:0:0:
204,192,15753,1,0,0:0:0:0:
232,216,15847,2,0,P|273:227|304:212,1,70
324,192,16128,1,0,0:0:0:0:
352,168,16222,2,0,P|393:156|424:171,1,70,8|0,0:0|0:0,0:0:0:0:
320,268,16597,6,0,L|292:288,4,35,0|0|0|0|8,0:0|0:0|0:0|0:0|0:0,0:0:0:0:
349,151,17159,1,0,0:0:0:0:
252,56,17347,1,0,0:0:0:0:
217,60,17440,1,0,0:0:0:0:
186,75,17534,1,0,0:0:0:0:
162,100,17628,1,0,0:0:0:0:
147,132,17722,1,8,0:0:0:0:
320,252,17909,6,0,P|382:224|414:150,1,140
433,134,18378,1,0,0:0:0:0:
415,103,18472,2,0,P|390:78|356:72,1,70,8|0,0:0|0:0,0:0:0:0:
243,155,18847,1,0,0:0:0:0:
349,151,19034,1,0,0:0:0:0:
248,38,19222,1,8,0:0:0:0:
214,46,19315,1,0,0:0:0:0:
185,66,19409,1,8,0:0:0:0:
165,94,19503,1,0,0:0:0:0:
161,119,19597,6,0,L|154:190,1,70
264,274,19972,1,8,0:0:0:0:
243,121,20159,1,0,0:0:0:0:
135,220,20347,2,0,P|116:191|120:157,1,70
264,38,20722,1,8,0:0:0:0:
298,46,20815,1,0,0:0:0:0:
327,66,20909,1,8,0:0:0:0:
347,94,21003,1,0,0:0:0:0:
351,119,21097,6,0,L|358:190,1,70
248,274,21472,1,8,0:0:0:0:
269,121,21659,1,0,0:0:0:0:
377,220,21847,2,0,P|396:191|392:157,1,70
248,38,22222,1,8,0:0:0:0:
214,46,22315,1,0,0:0:0:0:
185,66,22409,1,8,0:0:0:0:
165,94,22503,1,0,0:0:0:0:
161,119,22597,5,8,0:0:0:0:
455,326,22972,1,8,0:0:0:0:
231,48,23347,5,8,0:0:0:0:
239,188,23534,1,8,0:0:0:0:
352,41,23722,1,8,0:0:0:0:
172,86,23909,1,8,0:0:0:0:
305,289,24097,1,8,0:0:0:0:
477,104,24284,1,8,0:0:0:0:
176,156,24472,1,8,0:0:0:0:
430,352,24659,6,0,P|466:294|453:215,1,140
444,200,25128,1,0,0:0:0:0:
426,169,25221,1,0,0:0:0:0:
400,147,25315,1,0,0:0:0:0:
367,134,25409,1,0,0:0:0:0:
333,133,25503,1,0,0:0:0:0:
299,144,25597,6,0,P|269:162|246:198,1,70,2|0,0:0|0:0,0:0:0:0:
347,247,26159,2,0,P|302:300|235:306,1,140
249,195,26722,1,0,0:0:0:0:
348,99,26909,6,2,L|491:111,1,140
357,264,27659,6,0,P|283:261|238:211,1,140
324,170,28221,2,0,P|354:155|387:166,1,70
433,266,28597,5,8,0:0:0:0:
231,323,28784,1,8,0:0:0:0:
87,167,29159,6,2,L|230:179,1,140
143,260,29722,2,0,P|110:271|79:257,1,70
121,159,30097,5,8,0:0:0:0:
325,204,30284,1,8,0:0:0:0:
79,257,30659,6,2,P|36:202|24:134,1,140
120,88,31222,1,0,0:0:0:0:
215,192,31409,1,0,0:0:0:0:
76,183,31597,5,8,0:0:0:0:
259,82,31784,1,8,0:0:0:0:
149,254,31972,5,0,0:0:0:0:
149,254,32065,2,0,L|132:280,2,17.5,0|0|8,0:0|0:0|0:0,0:0:0:0:
373,208,32534,1,0,0:0:0:0:
373,208,32628,2,0,L|394:213,2,17.5,0|0|8,0:0|0:0|0:0,0:0:0:0:
205,53,33097,1,0,0:0:0:0:
205,53,33190,2,0,L|194:32,2,17.5
165,221,33659,1,8,0:0:0:0:
396,69,34034,1,0,0:0:0:0:
396,69,34128,2,0,L|423:62,2,17.5,0|0|8,0:0|0:0|0:0,0:0:0:0:
140,169,34784,2,0,L|118:180,3,17.5
140,169,34972,6,0,P|169:187|203:190,1,70,8|0,0:0|0:0,0:0:0:0:
224,162,35253,2,0,P|253:143|287:140,1,70,8|0,0:0|0:0,0:0:0:0:
312,164,35534,2,0,P|330:193|333:227,1,70,8|0,0:0|0:0,0:0:0:0:
157,220,35909,6,0,P|125:207|102:182,1,70,8|0,0:0|0:0,0:0:0:0:
265,111,36284,2,0,P|296:123|319:148,1,70,8|0,0:0|0:0,0:0:0:0:
354,248,36659,1,2,0:0:0:0:
153,185,36847,1,2,0:0:0:0:
348,107,37034,1,2,0:0:0:0:
269,257,37222,1,8,0:0:0:0:
234,259,37315,1,0,0:0:0:0:
201,249,37409,1,8,0:0:0:0:
173,231,37503,6,0,P|136:190|123:137,1,105
251,127,37972,2,0,P|297:134|334:162,1,87.5,8|0,0:0|0:0,0:0:0:0:
234,259,38347,1,0,0:0:0:0:
307,83,38534,1,0,0:0:0:0:
422,234,38722,1,8,0:0:0:0:
251,127,38909,2,0,P|205:134|168:162,1,87.5,2|0,0:0|0:0,0:0:0:0:
247,243,39284,2,0,P|293:236|330:208,1,87.5,2|8,0:0|0:0,0:0:0:0:
313,112,39659,5,0,0:0:0:0:
204,254,39847,1,0,0:0:0:0:
366,192,40034,1,0,0:0:0:0:
193,158,40222,2,0,P|152:180|128:220,1,87.5,8|0,0:3|0:0,0:0:0:0:
146,345,40597,5,2,0:0:0:0:
392,256,40784,2,0,P|416:216|420:170,1,87.5,2|8,0:3|0:0,0:0:0:0:
324,83,41159,5,0,0:0:0:0:
253,243,41347,1,0,0:0:0:0:
411,170,41534,1,0,0:0:0:0:
241,129,41722,2,0,P|194:131|155:156,1,87.5,8|0,0:3|0:0,0:0:0:0:
94,266,42097,5,2,0:0:0:0:
336,166,42284,2,0,P|309:127|268:106,1,87.5,2|8,0:3|0:0,0:0:0:0:
145,82,42659,5,0,0:0:0:0:
264,212,42847,1,0,0:0:0:0:
272,36,43034,1,0,0:0:0:0:
142,155,43222,1,8,0:0:0:0:
319,163,43409,1,0,0:0:0:0:
200,33,43597,5,2,0:0:0:0:
231,294,43784,2,0,P|272:316|318:316,1,87.5,2|8,0:3|0:0,0:0:0:0:
296,204,44159,6,0,P|254:181|208:181,1,87.5,0|0,0:3|0:0,0:0:0:0:
98,239,44534,1,0,0:0:0:0:
260,307,44722,1,8,0:0:0:0:
238,133,44909,6,0,P|215:91|176:66,2,87.5,2|0|2,0:3|0:0|0:0,0:0:0:0:
169,276,45472,5,8,0:0:0:0:
56,140,45659,2,0,P|93:118|137:116,1,87.5,0|0,0:3|0:0,0:0:0:0:
245,186,46034,1,0,0:0:0:0:
104,283,46222,1,8,0:0:0:0:
136,115,46409,1,0,0:0:0:0:
233,257,46597,5,4,0:0:0:0:
65,226,46784,1,0,0:0:0:0:
206,130,46972,1,0,0:0:0:0:
160,276,47159,1,4,0:0:0:0:
146,124,47347,1,8,0:0:0:0:
146,124,47440,2,0,P|185:108|229:112,1,87.5,8|0,0:3|0:0,0:0:0:0:
271,127,47722,2,8,L|290:70,2,58.3333333333333,12|8|8,0:0|0:0|0:0,0:0:0:0:
242,210,48097,5,8,0:0:0:0:
401,137,48284,1,8,0:0:0:0:
278,249,48472,1,8,0:0:0:0:
364,97,48659,1,8,0:0:0:0:
331,260,48847,2,8,L|349:315,2,58.3333333333333
304,177,49222,2,8,L|261:162,1,43.75,8|0,0:0|0:0,0:0:0:0:
118,243,49409,2,8,L|140:280,1,43.75,8|0,0:0|0:0,0:0:0:0:
246,321,49597,6,0,P|309:315|362:280,1,112,2|0,0:0|0:0,0:0:0:0:
246,321,50159,2,0,P|304:295|344:246,1,112,2|0,0:0|0:0,0:0:0:0:
246,321,50722,1,8,0:0:0:0:
389,159,51097,6,0,P|360:102|309:65,1,112,2|0,0:0|0:0,0:0:0:0:
389,159,51659,2,0,P|343:114|283:94,1,112,2|0,0:0|0:0,0:0:0:0:
389,159,52222,1,8,0:0:0:0:
179,253,52597,6,0,P|120:229|78:181,1,112,2|0,0:0|0:0,0:0:0:0:
179,253,53159,2,0,P|130:212|105:153,1,112,2|0,0:0|0:0,0:0:0:0:
179,253,53722,1,8,0:0:0:0:
250,51,54097,6,0,P|305:82|339:135,1,112,2|0,0:0|0:0,0:0:0:0:
250,51,54659,2,0,P|292:98|309:159,1,112,2|0,0:0|0:0,0:0:0:0:
250,51,55222,1,8,0:0:0:0:
346,261,55597,6,0,P|305:212|247:187,1,112,2|0,0:0|0:0,0:0:0:0:
346,261,56159,2,0,P|292:227|229:221,1,112,2|0,0:0|0:0,0:0:0:0:
346,261,56722,1,8,0:0:0:0:
451,147,57097,6,0,P|466:85|452:23,1,112,2|0,0:0|0:0,0:0:0:0:
451,147,57659,2,0,P|446:83|414:29,1,112,2|0,0:0|0:0,0:0:0:0:
451,147,58222,1,8,0:0:0:0:
138,269,58597,1,4,0:0:0:0:
355,203,59722,5,2,0:0:0:0:
355,203,59815,1,2,0:0:0:0:
355,203,59909,1,2,0:0:0:0:
306,130,60097,1,8,0:0:0:0:
181,215,60285,1,8,0:0:0:0:
393,124,60472,1,8,0:0:0:0:
132,142,60660,1,8,0:0:0:0:
404,276,60847,1,8,0:0:0:0:
166,262,61222,6,0,P|133:235|116:194,1,87.5,2|0,0:3|0:0,0:0:0:0:
166,72,61597,1,4,0:0:0:0:
302,181,61784,1,0,0:0:0:0:
302,181,61878,1,0,0:0:0:0:
302,181,61972,2,0,P|283:218|247:244,1,87.5,0|0,0:3|0:0,0:0:0:0:
123,196,62347,1,0,0:0:0:0:
224,100,62534,1,0,0:0:0:0:
364,222,62722,2,0,P|354:262|324:296,1,87.5,0|0,0:3|0:0,0:0:0:0:
236,319,63097,5,4,0:0:0:0:
224,100,63284,1,0,0:0:0:0:
419,199,63472,1,0,0:0:0:0:
201,211,63659,1,0,0:0:0:0:
299,16,63847,1,0,0:0:0:0:
419,199,64034,1,0,0:0:0:0:
224,100,64222,1,8,0:0:0:0:
180,103,64315,1,0,0:0:0:0:
140,119,64409,1,8,0:0:0:0:
106,147,64503,1,0,0:0:0:0:
87,186,64597,5,12,0:0:0:0:
182,307,64784,2,0,P|215:335|258:343,2,87.5,0|0|0,0:3|0:0|0:0,0:0:0:0:
138,182,65347,1,0,0:0:0:0:
283,83,65534,1,0,0:0:0:0:
251,256,65722,1,0,0:0:0:0:
152,112,65909,1,0,0:0:0:0:
318,169,66097,6,0,P|304:210|272:239,1,87.5,4|0,0:3|0:0,0:0:0:0:
196,134,66472,2,0,P|209:92|241:63,1,87.5,0|0,0:3|0:0,0:0:0:0:
366,20,66847,1,2,0:0:0:0:
412,192,67034,1,2,0:0:0:0:
278,311,67222,1,8,0:0:0:0:
248,276,67315,1,0,0:0:0:0:
228,238,67409,1,8,0:0:0:0:
224,195,67503,1,0,0:0:0:0:
237,152,67597,5,4,0:0:0:0:
349,287,67784,1,0,0:0:0:0:
402,167,67972,1,0,0:0:0:0:
263,278,68159,1,0,0:0:0:0:
237,152,68347,1,0,0:0:0:0:
402,167,68534,1,0,0:0:0:0:
263,278,68722,1,0,0:0:0:0:
310,133,68909,6,0,P|332:95|369:73,1,87.5,2|4,0:3|0:0,0:0:0:0:
451,190,69284,1,2,0:0:0:0:
282,227,69472,2,0,P|242:206|219:170,2,87.5,0|2|2,0:3|0:0|0:0,0:0:0:0:
310,133,70222,6,0,P|287:95|250:73,1,87.5,0|0,0:3|0:0,0:0:0:0:
156,125,70597,1,2,0:0:0:0:
243,261,70784,1,0,0:0:0:0:
250,73,70972,1,0,0:0:0:0:
143,215,71159,1,0,0:0:0:0:
173,38,71347,2,0,P|216:45|249:72,1,87.5,2|0,0:3|0:0,0:0:0:0:
277,276,71722,1,8,0:0:0:0:
236,254,71815,1,0,0:0:0:0:
203,226,71909,1,8,0:0:0:0:
182,188,72003,1,0,0:0:0:0:
179,143,72097,6,2,L|253:138,1,70,2|2,0:3|0:0,0:0:0:0:
340,300,73034,5,2,0:0:0:0:
200,304,73222,1,10,0:0:0:0:
179,261,73315,1,0,0:0:0:0:
170,220,73409,1,10,0:0:0:0:
177,177,73503,1,0,0:0:0:0:
201,139,73597,6,0,P|241:113|281:105,1,87.5,4|0,0:3|0:0,0:0:0:0:
381,222,73972,1,8,0:0:0:0:
284,223,74159,1,0,0:0:0:0:
353,143,74347,2,0,P|377:178|380:222,1,87.5,2|0,0:3|0:0,0:0:0:0:
261,303,74722,1,8,0:0:0:0:
109,145,74909,1,2,0:0:0:0:
109,145,75003,1,0,0:0:0:0:
109,145,75097,6,0,P|136:177|178:191,1,87.5,0|0,0:3|0:0,0:0:0:0:
196,203,75378,1,0,0:0:0:0:
214,194,75472,2,0,P|241:161|283:147,1,87.5,10|0,0:3|0:0,0:0:0:0:
304,141,75753,1,0,0:0:0:0:
322,150,75847,2,0,P|349:182|391:196,1,87.5,0|0,0:3|0:0,0:0:0:0:
384,112,76222,1,8,0:0:0:0:
367,96,76315,1,0,0:0:0:0:
351,81,76409,1,8,0:0:0:0:
335,66,76503,1,0,0:0:0:0:
319,51,76597,6,0,P|277:41|235:55,1,87.5,2|0,0:3|0:0,0:0:0:0:
176,172,76972,1,8,0:0:0:0:
181,194,77065,1,0,0:0:0:0:
186,215,77159,1,8,0:0:0:0:
192,237,77253,1,0,0:0:0:0:
197,258,77347,2,0,P|226:288|269:299,1,87.5,2|0,0:3|0:0,0:0:0:0:
383,232,77722,1,8,0:0:0:0:
245,125,77909,5,0,0:0:0:0:
245,125,78003,1,0,0:0:0:0:
245,125,78097,2,0,P|216:155|173:166,1,87.5,0|0,0:3|0:0,0:0:0:0:
150,166,78378,1,0,0:0:0:0:
128,168,78472,2,0,P|105:204|105:248,1,87.5,8|0,0:3|0:0,0:0:0:0:
314,321,78847,1,2,0:0:0:0:
206,131,79034,1,0,0:0:0:0:
401,231,79222,1,10,0:0:0:0:
183,253,79409,2,0,P|141:239|113:207,1,87.5,8|0,0:3|0:0,0:0:0:0:
221,104,79784,5,0,0:0:0:0:
221,104,79878,1,0,0:0:0:0:
221,104,79972,2,0,P|212:146|183:178,1,87.5,8|0,0:3|0:0,0:0:0:0:
53,195,80347,1,0,0:0:0:0:
174,67,80534,1,0,0:0:0:0:
179,244,80722,1,8,0:0:0:0:
51,123,80909,1,0,0:0:0:0:
228,172,81097,6,0,L|312:195,1,87.5,2|0,0:0|0:0,0:0:0:0:
362,306,81472,2,0,P|332:337|290:348,1,87.5,10|0,0:3|0:0,0:0:0:0:
283,251,81847,2,0,L|306:165,1,87.5,2|0,0:0|0:0,0:0:0:0:
411,89,82222,2,0,L|388:175,1,87.5,10|0,0:0|0:0,0:0:0:0:
343,249,82597,5,8,0:0:0:0:
130,97,82784,1,8,0:0:0:0:
146,64,83159,5,8,0:0:0:0:
344,296,83346,1,8,0:0:0:0:
346,338,83722,5,8,0:0:0:0:
186,28,83909,1,8,0:0:0:0:
384,44,84284,6,0,L|452:108,1,87.5,8|8,0:3|0:0,0:0:0:0:
328,224,84847,1,8,0:0:0:0:
149,56,85034,1,8,0:0:0:0:
94,296,85222,1,8,0:0:0:0:
238,140,85409,1,8,0:0:0:0:
301,342,85597,6,0,P|258:349|217:333,1,87.5,0|0,0:3|0:0,0:0:0:0:
9,201,85972,1,8,0:0:0:0:
166,218,86159,1,0,0:0:0:0:
12,284,86347,2,0,P|-1:242|10:201,1,87.5,0|0,0:3|0:0,0:0:0:0:
138,129,86722,1,8,0:0:0:0:
124,303,86909,1,0,0:0:0:0:
124,303,87003,1,0,0:0:0:0:
124,303,87097,6,0,L|147:217,1,87.5
226,262,87378,1,0,0:0:0:0:
226,262,87472,2,0,L|274:187,1,87.5,8|0,0:0|0:0,0:0:0:0:
396,141,87847,1,0,0:0:0:0:
429,312,88034,1,0,0:0:0:0:
285,215,88222,1,8,0:0:0:0:
456,182,88409,1,8,0:0:0:0:
359,327,88597,6,0,P|319:310|293:274,1,87.5,2|0,0:3|0:0,0:0:0:0:
326,104,88972,1,8,0:0:0:0:
338,122,89065,1,0,0:0:0:0:
349,140,89159,1,8,0:0:0:0:
360,160,89253,1,0,0:0:0:0:
371,178,89347,6,0,P|352:215|314:238,1,87.5,2|0,0:3|0:0,0:0:0:0:
187,116,89722,1,8,0:0:0:0:
203,100,89815,1,0,0:0:0:0:
219,85,89909,1,8,0:0:0:0:
236,71,90003,1,0,0:0:0:0:
252,56,90097,6,0,P|292:47|334:62,1,87.5,2|0,0:3|0:0,0:0:0:0:
411,170,90472,1,8,0:0:0:0:
256,251,90659,1,0,0:0:0:0:
309,85,90847,1,2,0:0:0:0:
389,240,91034,1,0,0:0:0:0:
389,240,91128,1,0,0:0:0:0:
389,240,91222,2,8,P|353:262|309:263,1,87.5,8|8,0:3|0:0,0:0:0:0:
210,181,91597,5,2,0:0:0:0:
302,86,91784,2,0,P|327:119|333:163,1,87.5,0|8,0:3|0:0,0:0:0:0:
243,259,92159,2,0,P|217:225|211:181,2,87.5,2|0|0,0:3|0:0|0:0,0:0:0:0:
372,288,92722,1,8,0:0:0:0:
339,115,92909,2,0,P|260:144|204:212,1,175,4|0,0:3|0:0,0:0:0:0:
292,311,93472,5,8,0:0:0:0:
396,170,93659,1,2,0:0:0:0:
222,151,93847,1,0,0:0:0:0:
344,240,94034,1,2,0:0:0:0:
361,90,94222,1,8,0:0:0:0:
345,74,94315,1,0,0:0:0:0:
329,59,94409,1,10,0:0:0:0:
312,45,94503,1,0,0:0:0:0:
296,33,94597,5,8,0:0:0:0:
279,294,94784,1,8,0:0:0:0:
305,356,95159,5,8,0:0:0:0:
188,72,95347,1,8,0:0:0:0:
136,28,95722,5,8,0:0:0:0:
402,254,95909,1,8,0:0:0:0:
53,282,96097,1,8,0:0:0:0:
279,15,96284,1,8,0:0:0:0:
234,249,96659,6,0,P|193:247|156:221,1,87.5,2|0,0:3|0:0,0:0:0:0:
222,161,97222,2,0,L|278:149,1,43.75,2|0,0:0|0:0,0:0:0:0:
394,180,97597,5,6,0:0:0:0:
263,295,97784,1,0,0:0:0:0:
337,119,97972,2,0,P|372:139|393:179,1,87.5,8|0,0:3|0:0,0:0:0:0:
263,295,98347,1,2,0:0:0:0:
212,130,98534,1,0,0:0:0:0:
95,257,98722,2,0,P|54:248|22:216,1,87.5,8|0,0:3|0:0,0:0:0:0:
212,130,99097,5,2,0:0:0:0:
263,295,99284,1,0,0:0:0:0:
95,171,99472,2,0,P|82:129|94:88,1,87.5,8|0,0:3|0:0,0:0:0:0:
212,130,99847,1,2,0:0:0:0:
263,295,100034,1,0,0:0:0:0:
381,169,100222,1,8,0:0:0:0:
375,150,100316,1,0,0:0:0:0:
369,131,100409,1,8,0:0:0:0:
363,112,100503,1,0,0:0:0:0:
357,93,100597,6,0,P|337:57|298:35,1,87.5,2|0,0:3|0:0,0:0:0:0:
97,53,100972,1,8,0:0:0:0:
108,233,101159,1,0,0:0:0:0:
273,172,101347,2,0,P|256:135|219:110,1,87.5,2|0,0:3|0:0,0:0:0:0:
103,143,101722,1,8,0:0:0:0:
238,262,101909,1,0,0:0:0:0:
262,79,102097,6,0,L|196:141,1,87.5,2|0,0:0|0:0,0:0:0:0:
108,233,102472,1,8,0:0:0:0:
287,221,102659,2,0,P|325:206|352:171,1,87.5,0|2,0:3|0:0,0:0:0:0:
189,112,103034,1,0,0:0:0:0:
124,275,103222,1,8,0:0:0:0:
143,267,103315,1,0,0:0:0:0:
166,260,103409,1,8,0:0:0:0:
187,255,103503,1,0,0:0:0:0:
206,251,103597,6,0,P|242:233|266:195,1,87.5,2|0,0:3|0:0,0:0:0:0:
207,77,103972,1,8,0:0:0:0:
85,202,104159,1,0,0:0:0:0:
111,30,104347,1,2,0:0:0:0:
192,185,104534,1,0,0:0:0:0:
25,136,104722,1,8,0:0:0:0:
24,156,104815,1,0,0:0:0:0:
23,176,104909,1,8,0:0:0:0:
22,196,105003,1,0,0:0:0:0:
21,216,105097,6,0,P|27:255|56:289,1,87.5,2|0,0:3|0:0,0:0:0:0:
203,195,105472,1,8,0:0:0:0:
168,102,105659,2,0,P|132:120|108:159,1,87.5,0|2,0:3|0:0,0:0:0:0:
128,290,106034,1,0,0:0:0:0:
247,211,106222,1,8,0:0:0:0:
226,215,106315,1,0,0:0:0:0:
205,219,106409,1,8,0:0:0:0:
182,224,106502,1,0,0:0:0:0:
161,226,106597,5,8,0:0:0:0:
409,317,106972,1,8,0:0:0:0:
311,99,107347,1,8,0:0:0:0:
211,184,107534,1,8,0:0:0:0:
397,252,107722,1,8,0:0:0:0:
249,76,107909,1,8,0:0:0:0:
297,337,108097,2,0,L|310:410,3,43.75,8|0|0|0,0:0|0:0|0:0|0:0,0:0:0:0:
385,187,109222,5,8,0:0:0:0:
363,184,109315,1,0,0:0:0:0:
341,181,109409,1,8,0:0:0:0:
319,178,109503,1,0,0:0:0:0:
297,175,109597,6,0,P|256:178|220:205,1,87.5,2|0,0:3|0:0,0:0:0:0:
295,259,110159,2,0,P|264:285|251:328,1,87.5,2|0,0:3|0:0,0:0:0:0:
332,332,110722,2,0,L|365:301,1,43.75,2|0,0:0|0:0,0:0:0:0:
353,150,111097,6,0,P|326:119|284:105,1,87.5,2|0,0:3|0:0,0:0:0:0:
278,186,111659,2,0,P|238:176|196:190,1,87.5,2|0,0:3|0:0,0:0:0:0:
239,258,112222,2,0,L|283:267,1,43.75,2|0,0:0|0:0,0:0:0:0:
378,147,112597,6,0,P|369:107|339:74,1,87.5,2|0,0:3|0:0,0:0:0:0:
295,142,113159,2,0,P|265:114|221:106,1,87.5,2|0,0:3|0:0,0:0:0:0:
226,187,113722,2,0,L|260:216,1,43.75,2|0,0:0|0:0,0:0:0:0:
406,254,114097,6,0,P|436:226|448:182,1,87.5,2|0,0:3|0:0,0:0:0:0:
331,109,114659,1,0,0:0:0:0:
237,197,114847,1,0,0:0:0:0:
366,181,115034,1,0,0:0:0:0:
253,118,115222,2,0,L|209:127,1,43.75
114,223,115597,6,0,P|123:263|153:296,1,87.5,2|0,0:3|0:0,0:0:0:0:
197,228,116159,2,0,P|227:256|271:264,1,87.5,2|0,0:3|0:0,0:0:0:0:
266,183,116722,2,0,L|232:154,1,43.75,2|0,0:0|0:0,0:0:0:0:
80,138,117097,6,0,P|51:167|42:211,1,87.5,2|0,0:3|0:0,0:0:0:0:
123,207,117659,2,0,L|152:173,1,43.75,2|0,0:3|0:0,0:0:0:0:
255,138,118034,1,0,0:0:0:0:
268,287,118222,1,0,0:0:0:0:
171,172,118409,1,0,0:0:0:0:
316,208,118597,6,0,B|403:217|403:217|396:164,1,131.25,4|0,0:0|0:0,0:0:0:0:
294,97,119909,6,2,L|221:144,1,87.5,2|2,0:3|0:0,0:0:0:0:
283,273,120659,5,2,0:0:0:0:
360,140,120847,1,0,0:0:0:0:
220,203,121034,1,0,0:0:0:0:
371,235,121222,1,8,0:0:0:0:
268,121,121409,2,8,L|179:93,1,87.5,8|8,0:3|0:0,0:0:0:0:
71,197,122159,5,2,0:0:0:0:
71,197,122253,1,2,0:0:0:0:
71,197,122347,1,2,0:0:0:0:
199,280,122534,1,0,0:0:0:0:
161,133,122722,1,8,0:0:0:0:
115,278,122909,2,8,L|203:280,1,87.5,8|8,0:3|0:0,0:0:0:0:
254,79,123659,5,2,0:0:0:0:
254,79,123753,1,2,0:0:0:0:
254,79,123847,1,2,0:0:0:0:
162,228,124034,1,0,0:0:0:0:
167,53,124222,2,8,P|189:18|229:0,1,87.5,8|8,0:3|0:0,0:0:0:0:
316,144,124597,5,2,0:0:0:0:
162,228,124784,2,0,P|121:220|88:191,1,87.5,0|8,0:3|0:0,0:0:0:0:
167,53,125159,5,0,0:0:0:0:
250,207,125347,1,2,0:0:0:0:
73,162,125534,1,0,0:0:0:0:
205,46,125722,2,0,P|228:80|230:124,1,87.5,8|0,0:3|0:0,0:0:0:0:
117,118,126097,5,2,0:0:0:0:
330,66,126284,1,0,0:0:0:0:
189,234,126472,1,8,0:0:0:0:
205,16,126659,5,0,0:0:0:0:
321,202,126847,1,2,0:0:0:0:
117,118,127034,1,0,0:0:0:0:
330,66,127222,1,8,0:0:0:0:
189,234,127409,6,0,P|154:255|110:256,1,87.5,0|2,0:3|0:0,0:0:0:0:
131,175,127784,2,0,P|94:155|72:117,1,87.5,0|8,0:3|0:0,0:0:0:0:
153,95,128159,5,0,0:0:0:0:
153,95,128253,1,0,0:0:0:0:
153,95,128347,2,0,P|111:93|73:115,1,87.5,2|0,0:3|0:0,0:0:0:0:
132,229,128722,1,8,0:0:0:0:
290,145,128909,6,0,P|315:112|320:68,1,87.5,0|2,0:3|0:0,0:0:0:0:
236,81,129284,2,0,P|220:42|185:16,1,87.5,0|8,0:3|0:0,0:0:0:0:
153,95,129659,5,0,0:0:0:0:
271,225,129847,1,2,0:0:0:0:
232,52,130034,1,0,0:0:0:0:
152,208,130222,2,0,P|127:173|123:130,1,87.5,8|0,0:3|0:0,0:0:0:0:
236,81,130597,5,6,0:0:0:0:
317,247,130784,1,0,0:0:0:0:
155,160,130972,1,0,0:0:0:0:
337,135,131159,1,4,0:0:0:0:
205,263,131347,1,8,0:0:0:0:
205,263,131440,2,0,P|164:253|130:223,1,87.5,8|0,0:3|0:0,0:0:0:0:
105,187,131722,2,8,L|56:221,2,58.3333333333333,12|8|8,0:0|0:0|0:0,0:0:0:0:
179,139,132097,5,8,0:0:0:0:
274,230,132284,1,8,0:0:0:0:
100,204,132472,1,8,0:0:0:0:
312,159,132659,1,8,0:0:0:0:
103,180,132847,2,8,L|45:164,2,58.3333333333333,12|8|8,0:0|0:0|0:0,0:0:0:0:
194,198,133222,2,0,L|238:189,1,43.75,8|0,0:0|0:0,0:0:0:0:
327,65,133409,2,0,L|270:45,1,43.75,8|0,0:0|0:0,0:0:0:0:
157,72,133597,6,0,P|103:105|70:159,1,112,2|8,0:0|0:0,0:0:0:0:
157,72,134159,2,0,P|116:120|101:182,1,112,2|0,0:0|0:0,0:0:0:0:
157,72,134722,2,0,L|147:132,1,56,8|0,0:0|0:0,0:0:0:0:
358,224,135097,5,2,0:0:0:0:
326,47,135284,1,0,0:0:0:0:
256,242,135472,1,8,0:0:0:0:
393,127,135659,1,2,0:0:0:0:
459,205,135847,1,0,0:0:0:0:
256,242,136222,6,0,L|314:193,1,56,8|0,0:0|0:0,0:0:0:0:
452,40,136597,6,0,P|390:56|344:100,1,112,2|8,0:0|0:0,0:0:0:0:
452,40,137159,2,0,P|399:75|368:130,1,112,2|0,0:0|0:0,0:0:0:0:
452,40,137722,2,0,L|425:95,1,56,8|0,0:0|0:0,0:0:0:0:
394,186,138097,5,2,0:0:0:0:
496,168,138284,1,0,0:0:0:0:
428,90,138472,1,8,0:0:0:0:
460,266,138659,1,2,0:0:0:0:
291,205,138847,1,0,0:0:0:0:
496,168,139222,6,0,L|436:179,1,56,8|0,0:0|0:0,0:0:0:0:
189,223,139597,6,0,P|138:260|111:319,1,112,2|8,0:0|0:0,0:0:0:0:
189,223,140159,2,0,P|153:275|144:338,1,112,2|0,0:0|0:0,0:0:0:0:
189,223,140722,2,0,L|185:284,1,56,8|0,0:0|0:0,0:0:0:0:
196,118,141097,5,2,0:0:0:0:
274,277,141284,1,0,0:0:0:0:
289,72,141472,1,8,0:0:0:0:
189,223,141659,1,2,0:0:0:0:
281,176,141847,1,0,0:0:0:0:
101,164,142222,6,0,L|168:168,1,56,8|0,0:0|0:0,0:0:0:0:
399,184,142597,5,4,0:0:0:0:
274,277,142784,1,0,0:0:0:0:
289,72,142971,1,8,0:0:0:0:
418,339,143159,1,0,0:0:0:0:
274,277,143347,5,4,0:0:0:0:
399,184,143534,1,0,0:0:0:0:
196,118,143722,1,8,0:0:0:0:
418,339,143909,1,0,0:0:0:0:
196,118,144097,5,10,0:0:0:0:
37,277,144284,1,0,0:0:0:0:
262,277,144472,1,10,0:0:0:0:
103,118,144659,1,0,0:0:0:0:
103,343,144847,1,10,0:0:0:0:
418,248,145222,5,8,0:0:0:0:
436,235,145315,1,0,0:0:0:0:
454,223,145409,1,8,0:0:0:0:
472,209,145503,1,0,0:0:0:0:
490,196,145597,6,0,P|507:158|501:114,1,87.5,4|0,0:3|0:0,0:0:0:0:
386,32,145972,1,2,0:0:0:0:
215,167,146159,1,0,0:0:0:0:
418,248,146347,2,0,P|421:205|400:166,1,87.5,0|0,0:3|0:0,0:0:0:0:
300,99,146722,1,2,0:0:0:0:
219,301,146909,1,0,0:0:0:0:
411,175,147097,5,8,0:0:0:0:
167,76,147284,1,8,0:0:0:0:
204,337,147472,1,2,0:0:0:0:
315,63,147659,1,0,0:0:0:0:
21,91,147847,2,0,P|28:131|59:164,1,87.5,0|0,0:3|0:0,0:0:0:0:
259,200,148222,5,10,0:0:0:0:
278,191,148315,1,0,0:0:0:0:
297,180,148409,1,8,0:0:0:0:
318,171,148503,1,0,0:0:0:0:
338,161,148597,6,0,P|379:163|415:189,1,87.5,4|0,0:3|0:0,0:0:0:0:
427,290,148972,1,2,0:0:0:0:
265,224,149159,1,0,0:0:0:0:
403,116,149347,5,0,0:0:0:0:
268,366,149534,1,0,0:0:0:0:
230,85,149722,1,2,0:0:0:0:
427,290,149909,1,0,0:0:0:0:
413,130,150097,2,8,P|381:102|337:95,1,87.5,8|8,0:3|0:0,0:0:0:0:
147,239,150472,1,2,0:0:0:0:
427,290,150659,1,0,0:0:0:0:
230,85,150847,1,0,0:0:0:0:
162,251,151222,5,8,0:0:0:0:
142,243,151315,1,0,0:0:0:0:
122,235,151409,1,8,0:0:0:0:
102,227,151503,1,0,0:0:0:0:
82,219,151597,6,0,P|56:187|51:143,1,87.5,4|0,0:3|0:0,0:0:0:0:
67,110,151878,1,0,0:0:0:0:
92,86,151972,1,2,0:0:0:0:
121,68,152065,1,0,0:0:0:0:
154,59,152159,1,0,0:0:0:0:
188,53,152253,1,0,0:0:0:0:
223,55,152347,2,0,P|254:81|267:123,1,87.5,0|0,0:3|0:0,0:0:0:0:
268,159,152628,1,0,0:0:0:0:
272,193,152722,2,0,P|294:227|335:244,1,87.5,2|0,0:3|0:0,0:0:0:0:
371,248,153003,1,0,0:0:0:0:
405,242,153097,5,4,0:0:0:0:
436,228,153190,1,0,0:0:0:0:
458,201,153284,1,0,0:0:0:0:
467,167,153378,1,0,0:0:0:0:
467,131,153472,2,0,L|463:87,3,43.75,2|0|0|0,0:0|0:0|0:0|0:0,0:0:0:0:
379,175,153847,2,0,L|375:131,3,43.75
304,216,154222,1,2,0:0:0:0:
269,219,154315,1,0,0:0:0:0:
234,222,154409,1,0,0:0:0:0:
199,225,154503,1,0,0:0:0:0:
164,228,154597,5,4,0:0:0:0:
256,78,154784,1,2,0:0:0:0:
256,78,154878,1,2,0:0:0:0:
256,78,154972,1,2,0:0:0:0:
94,146,155159,1,2,0:0:0:0:
266,187,155347,1,4,0:0:0:0:
151,53,155534,1,2,0:0:0:0:
151,53,155628,1,2,0:0:0:0:
151,53,155722,1,2,0:0:0:0:
164,228,155909,1,2,0:0:0:0:
256,78,156097,6,0,B|212:80|212:80|218:171,1,131.25,4|0,0:0|0:0,0:0:0:0:
228,311,157597,6,0,L|249:260,1,43.75,2|0,0:0|0:0,0:0:0:0:
333,178,157972,2,0,L|354:127,1,43.75,2|0,0:0|0:0,0:0:0:0:
303,270,158347,1,8,0:0:0:0:
186,140,158534,1,8,0:0:0:0:
132,307,158722,1,8,0:0:0:0:
263,190,158909,1,0,0:0:0:0:
263,190,159003,1,0,0:0:0:0:
263,190,159097,6,0,P|236:156|195:141,1,87.5,0|0,0:3|0:0,0:0:0:0:
75,180,159472,1,8,0:0:0:0:
253,305,159659,1,0,0:0:0:0:
253,305,159753,1,0,0:0:0:0:
253,305,159847,2,0,P|294:296|326:265,1,87.5,0|0,0:3|0:0,0:0:0:0:
350,135,160222,1,8,0:0:0:0:
156,237,160409,1,0,0:3:0:0:
156,237,160503,1,0,0:3:0:0:
156,237,160597,6,0,P|163:195|194:162,1,87.5,0|0,0:3|0:0,0:0:0:0:
214,156,160878,1,0,0:0:0:0:
231,169,160972,2,0,P|272:160|304:129,1,87.5,8|0,0:3|0:0,0:0:0:0:
315,113,161253,1,0,0:0:0:0:
309,89,161347,2,0,P|344:65|389:64,1,87.5,0|0,0:3|0:0,0:0:0:0:
432,189,161722,1,8,0:0:0:0:
418,207,161815,1,0,0:0:0:0:
405,225,161909,1,8,0:0:0:0:
392,243,162003,1,0,0:0:0:0:
379,261,162097,6,0,P|339:278|295:273,1,87.5,0|0,0:3|0:0,0:0:0:0:
167,158,162472,1,8,0:0:0:0:
185,142,162565,1,0,0:0:0:0:
202,129,162659,1,8,0:0:0:0:
219,115,162753,1,0,0:0:0:0:
236,101,162847,2,0,P|278:94|319:112,1,87.5,0|0,0:3|0:0,0:0:0:0:
382,227,163222,1,8,0:0:0:0:
211,198,163409,5,0,0:0:0:0:
211,198,163503,1,0,0:0:0:0:
211,198,163597,2,0,P|246:222|290:224,1,87.5,0|0,0:3|0:0,0:0:0:0:
310,216,163878,1,0,0:0:0:0:
325,200,163972,2,0,P|367:193|408:211,1,87.5,8|0,0:3|0:0,0:0:0:0:
452,336,164347,1,0,0:0:0:0:
238,291,164534,1,0,0:0:0:0:
238,291,164628,1,0,0:0:0:0:
238,291,164722,1,8,0:0:0:0:
451,145,164909,6,0,P|452:188|429:226,1,87.5,8|0,0:3|0:0,0:0:0:0:
282,305,165284,1,0,0:0:0:0:
260,87,165472,1,8,0:0:0:0:
430,226,165659,1,0,0:0:0:0:
212,248,165847,2,0,P|171:232|145:196,2,87.5,0|0|8,0:3|0:0|0:0,0:0:0:0:
430,226,166409,5,0,0:0:0:0:
430,226,166503,1,0,0:0:0:0:
430,226,166597,2,0,P|460:195|470:152,1,87.5,0|0,0:3|0:0,0:0:0:0:
446,50,166972,1,8,0:0:0:0:
300,215,167159,1,0,0:0:0:0:
427,158,167347,1,0,0:0:0:0:
168,113,167534,1,0,0:0:0:0:
428,144,167722,1,8,0:0:0:0:
166,126,167909,1,4,0:0:0:0:
326,36,168097,5,8,0:0:0:0:
217,320,168284,1,8,0:0:0:0:
162,312,168659,5,8,0:0:0:0:
389,47,168847,1,8,0:0:0:0:
443,76,169222,5,8,0:0:0:0:
106,283,169410,1,8,0:0:0:0:
134,123,169784,6,8,L|209:76,1,87.5,8|8,0:3|0:0,0:0:0:0:
319,151,170347,1,8,0:0:0:0:
95,289,170534,1,8,0:0:0:0:
156,33,170722,1,8,0:0:0:0:
294,258,170909,1,8,0:0:0:0:
38,197,171097,6,0,P|65:164|108:152,1,87.5,4|0,0:3|0:0,0:0:0:0:
227,208,171472,1,8,0:0:0:0:
61,340,171659,1,0,0:0:0:0:
61,340,171753,1,0,0:0:0:0:
61,340,171847,2,0,P|102:350|144:335,1,87.5,0|0,0:3|0:0,0:0:0:0:
227,208,172222,1,8,0:0:0:0:
30,125,172409,1,0,0:0:0:0:
30,125,172503,1,0,0:0:0:0:
30,125,172597,6,0,P|32:167|60:202,1,87.5,0|0,0:3|0:0,0:0:0:0:
176,264,172972,1,8,0:0:0:0:
258,67,173159,1,0,0:0:0:0:
22,149,173347,1,0,0:0:0:0:
233,203,173534,1,0,0:0:0:0:
18,182,173722,1,8,0:0:0:0:
236,169,173909,1,8,0:0:0:0:
26,216,174097,6,0,P|60:242|104:247,1,87.5,0|0,0:3|0:0,0:0:0:0:
227,125,174472,1,8,0:0:0:0:
240,107,174565,1,0,0:0:0:0:
254,88,174659,1,8,0:0:0:0:
267,71,174753,1,0,0:0:0:0:
278,53,174847,6,0,P|317:35|361:39,1,87.5,0|0,0:3|0:0,0:0:0:0:
259,182,175222,1,8,0:0:0:0:
236,179,175315,1,0,0:0:0:0:
213,177,175409,1,8,0:0:0:0:
192,174,175503,1,0,0:0:0:0:
171,171,175597,6,0,P|135:145|117:105,1,87.5,0|0,0:3|0:0,0:0:0:0:
189,31,175972,1,8,0:0:0:0:
339,190,176159,1,0,0:0:0:0:
126,240,176347,1,0,0:0:0:0:
286,91,176534,1,0,0:0:0:0:
286,91,176628,1,0,0:0:0:0:
286,91,176722,2,8,P|329:83|370:99,1,87.5,8|8,0:3|0:0,0:0:0:0:
408,212,177097,5,0,0:0:0:0:
238,172,177284,2,0,P|255:212|290:239,1,87.5,0|8,0:3|0:0,0:0:0:0:
320,162,177659,2,0,P|351:191|394:202,1,87.5,0|0,0:3|0:0,0:0:0:0:
288,45,178034,1,0,0:0:0:0:
216,251,178222,1,8,0:0:0:0:
400,134,178409,1,0,0:0:0:0:
400,134,178503,1,0,0:0:0:0:
400,134,178597,5,0,0:0:0:0:
162,94,178784,1,0,0:0:0:0:
262,238,178972,1,8,0:0:0:0:
336,80,179159,1,0,0:0:0:0:
431,230,179347,2,0,P|411:269|375:294,1,87.5,0|0,0:3|0:0,0:0:0:0:
213,229,179722,1,8,0:0:0:0:
199,209,179815,1,0,0:0:0:0:
185,191,179909,1,8,0:0:0:0:
174,173,180003,1,0,0:0:0:0:
160,157,180097,5,8,0:0:0:0:
444,45,180284,1,8,0:0:0:0:
470,85,180659,5,8,0:0:0:0:
120,115,180847,1,8,0:0:0:0:
106,67,181222,5,8,0:0:0:0:
487,169,181409,1,8,0:0:0:0:
146,367,181597,1,8,0:0:0:0:
313,14,181784,1,8,0:0:0:0:
233,186,182159,6,0,P|250:223|288:247,1,87.5,0|0,0:3|0:0,0:0:0:0:
318,162,182722,2,0,L|308:106,1,43.75
207,41,183097,6,8,L|126:62,1,84,8|8,0:3|0:0,0:0:0:0:
240,328,184034,2,8,P|282:293|299:237,1,112,8|0,0:3|0:0,0:0:0:0:
252,136,184597,2,0,L|210:88,1,56,8|0,0:0|0:0,0:0:0:0:
132,64,184972,1,0,0:0:0:0:
240,156,185159,2,0,L|179:136,1,56,8|0,0:0|0:0,0:0:0:0:
100,156,185534,1,0,0:0:0:0:
240,179,185722,2,0,L|177:193,1,56,8|0,0:0|0:0,0:0:0:0:
83,221,186097,6,8,L|134:288,1,84,8|8,0:3|0:0,0:0:0:0:
264,72,187034,2,8,P|318:80|361:119,1,112,8|0,0:3|0:0,0:0:0:0:
344,248,187597,2,0,L|281:262,2,56,8|0|0,0:0|0:0|0:0,0:0:0:0:
441,193,188159,2,0,L|504:207,2,56,8|0|0,0:0|0:0|0:0,0:0:0:0:
344,138,188722,5,8,0:0:0:0:
322,144,188815,1,0,0:0:0:0:
299,150,188909,1,8,0:0:0:0:
276,156,189003,1,0,0:0:0:0:
258,161,189097,6,0,P|227:191|216:234,1,87.5,4|0,0:3|0:0,0:0:0:0:
337,262,189847,2,0,P|367:231|378:188,1,87.5,0|0,0:3|0:0,0:0:0:0:
251,105,190597,6,0,L|188:119,1,43.75,4|0,0:0|0:0,0:0:0:0:
127,206,190972,2,0,L|190:220,1,43.75
304,184,191347,2,0,P|292:142|261:111,1,87.5,0|0,0:3|0:0,0:0:0:0:
153,87,191909,1,0,0:0:0:0:
100,183,192097,6,0,P|120:220|157:244,1,87.5,4|8,0:3|0:0,0:0:0:0:
191,151,192847,2,0,P|170:113|133:89,1,87.5,4|8,0:3|0:0,0:0:0:0:
75,209,193597,5,4,0:0:0:0:
389,55,193972,1,8,0:0:0:0:
293,281,194347,5,4,0:0:0:0:
236,164,194534,1,0,0:0:0:0:
360,207,194722,1,0,0:0:0:0:
242,265,194909,1,0,0:0:0:0:
284,140,195097,6,0,P|305:102|342:78,1,87.5,4|0,0:3|0:0,0:0:0:0:
445,93,195472,1,8,0:0:0:0:
306,202,195659,1,0,0:0:0:0:
259,41,195847,2,0,P|297:62|321:99,1,87.5,0|0,0:3|0:0,0:0:0:0:
306,202,196222,1,8,0:0:0:0:
197,63,196409,1,0,0:0:0:0:
197,63,196503,1,0,0:0:0:0:
197,63,196597,6,0,P|183:104|191:147,1,87.5,0|0,0:3|0:0,0:0:0:0:
306,202,196972,1,8,0:0:0:0:
259,41,197159,1,0,0:0:0:0:
179,189,197347,1,0,0:0:0:0:
340,140,197534,1,0,0:0:0:0:
192,61,197722,1,8,0:0:0:0:
240,221,197909,1,0,0:0:0:0:
240,221,198003,1,0,0:0:0:0:
240,221,198097,6,0,P|264:255|304:274,1,87.5,0|0,0:3|0:0,0:0:0:0:
400,223,198472,1,8,0:0:0:0:
271,102,198659,1,0,0:0:0:0:
304,274,198847,1,0,0:0:0:0:
379,116,199034,1,0,0:0:0:0:
226,201,199222,1,8,0:0:0:0:
400,223,199409,1,0,0:0:0:0:
271,102,199597,5,0,0:0:0:0:
183,293,199784,1,4,0:0:0:0:
140,87,199972,1,8,0:0:0:0:
297,229,200159,1,4,0:0:0:0:
275,94,200347,1,0,0:0:0:0:
179,304,200534,1,4,0:0:0:0:
131,77,200722,1,8,0:0:0:0:
304,234,200909,1,4,0:0:0:0:
279,86,201097,6,0,L|203:58,1,65.625,2|0,0:3|0:0,0:0:0:0:
340,108,201472,1,8,0:0:0:0:
87,263,201847,6,0,L|172:294,1,82.9500020251465,2|0,0:3|0:0,0:0:0:0:
26,241,202222,1,8,0:0:0:0:
353,211,202597,6,0,L|312:321,1,98.6999984939576,2|0,0:3|0:0,0:0:0:0:
374,150,202972,1,8,0:0:0:0:
113,187,203347,6,0,L|153:76,1,115.50000352478,2|0,0:3|0:0,0:0:0:0:
92,248,203722,1,8,0:0:0:0:
89,73,204097,5,2,0:0:0:0:
95,107,204190,1,0,0:0:0:0:
107,140,204284,1,0,0:0:0:0:
124,170,204378,1,0,0:0:0:0:
145,198,204472,1,0,0:0:0:0:
171,221,204565,1,0,0:0:0:0:
201,240,204659,1,0,0:0:0:0:
233,254,204753,1,0,0:0:0:0:
267,262,204847,6,0,P|310:262|349:242,1,87.5,2|0,0:3|0:0,0:0:0:0:
400,150,205222,1,0,0:3:0:0:
231,190,205409,1,0,0:3:0:0:
370,302,205597,6,0,P|372:259|355:218,1,84,2|0,0:3|0:0,0:0:0:0:
293,162,206159,1,0,0:0:0:0:
140,113,206347,6,0,P|124:153|129:196,1,84,2|0,0:3|0:0,0:0:0:0:
189,244,206909,1,0,0:0:0:0:
271,140,207097,5,2,0:0:0:0:
398,179,207284,2,0,L|444:228,2,43.75
369,50,207659,1,0,0:0:0:0:
369,50,207753,1,0,0:0:0:0:
369,50,207847,1,0,0:0:0:0:
271,140,208034,2,0,L|204:155,2,43.75
398,179,208409,1,0,0:0:0:0:
398,179,208503,1,0,0:0:0:0:
398,179,208597,5,0,0:0:0:0:
428,309,208784,2,0,L|474:358,2,43.75
300,269,209159,2,0,L|233:284,2,43.75
398,179,209534,1,0,0:0:0:0:
398,179,209628,1,0,0:0:0:0:
398,179,209722,1,0,0:0:0:0:
385,146,209815,1,0,0:0:0:0:
361,120,209909,1,0,0:0:0:0:
331,104,210003,1,0,0:0:0:0:
296,100,210097,5,0,0:0:0:0:
217,213,210284,2,0,L|211:277,2,43.75
158,88,210659,1,0,0:0:0:0:
158,88,210753,1,0,0:0:0:0:
158,88,210847,1,0,0:0:0:0:
296,99,211034,2,0,L|335:43,2,43.75
355,224,211409,1,0,0:0:0:0:
355,224,211503,1,0,0:0:0:0:
355,224,211597,5,0,0:0:0:0:
276,337,211784,1,0,0:0:0:0:
276,337,211878,1,0,0:0:0:0:
276,337,211972,1,0,0:0:0:0:
217,212,212159,2,0,L|151:205,2,43.75
296,99,212534,1,0,0:0:0:0:
296,99,212628,1,0,0:0:0:0:
296,99,212722,1,0,0:0:0:0:
330,102,212815,1,0,0:0:0:0:
360,119,212909,1,0,0:0:0:0:
382,144,213003,1,0,0:0:0:0:
395,178,213097,5,0,0:0:0:0:
283,258,213284,2,0,L|256:316,2,43.75
269,121,213659,1,0,0:0:0:0:
269,121,213753,1,0,0:0:0:0:
269,121,213847,1,0,0:0:0:0:
394,178,214034,2,0,L|441:200,2,43.75
269,121,214409,1,0,0:0:0:0:
269,121,214503,1,0,0:0:0:0:
269,121,214597,5,0,0:0:0:0:
158,202,214784,1,0,0:0:0:0:
158,202,214878,1,0,0:0:0:0:
158,202,214972,1,0,0:0:0:0:
283,257,215159,2,0,L|350:249,2,43.75
172,338,215534,1,0,0:0:0:0:
172,338,215628,1,0,0:0:0:0:
172,338,215722,1,0,0:0:0:0:
137,344,215815,1,0,0:0:0:0:
103,335,215909,1,0,0:0:0:0:
74,318,216003,1,0,0:0:0:0:
53,289,216097,5,0,0:0:0:0:
120,177,216284,1,0,0:0:0:0:
120,177,216378,1,0,0:0:0:0:
120,177,216472,1,0,0:0:0:0:
184,292,216659,2,0,L|149:320,2,43.75
315,294,217034,1,0,0:0:0:0:
315,294,217128,1,0,0:0:0:0:
315,294,217222,1,0,0:0:0:0:
382,181,217409,2,0,L|440:147,2,43.75
251,180,217784,5,0,0:0:0:0:
251,180,217878,1,0,0:0:0:0:
251,180,217972,1,0,0:0:0:0:
315,294,218159,2,0,L|365:324,2,43.75
184,292,218534,1,0,0:0:0:0:
184,292,218628,1,0,0:0:0:0:
184,292,218722,1,0,0:0:0:0:
198,324,218815,1,0,0:0:0:0:
225,346,218909,1,0,0:0:0:0:
255,360,219003,1,0,0:0:0:0:
291,361,219097,5,4,0:0:0:0:
385,241,219284,1,0,0:0:0:0:
385,241,219378,1,0,0:0:0:0:
385,241,219472,1,0,0:0:0:0:
328,99,219659,1,0,0:0:0:0:
328,99,219753,1,0,0:0:0:0:
328,99,219847,1,0,0:0:0:0:
234,220,220034,1,0,0:0:0:0:
234,220,220128,1,0,0:0:0:0:
234,220,220222,1,0,0:0:0:0:
177,79,220409,1,0,0:0:0:0:
177,79,220503,1,0,0:0:0:0:
177,79,220597,5,4,0:0:0:0:
328,99,220784,1,0,0:0:0:0:
328,99,220878,1,0,0:0:0:0:
328,99,220972,1,0,0:0:0:0:
234,220,221159,1,0,0:0:0:0:
234,220,221253,1,0,0:0:0:0:
234,220,221347,1,0,0:0:0:0:
82,199,221534,1,0,0:0:0:0:
82,199,221628,1,0,0:0:0:0:
82,199,221722,1,0,0:0:0:0:
81,155,221815,1,0,0:0:0:0:
99,116,221909,1,0,0:0:0:0:
133,89,222003,1,0,0:0:0:0:
175,79,222097,5,4,0:0:0:0:
234,220,222284,1,0,0:0:0:0:
234,220,222378,1,0,0:0:0:0:
234,220,222472,1,0,0:0:0:0:
328,99,222659,1,0,0:0:0:0:
328,99,222753,1,0,0:0:0:0:
328,99,222847,1,0,0:0:0:0:
385,241,223034,1,0,0:0:0:0:
385,241,223128,1,0,0:0:0:0:
385,241,223222,1,0,0:0:0:0:
234,220,223409,1,0,0:0:0:0:
234,220,223503,1,0,0:0:0:0:
234,220,223597,5,4,0:0:0:0:
141,341,223784,1,0,0:0:0:0:
141,341,223878,1,0,0:0:0:0:
141,341,223972,1,0,0:0:0:0:
291,361,224159,1,0,0:0:0:0:
291,361,224253,1,0,0:0:0:0:
291,361,224347,1,4,0:0:0:0:
234,220,224534,1,0,0:0:0:0:
234,220,224628,1,0,0:0:0:0:
234,220,224722,1,0,0:0:0:0:
204,188,224815,1,0,0:0:0:0:
164,172,224909,1,0,0:0:0:0:
120,176,225003,1,0,0:0:0:0:
83,199,225097,5,4,0:0:0:0:
141,341,225284,1,0,0:0:0:0:
141,341,225378,1,0,0:0:0:0:
141,341,225472,1,0,0:0:0:0:
234,220,225659,1,0,0:0:0:0:
234,220,225753,1,0,0:0:0:0:
234,220,225847,1,0,0:0:0:0:
177,79,226034,1,0,0:0:0:0:
177,79,226128,1,0,0:0:0:0:
177,79,226222,1,0,0:0:0:0:
328,99,226409,1,0,0:0:0:0:
328,99,226503,1,0,0:0:0:0:
328,99,226597,5,4,0:0:0:0:
234,220,226784,1,0,0:0:0:0:
234,220,226878,1,0,0:0:0:0:
234,220,226972,1,0,0:0:0:0:
385,241,227159,1,0,0:0:0:0:
385,241,227253,1,0,0:0:0:0:
385,241,227347,1,0,0:0:0:0:
328,99,227534,1,0,0:0:0:0:
328,99,227628,1,0,0:0:0:0:
328,99,227722,1,0,0:0:0:0:
298,67,227815,1,0,0:0:0:0:
258,51,227909,1,0,0:0:0:0:
214,55,228003,1,0,0:0:0:0:
177,78,228097,5,4,0:0:0:0:
83,199,228284,2,0,L|26:191,2,43.75
141,341,228659,2,0,L|99:395,2,43.75
177,78,229034,1,0,0:0:0:0:
177,78,229128,1,0,0:0:0:0:
177,78,229222,1,0,0:0:0:0:
164,119,229315,1,0,0:0:0:0:
171,162,229409,1,0,0:0:0:0:
195,197,229503,1,0,0:0:0:0:
234,218,229597,5,4,0:0:0:0:
328,99,229784,2,0,L|324:54,2,43.75
385,241,230159,2,0,L|425:259,2,43.75
83,199,230534,1,0,0:0:0:0:
83,199,230628,1,0,0:0:0:0:
83,199,230722,1,0,0:0:0:0:
113,230,230815,1,0,0:0:0:0:
153,245,230909,1,0,0:0:0:0:
196,240,231003,1,0,0:0:0:0:
233,217,231097,5,4,0:0:0:0:
373,114,231284,1,0,0:0:0:0:
404,306,231472,1,0,0:0:0:0:
302,164,231659,1,0,0:0:0:0:
231,324,231847,1,0,0:0:0:0:
372,220,232034,1,0,0:0:0:0:
212,150,232222,1,0,0:0:0:0:
316,291,232409,1,0,0:0:0:0:
297,116,232597,5,0,0:0:0:0:
154,220,232784,1,0,0:0:0:0:
135,45,232972,1,0,0:0:0:0:
297,116,233159,1,0,0:0:0:0:
122,135,233347,1,0,0:0:0:0:
226,278,233534,1,0,0:0:0:0:
297,116,233722,1,0,0:0:0:0:
122,135,233909,1,0,0:0:0:0:
50,296,234097,5,2,0:0:0:0:
211,181,234284,1,0,0:0:0:0:
16,149,234472,1,0,0:0:0:0:
136,306,234659,1,0,0:0:0:0:
168,112,234847,5,2,0:0:0:0:
283,272,235034,1,0,0:0:0:0:
88,240,235222,1,0,0:0:0:0:
249,125,235409,1,0,0:0:0:0:
217,321,235597,5,2,0:0:0:0:
305,121,235784,1,2,0:0:0:0:
434,297,235972,1,2,0:0:0:0:
302,95,236159,1,2,0:0:0:0:
217,321,236347,1,2,0:0:0:0:
299,70,236534,2,0,L|295:39,4,21.875
332,354,237097,5,8,0:0:0:0:
182,188,238409,6,0,L|260:140,1,87.5,8|8,0:3|0:0,0:0:0:0:
438,226,239159,5,8,0:0:0:0:
261,246,239347,1,8,0:0:0:0:
332,82,239534,1,8,0:0:0:0:
353,260,239722,1,8,0:0:0:0:
356,82,239909,1,8,0:0:0:0:
328,259,240097,5,0,0:0:0:0:
331,237,240190,1,0,0:0:0:0:
334,215,240283,1,0,0:0:0:0:
339,194,240377,1,0,0:0:0:0:
342,171,240472,1,0,0:0:0:0:
347,150,240565,1,0,0:0:0:0:
351,128,240659,1,0,0:0:0:0:
354,106,240753,1,0,0:0:0:0:
357,84,240847,6,0,L|292:18,1,87.5,8|0,0:3|0:0,0:0:0:0:
205,61,241409,5,8,0:0:0:0:
390,247,241784,1,8,0:0:0:0:
127,247,242159,5,8,0:0:0:0:
265,123,242347,1,8,0:0:0:0:
227,305,242534,1,8,0:0:0:0:
150,135,242722,1,8,0:0:0:0:
313,228,242909,6,0,P|338:259|343:304,1,87.5,8|0,0:3|0:0,0:0:0:0:
226,364,243284,1,0,0:0:0:0:
226,364,243378,1,0,0:0:0:0:
226,364,243472,2,0,P|234:323|266:291,1,87.5,8|0,0:3|0:0,0:0:0:0:
459,216,243847,1,0,0:0:0:0:
292,351,244034,1,0,0:0:0:0:
348,144,244222,1,8,0:0:0:0:
424,344,244409,1,0,0:0:0:0:
245,227,244597,6,0,P|217:195|212:150,1,87.5,0|0,0:3|0:0,0:0:0:0:
426,61,244972,1,8,0:0:0:0:
398,292,245159,1,0,0:0:0:0:
319,107,245347,1,0,0:0:0:0:
304,222,245534,1,0,0:0:0:0:
211,151,245722,2,0,P|194:191|202:233,1,87.5,8|0,0:3|0:0,0:0:0:0:
341,263,246097,5,8,0:0:0:0:
175,122,246284,1,8,0:0:0:0:
131,149,246659,5,8,0:0:0:0:
385,246,246847,1,8,0:0:0:0:
428,213,247222,5,8,0:0:0:0:
82,182,247409,1,8,0:0:0:0:
286,100,247784,6,8,P|326:100|363:126,1,87.5,8|8,0:3|0:0,0:0:0:0:
387,264,248347,1,8,0:0:0:0:
182,189,248534,1,8,0:0:0:0:
349,48,248722,1,8,0:0:0:0:
341,68,248815,1,0,0:0:0:0:
334,89,248909,1,8,0:0:0:0:
326,109,249003,1,0,0:0:0:0:
246,243,249284,5,0,0:0:0:0:
246,243,249378,1,0,0:0:0:0:
246,243,249472,2,8,P|216:267|173:271,1,65.625,8|0,0:3|0:0,0:0:0:0:
92,233,249847,2,8,L|52:264,2,29.1666666666667
175,167,250222,2,8,L|170:111,2,29.1666666666667
191,314,250597,1,8,0:0:0:0:
280,243,250784,6,8,P|291:226|292:204,1,43.75,4|0,0:3|0:0,0:0:0:0:
175,169,251159,2,8,P|166:150|147:139,1,43.75,4|0,0:3|0:0,0:0:0:0:
58,222,251534,1,8,0:0:0:0:
58,222,251628,1,8,0:0:0:0:
58,222,251722,1,8,0:0:0:0:
266,288,251909,1,8,0:0:0:0:
313,143,252097,5,0,0:0:0:0:
162,255,252284,1,8,0:0:0:0:
162,255,252378,1,8,0:0:0:0:
162,255,252472,1,8,0:0:0:0:
141,69,252659,1,8,0:0:0:0:
313,143,252847,2,8,L|352:143,2,29.1666666666667
99,145,253222,1,8,0:0:0:0:
266,288,253409,6,8,P|285:292|306:286,1,43.75,4|0,0:3|0:0,0:0:0:0:
294,180,253784,2,8,P|306:165|312:144,1,43.75,4|0,0:3|0:0,0:0:0:0:
214,101,254159,1,8,0:0:0:0:
125,288,254347,1,8,0:0:0:0:
265,213,254534,1,8,0:0:0:0:
265,213,254628,1,8,0:0:0:0:
265,213,254722,2,8,P|261:232|244:248,1,43.75,8|8,0:3|0:0,0:0:0:0:
170,195,255097,5,0,0:0:0:0:
289,54,255284,1,0,0:0:0:0:
351,227,255472,1,8,0:0:0:0:
170,195,255659,1,0,0:0:0:0:
233,368,255847,1,0,0:0:0:0:
351,227,256034,1,0,0:0:0:0:
170,195,256222,1,8,0:0:0:0:
289,54,256409,1,0,0:0:0:0:
249,282,256597,5,0,0:0:0:0:
170,65,256784,1,0,0:0:0:0:
130,293,256972,1,8,0:0:0:0:
279,116,257159,1,0,0:0:0:0:
249,282,257347,2,8,P|221:313|179:326,1,87.5,0|0,0:3|0:0,0:0:0:0:
161,197,257722,2,0,P|187:164|229:151,1,87.5,8|0,0:3|0:0,0:0:0:0:
336,154,258097,5,8,0:0:0:0:
132,319,258284,1,8,0:0:0:0:
93,261,258659,5,8,0:0:0:0:
394,197,258847,1,8,0:0:0:0:
432,251,259222,5,8,0:0:0:0:
82,201,259409,1,8,0:0:0:0:
448,316,259784,6,8,L|369:369,1,87.5,8|8,0:3|0:0,0:0:0:0:
286,122,260347,1,8,0:0:0:0:
286,122,261097,5,0,0:0:0:0:
230,309,261284,1,0,0:0:0:0:
134,138,261472,1,8,0:0:0:0:
322,191,261659,1,0,0:0:0:0:
154,291,261846,1,0,0:0:0:0:
197,100,262034,1,0,0:0:0:0:
298,269,262222,1,8,0:0:0:0:
181,79,262409,1,0,0:0:0:0:
181,79,262503,1,0,0:0:0:0:
181,79,262597,6,0,L|204:165,1,87.5
283,120,262878,1,0,0:0:0:0:
283,120,262972,2,0,L|331:195,1,87.5,8|0,0:0|0:0,0:0:0:0:
453,241,263347,1,0,0:0:0:0:
331,60,263534,1,0,0:0:0:0:
283,276,263722,1,8,0:0:0:0:
469,162,263909,1,0,0:0:0:0:
254,113,264097,6,0,P|211:121|178:150,1,87.5,0|0,0:3|0:0,0:0:0:0:
206,276,264472,1,8,0:0:0:0:
226,282,264565,1,0,0:0:0:0:
250,286,264659,1,8,0:0:0:0:
270,290,264753,1,0,0:0:0:0:
290,294,264847,6,0,P|331:281|361:250,1,87.5,0|0,0:3|0:0,0:0:0:0:
313,132,265222,1,8,0:0:0:0:
293,126,265315,1,0,0:0:0:0:
269,122,265409,1,8,0:0:0:0:
249,118,265503,1,0,0:0:0:0:
229,114,265597,6,0,P|187:126|157:157,1,87.5,0|0,0:3|0:0,0:0:0:0:
247,252,265972,1,8,0:0:0:0:
265,244,266065,1,0,0:0:0:0:
288,234,266159,1,8,0:0:0:0:
306,223,266253,1,0,0:0:0:0:
324,212,266347,6,0,P|349:177|354:133,1,87.5,0|0,0:3|0:0,0:0:0:0:
238,91,266722,1,8,0:0:0:0:
226,107,266815,1,0,0:0:0:0:
212,127,266909,1,8,0:0:0:0:
202,146,267003,1,0,0:0:0:0:
192,165,267097,6,0,P|187:207|205:248,1,87.5,0|0,0:3|0:0,0:0:0:0:
319,301,267472,1,8,0:0:0:0:
361,177,267659,2,0,P|319:166|277:179,2,87.5,0|0|0,0:3|0:0|0:0,0:0:0:0:
407,301,268222,1,8,0:0:0:0:
190,279,268409,6,0,P|131:216|112:127,1,175,4|0,0:3|0:0,0:0:0:0:
215,49,268972,1,8,0:0:0:0:
343,227,269159,1,0,0:0:0:0:
386,11,269347,1,0,0:0:0:0:
203,131,269534,1,0,0:0:0:0:
416,185,269722,1,8,0:0:0:0:
428,169,269815,1,0,0:0:0:0:
442,149,269909,1,8,0:0:0:0:
452,130,270003,1,0,0:0:0:0:
462,111,270097,5,8,0:0:0:0:
226,225,270284,1,8,0:0:0:0:
134,208,270659,5,8,0:0:0:0:
475,123,270847,1,8,0:0:0:0:
488,135,271222,5,8,0:0:0:0:
42,191,271409,1,8,0:0:0:0:
92,123,271597,5,8,0:0:0:0:
285,300,271784,1,8,0:0:0:0:
200,332,272159,5,8,0:0:0:0:
129,34,272347,1,8,0:0:0:0:
206,1,272722,5,8,0:0:0:0:
146,346,272909,1,8,0:0:0:0:
77,275,273097,5,8,0:0:0:0:
410,170,273284,1,8,0:0:0:0:
442,216,273659,5,8,0:0:0:0:
48,199,273847,1,8,0:0:0:0:
19,123,274222,5,8,0:0:0:0:
474,262,274409,1,8,0:0:0:0:
190,279,276659,6,0,L|100:229,1,87.5,2|0,0:0|0:0,0:0:0:0:
239,206,277222,2,0,L|288:233,1,43.75,2|0,0:0|0:0,0:0:0:0:
307,328,277597,6,0,P|265:329|228:306,1,87.5,4|0,0:3|0:0,0:0:0:0:
164,190,277972,1,8,0:0:0:0:
164,190,278159,1,0,0:0:0:0:
336,213,278347,2,0,P|369:236|387:276,1,87.5,0|0,0:3|0:0,0:0:0:0:
317,358,278722,1,8,0:0:0:0:
233,205,278909,1,0,0:0:0:0:
135,349,279097,6,0,P|174:358|215:344,1,87.5,0|0,0:3|0:0,0:0:0:0:
265,245,279472,1,8,0:0:0:0:
116,156,279659,2,0,P|127:194|158:224,1,87.5,0|0,0:3|0:0,0:0:0:0:
265,245,280034,1,0,0:0:0:0:
210,78,280222,1,8,0:0:0:0:
82,198,280409,1,0,0:0:0:0:
210,78,280597,6,0,P|246:62|289:67,1,87.5,0|0,0:3|0:0,0:0:0:0:
361,149,280972,1,8,0:0:0:0:
188,174,281159,1,0,0:0:0:0:
361,149,281347,2,0,P|350:187|320:217,1,87.5,0|0,0:3|0:0,0:0:0:0:
188,174,281722,1,8,0:0:0:0:
188,174,281909,1,0,0:0:0:0:
316,219,282097,5,0,0:0:0:0:
305,238,282190,1,0,0:0:0:0:
295,257,282284,1,0,0:0:0:0:
285,276,282378,1,0,0:0:0:0:
274,296,282472,1,8,0:0:0:0:
140,247,282659,1,0,0:0:0:0:
150,227,282752,1,0,0:0:0:0:
160,208,282846,1,0,0:0:0:0:
170,189,282940,1,0,0:0:0:0:
181,169,283034,1,0,0:0:0:0:
224,91,283222,1,8,0:0:0:0:
282,267,283409,1,0,0:0:0:0:
352,107,283597,5,0,0:0:0:0:
282,267,283784,1,0,0:0:0:0:
178,126,283972,2,0,P|155:91|115:72,1,87.5,8|0,0:3|0:0,0:0:0:0:
3,145,284347,1,0,0:0:0:0:
108,287,284534,1,0,0:0:0:0:
178,126,284722,2,0,P|213:101|256:98,1,87.5,8|0,0:3|0:0,0:0:0:0:
334,206,285097,5,0,0:0:0:0:
162,241,285284,1,0,0:0:0:0:
259,95,285472,1,8,0:0:0:0:
294,267,285659,1,0,0:0:0:0:
148,171,285847,1,0,0:3:0:0:
183,342,286034,1,0,0:3:0:0:
280,197,286222,1,8,0:3:0:0:
313,368,286409,1,0,0:3:0:0:
169,271,286597,6,0,P|128:256|85:266,1,87.5,8|0,0:3|0:0,0:0:0:0:
39,335,286972,2,0,P|79:349|122:339,1,87.5,8|0,0:3|0:0,0:0:0:0:
289,253,287347,1,8,0:0:0:0:
198,79,287534,1,8,0:0:0:0:
140,267,287722,1,8,0:0:0:0:
314,176,287909,1,8,0:0:0:0:
106,111,288096,5,8,0:0:0:0:
154,324,288284,1,8,0:0:0:0:
314,176,288472,1,8,0:0:0:0:
86,105,288659,1,8,0:0:0:0:
138,339,288847,1,8,0:0:0:0:
314,176,289034,1,0,0:0:0:0:
314,176,289128,1,0,0:0:0:0:
314,176,289222,2,0,P|307:217|279:250,1,87.5,0|0,0:3|0:0,0:0:0:0:
112,222,289597,5,4,0:0:0:0:
289,60,289784,1,0,0:0:0:0:
278,299,289972,1,8,0:0:0:0:
117,123,290159,1,0,0:0:0:0:
355,133,290347,1,0,0:0:0:0:
180,295,290534,1,0,0:0:0:0:
189,56,290722,1,8,0:0:0:0:
352,232,290909,1,0,0:0:0:0:
352,232,291003,1,0,0:0:0:0:
352,232,291097,5,0,0:0:0:0:
355,133,291284,1,0,0:0:0:0:
355,133,291378,1,0,0:0:0:0:
355,133,291472,1,8,0:0:0:0:
189,56,291659,1,0,0:0:0:0:
189,56,291753,1,0,0:0:0:0:
189,56,291847,1,0,0:0:0:0:
278,299,292034,1,0,0:0:0:0:
387,65,292222,1,8,0:0:0:0:
278,299,292409,1,8,0:0:0:0:
129,87,292597,5,4,0:0:0:0:
347,188,292784,1,0,0:0:0:0:
122,271,292972,1,8,0:0:0:0:
222,53,293159,1,0,0:0:0:0:
306,278,293347,1,0,0:0:0:0:
88,179,293534,1,0,0:0:0:0:
312,94,293722,1,8,0:0:0:0:
214,313,293909,1,0,0:0:0:0:
214,313,294003,1,0,0:0:0:0:
214,313,294097,5,0,0:0:0:0:
394,296,294284,1,0,0:0:0:0:
394,296,294378,1,0,0:0:0:0:
394,296,294472,1,8,0:0:0:0:
288,149,294659,1,0,0:0:0:0:
288,149,294753,1,0,0:0:0:0:
288,149,294847,1,0,0:0:0:0:
214,313,295034,1,0,0:0:0:0:
72,117,295222,1,8,0:0:0:0:
214,313,295409,1,8,0:0:0:0:
312,92,295597,5,0,0:0:0:0:
53,120,295784,1,0,0:0:0:0:
256,284,295972,1,8,0:0:0:0:
228,25,296159,1,0,0:0:0:0:
65,228,296347,1,0,0:0:0:0:
323,199,296534,1,0,0:0:0:0:
116,35,296722,1,8,0:0:0:0:
144,291,296909,1,0,0:0:0:0:
323,85,297097,5,0,0:0:0:0:
140,302,297284,1,0,0:0:0:0:
109,23,297472,1,8,0:0:0:0:
335,202,297659,1,0,0:0:0:0:
54,234,297847,1,0,0:0:0:0:
231,12,298034,1,0,0:0:0:0:
262,295,298222,1,8,0:0:0:0:
40,116,298409,1,0,0:0:0:0:
334,78,298597,5,8,0:0:0:0:
28,113,298784,1,0,0:0:0:0:
375,164,298972,5,8,0:0:0:0:
69,199,299159,1,0,0:0:0:0:
416,250,299347,5,8,0:0:0:0:
110,285,299534,1,0,0:0:0:0:
457,336,299722,5,8,0:0:0:0:
69,199,299909,1,8,0:0:0:0:
69,199,300003,1,0,0:0:0:0:
69,199,300097,2,0,P|104:220|147:221,1,87.5,0|0,0:3|0:0,0:0:0:0:
295,184,300472,1,8,0:0:0:0:
128,140,300659,1,8,0:0:0:0:
174,307,300847,2,0,L|267:285,1,87.5
331,81,301222,1,8,0:0:0:0:
315,65,301315,1,0,0:0:0:0:
300,49,301409,1,8,0:0:0:0:
285,33,301503,1,0,0:0:0:0:
270,17,301597,5,0,0:0:0:0:
78,51,302722,5,0,0:0:0:0:
258,241,302909,1,8,0:0:0:0:
256,192,303003,12,0,304597,0:0:0:0:
