osu file format v14

[General]
AudioFilename: audio.mp3
AudioLeadIn: 0
PreviewTime: 71442
Countdown: 0
SampleSet: Normal
StackLeniency: 0.7
Mode: 0
LetterboxInBreaks: 0
WidescreenStoryboard: 0

[Editor]
Bookmarks: 14536,37669,193452,198151,250199
DistanceSpacing: 3.1
BeatDivisor: 2
GridSize: 4
TimelineZoom: 1.7

[Metadata]
Title:Puzzle Girl
TitleUnicode:パズルガール
Artist:nameless
ArtistUnicode:nameless
Creator:doKXiD
Version:puzzle master
Source:とあ
Tags:
BeatmapID:937498
BeatmapSetID:435193

[Difficulty]
HPDrainRate:7
CircleSize:4
OverallDifficulty:8
ApproachRate:9.8
SliderMultiplier:1.4
SliderTickRate:1

[Events]
//Background and Video events
0,0,"476ccc0bca65db0ac43203cdaff471cd.jpg",0,0
//Break Periods
2,32086,70894
//Storyboard Layer 0 (Background)
//Storyboard Layer 1 (Fail)
//Storyboard Layer 2 (Pass)
//Storyboard Layer 3 (Foreground)
//Storyboard Sound Samples

[TimingPoints]
2970.64665634586,361.445783132531,4,1,0,30,1,0
2971,-117.647058823529,4,1,0,30,0,0
14536,-100,4,1,0,30,0,0
73814,-133.333333333333,4,1,0,30,0,0
74536,-100,4,1,0,30,0,0

[HitObjects]
144,100,2970,5,0,2:0:0:0:
144,100,3331,1,0,2:0:0:0:
144,100,3512,1,0,2:0:0:0:
144,100,3693,2,0,P|192:150|163:197,1,119.000002269745,0|0,2:0|2:0,2:0:0:0:
336,156,4235,1,0,2:0:0:0:
212,72,4596,1,0,2:0:0:0:
104,280,4777,1,0,2:0:0:0:
212,72,4958,1,0,2:0:0:0:
224,304,5138,1,0,2:0:0:0:
128,152,5500,2,0,L|252:188,1,119.000002269745,0|0,2:0|2:0,2:0:0:0:
260,68,6223,1,0,2:0:0:0:
388,180,6404,2,0,L|319:199,1,59.5000011348725,0|0,2:0|2:0,2:0:0:0:
264,128,6946,1,0,2:0:0:0:
400,256,7126,2,0,L|342:271,1,59.5000011348725,0|0,2:0|2:0,2:0:0:0:
48,340,7488,1,0,2:0:0:0:
292,320,7669,1,0,2:0:0:0:
144,144,7849,1,0,2:0:0:0:
292,320,8030,1,0,2:0:0:0:
308,76,8211,1,0,2:0:0:0:
292,320,8391,2,0,L|419:285,1,119.000002269745,0|0,2:0|2:0,2:0:0:0:
436,168,8934,1,0,2:0:0:0:
272,96,9114,2,0,L|192:76,1,59.5000011348725,0|0,2:0|2:0,2:0:0:0:
228,188,9476,2,0,L|144:168,1,59.5000011348725,0|0,2:0|2:0,2:0:0:0:
172,284,9837,2,0,L|80:260,1,59.5000011348725,0|0,2:0|2:0,2:0:0:0:
52,160,10199,1,0,2:0:0:0:
312,76,10379,1,0,2:0:0:0:
52,160,10560,1,0,2:0:0:0:
336,220,10741,1,0,2:0:0:0:
52,160,10922,1,0,2:0:0:0:
264,352,11102,1,0,2:0:0:0:
84,172,11283,2,0,L|165:150,1,59.5000011348725,0|0,2:0|2:0,2:0:0:0:
208,96,11644,1,0,2:0:0:0:
264,196,12006,2,0,L|325:212,1,59.5000011348725
392,256,12367,1,0,0:0:0:0:
320,324,12548,2,0,L|242:344,1,59.5000011348725
128,216,12910,2,0,L|56:272,1,59.5000011348725
52,332,13452,1,0,0:0:0:0:
168,136,13814,1,0,0:0:0:0:
276,324,14175,2,0,P|348:356|396:340,1,119.000002269745
352,80,14717,1,0,0:0:0:0:
232,288,14898,1,0,0:0:0:0:
352,80,15079,1,0,0:0:0:0:
148,162,15259,2,0,L|71:183,2,70
352,80,15801,1,0,0:0:0:0:
268,88,16163,1,0,0:0:0:0:
176,300,16344,1,0,0:0:0:0:
276,96,16524,1,0,0:0:0:0:
344,312,16705,1,0,0:0:0:0:
276,96,16886,1,0,0:0:0:0:
176,300,17067,1,0,0:0:0:0:
276,96,17247,1,0,0:0:0:0:
400,304,17428,2,0,L|436:288,7,35
388,272,18151,2,0,L|424:256,6,35
180,52,18874,2,0,L|71:80,1,105
59,167,19235,2,0,L|178:134,1,105
252,124,19597,2,0,L|252:336,1,210
252,334,20229,2,0,L|316:343,1,35
364,192,20500,1,0,0:0:0:0:
436,308,20681,1,0,0:0:0:0:
112,160,20862,2,0,P|86:133|54:125,2,70
228,76,21404,1,0,0:0:0:0:
96,232,21585,1,0,0:0:0:0:
228,72,21946,1,0,0:0:0:0:
224,288,22127,1,0,0:0:0:0:
340,336,22307,1,0,0:0:0:0:
376,224,22488,2,0,L|392:152,2,70
376,52,23030,1,0,0:0:0:0:
105,109,23211,2,0,L|128:136,6,35
392,200,23934,2,0,L|364:233,6,35
264,92,24657,1,0,0:0:0:0:
120,260,24838,1,0,0:0:0:0:
264,92,25018,1,0,0:0:0:0:
224,304,25199,1,0,0:0:0:0:
264,92,25380,1,0,0:0:0:0:
332,284,25561,1,0,0:0:0:0:
268,88,25741,1,0,0:0:0:0:
436,264,25922,1,0,0:0:0:0:
268,96,26103,1,0,0:0:0:0:
456,140,26283,2,0,L|340:176,1,70
200,212,26645,2,0,L|292:240,1,70
52,84,27006,1,0,0:0:0:0:
60,84,27187,1,0,0:0:0:0:
56,84,27368,1,0,0:0:0:0:
60,88,27729,2,0,P|88:152|64:188,2,70
352,64,28271,1,0,0:0:0:0:
180,272,28452,1,0,0:0:0:0:
412,232,28633,2,0,L|344:276,1,70
181,248,28994,1,0,0:0:0:0:
164,224,29175,2,0,L|79:204,2,70
301,137,29717,2,0,L|385:116,2,70
96,80,30259,1,0,0:0:0:0:
100,84,30621,2,0,P|100:126|129:140,1,70
100,84,30982,1,0,0:0:0:0:
134,303,31163,1,0,0:0:0:0:
259,84,31344,1,0,0:0:0:0:
291,299,31524,1,0,0:0:0:0:
387,89,31706,2,0,L|456:82,1,70
128,76,71464,5,0,0:0:0:0:
140,324,71644,1,0,0:0:0:0:
228,68,71825,1,0,0:0:0:0:
244,316,72006,1,0,0:0:0:0:
336,76,72187,1,0,0:0:0:0:
368,320,72368,1,0,0:0:0:0:
368,320,72728,1,0,0:0:0:0:
112,280,73091,1,0,0:0:0:0:
216,180,73271,1,0,0:0:0:0:
149,104,73452,2,0,L|227:83,1,70
207,196,73814,2,0,L|331:163,2,105.000004005432
90,78,74717,1,0,0:0:0:0:
127,273,74898,1,0,0:0:0:0:
232,52,75079,1,0,0:0:0:0:
152,124,75260,1,0,0:0:0:0:
