osu file format v14

[General]
AudioFilename: audio.mp3
AudioLeadIn: 0
PreviewTime: 66026
Countdown: 0
SampleSet: None
StackLeniency: 0.7
Mode: 0
LetterboxInBreaks: 0
WidescreenStoryboard: 0

[Editor]
Bookmarks: 2007,17070,31781,47197,66027,91682,106742,121806,134987,135222,135457,135693,135928,136163,136399,136634,136870,137105,137340,137576,137811,138046,138282,138517,142518,157582,173587,192416,212893
DistanceSpacing: 0.9
BeatDivisor: 4
GridSize: 16
TimelineZoom: 2.799999

[Metadata]
Title:Milk Crown on Sonnetica
TitleUnicode:ミルククラウン・オン・ソーネチカ
Artist:nameless
ArtistUnicode:nameless
Creator:Shirasaka Koume
Version:Milk Crown Collab
Source:
Tags:vocaloid hatsune miku 初音ミク utaite yuzy ユジー _kotachi_
BeatmapID:1456499
BeatmapSetID:688226

[Difficulty]
HPDrainRate:4.5
CircleSize:4
OverallDifficulty:9.2
ApproachRate:9.8
SliderMultiplier:1.8
SliderTickRate:1

[Events]
//Background and Video events
0,0,"BG.jpg",0,0
//Break Periods
2,135187,138038
//Storyboard Layer 0 (Background)
//Storyboard Layer 1 (Fail)
//Storyboard Layer 2 (Pass)
//Storyboard Layer 3 (Foreground)
//Storyboard Sound Samples

[TimingPoints]
1065,235.367958575239,4,2,1,50,1,0
1065,-133.333333333333,4,2,2,50,0,0
9538,-133.333333333333,4,2,1,50,0,0
16599,-133.333333333333,4,2,1,70,0,0
17070,-100,4,2,1,70,0,0
66026,-83.3333333333333,4,2,1,70,0,1
79207,235.367958575239,3,2,1,70,1,0
79207,-83.3333333333333,3,2,1,70,0,0
79913,235.367958575239,4,2,1,70,1,0
79913,-83.3333333333333,4,2,1,70,0,0
80854,235.367958575239,3,2,1,70,1,0
80854,-83.3333333333333,3,2,1,70,0,0
82972,235.367958575239,4,2,1,70,1,0
82972,-83.3333333333333,4,2,1,70,0,0
83913,235.367958575239,3,2,1,70,1,0
83913,-83.3333333333333,3,2,1,70,0,0
88855,235.367958575239,4,2,1,70,1,0
88855,-83.3333333333333,4,2,1,70,0,0
91208,-133.333333333333,4,2,1,70,0,0
91679,-100,4,2,1,70,0,0
120865,-66.6666666666667,4,2,1,70,0,0
121806,-83.3333333333333,4,2,1,80,0,1
134987,-100,4,2,1,70,0,0
142518,-133.333333333333,4,2,1,70,0,0
163231,-100,4,2,1,70,0,0
172881,-100,4,2,1,40,0,0
173116,-100,4,2,1,50,0,0
173352,-100,4,2,1,60,0,0
173587,-66.6666666666667,4,2,1,80,0,1
192416,-83.3333333333333,4,2,1,70,0,0
211246,-200,4,2,1,70,0,0

[HitObjects]
81,175,2006,6,0,P|150:163|201:210,1,135.000005149842,4|0,0:0|0:0,0:0:0:0:
261,293,2359,1,0,0:0:0:0:
18,47,2594,1,0,0:0:0:0:
113,314,2830,6,0,L|129:230,1,67.5000025749208,2|0,0:0|0:0,0:0:0:0:
281,43,3065,2,0,B|324:72|324:72|332:162,1,135.000005149842,2|0,0:0|0:0,0:0:0:0:
261,293,3418,1,2,0:0:0:0:
422,176,3536,1,0,0:0:0:0:
248,208,3654,1,0,0:0:0:0:
435,261,3771,1,2,0:0:0:0:
241,374,3889,6,0,P|194:347|187:267,1,135.000005149842,0|2,0:0|0:0,0:0:0:0:
248,208,4242,1,0,0:0:0:0:
506,342,4477,1,0,0:0:0:0:
383,52,4713,6,0,L|313:64,1,67.5000025749208,2|0,0:0|0:0,0:0:0:0:
99,199,4948,2,0,B|142:163|142:163|225:178,1,135.000005149842,2|0,0:0|0:0,0:0:0:0:
354,231,5301,2,0,P|333:263|328:302,1,67.5000025749208,2|0,0:0|0:0,0:0:0:0:
158,313,5536,2,0,P|179:345|184:384,1,67.5000025749208,2|0,0:0|0:0,0:0:0:0:
9,111,5772,6,0,L|152:87,1,135.000005149842,0|2,0:0|0:0,0:0:0:0:
213,29,6125,1,0,0:0:0:0:
465,186,6360,1,0,0:0:0:0:
249,273,6596,2,0,P|237:234|240:204,1,67.5000025749208,2|0,0:0|0:0,0:0:0:0:
379,20,6831,2,0,B|408:60|408:60|392:156,1,135.000005149842,2|0,0:0|0:0,0:0:0:0:
323,309,7184,5,2,0:0:0:0:
498,194,7302,1,0,0:0:0:0:
309,227,7419,1,0,0:0:0:0:
512,276,7537,1,2,0:0:0:0:
260,384,7655,6,0,L|181:371,2,67.5000025749208,0|0|2,0:0|0:0|0:0,0:0:0:0:
389,361,8008,1,0,0:0:0:0:
61,227,8243,1,0,0:0:0:0:
350,85,8479,6,0,L|332:164,1,67.5000025749208,2|0,0:0|0:0,0:0:0:0:
266,64,8714,2,0,P|292:18|385:10,1,135.000005149842
457,93,9067,2,0,B|438:116|438:116|447:172,1,67.5000025749208,2|0,0:0|0:0,0:0:0:0:
239,193,9302,2,0,B|258:216|258:216|249:272,1,67.5000025749208
373,362,9538,6,0,P|418:357|443:340,1,67.5000025749208,6|0,0:0|0:0,0:0:0:0:
407,234,9773,2,0,P|362:239|337:256,1,67.5000025749208
189,338,10008,1,2,0:0:0:0:
131,261,10126,2,0,L|141:189,1,67.5000025749208
165,67,10362,6,0,P|124:113|52:113,2,135.000005149842
240,11,10950,1,2,0:0:0:0:
332,0,11068,1,0,0:0:0:0:
417,36,11185,1,0,0:0:0:0:
472,110,11303,1,0,0:0:0:0:
483,201,11421,6,0,L|400:186,1,67.5000025749208,2|0,0:0|0:0,0:0:0:0:
298,314,11656,2,0,L|381:299,1,67.5000025749208
306,100,11891,1,2,0:0:0:0:
218,138,12009,2,0,P|196:171|195:210,1,67.5000025749208
83,339,12244,6,0,L|99:193,2,135.000005149842
209,274,12833,2,0,B|213:240|213:240|175:256,1,67.5000025749208,2|0,0:0|0:0,0:0:0:0:
0,163,13068,2,0,B|-4:129|-4:129|34:145,1,67.5000025749208
163,44,13304,6,0,P|208:45|237:64,1,67.5000025749208,2|0,0:0|0:0,0:0:0:0:
284,169,13539,2,0,P|329:168|358:149,1,67.5000025749208
449,15,13774,1,2,0:0:0:0:
509,91,13892,2,0,L|496:170,1,67.5000025749208
369,315,14127,6,0,P|401:257|490:254,2,135.000005149842
304,379,14716,1,2,0:0:0:0:
216,354,14834,1,0,0:0:0:0:
161,212,14951,1,0,0:0:0:0:
73,237,15069,1,0,0:0:0:0:
29,384,15187,6,0,P|73:375|108:348,1,67.5000025749208,2|0,0:0|0:0,0:0:0:0:
241,269,15422,1,2,0:0:0:0:
43,145,15540,2,0,L|48:229,1,67.5000025749208,2|0,0:0|0:0,0:0:0:0:
216,354,15775,2,0,L|220:286,1,67.5000025749208
156,59,16010,6,0,B|106:53|106:53|76:69|76:69|25:63,2,135.000005149842,2|2|2,0:0|0:0|0:0,0:0:0:0:
325,176,16599,2,0,P|358:174|387:157,1,67.5000025749208,8|0,0:0|0:0,0:0:0:0:
243,8,16834,1,8,0:0:0:0:
139,269,16952,1,8,0:0:0:0:
335,93,17070,6,0,P|260:125|259:224,1,180,6|8,0:0|0:0,0:0:0:0:
445,218,17423,1,0,0:0:0:0:
312,351,17540,2,0,P|314:306|324:262,1,90,2|2,0:0|0:0,0:0:0:0:
460,47,17776,2,0,P|469:90|472:135,1,90,8|0,0:0|0:0,0:0:0:0:
253,214,18011,6,0,B|186:209|186:209|148:227|148:227|74:220,1,180,2|8,0:0|0:0,0:0:0:0:
17,133,18364,1,0,0:0:0:0:
257,129,18482,6,0,P|320:163|319:269,1,180,2|8,0:0|0:0,0:0:0:0:
250,322,18835,1,0,0:0:0:0:
263,336,18894,1,0,0:0:0:0:
281,348,18952,6,0,P|327:358|372:347,1,90,2|0,0:0|0:0,0:0:0:0:
168,270,19188,2,0,P|136:304|123:349,1,90,8|0,0:0|0:0,0:0:0:0:
324,262,19423,1,2,0:0:0:0:
177,165,19541,1,2,0:0:0:0:
281,348,19659,1,8,0:0:0:0:
368,182,19776,1,0,0:0:0:0:
168,270,19894,6,0,B|77:241|85:312|-15:280,1,180,2|8,0:0|0:0,0:0:0:0:
49,76,20247,1,8,0:0:0:0:
252,217,20365,2,0,P|296:215|341:206,1,90,2|0,0:0|0:0,0:0:0:0:
155,54,20600,2,0,P|110:55|65:64,1,90,8|0,0:0|0:0,0:0:0:0:
263,126,20835,6,0,P|303:49|387:25,1,180,6|8,0:0|0:0,0:0:0:0:
370,132,21188,1,0,0:0:0:0:
165,229,21306,2,0,P|154:185|136:144,1,90,2|2,0:0|0:0,0:0:0:0:
294,365,21542,2,0,P|304:321|322:280,1,90,8|0,0:0|0:0,0:0:0:0:
495,200,21777,6,0,B|436:189|436:189|388:216|388:216|324:204,1,180,2|8,0:0|0:0,0:0:0:0:
280,15,22130,1,0,0:0:0:0:
370,131,22248,2,0,P|388:91|395:46,1,90,2|0,0:0|0:0,0:0:0:0:
136,144,22483,2,0,P|143:188|161:229,1,90,8|0,0:0|0:0,0:0:0:0:
253,261,22660,1,0,0:0:0:0:
253,261,22718,6,0,P|164:264|108:337,2,180,2|8|2,0:0|0:0|0:0,0:0:0:0:
211,358,23307,1,2,0:0:0:0:
61,190,23424,2,0,P|94:160|139:142,1,90,8|0,0:0|0:0,0:0:0:0:
327,200,23660,5,2,0:0:0:0:
246,40,23778,1,8,0:0:0:0:
161,229,23895,1,8,0:0:0:0:
384,137,24013,1,8,0:0:0:0:
135,143,24131,5,8,0:0:0:0:
339,285,24248,1,0,0:0:0:0:
319,87,24366,1,2,0:0:0:0:
184,311,24484,1,8,0:0:0:0:
412,218,24601,6,0,B|299:244|299:244|245:205,1,180,6|8,0:0|0:0,0:0:0:0:
398,57,24954,1,0,0:0:0:0:
433,311,25072,2,0,L|341:330,1,90,2|2,0:0|0:0,0:0:0:0:
384,137,25307,1,8,0:0:0:0:
507,247,25425,1,0,0:0:0:0:
258,336,25543,6,0,P|268:290|299:258,1,90,2|0,0:0|0:0,0:0:0:0:
497,213,25778,2,0,P|452:227|408:216,1,90,8|0,0:0|0:0,0:0:0:0:
260,78,26014,2,0,P|294:109|307:152,1,90,2|0,0:0|0:0,0:0:0:0:
161,229,26249,1,8,0:0:0:0:
115,54,26367,1,0,0:0:0:0:
286,235,26484,6,0,P|208:245|150:332,1,180,2|8,0:0|0:0,0:0:0:0:
344,329,26837,1,0,0:0:0:0:
221,152,26955,1,2,0:0:0:0:
258,336,27073,1,2,0:0:0:0:
396,138,27190,1,8,0:0:0:0:
186,243,27308,1,0,0:0:0:0:
430,321,27426,6,0,L|413:217,1,90,2|0,0:0|0:0,0:0:0:0:
258,65,27661,1,8,0:0:0:0:
258,65,27720,1,0,0:0:0:0:
258,65,27779,1,0,0:0:0:0:
186,243,27896,2,0,L|203:139,1,90,2|0,0:0|0:0,0:0:0:0:
381,49,28132,2,0,L|395:137,1,90,8|0,0:0|0:0,0:0:0:0:
258,336,28367,5,6,0:0:0:0:
303,153,28485,1,0,0:0:0:0:
344,329,28603,1,8,0:0:0:0:
169,345,28720,1,0,0:0:0:0:
322,239,28838,2,0,P|367:240|408:264,1,90,2|2,0:0|0:0,0:0:0:0:
258,336,29073,1,8,0:0:0:0:
200,154,29191,1,0,0:0:0:0:
395,137,29309,5,2,0:0:0:0:
186,242,29426,1,0,0:0:0:0:
208,62,29544,1,8,0:0:0:0:
323,239,29662,1,0,0:0:0:0:
109,180,29779,6,0,L|112:135,1,45,2|0,0:0|0:0,0:0:0:0:
313,62,29897,2,0,L|318:121,1,45,8|0,0:0|0:0,0:0:0:0:
183,287,30015,2,0,L|186:242,1,45,2|0,0:0|0:0,0:0:0:0:
204,17,30133,2,0,L|209:76,1,45,8|0,0:0|0:0,0:0:0:0:
64,292,30250,5,2,0:0:0:0:
77,55,30368,1,0,0:0:0:0:
240,163,30485,1,2,0:0:0:0:
5,205,30603,5,2,0:0:0:0:
5,205,30839,1,2,0:0:0:0:
5,205,31074,1,2,0:0:0:0:
271,317,31192,1,8,0:0:0:0:
5,205,31780,6,0,L|101:188,1,90
219,87,32015,1,0,0:0:0:0:
78,376,32133,6,0,P|59:336|64:292,1,90,6|0,0:0|0:0,0:0:0:0:
301,235,32368,2,0,P|319:275|315:319,1,90,8|0,0:0|0:0,0:0:0:0:
129,76,32604,2,0,L|219:87,1,90,2|0,0:0|0:0,0:0:0:0:
445,225,32839,1,8,0:0:0:0:
236,286,32957,1,0,0:0:0:0:
394,87,33075,5,2,0:0:0:0:
176,346,33192,2,0,P|155:300|160:257,2,90,0|8|0,0:0|0:0|0:0,0:0:0:0:
348,205,33545,1,2,0:0:0:0:
171,112,33663,1,0,0:0:0:0:
59,339,33781,1,8,0:0:0:0:
236,286,33898,1,8,0:0:0:0:
17,73,34016,5,2,0:0:0:0:
171,112,34134,1,0,0:0:0:0:
17,73,34251,1,8,0:0:0:0:
171,112,34369,1,0,0:0:0:0:
44,239,34487,6,0,B|24:197|24:197|43:135,1,90,2|0,0:0|0:0,0:0:0:0:
179,20,34722,1,8,0:0:0:0:
0,336,34840,6,0,P|28:280|145:261,1,180
435,208,35193,2,0,P|407:152|290:133,1,180,8|2,0:0|0:0,0:0:0:0:
176,336,35546,5,0,0:0:0:0:
273,267,35664,1,8,0:0:0:0:
348,384,35781,1,8,0:0:0:0:
511,250,35899,6,0,P|478:220|435:208,1,90,2|0,0:0|0:0,0:0:0:0:
179,143,36134,2,0,L|270:130,1,90,8|0,0:0|0:0,0:0:0:0:
462,89,36370,1,2,0:0:0:0:
273,267,36487,1,0,0:0:0:0:
129,20,36605,1,8,0:0:0:0:
355,158,36723,1,0,0:0:0:0:
45,276,36840,5,2,0:0:0:0:
87,148,36958,1,0,0:0:0:0:
45,276,37076,1,8,0:0:0:0:
87,148,37194,1,0,0:0:0:0:
291,357,37311,5,2,0:0:0:0:
249,229,37429,1,0,0:0:0:0:
291,357,37547,1,8,0:0:0:0:
249,229,37665,1,8,0:0:0:0:
88,374,37782,5,2,0:0:0:0:
239,141,37900,2,0,P|288:146|324:181,1,90,0|8,0:0|0:0,0:0:0:0:
385,306,38135,1,0,0:0:0:0:
493,62,38253,2,0,L|401:75,1,90,2|0,0:0|0:0,0:0:0:0:
156,224,38488,1,8,0:0:0:0:
321,3,38606,6,0,B|372:46|372:46|355:158,1,180
216,384,38959,2,0,B|267:341|267:341|249:229,1,180,8|2,0:0|0:0,0:0:0:0:
31,174,39312,5,8,0:0:0:0:
286,79,39429,1,8,0:0:0:0:
31,174,39547,1,2,0:0:0:0:
182,0,39665,6,0,P|203:40|202:90,1,90,6|0,0:0|0:0,0:0:0:0:
107,326,39900,2,0,P|86:286|87:236,1,90,8|0,0:0|0:0,0:0:0:0:
309,158,40136,2,0,L|403:175,1,90,2|0,0:0|0:0,0:0:0:0:
507,320,40371,1,8,0:0:0:0:
247,384,40489,1,0,0:0:0:0:
173,113,40606,5,2,0:0:0:0:
309,158,40724,1,0,0:0:0:0:
173,113,40842,1,8,0:0:0:0:
309,158,40960,1,0,0:0:0:0:
202,253,41077,5,2,0:0:0:0:
173,113,41195,1,0,0:0:0:0:
309,158,41312,1,8,0:0:0:0:
202,253,41430,1,8,0:0:0:0:
337,70,41548,5,2,0:0:0:0:
100,172,41665,2,0,P|79:129|86:77,1,90,0|8,0:0|0:0,0:0:0:0:
218,0,41901,1,0,0:0:0:0:
374,218,42019,2,0,P|395:175|388:123,1,90,2|0,0:0|0:0,0:0:0:0:
237,312,42254,1,8,0:0:0:0:
478,119,42372,6,0,P|421:54|337:70,1,180
45,235,42725,2,0,P|101:169|186:185,1,180,8|2,0:0|0:0,0:0:0:0:
237,312,43078,5,0,0:0:0:0:
336,233,43195,1,8,0:0:0:0:
410,357,43313,1,0,0:0:0:0:
512,114,43431,6,0,L|312:145,1,180,2|8,0:0|0:0,0:0:0:0:
156,299,43784,1,0,0:0:0:0:
236,67,43901,2,0,P|282:39|335:46,1,90,2|0,0:0|0:0,0:0:0:0:
468,275,44137,1,8,0:0:0:0:
173,179,44255,1,0,0:0:0:0:
219,384,44372,5,2,0:0:0:0:
397,334,44490,1,0,0:0:0:0:
219,384,44608,1,8,0:0:0:0:
397,334,44726,1,0,0:0:0:0:
257,194,44843,6,0,P|234:237|237:283,1,90,2|0,0:0|0:0,0:0:0:0:
482,362,45078,1,8,0:0:0:0:
330,132,45196,1,8,0:0:0:0:
115,326,45314,6,0,L|300:288,1,180,2|8,0:0|0:0,0:0:0:0:
463,197,45667,1,0,0:0:0:0:
261,64,45784,2,0,B|231:101|231:101|232:143,1,90,2|0,0:0|0:0,0:0:0:0:
323,283,46020,1,8,0:0:0:0:
123,15,46137,6,0,P|154:56|152:103,1,90,2|0,0:0|0:0,0:0:0:0:
411,127,46373,2,0,P|380:168|382:215,1,90,2|8,0:0|0:0,0:0:0:0:
222,384,46608,1,0,0:0:0:0:
56,172,46726,2,0,P|87:213|85:260,1,90,2|0,0:0|0:0,0:0:0:0:
308,365,46961,6,0,L|302:316,1,45,8|8,0:0|0:0,0:0:0:0:
463,197,47079,2,0,L|457:241,1,45,8|0,0:0|0:0,0:0:0:0:
283,147,47197,5,6,0:0:0:0:
283,147,47314,1,0,0:0:0:0:
444,41,47432,1,8,0:0:0:0:
379,205,47550,1,0,0:0:0:0:
189,92,47667,1,2,0:0:0:0:
411,121,47785,1,8,0:0:0:0:
345,290,47903,1,0,0:0:0:0:
281,48,48020,6,0,P|353:12|445:41,1,180,2|0,0:0|0:0,0:0:0:0:
250,296,48373,2,0,P|224:259|211:216,1,90,8|8,0:0|0:0,0:0:0:0:
108,226,48609,2,0,P|115:181|137:142,1,90,2|0,0:0|0:0,0:0:0:0:
55,80,48844,2,0,P|91:54|134:41,1,90,8|8,0:0|0:0,0:0:0:0:
326,94,49080,5,2,0:0:0:0:
221,84,49197,1,0,0:0:0:0:
349,206,49315,1,8,0:0:0:0:
400,17,49433,1,0,0:0:0:0:
247,185,49550,1,2,0:0:0:0:
455,232,49668,1,8,0:0:0:0:
326,94,49786,1,0,0:0:0:0:
276,288,49903,6,0,B|337:290|337:290|380:318|380:318|447:314,1,180,2|0,0:0|0:0,0:0:0:0:
415,123,50256,2,0,P|389:166|377:205,1,90,8|8,0:0|0:0,0:0:0:0:
178,91,50492,2,0,P|204:134|216:173,1,90,2|0,0:0|0:0,0:0:0:0:
426,16,50727,2,0,P|378:32|344:54,1,90,8|0,0:0|0:0,0:0:0:0:
276,288,50963,5,2,0:0:0:0:
276,288,51080,1,0,0:0:0:0:
471,206,51198,1,8,0:0:0:0:
287,119,51316,1,0,0:0:0:0:
430,284,51433,1,2,0:0:0:0:
511,128,51551,1,8,0:0:0:0:
296,204,51669,1,0,0:0:0:0:
363,42,51786,6,0,P|282:13|200:55,1,180,2|0,0:0|0:0,0:0:0:0:
130,217,52139,2,0,P|172:181|187:149,1,90,8|8,0:0|0:0,0:0:0:0:
26,60,52375,2,0,P|47:99|83:127,1,90,2|0,0:0|0:0,0:0:0:0:
296,204,52610,2,0,P|300:148|288:115,1,90,8|2,0:0|0:0,0:0:0:0:
118,42,52845,5,6,0:0:0:0:
363,42,52963,1,0,0:0:0:0:
208,264,53081,5,8,0:0:0:0:
243,34,53199,1,8,0:0:0:0:
400,218,53316,5,6,0:0:0:0:
158,186,53434,1,0,0:0:0:0:
420,119,53552,5,8,0:0:0:0:
373,315,53669,2,0,B|276:336|298:264|201:289,1,180,2|2,0:0|0:0,0:0:0:0:
291,120,54022,1,8,0:0:0:0:
460,290,54140,1,2,0:0:0:0:
194,187,54258,5,8,0:0:0:0:
436,116,54375,1,8,0:0:0:0:
179,158,54493,5,8,0:0:0:0:
511,210,54611,1,8,0:0:0:0:
203,287,54728,6,0,P|143:280|63:318,1,135,6|0,0:0|0:0,0:0:0:0:
59,323,54964,1,8,0:0:0:0:
279,146,55081,2,0,B|288:188|288:188|275:244,1,90,2|0,0:0|0:0,0:0:0:0:
95,199,55317,2,0,B|86:157|86:157|96:111,1,90,8|0,0:0|0:0,0:0:0:0:
306,46,55552,6,0,P|373:100|374:191,1,180,2|0,0:0|0:0,0:0:0:0:
95,199,55905,1,8,0:0:0:0:
279,146,56023,1,8,0:0:0:0:
233,326,56141,2,0,P|209:282|197:234,1,90,2|0,0:0|0:0,0:0:0:0:
394,91,56376,1,8,0:0:0:0:
360,289,56494,1,8,0:0:0:0:
202,85,56611,6,0,P|162:76|110:78,1,90,6|0,0:0|0:0,0:0:0:0:
74,312,56847,1,8,0:0:0:0:
74,312,56964,1,0,0:0:0:0:
251,170,57082,1,2,0:0:0:0:
95,199,57200,1,8,0:0:0:0:
257,306,57317,1,0,0:0:0:0:
295,62,57435,1,8,0:0:0:0:
165,264,57553,5,2,0:0:0:0:
406,216,57670,1,8,0:0:0:0:
202,86,57788,1,8,0:0:0:0:
257,306,57906,1,8,0:0:0:0:
464,143,58024,5,8,0:0:0:0:
443,133,58082,1,8,0:0:0:0:
421,128,58141,1,8,0:0:0:0:
399,126,58200,1,8,0:0:0:0:
378,128,58259,2,8,L|378:73,1,45
257,306,58377,2,8,L|257:351,1,45
264,163,58494,6,0,P|217:168|166:179,1,90,6|0,0:0|0:0,0:0:0:0:
357,308,58730,2,0,P|401:316|445:321,1,90,8|0,0:0|0:0,0:0:0:0:
355,135,58965,1,2,0:0:0:0:
257,306,59083,1,2,0:0:0:0:
456,232,59200,1,8,0:0:0:0:
280,70,59318,1,0,0:0:0:0:
357,308,59436,6,0,P|361:261|360:210,1,90,2|0,0:0|0:0,0:0:0:0:
171,86,59671,2,0,P|170:130|174:175,1,90,8|0,0:0|0:0,0:0:0:0:
257,306,59906,1,2,0:0:0:0:
355,135,60024,1,2,0:0:0:0:
165,269,60142,1,8,0:0:0:0:
345,339,60260,1,0,0:0:0:0:
265,147,60377,6,0,L|359:134,1,90,2|0,0:0|0:0,0:0:0:0:
476,269,60613,2,0,L|382:256,1,90,8|0,0:0|0:0,0:0:0:0:
471,151,60848,1,2,0:0:0:0:
278,236,60966,1,2,0:0:0:0:
320,26,61083,1,8,0:0:0:0:
354,134,61201,1,0,0:0:0:0:
152,102,61319,6,0,P|108:98|65:111,1,90,2|0,0:0|0:0,0:0:0:0:
245,316,61554,2,0,P|289:320|332:307,1,90,8|0,0:0|0:0,0:0:0:0:
354,134,61789,1,2,0:0:0:0:
142,203,61907,1,2,0:0:0:0:
278,236,62025,1,8,0:0:0:0:
167,4,62142,1,0,0:0:0:0:
224,166,62260,5,6,0:0:0:0:
416,40,62378,1,0,0:0:0:0:
409,260,62496,5,8,0:0:0:0:
255,64,62613,1,0,0:0:0:0:
471,137,62731,5,2,0:0:0:0:
296,384,62849,1,2,0:0:0:0:
344,103,62966,5,8,0:0:0:0:
453,365,63084,1,0,0:0:0:0:
138,209,63202,6,0,L|236:209,1,90,2|0,0:0|0:0,0:0:0:0:
420,46,63438,1,8,0:0:0:0:
371,253,63555,1,0,0:0:0:0:
175,27,63673,2,0,P|170:71|173:116,1,90,2|8,0:0|0:0,0:0:0:0:
270,306,63908,1,8,0:0:0:0:
471,137,64026,1,8,0:0:0:0:
173,116,64144,5,2,0:0:0:0:
176,242,65085,6,0,L|117:248,3,45,2|0|2|0,0:0|0:0|0:0|0:0,0:0:0:0:
252,178,65320,2,0,L|311:184,3,45,8|0|8|0,0:0|0:0|0:0|0:0,0:0:0:0:
161,124,65555,5,8,0:0:0:0:
179,94,65613,1,0,0:0:0:0:
208,73,65672,1,8,0:0:0:0:
243,64,65731,1,0,0:0:0:0:
278,70,65790,5,8,0:0:0:0:
308,89,65850,1,0,0:0:0:0:
347,110,65908,1,8,0:0:0:0:
391,110,65967,1,0,0:0:0:0:
431,89,66026,6,0,B|486:61|486:61|458:232,1,215.999993408203,6|8,0:0|0:0,0:0:0:0:
376,371,66379,1,0,0:0:0:0:
247,152,66497,1,2,0:0:0:0:
501,286,66614,1,2,0:0:0:0:
207,375,66732,1,8,0:0:0:0:
308,89,66850,1,0,0:0:0:0:
93,265,66968,6,0,L|212:245,1,107.999996704102,2|0,0:0|0:0,0:0:0:0:
378,20,67203,2,0,L|259:0,1,107.999996704102,8|0,0:0|0:0,0:0:0:0:
38,352,67438,6,0,L|157:332,1,107.999996704102,2|0,0:0|0:0,0:0:0:0:
512,115,67674,2,0,L|393:95,1,107.999996704102,8|0,0:0|0:0,0:0:0:0:
240,17,67909,6,0,P|314:97|303:217,1,215.999993408203,2|8,0:0|0:0,0:0:0:0:
144,334,68262,1,0,0:0:0:0:
10,162,68380,2,0,L|124:147,1,107.999996704102,2|2,0:0|0:0,0:0:0:0:
269,384,68615,1,8,0:0:0:0:
184,82,68733,1,0,0:0:0:0:
412,265,68850,6,0,B|332:252|332:252|293:214|293:214|213:201,1,215.999993408203,2|8,0:0|0:0,0:0:0:0:
386,359,69204,1,8,0:0:0:0:
480,93,69321,2,0,P|444:134|440:187,1,107.999996704102,2|0,0:0|0:0,0:0:0:0:
269,384,69557,1,8,0:0:0:0:
38,131,69674,1,0,0:0:0:0:
38,131,69733,1,0,0:0:0:0:
38,131,69792,6,0,L|152:116,1,107.999996704102,6|0,0:0|0:0,0:0:0:0:
374,52,70027,1,8,0:0:0:0:
113,311,70145,6,0,P|91:262|96:205,1,107.999996704102,0|2,0:0|0:0,0:0:0:0:
453,16,70380,2,0,P|456:69|434:118,1,107.999996704102,2|8,0:0|0:0,0:0:0:0:
186,361,70616,1,0,0:0:0:0:
161,39,70733,5,2,0:0:0:0:
483,192,70851,1,0,0:0:0:0:
161,39,70969,1,8,0:0:0:0:
430,363,71086,6,0,L|419:252,1,107.999996704102,0|2,0:0|0:0,0:0:0:0:
86,0,71322,2,0,L|75:107,1,107.999996704102,0|8,0:0|0:0,0:0:0:0:
248,301,71557,1,0,0:0:0:0:
368,85,71675,5,2,0:0:0:0:
86,243,71793,1,0,0:0:0:0:
368,85,71910,1,8,0:0:0:0:
182,363,72028,6,0,P|163:310|171:256,1,107.999996704102,0|2,0:0|0:0,0:0:0:0:
350,7,72263,1,2,0:0:0:0:
350,7,72322,1,0,0:0:0:0:
350,7,72381,1,8,0:0:0:0:
468,273,72499,1,0,0:0:0:0:
145,134,72616,5,2,0:0:0:0:
468,73,72734,1,8,0:0:0:0:
186,7,72852,5,8,0:0:0:0:
292,324,72969,1,0,0:0:0:0:
477,190,73087,5,2,0:0:0:0:
104,261,73205,1,8,0:0:0:0:
104,261,73264,1,8,0:0:0:0:
104,261,73322,1,8,0:0:0:0:
512,352,73440,1,8,0:0:0:0:
287,9,73558,6,0,B|234:67|234:67|261:203,1,215.999993408203,6|8,0:0|0:0,0:0:0:0:
395,312,73911,1,0,0:0:0:0:
486,107,74029,2,0,L|362:92,1,107.999996704102,2|2,0:0|0:0,0:0:0:0:
44,214,74264,2,0,L|168:199,1,107.999996704102,8|0,0:0|0:0,0:0:0:0:
502,324,74499,6,0,L|395:312,1,107.999996704102,2|0,0:0|0:0,0:0:0:0:
207,59,74735,1,8,0:0:0:0:
297,300,74852,1,0,0:0:0:0:
123,100,74970,2,0,B|109:47|109:47|135:-3,1,107.999996704102,2|0,0:0|0:0,0:0:0:0:
381,259,75205,2,0,B|395:312|395:312|370:359,1,107.999996704102,8|0,0:0|0:0,0:0:0:0:
170,318,75441,6,0,P|177:215|270:170,1,215.999993408203,2|8,0:0|0:0,0:0:0:0:
466,232,75794,1,0,0:0:0:0:
123,100,75912,2,0,L|-4:120,1,107.999996704102,2|2,0:0|0:0,0:0:0:0:
369,359,76147,2,0,P|391:311|380:258,1,107.999996704102,8|0,0:0|0:0,0:0:0:0:
199,5,76382,6,0,L|221:230,1,215.999993408203,2|8,0:0|0:0,0:0:0:0:
97,339,76735,1,8,0:0:0:0:
318,164,76853,2,0,P|371:167|416:195,1,107.999996704102,2|0,0:0|0:0,0:0:0:0:
474,384,77088,1,8,0:0:0:0:
512,48,77206,5,0,0:0:0:0:
512,48,77265,1,0,0:0:0:0:
512,48,77324,2,0,L|294:74,1,215.999993408203,6|8,0:0|0:0,0:0:0:0:
152,234,77677,1,0,0:0:0:0:
32,1,77794,2,0,P|4:46|0:99,1,107.999996704102,2|2,0:0|0:0,0:0:0:0:
208,308,78030,2,0,P|235:262|240:209,1,107.999996704102,8|0,0:0|0:0,0:0:0:0:
18,304,78265,5,2,0:0:0:0:
356,159,78383,1,0,0:0:0:0:
81,76,78501,1,8,0:0:0:0:
146,355,78618,1,0,0:0:0:0:
359,46,78736,5,2,0:0:0:0:
294,325,78853,1,8,0:0:0:0:
472,0,78971,2,0,L|485:118,1,107.999996704102,8|8,0:0|0:0,0:0:0:0:
357,384,79207,6,0,P|379:315|263:247,1,215.999993408203,6|8,0:0|0:0,0:0:0:0:
72,361,79560,1,8,0:0:0:0:
116,46,79677,1,8,0:0:0:0:
208,297,79795,1,8,0:0:0:0:
0,170,79913,6,0,B|99:162|99:162|129:136|129:136|237:127,1,215.999993408203,6|8,0:0|0:0,0:0:0:0:
359,240,80266,1,8,0:0:0:0:
246,22,80383,1,2,0:0:0:0:
307,337,80501,1,8,0:0:0:0:
496,169,80619,2,0,L|380:151,1,107.999996704102,2|8,0:0|0:0,0:0:0:0:
105,315,80854,6,0,P|150:268|207:258,1,107.999996704102,6|0,0:0|0:0,0:0:0:0:
432,285,81089,1,8,0:0:0:0:
191,356,81207,1,8,0:0:0:0:
250,111,81324,1,8,0:0:0:0:
400,372,81442,1,8,0:0:0:0:
133,138,81560,6,0,L|152:24,1,107.999996704102,8|2,0:0|0:0,0:0:0:0:
427,85,81795,2,0,L|409:191,1,107.999996704102,8|2,0:0|0:0,0:0:0:0:
48,173,82030,2,0,L|67:59,1,107.999996704102,8|2,0:0|0:0,0:0:0:0:
470,260,82266,6,0,P|421:353|319:345,1,215.999993408203,6|8,0:0|0:0,0:0:0:0:
133,138,82619,1,8,0:0:0:0:
237,361,82736,1,8,0:0:0:0:
321,43,82854,1,8,0:0:0:0:
76,285,82972,6,0,B|110:232|168:249|168:249|210:193|275:218,1,215.999993408203,6|2,0:0|0:0,0:0:0:0:
379,315,83325,1,8,0:0:0:0:
191,14,83442,1,2,0:0:0:0:
237,289,83560,1,8,0:0:0:0:
497,131,83678,2,0,L|377:137,1,107.999996704102,2|8,0:0|0:0,0:0:0:0:
146,324,83913,5,6,0:0:0:0:
400,215,84030,1,0,0:0:0:0:
77,97,84148,1,8,0:0:0:0:
275,370,84266,5,8,0:0:0:0:
335,89,84383,1,0,0:0:0:0:
77,287,84501,1,8,0:0:0:0:
373,18,84619,6,0,P|414:65|411:117,1,107.999996704102,2|0,0:0|0:0,0:0:0:0:
190,200,84854,2,8,P|149:153|152:101,1,107.999996704102
493,71,85089,2,8,P|505:132|476:175,1,107.999996704102
180,364,85325,6,0,P|199:300|339:280,1,215.999993408203,6|8,0:0|0:0,0:0:0:0:
461,374,85678,1,8,0:0:0:0:
383,88,85795,2,0,B|350:126|350:126|358:196,1,107.999996704102,8|0,0:0|0:0,0:0:0:0:
81,384,86031,6,0,P|107:325|102:274,1,107.999996704102,6|0,0:0|0:0,0:0:0:0:
260,46,86266,5,8,0:0:0:0:
7,212,86384,1,8,0:0:0:0:
50,3,86502,1,8,0:0:0:0:
216,255,86620,1,8,0:0:0:0:
481,94,86737,6,0,P|432:5|313:29,1,215.999993408203,6|0,0:0|0:0,0:0:0:0:
362,266,87090,1,8,0:0:0:0:
102,102,87208,2,0,L|214:112,1,107.999996704102,0|8,0:0|0:0,0:0:0:0:
459,350,87443,6,0,L|347:360,1,107.999996704102,6|0,0:0|0:0,0:0:0:0:
151,191,87678,5,8,0:0:0:0:
512,270,87796,1,8,0:0:0:0:
179,321,87914,1,8,0:0:0:0:
484,140,88031,1,8,0:0:0:0:
123,383,88149,6,0,P|99:338|114:275,1,107.999996704102,6|0,0:0|0:0,0:0:0:0:
375,84,88384,1,8,0:0:0:0:
266,374,88502,1,8,0:0:0:0:
70,135,88620,1,8,0:0:0:0:
438,217,88738,1,8,0:0:0:0:
189,0,88855,6,0,L|199:107,1,107.999996704102,6|0,0:0|0:0,0:0:0:0:
419,330,89090,1,8,0:0:0:0:
89,216,89208,1,2,0:0:0:0:
454,128,89325,1,8,0:0:0:0:
169,325,89443,1,8,0:0:0:0:
273,12,89561,1,8,0:0:0:0:
492,258,89678,1,8,0:0:0:0:
99,376,89796,6,0,P|83:308|212:252,1,215.999993408203,6|2,0:0|0:0,0:0:0:0:
416,344,90149,1,8,0:0:0:0:
413,358,90384,1,8,0:0:0:0:
410,372,90620,1,2,0:0:0:0:
167,81,90737,1,12,0:0:0:0:
167,81,91208,6,0,B|213:93|234:58|234:58|261:78|261:78|276:56|276:56|295:68|295:68|314:46|356:57,1,202.500007724762
478,176,91679,6,0,P|393:136|301:158,1,180,6|8,0:0|0:0,0:0:0:0:
375,291,92032,1,0,0:0:0:0:
198,197,92150,2,0,P|195:157|202:91,1,90,2|0,0:0|0:0,0:0:0:0:
469,275,92385,2,0,P|471:319|468:364,1,90,8|0,0:0|0:0,0:0:0:0:
253,333,92620,5,2,0:0:0:0:
311,151,92738,1,0,0:0:0:0:
339,380,92856,1,8,0:0:0:0:
117,247,92973,1,0,0:0:0:0:
407,204,93091,2,0,P|448:185|500:187,1,90,2|0,0:0|0:0,0:0:0:0:
253,333,93326,2,0,P|208:332|167:313,1,90,8|8,0:0|0:0,0:0:0:0:
337,280,93562,5,2,0:0:0:0:
222,36,93680,1,0,0:0:0:0:
117,247,93797,1,8,0:0:0:0:
345,146,93915,1,0,0:0:0:0:
103,60,94033,1,2,0:0:0:0:
225,257,94150,1,0,0:0:0:0:
347,34,94268,1,8,0:0:0:0:
65,169,94386,6,0,B|130:162|130:162|176:185|176:185|238:177,1,180
433,112,94739,2,0,B|443:158|443:158|427:199,1,90,8|0,0:0|0:0,0:0:0:0:
219,343,94974,2,0,B|209:297|209:297|224:257,1,90,2|0,0:0|0:0,0:0:0:0:
334,146,95209,1,8,0:0:0:0:
443,370,95327,1,8,0:0:0:0:
238,176,95445,6,0,P|182:107|95:94,1,180,2|8,0:0|0:0,0:0:0:0:
51,335,95798,1,0,0:0:0:0:
316,324,95916,2,0,B|326:278|326:278|311:238,1,90,2|0,0:0|0:0,0:0:0:0:
65,207,96151,2,0,L|154:207,1,90,8|0,0:0|0:0,0:0:0:0:
424,113,96386,5,2,0:0:0:0:
229,279,96504,1,0,0:0:0:0:
405,235,96622,1,8,0:0:0:0:
181,59,96739,1,0,0:0:0:0:
362,317,96857,2,0,P|405:327|449:317,1,90,2|0,0:0|0:0,0:0:0:0:
273,171,97092,2,0,P|229:160|185:170,1,90,8|8,0:0|0:0,0:0:0:0:
292,354,97328,5,2,0:0:0:0:
79,232,97445,1,0,0:0:0:0:
329,258,97563,1,8,0:0:0:0:
34,379,97681,1,0,0:0:0:0:
127,69,97798,1,2,0:0:0:0:
229,279,97916,1,0,0:0:0:0:
0,119,98034,1,8,0:0:0:0:
244,62,98152,6,0,B|284:84|324:60|324:60|361:97|352:148,1,180
140,297,98505,2,0,P|153:246|172:206,1,90,8|0,0:0|0:0,0:0:0:0:
422,364,98740,2,0,P|411:320|393:279,1,90,2|0,0:0|0:0,0:0:0:0:
198,365,98975,1,8,0:0:0:0:
273,171,99093,1,8,0:0:0:0:
55,191,99211,6,0,P|97:201|148:206,1,90,6|0,0:0|0:0,0:0:0:0:
394,45,99446,1,8,0:0:0:0:
120,107,99564,1,0,0:0:0:0:
305,270,99681,1,2,0:0:0:0:
228,4,99799,1,0,0:0:0:0:
208,266,99917,2,0,P|199:309|208:353,1,90,8|0,0:0|0:0,0:0:0:0:
445,176,100152,6,0,B|381:164|381:164|330:186|330:186|272:170,1,180,2|8,0:0|0:0,0:0:0:0:
439,49,100505,1,0,0:0:0:0:
397,256,100623,2,0,P|390:300|388:345,1,90,2|0,0:0|0:0,0:0:0:0:
323,101,100858,2,0,P|321:56|314:12,1,90,8|8,0:0|0:0,0:0:0:0:
125,205,101094,5,2,0:0:0:0:
362,179,101211,1,0,0:0:0:0:
249,364,101329,1,8,0:0:0:0:
243,91,101447,1,0,0:0:0:0:
314,316,101564,1,2,0:0:0:0:
43,270,101682,1,0,0:0:0:0:
272,170,101800,1,8,0:0:0:0:
44,73,101917,6,0,P|115:116|142:210,1,180
47,358,102270,2,0,P|38:313|45:269,1,90,8|0,0:0|0:0,0:0:0:0:
294,261,102506,2,0,P|259:290|218:306,1,90,2|0,0:0|0:0,0:0:0:0:
211,19,102741,1,8,0:0:0:0:
459,204,102859,1,8,0:0:0:0:
137,111,102977,6,0,P|128:192|131:298,1,180,2|8,0:0|0:0,0:0:0:0:
385,290,103330,1,0,0:0:0:0:
219,131,103447,2,0,P|212:179|215:236,1,90,2|0,0:0|0:0,0:0:0:0:
479,333,103683,2,0,P|479:288|472:243,1,90,8|0,0:0|0:0,0:0:0:0:
301,83,103918,5,2,0:0:0:0:
293,335,104036,1,0,0:0:0:0:
467,154,104153,1,8,0:0:0:0:
162,220,104271,1,0,0:0:0:0:
385,290,104389,2,0,L|380:189,1,90,2|0,0:0|0:0,0:0:0:0:
306,0,104624,1,8,0:0:0:0:
88,142,104742,1,8,0:0:0:0:
175,0,104860,6,0,P|195:47|199:89,1,90,2|0,0:0|0:0,0:0:0:0:
28,200,105095,1,8,0:0:0:0:
29,177,105153,1,8,0:0:0:0:
33,155,105212,1,8,0:0:0:0:
41,134,105271,1,8,0:0:0:0:
52,114,105330,1,2,0:0:0:0:
295,136,105448,1,0,0:0:0:0:
149,337,105566,1,8,0:0:0:0:
117,68,105683,1,0,0:0:0:0:
283,338,105801,5,8,0:0:0:0:
415,46,105919,1,2,0:0:0:0:
407,345,106036,5,8,0:0:0:0:
249,30,106154,1,2,0:0:0:0:
54,299,106272,5,8,0:0:0:0:
502,175,106389,1,8,0:0:0:0:
106,15,106507,5,8,0:0:0:0:
154,373,106625,1,8,0:0:0:0:
502,175,106742,6,0,P|454:140|395:134,1,120,6|0,0:0|0:0,0:0:0:0:
337,207,106978,2,0,L|357:58,1,120,8|8,0:0|0:0,0:0:0:0:
35,244,107213,6,0,P|82:209|141:203,1,120,6|0,0:0|0:0,0:0:0:0:
199,276,107449,2,8,L|179:127,1,120
136,5,107684,5,6,0:0:0:0:
337,207,107841,1,0,0:0:0:0:
337,207,107919,2,8,L|203:180,1,120
458,129,108155,5,6,0:0:0:0:
257,331,108312,1,0,0:0:0:0:
257,331,108390,2,8,L|391:304,1,120
136,253,108625,5,6,0:0:0:0:
454,334,108782,1,0,0:0:0:0:
454,333,108861,2,8,P|449:274|407:233,1,120
327,281,109096,5,6,0:0:0:0:
63,168,109253,1,0,0:0:0:0:
63,168,109332,2,8,P|67:109|109:68,1,120
257,197,109567,5,6,0:0:0:0:
394,27,109724,1,0,0:0:0:0:
442,40,109802,2,8,P|449:99|417:150,1,120
266,108,110038,2,0,P|257:49|288:0,1,120,6|0,0:0|0:0,0:0:0:0:
508,154,110273,2,8,P|484:209|431:236,1,120
171,118,110508,6,0,L|185:241,1,120,6|0,0:0|0:0,0:0:0:0:
94,377,110744,1,8,0:0:0:0:
119,340,110802,1,8,0:0:0:0:
157,317,110861,1,8,0:0:0:0:
202,313,110920,1,8,0:0:0:0:
244,328,110979,2,0,P|285:357|360:348,1,120,6|0,0:0|0:0,0:0:0:0:
481,250,111214,5,8,0:0:0:0:
437,258,111272,1,8,0:0:0:0:
396,241,111331,1,8,0:0:0:0:
371,204,111390,1,8,0:0:0:0:
371,160,111450,2,0,P|402:108|479:104,1,120,6|0,0:0|0:0,0:0:0:0:
346,1,111685,5,8,0:0:0:0:
323,39,111743,1,8,0:0:0:0:
285,63,111802,1,8,0:0:0:0:
241,69,111861,1,8,0:0:0:0:
199,54,111921,2,0,L|213:188,1,120,6|0,0:0|0:0,0:0:0:0:
157,317,112156,5,8,0:0:0:0:
180,279,112214,1,8,0:0:0:0:
218,255,112273,1,8,0:0:0:0:
262,249,112332,1,8,0:0:0:0:
304,264,112392,2,0,L|290:130,1,120,6|0,0:0|0:0,0:0:0:0:
115,5,112627,5,8,0:0:0:0:
116,49,112685,1,8,0:0:0:0:
93,87,112744,1,8,0:0:0:0:
53,107,112803,1,8,0:0:0:0:
9,102,112862,2,0,P|-3:158|16:222,1,120,6|0,0:0|0:0,0:0:0:0:
249,334,113097,5,8,0:0:0:0:
66,384,113215,1,2,0:0:0:0:
156,113,113333,5,8,0:0:0:0:
391,384,113450,1,8,0:0:0:0:
360,26,113568,1,8,0:0:0:0:
175,334,113686,1,8,0:0:0:0:
505,193,113804,1,12,0:0:0:0:
83,39,114039,5,8,0:0:0:0:
83,39,114157,1,8,0:0:0:0:
0,275,114274,2,0,P|44:215|153:210,1,180,6|8,0:0|0:0,0:0:0:0:
308,354,114627,1,0,0:0:0:0:
416,98,114745,2,0,L|313:110,1,90,2|0,0:0|0:0,0:0:0:0:
85,323,114980,2,0,L|175:334,1,90,8|0,0:0|0:0,0:0:0:0:
503,121,115216,6,0,P|505:74|470:29,1,90,2|0,0:0|0:0,0:0:0:0:
230,212,115451,2,0,P|228:259|263:304,1,90,8|0,0:0|0:0,0:0:0:0:
512,264,115686,1,2,0:0:0:0:
271,96,115804,1,8,0:0:0:0:
383,345,115922,1,2,0:0:0:0:
443,185,116039,1,8,0:0:0:0:
144,276,116157,6,0,B|122:215|122:215|160:93,1,180,2|8,0:0|0:0,0:0:0:0:
352,204,116510,1,0,0:0:0:0:
131,361,116628,2,0,P|85:343|60:300,1,90,2|0,0:0|0:0,0:0:0:0:
306,66,116863,2,0,L|397:77,1,90,8|0,0:0|0:0,0:0:0:0:
512,308,117099,6,0,P|471:281|425:280,1,90,2|0,0:0|0:0,0:0:0:0:
158,151,117334,2,0,L|249:140,1,90,8|0,0:0|0:0,0:0:0:0:
468,54,117569,1,2,0:0:0:0:
258,241,117687,1,8,0:0:0:0:
347,0,117804,1,8,0:0:0:0:
512,198,117922,1,8,0:0:0:0:
235,358,118040,5,12,0:0:0:0:
429,372,118158,1,2,0:0:0:0:
139,262,118275,5,8,0:0:0:0:
402,297,118393,1,2,0:0:0:0:
127,126,118511,5,8,0:0:0:0:
436,224,118629,1,2,0:0:0:0:
205,14,118746,5,8,0:0:0:0:
512,198,118864,1,2,0:0:0:0:
142,347,118982,5,8,0:0:0:0:
12,164,119099,1,2,0:0:0:0:
206,303,119217,5,8,0:0:0:0:
88,63,119335,1,2,0:0:0:0:
283,294,119453,5,8,0:0:0:0:
205,14,119570,1,2,0:0:0:0:
356,324,119688,5,8,0:0:0:0:
330,30,119805,1,2,0:0:0:0:
405,383,119923,5,8,0:0:0:0:
510,96,120158,5,0,0:0:0:0:
510,96,120275,2,0,L|319:128,2,180,2|2|2,0:0|0:0|0:0,0:0:0:0:
165,24,120865,6,0,P|152:57|154:91,3,67.5000025749208,2|0|0|0,0:0|0:0|0:0|0:0,0:0:0:0:
246,156,121100,2,0,P|247:189|234:220,3,67.5000025749208,8|0|8|0,0:0|0:0|0:0|0:0,0:0:0:0:
160,305,121335,6,0,L|154:224,1,67.5000025749208,8|0,0:0|0:0,0:0:0:0:
332,125,121453,2,0,L|327:192,1,67.5000025749208,8|0,0:0|0:0,0:0:0:0:
114,364,121571,6,0,L|108:283,1,67.5000025749208,8|0,0:0|0:0,0:0:0:0:
378,184,121688,2,0,L|373:251,1,67.5000025749208,8|0,0:0|0:0,0:0:0:0:
78,63,121806,6,0,B|130:45|130:45|238:69,1,161.999995056153,6|0,0:0|0:0,0:0:0:0:
92,158,122041,2,0,P|37:152|-1:115,1,107.999996704102,8|0,0:0|0:0,0:0:0:0:
328,22,122277,1,2,0:0:0:0:
276,359,122394,1,2,0:0:0:0:
172,131,122512,1,8,0:0:0:0:
477,209,122630,1,0,0:0:0:0:
92,158,122747,6,0,P|85:211|89:265,1,107.999996704102,2|0,0:0|0:0,0:0:0:0:
450,326,122983,2,0,P|456:272|452:218,1,107.999996704102,8|0,0:0|0:0,0:0:0:0:
58,180,123218,6,0,P|51:233|55:287,1,107.999996704102,2|0,0:0|0:0,0:0:0:0:
478,362,123454,2,0,P|484:308|484:290,1,53.9999983520508,8|0,0:0|0:0,0:0:0:0:
284,121,123571,2,0,P|277:174|278:193,1,53.9999983520508
414,38,123689,6,0,B|357:44|357:44|314:19|314:19|257:22,1,161.999995056153,2|0,0:0|0:0,0:0:0:0:
124,66,123924,2,0,P|150:116|196:144,1,107.999996704102,8|0,0:0|0:0,0:0:0:0:
413,142,124160,1,2,0:0:0:0:
242,343,124277,1,2,0:0:0:0:
259,22,124395,1,8,0:0:0:0:
343,249,124513,1,0,0:0:0:0:
42,27,124630,6,0,P|22:86|56:232,1,215.999993408203,2|8,0:0|0:0,0:0:0:0:
336,110,124983,2,0,L|266:124,1,53.9999983520508,8|0,0:0|0:0,0:0:0:0:
117,152,125101,1,2,0:0:0:0:
371,368,125219,1,0,0:0:0:0:
443,72,125337,1,8,0:0:0:0:
249,267,125454,1,0,0:0:0:0:
220,284,125513,1,0,0:0:0:0:
192,299,125572,6,0,L|205:176,1,107.999996704102,6|0,0:0|0:0,0:0:0:0:
349,2,125807,1,8,0:0:0:0:
511,276,125925,2,0,P|462:215|383:204,1,161.999995056153
318,312,126160,1,2,0:0:0:0:
496,87,126278,1,8,0:0:0:0:
192,96,126396,1,0,0:0:0:0:
416,292,126513,5,2,0:0:0:0:
112,233,126631,1,0,0:0:0:0:
410,68,126749,1,8,0:0:0:0:
203,346,126866,2,0,B|183:295|183:295|194:242,1,107.999996704102,0|2,0:0|0:0,0:0:0:0:
269,2,127102,1,0,0:0:0:0:
446,287,127219,2,0,B|457:234|457:234|438:184,1,107.999996704102,8|0,0:0|0:0,0:0:0:0:
57,95,127455,5,2,0:0:0:0:
282,305,127573,1,0,0:0:0:0:
222,3,127690,1,8,0:0:0:0:
93,280,127808,2,0,L|-22:276,1,107.999996704102,0|2,0:0|0:0,0:0:0:0:
361,133,128043,1,2,0:0:0:0:
2,27,128161,2,0,P|55:11|109:23,1,107.999996704102,8|0,0:0|0:0,0:0:0:0:
203,346,128396,5,2,0:0:0:0:
354,0,128514,1,8,0:0:0:0:
354,0,128573,1,8,0:0:0:0:
354,0,128632,1,8,0:0:0:0:
496,351,128749,1,8,0:0:0:0:
45,183,128867,6,0,L|113:169,1,53.9999983520508,8|0,0:0|0:0,0:0:0:0:
465,220,128985,2,0,L|397:234,1,53.9999983520508,8|0,0:0|0:0,0:0:0:0:
27,167,129102,6,0,L|100:151,1,53.9999983520508,8|0,0:0|0:0,0:0:0:0:
481,237,129220,2,0,L|407:252,1,53.9999983520508,8|0,0:0|0:0,0:0:0:0:
156,353,129338,6,0,B|96:334|96:334|72:250|119:171,1,215.999993408203,6|8,0:0|0:0,0:0:0:0:
338,0,129691,1,0,0:0:0:0:
299,335,129809,1,2,0:0:0:0:
57,131,129926,1,2,0:0:0:0:
387,170,130044,1,8,0:0:0:0:
94,290,130162,1,0,0:0:0:0:
208,0,130279,5,2,0:0:0:0:
156,353,130397,1,0,0:0:0:0:
354,83,130515,2,0,P|402:78|460:113,1,107.999996704102,8|0,0:0|0:0,0:0:0:0:
395,351,130750,5,2,0:0:0:0:
99,34,130868,1,0,0:0:0:0:
29,346,130985,1,8,0:0:0:0:
387,170,131103,1,0,0:0:0:0:
387,170,131162,1,0,0:0:0:0:
387,170,131221,6,0,L|222:182,1,161.999995056153,2|0,0:0|0:0,0:0:0:0:
139,219,131456,1,8,0:0:0:0:
306,18,131574,2,0,L|298:83,1,53.9999983520508
229,288,131691,1,2,0:0:0:0:
111,68,131809,1,2,0:0:0:0:
347,266,131927,1,8,0:0:0:0:
41,320,132045,1,0,0:0:0:0:
345,145,132162,6,0,P|440:187|466:288,1,215.999993408203,2|8,0:0|0:0,0:0:0:0:
207,70,132515,1,8,0:0:0:0:
143,346,132633,2,0,P|129:293|130:239,1,107.999996704102,2|0,0:0|0:0,0:0:0:0:
357,38,132868,2,0,P|357:91|344:144,1,107.999996704102,8|0,0:0|0:0,0:0:0:0:
240,232,133045,1,0,0:0:0:0:
229,252,133104,6,0,B|339:211|332:298|451:253,1,215.999993408203,6|8,0:0|0:0,0:0:0:0:
207,70,133457,1,0,0:0:0:0:
477,55,133574,2,0,L|369:69,1,107.999996704102,2|0,0:0|0:0,0:0:0:0:
112,146,133810,2,0,L|219:160,1,107.999996704102,8|0,0:0|0:0,0:0:0:0:
392,356,134045,5,8,0:0:0:0:
416,53,134163,1,0,0:0:0:0:
96,290,134281,1,8,0:0:0:0:
484,186,134398,1,8,0:0:0:0:
119,27,134516,5,8,0:0:0:0:
121,381,134634,1,8,0:0:0:0:
415,93,134752,1,8,0:0:0:0:
27,197,134869,1,8,0:0:0:0:
480,302,134987,5,6,0:0:0:0:
224,98,138517,5,8,0:0:0:0:
224,98,138596,1,8,0:0:0:0:
224,98,138674,1,8,0:0:0:0:
224,98,138753,1,6,0:0:0:0:
129,292,138988,5,8,0:0:0:0:
333,194,139106,1,8,0:0:0:0:
74,149,139223,1,6,0:0:0:0:
74,149,139459,5,8,0:0:0:0:
251,301,139576,1,8,0:0:0:0:
315,54,139694,1,6,0:0:0:0:
315,54,139929,5,8,0:0:0:0:
145,220,140047,1,8,0:0:0:0:
396,306,140165,1,6,0:0:0:0:
396,306,140400,5,8,0:0:0:0:
192,94,140518,1,8,0:0:0:0:
276,356,140635,5,6,0:0:0:0:
109,126,140871,1,6,0:0:0:0:
379,214,141106,1,6,0:0:0:0:
109,301,141341,1,6,0:0:0:0:
276,72,141577,1,6,0:0:0:0:
351,321,141812,6,0,L|346:280,1,22.5,8|8,0:0|0:0,0:0:0:0:
369,323,141870,2,0,L|364:282,1,22.5,8|8,0:0|0:0,0:0:0:0:
392,332,141929,6,0,L|394:354,1,22.5,8|8,0:0|0:0,0:0:0:0:
410,334,141987,2,0,L|412:356,1,22.5,8|8,0:0|0:0,0:0:0:0:
429,334,142048,5,8,0:0:0:0:
378,104,142165,1,8,0:0:0:0:
185,288,142283,1,8,0:0:0:0:
483,208,142401,1,8,0:0:0:0:
245,31,142518,6,0,B|146:6|178:105|52:64,2,202.500007724762,6|0|2,0:0|0:0|0:0,0:0:0:0:
101,233,143460,6,0,P|84:200|88:167,1,67.5000025749208
214,146,143695,2,0,P|231:179|227:212,1,67.5000025749208,0|2,0:0|0:0,0:0:0:0:
112,362,143931,2,0,P|143:305|273:302,1,202.500007724762,8|0,0:0|0:0,0:0:0:0:
360,353,144401,6,0,L|333:140,2,202.500007724762,2|0|2,0:0|0:0|0:0,0:0:0:0:
456,91,145343,6,0,P|419:68|382:69,1,67.5000025749208
191,139,145578,2,0,P|228:162|265:161,1,67.5000025749208,0|2,0:0|0:0,0:0:0:0:
339,16,145814,2,0,B|311:51|327:98|327:98|312:121|312:121|339:155|315:206,1,202.500007724762,8|8,0:0|0:0,0:0:0:0:
219,316,146284,6,0,P|228:238|144:286,2,202.500007724762,6|0|2,0:0|0:0|0:0,0:0:0:0:
427,243,147226,2,0,P|418:165|502:213,1,202.500007724762,0|2,0:0|0:0,0:0:0:0:
442,326,147696,2,0,B|397:331|397:331|363:301|363:301|318:306,1,135.000005149842,8|0,0:0|0:0,0:0:0:0:
66,176,148167,6,0,P|155:187|220:105,2,202.500007724762,2|0|2,0:0|0:0|0:0,0:0:0:0:
268,10,149109,2,0,B|290:31|290:31|286:77,1,67.5000025749208
309,261,149344,5,0,0:0:0:0:
292,208,149462,5,2,0:0:0:0:
309,155,149579,5,8,0:0:0:0:
352,121,149697,5,0,0:0:0:0:
408,118,149815,5,8,0:0:0:0:
455,147,149932,5,8,0:0:0:0:
477,198,150050,6,0,B|491:258|449:290|449:290|409:330|438:383,2,202.500007724762,6|0|2,0:0|0:0|0:0,0:0:0:0:
295,13,150992,2,0,P|276:44|274:89,1,67.5000025749208
408,118,151227,2,0,P|427:87|429:42,1,67.5000025749208,0|2,0:0|0:0,0:0:0:0:
188,50,151462,2,0,L|212:258,1,202.500007724762,8|0,0:0|0:0,0:0:0:0:
125,367,151933,6,0,P|173:284|269:292,2,202.500007724762,2|0|2,0:0|0:0|0:0,0:0:0:0:
465,107,152875,6,0,P|432:100|398:100,1,67.5000025749208
175,177,153110,2,0,P|208:170|242:171,1,67.5000025749208,2|2,0:0|0:0,0:0:0:0:
320,73,153345,2,0,B|311:116|311:116|334:154|334:154|325:199,1,135.000005149842,8|0,0:0|0:0,0:0:0:0:
269,292,153698,1,8,0:0:0:0:
115,32,153816,5,6,0:0:0:0:
27,84,154052,1,2,0:0:0:0:
1,182,154287,1,2,0:0:0:0:
53,270,154522,1,2,0:0:0:0:
151,296,154758,1,2,0:0:0:0:
238,245,154993,1,2,0:0:0:0:
263,147,155228,1,2,0:0:0:0:
211,60,155464,1,2,0:0:0:0:
434,134,155581,1,8,0:0:0:0:
132,165,155699,5,10,0:0:0:0:
151,296,155934,1,10,0:0:0:0:
256,375,156170,1,10,0:0:0:0:
387,356,156405,1,10,0:0:0:0:
466,249,156640,1,10,0:0:0:0:
466,249,157111,6,0,B|439:269|411:249|411:249|391:255|391:255|362:235|325:245,1,135.000005149842,8|0,0:0|0:0,0:0:0:0:
262,295,157464,1,8,0:0:0:0:
423,35,157582,1,6,0:0:0:0:
423,35,158288,5,2,0:0:0:0:
196,75,158406,1,0,0:0:0:0:
335,154,158523,1,2,0:0:0:0:
335,154,159230,5,2,0:0:0:0:
247,273,159347,1,0,0:0:0:0:
474,233,159465,1,2,0:0:0:0:
474,233,160171,5,2,0:0:0:0:
399,363,160289,1,0,0:0:0:0:
335,154,160406,1,2,0:0:0:0:
335,154,160877,1,2,0:0:0:0:
335,154,161112,5,0,0:0:0:0:
204,230,161230,1,0,0:0:0:0:
273,15,161348,1,2,0:0:0:0:
273,15,162054,5,2,0:0:0:0:
135,82,162172,1,0,0:0:0:0:
362,139,162289,1,2,0:0:0:0:
362,139,162760,2,0,P|350:197|353:280,1,135.000005149842,0|8,0:0|0:0,0:0:0:0:
439,333,163113,1,8,0:0:0:0:
252,278,163231,6,0,B|151:306|175:229|70:262,1,180,6|8,0:0|0:0,0:0:0:0:
112,353,163584,1,0,0:0:0:0:
214,201,163702,1,2,0:0:0:0:
37,173,163819,1,0,0:0:0:0:
203,361,163937,1,8,0:0:0:0:
257,127,164055,1,8,0:0:0:0:
79,259,164172,6,0,P|39:267|-11:255,1,90,2|8,0:0|0:0,0:0:0:0:
308,204,164408,2,0,P|348:196|398:208,1,90,2|8,0:0|0:0,0:0:0:0:
37,173,164643,5,8,0:0:0:0:
203,361,164761,1,8,0:0:0:0:
37,173,164878,5,8,0:0:0:0:
351,284,164996,1,2,0:0:0:0:
133,8,165114,6,0,P|129:73|127:200,1,180,6|0,0:0|0:0,0:0:0:0:
389,49,165467,2,0,P|342:50|298:57,1,90,2|8,0:0|0:0,0:0:0:0:
281,326,165702,1,0,0:0:0:0:
449,199,165820,1,0,0:0:0:0:
126,187,165938,1,8,0:0:0:0:
409,352,166055,6,0,P|410:262|430:174,1,180,2|0,0:0|0:0,0:0:0:0:
212,37,166408,2,0,P|232:124|233:214,1,180,2|0,0:0|0:0,0:0:0:0:
61,326,166761,1,2,0:0:0:0:
103,101,166879,1,8,0:0:0:0:
288,302,166997,5,2,0:0:0:0:
41,227,167114,1,0,0:0:0:0:
257,197,167232,1,0,0:0:0:0:
61,326,167350,6,0,L|162:336,1,90,2|8,0:0|0:0,0:0:0:0:
386,286,167585,1,0,0:0:0:0:
130,235,167703,2,0,L|29:225,1,90,0|8,0:0|0:0,0:0:0:0:
130,25,167938,6,0,P|145:72|145:121,1,90,2|0,0:0|0:0,0:0:0:0:
381,25,168174,2,0,P|367:67|365:112,1,90,8|2,0:0|0:0,0:0:0:0:
256,256,168409,1,8,0:0:0:0:
459,87,168527,1,8,0:0:0:0:
256,288,168644,1,8,0:0:0:0:
53,87,168762,1,8,0:0:0:0:
326,182,168880,5,6,0:0:0:0:
101,377,168997,1,0,0:0:0:0:
350,353,169115,1,8,0:0:0:0:
82,213,169233,1,0,0:0:0:0:
228,285,169350,5,2,0:0:0:0:
201,56,169468,1,0,0:0:0:0:
0,309,169586,1,8,0:0:0:0:
326,182,169703,1,0,0:0:0:0:
141,134,169821,5,6,0:0:0:0:
350,353,169939,1,0,0:0:0:0:
390,15,170056,1,8,0:0:0:0:
362,382,170174,1,0,0:0:0:0:
208,258,170292,5,2,0:0:0:0:
491,108,170409,1,8,0:0:0:0:
105,42,170527,1,8,0:0:0:0:
465,254,170645,1,8,0:0:0:0:
500,33,170763,5,12,0:0:0:0:
392,362,170880,1,2,0:0:0:0:
332,0,171000,5,8,0:0:0:0:
307,333,171117,1,2,0:0:0:0:
180,0,171235,5,8,0:0:0:0:
204,333,171352,1,2,0:0:0:0:
12,33,171470,5,8,0:0:0:0:
120,362,171587,1,2,0:0:0:0:
512,256,171704,5,8,0:0:0:0:
0,128,171822,1,2,0:0:0:0:
416,384,171940,5,8,0:0:0:0:
96,0,172057,1,2,0:0:0:0:
96,384,172175,5,8,0:0:0:0:
416,0,172292,1,2,0:0:0:0:
0,256,172410,5,2,0:0:0:0:
512,128,172528,1,2,0:0:0:0:
192,96,172645,6,0,L|199:162,1,45,6|0,0:0|0:0,0:0:0:0:
320,288,172763,2,0,L|313:222,1,45
169,83,172881,6,0,L|184:162,1,45,8|0,0:0|0:0,0:0:0:0:
342,300,172999,2,0,L|327:221,1,45,8|0,0:0|0:0,0:0:0:0:
141,71,173116,6,0,L|165:156,1,45,8|0,0:0|0:0,0:0:0:0:
370,312,173234,2,0,L|347:227,1,45,8|0,0:0|0:0,0:0:0:0:
106,60,173352,6,0,L|128:121,1,45,8|0,0:0|0:0,0:0:0:0:
405,323,173470,2,0,L|377:241,1,45
292,0,173587,6,0,P|246:56|317:152,1,202.500007724762,6|0,0:0|0:0,0:0:0:0:
400,180,173822,2,0,L|255:194,1,135.000005149842,8|0,0:0|0:0,0:0:0:0:
23,266,174058,1,2,0:0:0:0:
383,97,174175,1,2,0:0:0:0:
141,0,174293,2,0,P|101:61|113:132,1,135.000005149842,8|0,0:0|0:0,0:0:0:0:
187,351,174528,5,2,0:0:0:0:
483,266,174646,1,0,0:0:0:0:
187,351,174764,1,8,0:0:0:0:
483,266,174881,1,0,0:0:0:0:
20,75,174999,5,2,0:0:0:0:
400,180,175117,1,0,0:0:0:0:
20,75,175235,1,8,0:0:0:0:
400,180,175352,1,8,0:0:0:0:
111,353,175470,6,0,B|69:295|69:295|112:168,1,202.500007724762,2|0,0:0|0:0,0:0:0:0:
168,30,175705,2,0,P|119:84|41:84,1,135.000005149842,8|0,0:0|0:0,0:0:0:0:
329,273,175941,1,2,0:0:0:0:
0,168,176058,1,2,0:0:0:0:
0,168,176117,1,0,0:0:0:0:
0,168,176176,1,8,0:0:0:0:
264,383,176294,1,0,0:0:0:0:
411,45,176411,6,0,L|399:186,1,135.000005149842,2|0,0:0|0:0,0:0:0:0:
196,320,176647,1,8,0:0:0:0:
508,186,176764,1,8,0:0:0:0:
508,186,176823,1,0,0:0:0:0:
508,186,176882,1,2,0:0:0:0:
367,384,177000,1,0,0:0:0:0:
204,67,177117,2,0,L|216:208,1,135.000005149842,8|0,0:0|0:0,0:0:0:0:
512,384,177353,6,0,P|510:305|385:283,1,202.500007724762,6|0,0:0|0:0,0:0:0:0:
324,317,177588,1,8,0:0:0:0:
388,73,177706,2,0,B|456:65|456:65|514:100,1,135.000005149842,0|2,0:0|0:0,0:0:0:0:
188,237,177941,1,2,0:0:0:0:
188,237,178000,1,0,0:0:0:0:
188,237,178059,2,0,P|169:208|167:169,1,67.5000025749208,8|0,0:0|0:0,0:0:0:0:
268,11,178177,2,0,P|287:40|289:79,1,67.5000025749208
58,328,178294,5,2,0:0:0:0:
352,182,178412,1,0,0:0:0:0:
78,0,178530,1,8,0:0:0:0:
392,288,178647,2,0,L|257:265,1,135.000005149842,0|2,0:0|0:0,0:0:0:0:
46,157,178883,1,0,0:0:0:0:
46,157,178942,1,0,0:0:0:0:
46,157,179000,2,0,B|43:122|43:122|64:85,1,67.5000025749208,8|0,0:0|0:0,0:0:0:0:
203,117,179118,2,0,B|206:152|206:152|185:189,1,67.5000025749208
2,260,179236,5,2,0:0:0:0:
268,11,179353,1,0,0:0:0:0:
159,369,179471,1,8,0:0:0:0:
0,77,179589,2,0,L|141:54,1,135.000005149842,0|2,0:0|0:0,0:0:0:0:
400,194,179824,1,2,0:0:0:0:
400,194,179883,1,0,0:0:0:0:
400,194,179942,2,0,L|392:109,1,67.5000025749208,8|0,0:0|0:0,0:0:0:0:
251,203,180060,2,0,L|257:270,1,67.5000025749208
512,384,180177,5,2,0:0:0:0:
159,189,180295,1,8,0:0:0:0:
485,29,180413,1,8,0:0:0:0:
289,369,180530,1,8,0:0:0:0:
240,2,180648,5,8,0:0:0:0:
512,238,180766,1,8,0:0:0:0:
87,295,180883,1,2,0:0:0:0:
462,116,181001,1,8,0:0:0:0:
18,245,181119,6,0,P|14:340|104:379,1,202.500007724762,6|0,0:0|0:0,0:0:0:0:
133,207,181354,2,0,L|-17:185,1,135.000005149842,8|0,0:0|0:0,0:0:0:0:
173,40,181589,1,2,0:0:0:0:
225,359,181707,1,2,0:0:0:0:
476,154,181825,2,0,P|492:91|460:23,1,135.000005149842,8|0,0:0|0:0,0:0:0:0:
101,379,182060,5,2,0:0:0:0:
436,256,182178,1,0,0:0:0:0:
101,379,182296,1,8,0:0:0:0:
436,256,182413,1,0,0:0:0:0:
1,32,182531,5,2,0:0:0:0:
476,154,182649,1,0,0:0:0:0:
1,32,182766,1,8,0:0:0:0:
476,154,182884,1,0,0:0:0:0:
101,379,183002,6,0,P|75:280|145:212,1,202.500007724762,6|0,0:0|0:0,0:0:0:0:
234,142,183237,2,0,L|85:111,1,135.000005149842,8|0,0:0|0:0,0:0:0:0:
234,266,183472,1,2,0:0:0:0:
382,3,183590,1,2,0:0:0:0:
512,362,183708,2,0,L|368:338,1,135.000005149842,8|0,0:0|0:0,0:0:0:0:
25,166,183943,6,0,P|29:64|160:52,1,202.500007724762,2|0,0:0|0:0,0:0:0:0:
198,69,184179,1,8,0:0:0:0:
3,359,184296,1,8,0:0:0:0:
445,69,184414,2,0,P|403:24|326:20,1,135.000005149842,2|0,0:0|0:0,0:0:0:0:
154,312,184649,2,0,L|232:297,1,67.5000025749208,8|0,0:0|0:0,0:0:0:0:
293,127,184767,2,0,L|371:142,1,67.5000025749208
483,384,184885,6,0,B|421:328|421:328|447:193,1,202.500007724762,6|0,0:0|0:0,0:0:0:0:
499,114,185120,2,0,P|451:165|382:170,1,135.000005149842,8|0,0:0|0:0,0:0:0:0:
170,0,185355,1,2,0:0:0:0:
273,371,185473,1,2,0:0:0:0:
411,80,185591,1,8,0:0:0:0:
411,80,185708,1,0,0:0:0:0:
23,259,185826,6,0,B|98:247|98:247|125:205|125:205|200:193,1,202.500007724762,6|0,0:0|0:0,0:0:0:0:
279,246,186061,1,8,0:0:0:0:
27,29,186179,1,8,0:0:0:0:
273,371,186297,2,0,L|414:346,1,135.000005149842,2|0,0:0|0:0,0:0:0:0:
504,97,186532,1,8,0:0:0:0:
504,97,186650,1,0,0:0:0:0:
198,295,186768,6,0,P|153:211|209:112,1,202.500007724762,6|0,0:0|0:0,0:0:0:0:
299,47,187003,2,0,B|241:82|241:82|174:72,1,135.000005149842,8|0,0:0|0:0,0:0:0:0:
73,329,187238,1,2,0:0:0:0:
408,175,187356,1,2,0:0:0:0:
0,0,187474,1,8,0:0:0:0:
0,0,187591,1,0,0:0:0:0:
296,382,187709,6,0,B|340:312|340:312|313:195,1,202.500007724762,6|0,0:0|0:0,0:0:0:0:
221,134,187944,1,8,0:0:0:0:
468,340,188062,1,2,0:0:0:0:
31,207,188180,1,8,0:0:0:0:
31,207,188297,1,8,0:0:0:0:
411,82,188415,1,8,0:0:0:0:
296,382,188533,1,8,0:0:0:0:
134,34,188651,6,0,P|105:105|174:206,1,202.500007724762,6|0,0:0|0:0,0:0:0:0:
271,185,188886,5,8,0:0:0:0:
29,291,189004,1,2,0:0:0:0:
360,159,189121,5,8,0:0:0:0:
119,383,189239,1,2,0:0:0:0:
411,82,189357,5,8,0:0:0:0:
247,384,189474,1,2,0:0:0:0:
44,27,189592,6,0,L|181:7,1,135.000005149842,8|2,0:0|0:0,0:0:0:0:
488,178,189827,5,8,0:0:0:0:
29,291,189945,1,2,0:0:0:0:
177,7,190063,5,8,0:0:0:0:
340,358,190180,1,8,0:0:0:0:
512,0,190298,5,8,0:0:0:0:
0,384,190416,1,8,0:0:0:0:
486,260,190533,5,8,0:0:0:0:
128,109,190651,1,8,0:0:0:0:
340,358,190769,1,8,0:0:0:0:
449,49,190887,2,0,L|310:32,1,135.000005149842,6|0,0:0|0:0,0:0:0:0:
29,291,191122,2,0,L|168:274,1,135.000005149842,8|0,0:0|0:0,0:0:0:0:
456,170,191357,6,0,P|478:108|449:49,1,135.000005149842,12|0,0:0|0:0,0:0:0:0:
21,169,191593,2,0,P|0:231|29:291,1,135.000005149842,8|0,0:0|0:0,0:0:0:0:
422,283,191828,1,2,0:0:0:0:
234,15,191946,2,0,L|101:35,1,135.000005149842,8|0,0:0|0:0,0:0:0:0:
0,384,192181,5,8,0:0:0:0:
0,384,192299,1,8,0:0:0:0:
331,110,192416,6,0,P|308:215|321:321,1,215.999993408203,6|8,0:0|0:0,0:0:0:0:
456,170,192769,1,0,0:0:0:0:
203,268,192887,6,0,B|130:283|130:283|74:255|74:255|-7:271,1,215.999993408203,2|8,0:0|0:0,0:0:0:0:
134,81,193240,1,0,0:0:0:0:
134,81,193299,1,0,0:0:0:0:
134,81,193358,6,0,B|158:130|158:130|145:191,1,107.999996704102,2|0,0:0|0:0,0:0:0:0:
49,362,193593,1,8,0:0:0:0:
49,362,193652,1,0,0:0:0:0:
49,362,193711,1,0,0:0:0:0:
48,148,193829,1,2,0:0:0:0:
304,265,193946,1,0,0:0:0:0:
95,268,194064,1,8,0:0:0:0:
346,66,194182,1,0,0:0:0:0:
329,347,194299,6,0,B|272:363|231:319|231:319|171:314|137:364,1,215.999993408203,2|8,0:0|0:0,0:0:0:0:
238,73,194652,1,0,0:0:0:0:
426,352,194770,6,0,P|441:299|444:246,1,107.999996704102,2|0,0:0|0:0,0:0:0:0:
131,38,195005,2,0,P|134:91|148:143,1,107.999996704102,8|0,0:0|0:0,0:0:0:0:
445,133,195241,5,2,0:0:0:0:
297,257,195359,1,0,0:0:0:0:
282,0,195476,1,8,0:0:0:0:
282,0,195535,1,0,0:0:0:0:
282,0,195594,1,8,0:0:0:0:
428,267,195712,1,2,0:0:0:0:
168,243,195829,1,0,0:0:0:0:
416,49,195947,1,8,0:0:0:0:
148,143,196064,1,0,0:0:0:0:
363,320,196182,6,0,B|328:274|358:217|358:217|389:164|348:115,1,215.999993408203,2|8,0:0|0:0,0:0:0:0:
68,217,196535,1,0,0:0:0:0:
309,24,196653,6,0,B|244:48|246:130|246:130|239:85|197:55,1,215.999993408203,2|8,0:0|0:0,0:0:0:0:
197,342,197006,1,0,0:0:0:0:
197,342,197065,1,0,0:0:0:0:
197,342,197124,5,2,0:0:0:0:
415,222,197241,1,0,0:0:0:0:
148,143,197359,1,8,0:0:0:0:
288,351,197477,1,0,0:0:0:0:
349,59,197594,5,2,0:0:0:0:
397,327,197712,1,0,0:0:0:0:
248,38,197830,5,8,0:0:0:0:
109,253,197948,1,0,0:0:0:0:
450,129,198065,6,0,P|349:149|322:248,1,215.999993408203,2|8,0:0|0:0,0:0:0:0:
511,209,198418,1,0,0:0:0:0:
218,205,198536,2,0,P|213:262|234:315,1,107.999996704102,2|0,0:0|0:0,0:0:0:0:
450,129,198771,2,0,P|461:71|440:18,1,107.999996704102,8|8,0:0|0:0,0:0:0:0:
154,117,199007,5,2,0:0:0:0:
415,222,199124,1,8,0:0:0:0:
107,220,199242,1,8,0:0:0:0:
370,81,199360,1,8,0:0:0:0:
41,121,199477,5,8,0:0:0:0:
261,348,199595,1,8,0:0:0:0:
197,24,199713,1,2,0:0:0:0:
62,314,199830,1,8,0:0:0:0:
450,129,199948,6,0,P|389:210|379:331,1,215.999993408203,6|8,0:0|0:0,0:0:0:0:
280,50,200301,1,0,0:0:0:0:
4,247,200419,2,0,B|52:201|124:230|98:249|164:277|212:228,1,215.999993408203,2|8,0:0|0:0,0:0:0:0:
373,91,200772,1,0,0:0:0:0:
112,30,200890,6,0,L|122:151,1,107.999996704102,2|0,0:0|0:0,0:0:0:0:
317,238,201125,2,0,L|306:176,1,53.9999983520508,8|0,0:0|0:0,0:0:0:0:
64,304,201243,2,0,L|54:357,1,53.9999983520508
210,137,201360,6,0,L|201:29,1,107.999996704102,2|0,0:0|0:0,0:0:0:0:
418,241,201596,2,0,L|409:348,1,107.999996704102,8|0,0:0|0:0,0:0:0:0:
12,214,201831,6,0,P|126:222|161:330,1,215.999993408203,2|8,0:0|0:0,0:0:0:0:
300,88,202184,1,0,0:0:0:0:
510,248,202302,6,0,B|452:280|452:280|291:237,1,215.999993408203,2|8,0:0|0:0,0:0:0:0:
422,78,202655,1,0,0:0:0:0:
154,52,202773,6,0,P|147:102|182:173,1,107.999996704102,2|0,0:0|0:0,0:0:0:0:
461,170,203008,2,0,L|387:166,1,53.9999983520508,8|0,0:0|0:0,0:0:0:0:
238,96,203126,2,0,L|312:100,1,53.9999983520508,8|0,0:0|0:0,0:0:0:0:
498,35,203243,1,2,0:0:0:0:
222,217,203361,1,0,0:0:0:0:
371,12,203479,1,8,0:0:0:0:
408,348,203596,1,8,0:0:0:0:
91,71,203714,6,0,B|134:87|169:69|169:69|209:101|209:101|250:83|293:99,1,215.999993408203,6|8,0:0|0:0,0:0:0:0:
173,324,204067,1,0,0:0:0:0:
488,118,204185,2,0,P|497:172|479:223,1,107.999996704102,2|0,0:0|0:0,0:0:0:0:
110,229,204420,1,8,0:0:0:0:
400,164,204538,1,8,0:0:0:0:
272,372,204656,6,0,L|281:257,1,107.999996704102,2|0,0:0|0:0,0:0:0:0:
147,70,204891,1,8,0:0:0:0:
397,195,205009,1,0,0:0:0:0:
83,243,205126,5,2,0:0:0:0:
383,0,205244,1,8,0:0:0:0:
0,111,205362,5,2,0:0:0:0:
512,76,205479,1,8,0:0:0:0:
255,359,205597,6,0,B|239:286|239:286|276:224|276:224|259:155,1,215.999993408203,6|8,0:0|0:0,0:0:0:0:
96,16,205950,1,0,0:0:0:0:
67,293,206068,1,2,0:0:0:0:
102,333,206126,1,0,0:0:0:0:
149,359,206185,1,2,0:0:0:0:
202,368,206244,1,0,0:0:0:0:
255,359,206303,1,8,0:0:0:0:
351,87,206421,1,0,0:0:0:0:
109,124,206538,6,0,L|-9:134,1,107.999996704102,2|8,0:0|0:0,0:0:0:0:
403,260,206774,2,8,L|521:250,1,107.999996704102
130,36,207009,6,8,L|12:46,1,107.999996704102
382,344,207245,2,8,L|500:334,1,107.999996704102
257,12,207480,5,6,0:0:0:0:
253,306,207598,1,0,0:0:0:0:
428,112,207715,1,8,0:0:0:0:
83,112,207833,1,0,0:0:0:0:
398,16,207951,5,2,0:0:0:0:
367,372,208068,1,2,0:0:0:0:
113,16,208186,5,8,0:0:0:0:
144,372,208303,1,0,0:0:0:0:
462,264,208421,5,6,0:0:0:0:
49,264,208539,1,0,0:0:0:0:
256,4,208657,1,8,0:0:0:0:
256,379,208774,1,0,0:0:0:0:
32,128,208892,5,2,0:0:0:0:
448,288,209010,1,2,0:0:0:0:
64,288,209128,5,8,0:0:0:0:
480,128,209246,1,8,0:0:0:0:
96,11,209363,5,6,0:0:0:0:
384,368,209481,1,2,0:0:0:0:
417,11,209598,5,8,0:0:0:0:
128,368,209716,1,2,0:0:0:0:
89,0,209834,5,8,0:0:0:0:
416,384,209952,1,2,0:0:0:0:
424,0,210069,5,8,0:0:0:0:
96,384,210187,1,8,0:0:0:0:
256,0,210304,5,6,0:0:0:0:
0,384,210540,5,8,0:0:0:0:
512,384,210775,5,8,0:0:0:0:
160,96,211246,5,0,0:0:0:0:
96,160,211481,1,0,0:0:0:0:
96,256,211717,1,0,0:0:0:0:
160,320,211952,1,0,0:0:0:0:
224,256,212187,6,0,P|288:224|352:224,1,135
368,235,212893,5,6,0:0:0:0:
