osu file format v14

[General]
AudioFilename: audio.mp3
AudioLeadIn: 0
PreviewTime: 16540
Countdown: 0
SampleSet: Soft
StackLeniency: 0.4
Mode: 0
LetterboxInBreaks: 0
WidescreenStoryboard: 1

[Editor]
Bookmarks: 2006,9536,17124,32183,47242,58477,63438,66007,79242,85334,87916,91689,105811,106752,114284,118050,121816,134996,151707,168941,173648,181180,190595,192419,207483,210778
DistanceSpacing: 0.9
BeatDivisor: 4
GridSize: 4
TimelineZoom: 2.000002

[Metadata]
Title:Milk Crown on Sonnetica
TitleUnicode:ミルククラウン・オン・ソーネチカ
Artist:nameless
ArtistUnicode:nameless
Creator:Milan-
Version:apple's Expert
Source:
Tags:deetz appleeaterx utaite
BeatmapID:1417119
BeatmapSetID:550414

[Difficulty]
HPDrainRate:5
CircleSize:4
OverallDifficulty:8.5
ApproachRate:9.5
SliderMultiplier:1.8
SliderTickRate:1

[Events]
//Background and Video events
0,0,"23124.jpg",0,0
//Break Periods
2,135189,137080
//Storyboard Layer 0 (Background)
//Storyboard Layer 1 (Fail)
//Storyboard Layer 2 (Pass)
//Storyboard Layer 3 (Foreground)
//Storyboard Sound Samples

[TimingPoints]
2007,235.367958575239,4,2,1,55,1,0
9538,-133.333333333333,4,2,1,35,0,0
17070,-100,4,1,1,50,0,0
30368,-100,4,2,1,50,0,0
32134,-111.111111111111,4,2,1,40,0,0
52846,-111.111111111111,4,2,1,45,0,0
58495,-100,4,2,1,45,0,0
62261,-100,4,2,1,50,0,0
64144,-133.333333333333,4,2,1,50,0,0
64261,-133.333333333333,4,2,1,45,0,0
65085,-100,4,2,1,50,0,0
66027,-90.9090909090909,4,1,1,50,0,1
73441,-90.9090909090909,4,1,1,50,0,0
73558,-90.9090909090909,4,1,1,50,0,1
79090,-90.9090909090909,4,1,1,50,0,0
79207,-90.9090909090909,4,2,1,45,0,1
82149,-90.9090909090909,4,2,1,45,0,0
82267,-90.9090909090909,4,2,1,45,0,1
85209,-90.9090909090909,4,2,1,45,0,0
85327,-90.9090909090909,4,2,1,45,0,1
88033,-90.9090909090909,4,2,1,45,0,0
88151,-90.9090909090909,4,2,1,45,0,1
90740,-90.9090909090909,4,2,1,45,0,0
91682,235.367958575239,4,2,1,40,1,0
91682,-111.111111111111,4,2,1,40,0,0
105804,-111.111111111111,4,2,1,45,0,0
106745,-111.111111111111,4,2,1,50,0,0
114277,-100,4,2,1,40,0,0
118043,-100,4,2,1,50,0,0
119926,-133.333333333333,4,2,1,50,0,0
120043,-133.333333333333,4,2,1,45,0,0
120867,-100,4,2,1,50,0,0
121809,-90.9090909090909,4,1,1,50,0,1
129223,-90.9090909090909,4,1,1,50,0,0
129340,-90.9090909090909,4,1,1,50,0,1
134989,-90.9090909090909,4,2,1,50,0,0
138520,-100,4,2,1,45,0,0
142521,-151.515151515152,4,2,1,40,0,0
153819,-151.515151515152,4,2,1,45,0,0
157585,-151.515151515152,4,2,1,40,0,0
163233,-111.111111111111,4,2,1,45,0,0
168882,-100,4,2,1,45,0,0
170765,-100,4,2,1,50,0,0
173590,-85.4700854700855,4,1,1,50,0,1
181004,-85.4700854700855,4,1,1,50,0,0
181121,-85.4700854700855,4,1,1,50,0,1
190889,-85.4700854700855,4,2,1,50,0,1
192419,-100,4,2,1,45,0,0
207483,-100,4,2,1,45,0,0
211248,-200,4,2,1,40,0,0
212896,-200,4,2,1,35,0,0

[Colours]
Combo1 : 255,234,170
Combo2 : 179,255,179
Combo3 : 172,209,255
Combo4 : 252,194,203

[HitObjects]
23,222,9538,6,0,L|8:292,1,67.5000025749208,4|0,0:0|0:0,0:0:0:0:
68,152,9774,2,0,L|53:82,1,67.5000025749208,0|0,0:0|0:0,0:0:0:0:
143,196,10009,2,0,P|178:215|219:217,1,67.5000025749208,0|0,1:0|0:0,0:0:0:0:
264,158,10244,1,0,0:0:0:0:
264,158,10362,6,0,L|293:22,2,135.000005149842,2|2|2,0:0|0:0|0:0,0:0:0:0:
314,229,10950,2,0,L|341:362,1,135.000005149842,2|0,1:2|0:0,0:0:0:0:
340,361,11304,1,0,0:0:0:0:
427,328,11421,6,0,L|492:346,1,67.5000025749208,2|0,1:2|0:0,0:0:0:0:
423,240,11657,2,0,L|488:258,1,67.5000025749208,0|0,0:0|0:0,0:0:0:0:
416,148,11892,2,0,L|481:166,2,67.5000025749208,0|0|0,1:0|0:0|0:0,0:0:0:0:
261,109,12245,6,0,P|327:102|375:57,2,135.000005149842,2|2|2,0:0|0:0|0:0,0:0:0:0:
185,160,12833,2,0,P|137:114|71:107,1,135.000005149842,2|4,1:2|0:0,0:0:0:0:
67,85,13304,6,0,L|46:167,1,67.5000025749208,4|0,0:0|0:0,0:0:0:0:
32,233,13540,2,0,P|69:262|98:269,1,67.5000025749208,0|0,0:0|0:0,0:0:0:0:
94,358,13775,2,0,P|137:340|158:318,1,67.5000025749208,0|0,1:0|0:0,0:0:0:0:
173,243,14010,1,0,0:0:0:0:
173,243,14128,6,0,L|205:97,2,135.000005149842,2|2|2,0:0|0:0|0:0,0:0:0:0:
234,303,14716,2,0,L|305:319,1,67.5000025749208,2|0,1:2|0:0,0:0:0:0:
381,336,14952,2,0,L|452:352,1,67.5000025749208,0|0,0:0|0:0,0:0:0:0:
387,254,15187,6,0,L|321:239,1,67.5000025749208,2|0,1:2|0:0,0:0:0:0:
298,160,15422,1,2,1:2:0:0:
298,160,15540,2,0,P|281:95|313:32,1,135.000005149842,0|4,0:0|0:0,0:0:0:0:
308,36,15893,1,0,0:0:0:0:
375,106,16011,6,0,P|443:111|493:70,2,135.000005149842,4|4|4,0:0|0:0|0:3,0:0:0:0:
298,160,16599,1,12,0:0:0:0:
298,160,16835,5,8,0:0:0:0:
145,15,16952,1,8,0:0:0:0:
75,82,17070,6,0,P|28:153|49:247,1,180,4|8,0:0|0:0,0:0:0:0:
202,190,17423,1,0,0:0:0:0:
202,190,17541,2,0,P|164:168|110:176,1,90,0|0,0:0|0:0,0:0:0:0:
82,339,17776,2,0,P|120:361|174:353,1,90,8|0,0:0|0:0,0:0:0:0:
305,200,18012,6,0,B|190:204|263:256|143:264,1,180,2|8,0:0|0:0,0:0:0:0:
144,263,18365,1,0,0:0:0:0:
292,292,18482,2,0,P|280:337|275:391,1,90,2|0,0:0|0:0,0:0:0:0:
409,212,18718,2,0,P|421:257|426:311,1,90,8|0,0:0|0:0,0:0:0:0:
334,114,18953,6,0,P|426:115|474:39,1,180,4|8,0:0|0:0,0:0:0:0:
258,168,19306,1,0,0:0:0:0:
258,168,19424,2,0,P|210:170|159:134,1,90,0|0,0:0|0:0,0:0:0:0:
298,19,19659,2,0,P|346:17|397:53,1,90,8|0,0:0|0:0,0:0:0:0:
181,38,19894,6,0,P|198:101|214:222,1,180,0|8,0:0|0:0,0:0:0:0:
53,309,20248,1,8,0:0:0:0:
9,223,20365,2,0,P|73:214|155:293,1,180,8|8,0:0|0:0,0:0:0:0:
504,310,20836,6,0,P|440:301|358:380,1,180,6|10,0:0|0:0,0:0:0:0:
280,334,21189,1,0,0:0:0:0:
280,334,21307,2,0,P|268:285|272:242,1,90,2|0,0:0|0:0,0:0:0:0:
359,141,21542,2,0,P|371:190|367:233,1,90,8|0,0:0|0:0,0:0:0:0:
192,184,21777,6,0,P|134:118|47:120,1,180,6|10,0:0|0:0,0:0:0:0:
3,46,22130,1,0,0:0:0:0:
3,46,22248,2,0,P|46:26|93:25,1,90,2|0,0:0|0:0,0:0:0:0:
236,77,22484,2,0,P|193:97|146:98,1,90,8|0,0:0|0:0,0:0:0:0:
94,207,22719,6,0,P|106:268|106:297,1,90,4|0,0:0|0:0,0:0:0:0:
259,352,22954,2,0,P|214:353|170:364,1,90,8|0,0:0|0:0,0:0:0:0:
116,177,23190,6,0,P|128:238|128:267,1,90,0|0,0:0|0:0,0:0:0:0:
284,319,23425,2,0,P|239:320|195:331,1,90,8|0,0:0|0:0,0:0:0:0:
256,161,23660,6,0,P|321:154|361:144,1,90,14|8,0:0|0:0,0:0:0:0:
489,104,23896,1,10,0:0:0:0:
402,237,24013,1,8,0:0:0:0:
381,35,24131,2,0,P|361:94|362:127,1,90,10|8,0:0|0:0,0:0:0:0:
475,303,24366,2,0,P|495:244|494:211,1,90,10|8,0:0|0:0,0:0:0:0:
387,367,24602,6,0,P|326:303|238:303,1,180,6|8,0:0|0:0,0:0:0:0:
151,333,24955,1,0,0:0:0:0:
151,333,25073,2,0,P|106:358|64:360,1,90,0|0,0:0|0:0,0:0:0:0:
227,215,25308,2,0,P|271:219|309:242,1,90,8|0,0:0|0:0,0:0:0:0:
119,240,25543,6,0,P|107:188|96:147,1,90,2|0,0:0|0:0,0:0:0:0:
303,0,25779,2,0,P|315:52|326:93,1,90,8|0,0:0|0:0,0:0:0:0:
137,68,26014,2,0,P|189:56|230:45,1,90,2|0,0:0|0:0,0:0:0:0:
290,175,26249,2,0,P|238:187|197:198,1,90,8|0,0:0|0:0,0:0:0:0:
324,87,26485,6,0,B|440:91|368:139|499:144,1,180,4|8,0:0|0:0,0:0:0:0:
383,211,26838,1,0,0:0:0:0:
383,211,26956,2,0,P|397:263|399:306,1,90,0|0,0:0|0:0,0:0:0:0:
227,104,27191,2,0,P|230:59|243:16,1,90,8|0,0:0|0:0,0:0:0:0:
276,198,27426,6,0,P|230:207|185:224,1,90,0|0,0:0|0:0,0:0:0:0:
120,312,27662,1,8,0:0:0:0:
148,141,27779,1,8,0:0:0:0:
1,233,27897,2,0,P|47:224|92:207,1,90,8|0,0:0|0:0,0:0:0:0:
257,287,28132,2,0,P|268:336|272:388,1,90,8|0,0:0|0:0,0:0:0:0:
148,141,28368,5,6,0:0:0:0:
148,141,28485,1,0,0:0:0:0:
148,141,28603,1,10,0:0:0:0:
148,141,28721,2,0,P|143:84|133:41,1,90,0|2,0:0|0:0,0:0:0:0:
51,108,28956,1,0,0:0:0:0:
231,85,29074,2,0,P|276:78|322:67,1,90,10|0,0:0|0:0,0:0:0:0:
496,152,29309,6,0,B|378:159|456:207|333:219,1,180,2|10,0:0|0:0,0:0:0:0:
259,173,29662,1,0,0:0:0:0:
237,352,29780,2,0,P|250:302|249:258,1,90,2|8,0:0|0:0,0:0:0:0:
187,58,30015,1,8,0:0:0:0:
153,287,30133,1,8,0:0:0:0:
259,173,30251,5,0,0:0:0:0:
177,207,30368,2,0,P|98:185|-8:170,3,180,4|4|4|4,0:0|0:0|0:0|0:3,0:0:0:0:
334,125,31192,5,12,0:0:0:0:
334,125,32134,6,0,P|345:86|348:32,1,80.9999975280763,4|0,0:1|0:0,0:0:0:0:
341,223,32369,2,0,P|330:262|327:316,1,80.9999975280763,8|0,0:0|0:0,0:0:0:0:
420,167,32604,1,0,0:0:0:0:
420,167,32722,1,0,0:0:0:0:
420,167,32840,2,0,P|459:182|505:188,1,80.9999975280763,8|0,0:0|0:0,0:0:0:0:
428,13,33075,5,2,0:0:0:0:
348,45,33193,2,0,P|309:30|263:24,1,80.9999975280763,0|8,0:0|0:0,0:0:0:0:
158,127,33428,1,2,0:0:0:0:
158,127,33546,2,0,P|197:112|243:106,1,80.9999975280763,0|2,0:0|0:0,0:0:0:0:
62,162,33781,1,8,0:0:0:0:
9,82,33899,1,8,0:0:0:0:
34,186,34017,6,0,P|41:233|40:274,1,80.9999975280763,2|0,0:0|0:0,0:0:0:0:
41,355,34252,1,8,0:0:0:0:
41,355,34370,1,0,0:0:0:0:
123,314,34487,2,0,P|170:306|212:301,1,80.9999975280763,2|0,0:0|0:0,0:0:0:0:
256,230,34723,1,8,0:0:0:0:
325,290,34840,6,0,P|374:334|464:319,1,161.999995056153,2|0,0:0|0:0,0:0:0:0:
420,176,35193,2,0,P|406:225|405:262,1,80.9999975280763,8|0,0:0|0:0,0:0:0:0:
327,157,35429,2,0,P|341:108|342:71,1,80.9999975280763,0|8,0:0|0:0,0:0:0:0:
183,42,35664,1,8,0:0:0:0:
249,106,35782,1,8,0:0:0:0:
163,9,35899,6,0,P|107:61|14:41,1,161.999995056153,4|8,0:0|0:0,0:0:0:0:
15,141,36253,1,0,0:0:0:0:
15,141,36370,2,0,P|26:192|27:226,1,80.9999975280763,0|0,0:0|0:0,0:0:0:0:
126,184,36606,2,0,P|115:235|114:269,1,80.9999975280763,8|0,0:0|0:0,0:0:0:0:
193,364,36841,5,2,0:0:0:0:
193,364,36959,1,0,0:0:0:0:
193,364,37076,2,0,P|234:344|284:338,1,80.9999975280763,8|2,0:0|0:0,0:0:0:0:
406,298,37312,2,0,P|365:278|315:272,1,80.9999975280763,0|2,0:0|0:0,0:0:0:0:
261,144,37547,1,8,0:0:0:0:
345,186,37665,1,8,0:0:0:0:
228,162,37782,6,0,P|241:101|249:77,1,80.9999975280763,2|0,0:0|0:0,0:0:0:0:
302,14,38018,1,8,0:0:0:0:
302,14,38135,1,0,0:0:0:0:
374,65,38253,2,0,P|416:50|460:44,1,80.9999975280763,2|0,0:0|0:0,0:0:0:0:
392,168,38489,1,8,0:0:0:0:
392,168,38606,6,0,P|352:161|314:147,2,80.9999975280763,2|0|0,0:0|0:0|0:0,0:0:0:0:
492,143,38959,2,0,P|480:202|475:240,1,80.9999975280763,10|0,0:0|0:0,0:0:0:0:
383,343,39195,2,0,P|395:284|400:246,1,80.9999975280763,2|8,0:0|0:0,0:0:0:0:
216,321,39430,1,8,0:0:0:0:
302,278,39548,1,8,0:0:0:0:
221,354,39665,6,0,P|161:338|114:328,1,80.9999975280763,4|0,0:1|0:0,0:0:0:0:
60,370,39901,1,8,0:0:0:0:
60,370,40018,1,0,0:0:0:0:
3,294,40136,2,0,P|19:236|42:123,1,161.999995056153,0|8,0:0|0:0,0:0:0:0:
54,51,40489,1,0,0:0:0:0:
127,103,40607,6,0,P|170:125|208:129,1,80.9999975280763,2|0,0:0|0:0,0:0:0:0:
280,9,40842,1,8,0:0:0:0:
280,9,40960,2,0,P|237:31|199:35,2,80.9999975280763,2|0|2,0:0|0:0|0:0,0:0:0:0:
345,112,41313,1,8,0:0:0:0:
383,25,41431,1,8,0:0:0:0:
318,138,41548,6,0,P|303:186|299:227,1,80.9999975280763,2|0,0:0|0:0,0:0:0:0:
275,301,41784,1,8,0:0:0:0:
275,301,41901,1,0,0:0:0:0:
202,245,42019,2,0,P|162:252|123:263,1,80.9999975280763,2|0,0:0|0:0,0:0:0:0:
46,184,42254,1,8,0:0:0:0:
46,184,42372,6,0,P|85:176|124:165,1,80.9999975280763,2|0,0:0|0:0,0:0:0:0:
200,30,42607,1,0,0:0:0:0:
121,79,42725,2,0,P|110:35|111:-6,1,80.9999975280763,8|0,0:0|0:0,0:0:0:0:
208,130,42961,2,0,P|255:116|295:111,1,80.9999975280763,0|8,0:0|0:0,0:0:0:0:
421,90,43196,1,8,0:0:0:0:
340,37,43314,1,8,0:0:0:0:
448,65,43431,6,0,P|432:114|412:227,1,161.999995056153,4|8,0:0|0:0,0:0:0:0:
452,296,43784,1,0,0:0:0:0:
382,360,43902,2,0,P|339:345|293:338,1,80.9999975280763,0|0,0:0|0:0,0:0:0:0:
246,222,44137,2,0,P|289:237|335:244,1,80.9999975280763,8|0,0:0|0:0,0:0:0:0:
173,289,44373,5,2,0:0:0:0:
173,289,44490,1,0,0:0:0:0:
173,289,44608,2,0,P|179:333|182:382,1,80.9999975280763,8|2,0:0|0:0,0:0:0:0:
155,195,44843,2,0,P|149:151|146:102,1,80.9999975280763,0|0,0:0|0:0,0:0:0:0:
280,67,45079,1,8,0:0:0:0:
191,28,45197,1,8,0:0:0:0:
278,102,45314,6,0,P|332:107|398:69,1,121.499996292114,2|0,0:0|0:0,0:0:0:0:
409,59,45550,2,0,P|380:102|377:144,1,80.9999975280763,10|0,0:0|0:0,0:0:0:0:
424,291,45785,2,0,L|512:272,1,80.9999975280763,2|0,0:0|0:0,0:0:0:0:
399,208,46020,1,8,0:0:0:0:
312,190,46138,6,0,P|263:256|267:334,2,161.999995056153,4|4|4,0:0|0:0|0:3,0:0:0:0:
334,373,46726,6,0,P|275:333|168:349,1,161.999995056153,12|8,0:0|0:0,0:0:0:0:
59,201,47079,1,8,0:0:0:0:
43,294,47197,6,0,P|82:291|125:269,1,80.9999975280763,4|0,0:1|0:0,0:0:0:0:
217,58,47433,2,0,P|159:112|158:198,1,161.999995056153,8|2,0:0|0:0,0:0:0:0:
187,338,47786,1,8,0:0:0:0:
274,294,47903,1,0,0:0:0:0:
334,373,48021,6,0,P|410:344|500:352,1,161.999995056153,0|0,0:0|0:0,0:0:0:0:
458,255,48374,2,0,L|482:169,1,80.9999975280763,0|8,0:0|0:0,0:0:0:0:
376,225,48609,2,0,L|400:139,1,80.9999975280763,2|0,0:0|0:0,0:0:0:0:
287,205,48845,2,0,L|311:119,1,80.9999975280763,0|8,0:0|0:0,0:0:0:0:
265,44,49080,5,2,0:0:0:0:
265,44,49198,1,0,0:0:0:0:
265,44,49315,2,0,P|201:87|115:74,1,161.999995056153,8|2,0:0|0:0,0:0:0:0:
1,192,49669,1,8,0:0:0:0:
20,94,49786,1,0,0:0:0:0:
100,171,49904,6,0,L|55:360,1,161.999995056153,0|0,0:0|0:0,0:0:0:0:
141,370,50257,2,0,P|182:345|226:343,1,80.9999975280763,0|8,0:0|0:0,0:0:0:0:
216,254,50492,2,0,P|262:265|295:295,1,80.9999975280763,2|0,0:0|0:0,0:0:0:0:
349,225,50728,2,0,P|374:266|376:310,1,80.9999975280763,8|8,0:0|0:0,0:0:0:0:
270,172,50963,5,4,0:0:0:0:
270,172,51081,1,0,0:0:0:0:
270,172,51198,2,0,L|305:14,1,161.999995056153,8|2,0:0|0:0,0:0:0:0:
119,24,51551,1,8,0:0:0:0:
206,54,51669,1,0,0:0:0:0:
88,107,51787,6,0,P|46:175|56:264,1,161.999995056153,0|0,0:0|0:0,0:0:0:0:
42,355,52140,2,0,P|95:337|129:329,1,80.9999975280763,0|8,0:0|0:0,0:0:0:0:
214,220,52375,2,0,P|161:238|127:246,1,80.9999975280763,2|0,0:0|0:0,0:0:0:0:
255,129,52611,1,8,0:0:0:0:
332,194,52728,1,12,0:0:0:0:
222,137,52846,6,0,P|230:85|248:43,1,80.9999975280763,4|0,0:1|0:0,0:0:0:0:
319,9,53081,1,8,0:0:0:0:
319,9,53199,1,8,0:0:0:0:
391,59,53317,2,0,P|431:41|471:33,1,80.9999975280763,4|0,0:0|0:0,0:0:0:0:
341,148,53552,1,8,0:0:0:0:
341,148,53670,6,0,P|423:157|488:206,1,161.999995056153,4|4,0:0|0:0,0:0:0:0:
348,237,54023,2,0,P|372:273|381:315,1,80.9999975280763,12|8,0:0|0:0,0:0:0:0:
218,369,54258,1,8,0:0:0:0:
284,302,54376,1,8,0:0:0:0:
186,345,54494,2,0,P|144:329|94:324,1,80.9999975280763,8|8,0:0|0:0,0:0:0:0:
11,193,54729,6,0,P|91:198|154:150,1,161.999995056153,4|8,0:1|0:0,0:0:0:0:
230,210,55082,2,0,P|243:164|242:123,1,80.9999975280763,0|0,0:0|0:0,0:0:0:0:
341,27,55317,2,0,P|328:73|329:114,1,80.9999975280763,8|0,0:0|0:0,0:0:0:0:
237,35,55553,6,0,L|76:69,1,161.999995056153,8|0,0:0|0:0,0:0:0:0:
11,193,55906,1,8,0:0:0:0:
94,240,56023,1,0,0:0:0:0:
11,283,56141,1,0,0:0:0:0:
11,283,56376,5,8,0:0:0:0:
101,150,56494,1,8,0:0:0:0:
189,196,56612,6,0,P|238:244|233:350,1,161.999995056153,4|8,0:1|0:0,0:0:0:0:
322,368,56965,1,0,0:0:0:0:
322,368,57083,2,0,L|402:352,1,80.9999975280763,2|8,0:0|0:0,0:0:0:0:
507,262,57318,1,0,0:0:0:0:
442,193,57436,1,8,0:0:0:0:
509,288,57553,6,0,P|494:331|489:365,1,80.9999975280763,4|8,0:0|0:0,0:0:0:0:
339,191,57789,2,0,P|354:148|359:114,1,80.9999975280763,8|8,0:0|0:0,0:0:0:0:
392,307,58024,1,8,0:0:0:0:
392,307,58142,1,8,0:0:0:0:
392,307,58259,2,0,P|349:292|315:287,1,80.9999975280763,8|8,0:0|0:0,0:0:0:0:
55,332,58495,5,4,0:1:0:0:
55,332,58612,1,0,0:0:0:0:
55,332,58730,2,0,P|98:347|147:350,1,90,8|0,0:0|0:0,0:0:0:0:
213,287,58966,1,2,0:0:0:0:
213,287,59083,1,0,0:0:0:0:
130,170,59201,2,0,P|114:226|112:262,1,90,8|0,0:0|0:0,0:0:0:0:
230,103,59436,6,0,P|246:159|248:195,1,90,2|0,0:0|0:0,0:0:0:0:
138,70,59672,2,0,P|207:79|287:7,1,180,8|2,0:0|0:0,0:0:0:0:
372,28,60025,1,0,0:0:0:0:
414,106,60142,2,0,P|457:86|509:79,1,90,8|0,0:0|0:0,0:0:0:0:
418,248,60378,6,0,P|375:228|323:221,1,90,2|0,0:0|0:0,0:0:0:0:
257,279,60613,1,8,0:0:0:0:
257,279,60731,1,0,0:0:0:0:
203,127,60848,2,0,P|183:179|178:222,1,90,2|0,0:0|0:0,0:0:0:0:
232,364,61084,2,0,P|252:312|257:269,1,90,8|0,0:0|0:0,0:0:0:0:
75,329,61319,6,0,L|173:298,1,90,2|0,0:0|0:0,0:0:0:0:
85,192,61555,2,0,L|-13:223,1,90,8|0,0:0|0:0,0:0:0:0:
124,99,61790,1,2,0:0:0:0:
124,99,61908,1,0,0:0:0:0:
216,130,62025,2,0,P|199:179|191:225,1,90,8|0,0:0|0:0,0:0:0:0:
391,362,62261,6,0,P|352:296|245:282,1,180,4|8,0:1|0:0,0:0:0:0:
287,369,62614,1,0,0:0:0:0:
471,291,62731,2,0,P|495:343|494:383,1,90,2|0,0:0|0:0,0:0:0:0:
167,300,62967,2,0,P|170:255|191:216,1,90,8|0,0:0|0:0,0:0:0:0:
304,182,63202,1,2,0:0:0:0:
255,278,63320,1,0,0:0:0:0:
128,152,63438,2,0,L|228:126,1,90,8|0,0:0|0:0,0:0:0:0:
357,88,63673,5,2,0:0:0:0:
304,182,63791,1,8,0:0:0:0:
283,31,63908,5,8,0:0:0:0:
360,262,64026,1,8,0:0:0:0:
440,203,64144,6,0,L|457:130,2,67.5000025749208,8|4|0,0:0|0:0|0:0,0:0:0:0:
360,262,64497,2,0,P|292:272|241:325,2,135.000005149842,4|4|4,0:0|0:0|0:3,0:0:0:0:
177,377,65085,6,0,L|78:354,1,90,12|0,1:0|0:0,0:0:0:0:
40,136,65320,2,0,L|139:159,1,90,8|8,0:0|0:0,0:0:0:0:
245,316,65556,5,8,0:0:0:0:
89,356,65674,1,8,0:0:0:0:
127,156,65791,5,8,0:0:0:0:
177,377,65909,1,8,0:0:0:0:
0,292,66027,6,0,P|55:246|138:258,1,148.50000453186,4|0,0:0|2:0,0:0:0:0:
138,268,66262,2,0,P|156:219|156:162,1,99.0000030212403,8|0,0:0|0:0,0:0:0:0:
71,39,66497,2,0,P|52:87|52:144,1,99.0000030212403,0|0,0:0|0:0,0:0:0:0:
275,214,66733,1,8,0:0:0:0:
246,112,66850,1,0,0:0:0:0:
245,343,66968,6,0,L|356:318,1,99.0000030212403,2|0,0:0|0:0,0:0:0:0:
473,208,67203,2,0,L|362:233,1,99.0000030212403,8|0,0:0|0:0,0:0:0:0:
231,366,67439,6,0,L|342:341,1,99.0000030212403,2|0,0:0|0:0,0:0:0:0:
492,185,67674,2,0,L|381:210,1,99.0000030212403,8|0,0:0|0:0,0:0:0:0:
281,246,67910,6,0,B|313:135|243:179|284:52,2,198.000006042481,6|8|0,0:0|0:0|0:0,0:0:0:0:
365,111,68498,1,0,0:0:0:0:
365,111,68616,2,0,P|409:85|462:88,1,99.0000030212403,8|0,0:0|0:0,0:0:0:0:
192,198,68851,6,0,P|98:189|54:89,1,198.000006042481,0|8,0:0|0:0,0:0:0:0:
266,87,69204,1,8,0:0:0:0:
184,13,69322,2,0,P|155:64|153:114,1,99.0000030212403,8|0,0:0|0:0,0:0:0:0:
243,366,69557,2,0,P|291:332|385:337,1,148.50000453186,8|0,0:0|0:0,0:0:0:0:
395,344,69792,6,0,P|412:235|438:140,1,198.000006042481,4|8,0:0|0:0,0:0:0:0:
284,54,70146,2,0,P|308:149|323:247,1,198.000006042481,6|0,0:0|0:0,0:0:0:0:
390,50,70499,2,0,L|487:17,1,99.0000030212403,10|0,0:0|0:0,0:0:0:0:
183,105,70734,6,0,L|82:74,1,99.0000030212403,6|0,0:0|0:0,0:0:0:0:
166,210,70969,1,8,0:0:0:0:
166,210,71087,2,0,B|296:200|219:152|346:143,1,198.000006042481,6|0,0:0|0:0,0:0:0:0:
299,343,71440,2,0,L|324:242,1,99.0000030212403,10|0,0:0|0:0,0:0:0:0:
446,147,71675,6,0,L|421:248,1,99.0000030212403,6|0,0:0|0:0,0:0:0:0:
242,94,71911,1,8,0:0:0:0:
242,94,72028,2,0,P|313:40|421:60,1,198.000006042481,6|0,0:0|0:0,0:0:0:0:
263,188,72382,1,10,0:0:0:0:
138,61,72499,1,8,0:0:0:0:
179,263,72617,6,0,L|156:363,1,99.0000030212403,14|8,0:0|0:0,0:0:0:0:
58,125,72852,2,0,P|37:66|53:21,1,99.0000030212403,10|8,0:0|0:0,0:0:0:0:
169,158,73088,1,10,0:0:0:0:
41,232,73205,1,8,0:0:0:0:
205,141,73323,2,0,L|311:161,1,99.0000030212403,10|8,0:0|0:0,0:0:0:0:
478,327,73558,6,0,L|330:298,1,148.50000453186,4|0,0:0|2:0,0:0:0:0:
318,276,73794,2,0,P|296:325|299:375,1,99.0000030212403,8|0,0:0|0:0,0:0:0:0:
408,167,74029,2,0,P|408:117|387:73,1,99.0000030212403,2|0,0:0|0:0,0:0:0:0:
183,36,74264,2,0,L|83:58,1,99.0000030212403,8|0,0:0|0:0,0:0:0:0:
303,10,74500,6,0,B|252:128|325:90|284:202,1,198.000006042481,2|8,0:0|0:0,0:0:0:0:
205,141,74853,1,0,0:0:0:0:
258,300,74971,2,0,P|317:299|355:268,1,99.0000030212403,2|0,0:0|0:0,0:0:0:0:
205,141,75206,2,0,P|146:142|108:173,1,99.0000030212403,8|0,0:0|0:0,0:0:0:0:
135,366,75441,6,0,L|161:266,1,99.0000030212403,2|0,0:0|0:0,0:0:0:0:
307,163,75677,1,8,0:0:0:0:
258,300,75794,1,0,0:0:0:0:
364,244,75912,2,0,L|388:339,1,99.0000030212403,2|0,0:0|0:0,0:0:0:0:
211,164,76147,2,0,L|235:68,1,99.0000030212403,8|0,0:0|0:0,0:0:0:0:
446,164,76383,6,0,L|472:268,1,99.0000030212403,2|0,0:0|0:0,0:0:0:0:
389,75,76618,1,8,0:0:0:0:
357,227,76736,1,8,0:0:0:0:
305,136,76854,2,0,P|259:152|211:163,1,99.0000030212403,2|0,0:0|0:0,0:0:0:0:
257,299,77089,2,0,P|303:283|352:272,1,99.0000030212403,8|0,0:0|0:0,0:0:0:0:
150,262,77324,6,0,P|65:278|4:191,1,198.000006042481,4|8,0:0|0:0,0:0:0:0:
211,163,77677,1,0,0:0:0:0:
267,263,77795,2,0,L|246:363,1,99.0000030212403,2|0,0:0|0:0,0:0:0:0:
93,196,78030,2,0,L|114:96,1,99.0000030212403,8|0,0:0|0:0,0:0:0:0:
313,88,78266,5,2,0:0:0:0:
211,163,78383,1,0,0:0:0:0:
124,60,78501,2,0,P|168:35|228:33,1,99.0000030212403,8|0,0:0|0:0,0:0:0:0:
386,184,78736,2,0,P|342:209|282:211,1,99.0000030212403,10|8,0:0|0:0,0:0:0:0:
313,88,78972,1,10,0:0:0:0:
367,316,79090,1,8,0:0:0:0:
211,163,79207,6,0,L|184:265,1,99.0000030212403,4|0,1:0|0:0,0:0:0:0:
157,354,79443,1,8,0:0:0:0:
93,196,79560,1,8,0:0:0:0:
8,315,79678,2,0,P|70:286|114:288,1,99.0000030212403,8|8,0:0|0:0,0:0:0:0:
340,300,79913,6,0,P|278:329|234:327,1,99.0000030212403,4|0,0:1|0:0,0:0:0:0:
93,196,80149,2,0,L|119:97,1,99.0000030212403,0|8,0:0|0:0,0:0:0:0:
283,39,80384,5,0,0:0:0:0:
211,163,80502,1,8,0:0:0:0:
195,54,80619,5,8,0:0:0:0:
299,149,80737,1,0,0:0:0:0:
401,2,80855,6,0,P|382:54|380:102,1,99.0000030212403,4|0,0:1|0:0,0:0:0:0:
438,270,81090,1,8,0:0:0:0:
482,107,81208,1,8,0:0:0:0:
506,208,81326,2,0,P|469:188|402:185,1,99.0000030212403,8|8,0:0|0:0,0:0:0:0:
375,336,81561,2,0,P|412:356|479:359,1,99.0000030212403,4|8,0:0|0:0,0:0:0:0:
220,218,81796,6,0,L|189:329,1,99.0000030212403,4|8,0:0|0:0,0:0:0:0:
299,149,82032,2,0,L|268:38,1,99.0000030212403,12|8,0:0|0:0,0:0:0:0:
118,180,82267,6,0,P|69:199|18:200,1,99.0000030212403,4|0,0:1|0:0,0:0:0:0:
167,96,82502,1,8,0:0:0:0:
137,271,82620,1,8,0:0:0:0:
49,115,82738,2,0,P|45:61|38:9,1,99.0000030212403,8|8,0:0|0:0,0:0:0:0:
219,193,82973,6,0,P|265:180|325:172,1,99.0000030212403,4|0,0:1|0:0,0:0:0:0:
263,75,83208,2,0,P|217:88|157:96,1,99.0000030212403,0|8,0:0|0:0,0:0:0:0:
353,94,83444,5,0,0:0:0:0:
378,238,83561,1,8,0:0:0:0:
448,150,83679,5,8,0:0:0:0:
315,172,83797,1,8,0:0:0:0:
481,241,83915,6,0,P|469:295|462:347,1,99.0000030212403,4|0,0:1|0:0,0:0:0:0:
359,378,84150,1,8,0:0:0:0:
378,238,84268,1,8,0:0:0:0:
216,281,84385,2,0,P|282:296|346:294,1,99.0000030212403,4|8,0:0|0:0,0:0:0:0:
330,141,84621,6,0,P|264:126|200:128,1,99.0000030212403,4|8,0:0|0:0,0:0:0:0:
26,163,84856,1,12,0:0:0:0:
135,195,84974,1,8,0:0:0:0:
114,60,85091,2,0,P|130:129|133:164,1,99.0000030212403,8|8,0:0|0:0,0:0:0:0:
59,361,85327,6,0,P|98:300|226:285,1,198.000006042481,4|8,0:1|0:0,0:0:0:0:
392,324,85680,1,8,0:0:0:0:
317,254,85797,2,0,P|298:310|295:365,1,99.0000030212403,8|0,0:0|0:0,0:0:0:0:
416,235,86033,6,0,L|514:259,1,99.0000030212403,4|0,0:1|0:0,0:0:0:0:
276,155,86268,2,0,L|179:178,1,99.0000030212403,8|8,0:0|0:0,0:0:0:0:
349,65,86504,2,0,L|445:88,1,99.0000030212403,8|8,0:0|0:0,0:0:0:0:
229,15,86739,6,0,P|165:73|58:62,1,198.000006042481,4|0,0:1|0:0,0:0:0:0:
150,188,87092,1,8,0:0:0:0:
25,148,87210,2,0,P|43:208|39:272,1,99.0000030212403,0|8,0:0|0:0,0:0:0:0:
113,364,87445,6,0,L|11:337,1,99.0000030212403,4|8,0:0|0:0,0:0:0:0:
150,188,87680,2,0,L|245:162,1,99.0000030212403,8|8,0:0|0:0,0:0:0:0:
276,309,87916,2,0,L|180:283,1,99.0000030212403,8|8,0:0|0:0,0:0:0:0:
392,371,88151,5,4,0:1:0:0:
392,371,88269,1,0,0:0:0:0:
392,371,88387,2,0,P|407:322|407:273,1,99.0000030212403,8|8,0:0|0:0,0:0:0:0:
431,142,88622,1,8,0:0:0:0:
331,239,88740,1,8,0:0:0:0:
245,162,88857,6,0,P|313:159|355:135,1,99.0000030212403,4|0,0:0|0:0,0:0:0:0:
196,22,89093,2,0,P|128:25|86:49,1,99.0000030212403,8|8,0:0|0:0,0:0:0:0:
144,207,89328,5,8,0:0:0:0:
51,157,89446,1,8,0:0:0:0:
161,119,89563,5,8,0:0:0:0:
34,245,89680,1,8,0:0:0:0:
177,345,89799,6,0,P|175:290|150:237,1,99.0000030212403,4|0,0:1|0:0,0:0:0:0:
351,174,90034,1,8,0:0:0:0:
250,205,90152,6,0,P|252:150|277:97,1,99.0000030212403,4|0,0:0|0:0,0:0:0:0:
449,151,90387,2,0,P|447:206|422:259,1,99.0000030212403,4|0,0:0|0:0,0:0:0:0:
328,267,90623,1,4,0:3:0:0:
382,34,90740,5,12,0:0:0:0:
382,34,91682,6,0,P|332:75|235:66,1,161.999995056153,4|8,0:1|0:0,0:0:0:0:
167,19,92035,1,0,0:0:0:0:
82,41,92152,2,0,P|32:108|44:202,1,161.999995056153,2|8,0:0|0:0,0:0:0:0:
21,305,92505,1,0,0:0:0:0:
21,305,92623,6,0,P|64:286|110:279,1,80.9999975280763,2|0,0:0|0:0,0:0:0:0:
254,147,92858,1,10,0:0:0:0:
254,147,92976,1,0,0:0:0:0:
254,147,93094,2,0,P|250:106|235:60,1,80.9999975280763,2|0,0:0|0:0,0:0:0:0:
128,174,93329,1,8,0:0:0:0:
203,222,93447,1,8,0:0:0:0:
115,202,93564,6,0,P|101:247|98:290,1,80.9999975280763,2|0,0:0|0:0,0:0:0:0:
128,369,93800,2,0,P|176:348|210:344,1,80.9999975280763,8|0,0:0|0:0,0:0:0:0:
348,312,94035,2,0,P|311:294|271:287,1,80.9999975280763,2|0,0:0|0:0,0:0:0:0:
423,376,94271,1,8,0:0:0:0:
423,376,94388,6,0,P|435:303|455:217,1,161.999995056153,2|0,0:0|0:0,0:0:0:0:
472,118,94741,2,0,P|438:133|387:145,1,80.9999975280763,8|0,0:0|0:0,0:0:0:0:
345,218,94977,2,0,P|305:208|268:192,1,80.9999975280763,0|0,0:0|0:0,0:0:0:0:
225,25,95212,1,8,0:0:0:0:
285,102,95330,1,8,0:0:0:0:
211,55,95447,6,0,P|158:94|93:94,1,121.499996292114,4|0,0:0|0:0,0:0:0:0:
91,83,95683,2,0,P|69:125|64:165,1,80.9999975280763,8|0,0:0|0:0,0:0:0:0:
46,314,95918,1,2,0:0:0:0:
46,314,96036,1,0,0:0:0:0:
46,314,96153,2,0,P|24:272|19:232,1,80.9999975280763,8|0,0:0|0:0,0:0:0:0:
185,231,96389,6,0,P|141:239|104:252,1,80.9999975280763,2|0,0:0|0:0,0:0:0:0:
25,116,96624,2,0,P|69:108|106:95,1,80.9999975280763,10|0,0:0|0:0,0:0:0:0:
175,30,96860,2,0,P|192:82|197:113,1,80.9999975280763,2|0,0:0|0:0,0:0:0:0:
280,197,97095,1,8,0:0:0:0:
338,122,97213,1,0,0:0:0:0:
298,226,97330,6,0,P|351:212|395:207,1,80.9999975280763,2|0,0:0|0:0,0:0:0:0:
420,92,97566,2,0,P|421:45|412:12,1,80.9999975280763,8|0,0:0|0:0,0:0:0:0:
466,169,97801,2,0,P|465:216|474:249,1,80.9999975280763,2|0,0:0|0:0,0:0:0:0:
512,326,98036,1,8,0:0:0:0:
435,367,98154,6,0,P|396:355|333:345,1,80.9999975280763,2|0,0:0|0:0,0:0:0:0:
233,281,98389,1,0,0:0:0:0:
233,281,98507,2,0,P|272:269|335:259,1,80.9999975280763,8|0,0:0|0:0,0:0:0:0:
144,342,98743,2,0,P|129:280|129:245,1,80.9999975280763,0|0,0:0|0:0,0:0:0:0:
148,112,98978,1,12,0:0:0:0:
77,179,99096,1,8,0:0:0:0:
172,140,99213,6,0,P|210:131|252:118,1,80.9999975280763,4|0,0:1|0:0,0:0:0:0:
276,27,99449,2,0,P|238:36|196:49,1,80.9999975280763,8|0,0:0|0:0,0:0:0:0:
328,170,99684,1,2,0:0:0:0:
328,170,99802,2,0,P|339:114|347:76,1,80.9999975280763,0|8,0:0|0:0,0:0:0:0:
394,230,100037,1,0,0:0:0:0:
309,260,100155,6,0,P|266:244|219:236,1,80.9999975280763,2|0,0:0|0:0,0:0:0:0:
160,354,100390,1,8,0:0:0:0:
160,354,100508,1,0,0:0:0:0:
160,354,100625,2,0,P|197:339|237:331,1,80.9999975280763,2|0,0:0|0:0,0:0:0:0:
89,282,100861,1,8,0:0:0:0:
140,201,100979,1,8,0:0:0:0:
71,306,101096,6,0,P|54:250|53:213,1,80.9999975280763,2|0,0:0|0:0,0:0:0:0:
76,134,101332,2,0,P|116:120|159:113,1,80.9999975280763,8|0,0:0|0:0,0:0:0:0:
180,12,101567,2,0,P|140:26|97:33,1,80.9999975280763,2|0,0:0|0:0,0:0:0:0:
250,79,101802,1,8,0:0:0:0:
250,79,101920,6,0,P|266:142|276:239,1,161.999995056153,2|0,0:0|0:0,0:0:0:0:
212,303,102273,1,8,0:0:0:0:
212,303,102391,1,0,0:0:0:0:
279,368,102508,2,0,P|335:353|367:347,1,80.9999975280763,2|0,0:0|0:0,0:0:0:0:
440,252,102744,1,8,0:0:0:0:
501,324,102861,1,8,0:0:0:0:
414,266,102979,6,0,P|422:206|431:175,1,80.9999975280763,4|0,0:0|0:0,0:0:0:0:
473,66,103215,1,8,0:0:0:0:
473,66,103332,1,0,0:0:0:0:
393,104,103450,2,0,P|346:120|303:124,1,80.9999975280763,2|0,0:0|0:0,0:0:0:0:
183,30,103685,1,8,0:0:0:0:
183,30,103803,1,0,0:0:0:0:
183,30,103921,6,0,P|230:46|273:50,1,80.9999975280763,2|0,0:0|0:0,0:0:0:0:
97,69,104156,1,10,0:0:0:0:
97,69,104274,1,0,0:0:0:0:
141,147,104391,2,0,P|129:202|125:233,1,80.9999975280763,2|0,0:0|0:0,0:0:0:0:
277,271,104627,1,8,0:0:0:0:
219,199,104744,1,8,0:0:0:0:
265,298,104862,6,0,P|321:268|381:274,1,121.499996292114,2|0,0:0|0:0,0:0:0:0:
385,288,105097,2,0,P|425:311|463:314,1,80.9999975280763,8|8,0:0|0:0,0:0:0:0:
398,140,105333,1,8,0:0:0:0:
445,220,105451,1,0,0:0:0:0:
369,120,105568,2,0,P|331:142|282:144,1,80.9999975280763,8|0,0:0|0:0,0:0:0:0:
86,95,105804,6,0,L|228:62,1,121.499996292114,8|0,0:0|0:0,0:0:0:0:
211,80,106039,2,0,L|123:102,1,80.9999975280763,8|0,0:0|0:0,0:0:0:0:
96,209,106274,1,8,0:0:0:0:
0,153,106392,1,8,0:0:0:0:
80,320,106510,2,0,L|168:298,1,80.9999975280763,8|8,0:0|0:0,0:0:0:0:
313,268,106745,6,0,P|289:321|295:358,1,80.9999975280763,4|0,0:1|0:0,0:0:0:0:
407,236,106980,1,8,0:0:0:0:
328,183,107098,1,8,0:0:0:0:
416,146,107216,6,0,P|455:131|493:121,1,80.9999975280763,4|0,0:0|0:0,0:0:0:0:
350,78,107451,1,8,0:0:0:0:
405,5,107569,1,8,0:0:0:0:
322,90,107687,6,0,P|277:84|240:67,1,80.9999975280763,4|0,0:1|0:0,0:0:0:0:
81,100,107922,1,8,0:0:0:0:
81,100,108040,1,8,0:0:0:0:
154,37,108157,6,0,L|177:163,1,121.499996292114,4|0,0:0|0:0,0:0:0:0:
165,171,108393,2,0,P|132:199|88:209,1,80.9999975280763,8|8,0:0|0:0,0:0:0:0:
21,348,108628,6,0,L|105:328,1,80.9999975280763,4|0,0:1|0:0,0:0:0:0:
228,295,108863,1,8,0:0:0:0:
185,373,108981,1,8,0:0:0:0:
108,229,109099,6,0,P|123:286|126:317,1,80.9999975280763,4|0,0:0|0:0,0:0:0:0:
22,143,109334,1,8,0:0:0:0:
64,60,109452,1,8,0:0:0:0:
41,167,109569,6,0,P|93:145|127:139,1,80.9999975280763,4|0,0:1|0:0,0:0:0:0:
184,75,109805,2,0,L|174:31,2,40.4999987640381,8|8|0,0:0|0:0|0:0,0:0:0:0:
218,64,109981,1,8,0:0:0:0:
218,64,110040,6,0,P|206:113|203:147,1,80.9999975280763,8|0,0:0|0:0,0:0:0:0:
455,244,110276,2,0,P|467:195|470:161,1,80.9999975280763,8|0,0:0|0:0,0:0:0:0:
299,169,110511,6,0,P|349:159|387:154,1,80.9999975280763,4|0,0:1|0:0,0:0:0:0:
227,226,110746,1,8,0:0:0:0:
203,143,110864,1,8,0:0:0:0:
210,258,110982,6,0,P|170:286|135:292,1,80.9999975280763,4|0,0:0|0:0,0:0:0:0:
3,252,111217,2,0,P|43:224|78:218,1,80.9999975280763,8|8,0:0|0:0,0:0:0:0:
292,371,111452,6,0,L|309:288,1,80.9999975280763,4|0,0:1|0:0,0:0:0:0:
419,253,111688,1,8,0:0:0:0:
341,209,111805,1,8,0:0:0:0:
443,226,111923,6,0,L|427:139,1,80.9999975280763,4|0,0:0|0:0,0:0:0:0:
280,130,112159,1,8,0:0:0:0:
358,86,112276,1,8,0:0:0:0:
256,103,112394,6,0,L|272:16,1,80.9999975280763,4|0,0:1|0:0,0:0:0:0:
89,126,112629,2,0,L|41:142,2,40.4999987640381,8|8|0,0:0|0:0|0:0,0:0:0:0:
115,102,112806,1,8,0:0:0:0:
115,102,112865,6,0,P|98:148|98:186,1,80.9999975280763,4|0,0:0|0:0,0:0:0:0:
276,368,113100,2,0,P|293:322|293:284,1,80.9999975280763,8|8,0:0|0:0,0:0:0:0:
80,264,113335,5,8,0:0:0:0:
211,308,113453,1,8,0:0:0:0:
78,348,113571,5,8,0:0:0:0:
162,238,113688,1,8,0:0:0:0:
160,378,113806,1,8,0:0:0:0:
160,378,114041,5,8,0:0:0:0:
80,264,114159,1,8,0:0:0:0:
205,156,114277,6,0,B|319:162|252:204|373:217,1,180,4|8,0:1|0:0,0:0:0:0:
369,216,114630,1,0,0:0:0:0:
445,148,114748,2,0,P|467:199|472:238,1,90
301,278,114983,2,0,P|279:329|274:368,1,90,8|0,0:0|0:0,0:0:0:0:
486,338,115218,6,0,P|438:314|382:302,1,90,2|0,0:0|0:0,0:0:0:0:
210,226,115454,2,0,P|166:238|127:259,1,90,8|0,0:0|0:0,0:0:0:0:
301,278,115689,1,2,0:0:0:0:
323,94,115807,2,0,P|339:146|347:182,1,90,8|0,0:0|0:0,0:0:0:0:
419,64,116042,1,8,0:0:0:0:
232,120,116160,6,0,P|148:132|68:60,1,180,2|8,0:0|0:0,0:0:0:0:
32,184,116513,1,0,0:0:0:0:
32,184,116631,2,0,P|40:236|40:284,1,90,2|0,0:0|0:0,0:0:0:0:
144,384,116866,2,0,P|136:332|136:284,1,90,8|0,0:0|0:0,0:0:0:0:
288,200,117101,6,0,P|232:216|196:216,1,90,2|0,0:0|0:0,0:0:0:0:
324,116,117337,1,8,0:0:0:0:
324,116,117454,1,0,0:0:0:0:
264,36,117572,2,0,P|306:21|351:19,1,90,2|8,0:0|0:0,0:0:0:0:
400,188,117807,1,8,0:0:0:0:
464,16,117925,1,8,0:0:0:0:
476,256,118043,6,0,L|500:144,1,90,4|0,0:1|0:0,0:0:0:0:
328,336,118278,1,8,0:0:0:0:
400,188,118396,1,0,0:0:0:0:
500,348,118513,6,0,P|456:348|408:324,1,90,8|0,0:0|0:0,0:0:0:0:
248,228,118749,2,0,P|292:228|340:252,1,90,8|0,0:0|0:0,0:0:0:0:
132,364,118984,6,0,L|152:276,1,90,8|0,0:0|0:0,0:0:0:0:
72,24,119220,2,0,L|92:112,1,90,8|0,0:0|0:0,0:0:0:0:
236,328,119455,5,8,0:0:0:0:
56,276,119573,1,8,0:0:0:0:
176,184,119690,5,8,0:0:0:0:
132,364,119808,1,8,0:0:0:0:
264,232,119926,6,0,L|336:220,2,67.5000025749208,8|4|0,0:0|0:0|0:0,0:0:0:0:
272,140,120279,2,0,L|344:128,1,67.5000025749208,4|0,0:0|0:0,0:0:0:0:
280,48,120514,2,0,L|352:36,1,67.5000025749208,4|0,0:0|0:0,0:0:0:0:
188,25,120749,2,0,L|176:59,1,33.7500012874604,4|0,0:3|0:0,0:0:0:0:
168,83,120867,6,0,P|129:102|80:103,1,90,12|0,0:1|0:0,0:0:0:0:
34,317,121102,2,0,P|73:298|122:297,1,90,8|8,0:0|0:0,0:0:0:0:
221,365,121338,5,8,0:0:0:0:
144,197,121456,1,8,0:0:0:0:
301,234,121573,5,8,0:0:0:0:
118,296,121691,1,8,0:0:0:0:
272,140,121809,6,0,P|342:138|399:192,1,148.50000453186,4|0,0:0|2:0,0:0:0:0:
410,205,122044,2,0,P|431:157|429:108,1,99.0000030212403,8|0,0:0|0:0,0:0:0:0:
301,234,122279,1,0,0:0:0:0:
375,301,122397,1,0,0:0:0:0:
221,365,122515,2,0,L|111:338,1,99.0000030212403,8|0,0:0|0:0,0:0:0:0:
152,78,122750,6,0,P|178:131|173:174,1,99.0000030212403,2|0,0:0|0:0,0:0:0:0:
35,359,122985,2,0,P|9:306|14:263,1,99.0000030212403,8|0,0:0|0:0,0:0:0:0:
87,143,123221,1,2,0:0:0:0:
8,94,123338,1,0,0:0:0:0:
114,261,123456,2,0,L|211:243,1,99.0000030212403,8|0,0:0|0:0,0:0:0:0:
462,215,123692,6,0,P|395:147|299:161,2,198.000006042481,6|8|0,0:0|0:0|0:0,0:0:0:0:
343,327,124280,1,0,0:0:0:0:
343,327,124398,2,0,L|365:218,1,99.0000030212403,8|0,0:0|0:0,0:0:0:0:
303,44,124633,6,0,B|178:62|258:112|117:121,1,198.000006042481,0|8,0:0|0:0,0:0:0:0:
137,16,124986,1,8,0:0:0:0:
22,63,125104,2,0,P|42:128|47:171,1,99.0000030212403,8|0,0:0|0:0,0:0:0:0:
20,371,125339,2,0,P|78:335|159:341,1,148.50000453186,8|0,0:0|0:0,0:0:0:0:
162,358,125574,6,0,L|275:342,1,99.0000030212403,4|0,0:0|0:0,0:0:0:0:
301,166,125810,1,8,0:0:0:0:
462,183,125928,2,0,B|337:198|413:249|281:259,1,198.000006042481,6|0,0:0|0:0,0:0:0:0:
426,369,126281,2,0,L|445:270,1,99.0000030212403,10|0,0:0|0:0,0:0:0:0:
319,73,126516,6,0,P|296:127|302:169,1,99.0000030212403,6|0,0:0|0:0,0:0:0:0:
420,91,126751,1,8,0:0:0:0:
231,20,126869,2,0,L|117:52,1,99.0000030212403,6|0,0:0|0:0,0:0:0:0:
107,171,127104,2,0,L|221:139,1,99.0000030212403,0|10,0:0|0:0,0:0:0:0:
86,266,127340,1,0,0:0:0:0:
13,209,127457,6,0,P|13:145|33:105,1,99.0000030212403,6|0,0:0|0:0,0:0:0:0:
86,266,127693,1,8,0:0:0:0:
149,335,127810,2,0,P|222:279|327:289,1,198.000006042481,6|0,0:0|0:0,0:0:0:0:
485,241,128164,1,10,0:0:0:0:
361,377,128281,1,8,0:0:0:0:
386,218,128399,6,0,P|409:288|411:321,1,99.0000030212403,14|8,0:0|0:0,0:0:0:0:
159,194,128634,2,0,P|165:145|183:99,1,99.0000030212403,10|8,0:0|0:0,0:0:0:0:
358,32,128870,1,10,0:0:0:0:
386,218,128987,1,8,0:0:0:0:
271,136,129105,2,0,L|372:120,1,99.0000030212403,10|8,0:0|0:0,0:0:0:0:
209,302,129340,6,0,L|46:270,1,148.50000453186,4|0,0:0|2:0,0:0:0:0:
52,259,129576,2,0,P|30:309|33:354,1,99.0000030212403,8|0,0:0|0:0,0:0:0:0:
290,232,129811,2,0,L|266:115,1,99.0000030212403,2|0,0:0|0:0,0:0:0:0:
99,15,130046,2,0,L|75:132,1,99.0000030212403,8|0,0:0|0:0,0:0:0:0:
209,302,130282,5,2,0:0:0:0:
290,232,130400,1,0,0:0:0:0:
406,359,130517,2,0,L|292:330,1,99.0000030212403,8|0,0:0|0:0,0:0:0:0:
26,260,130753,2,0,P|77:216|161:224,1,148.50000453186,2|0,0:0|0:0,0:0:0:0:
164,230,130988,2,0,P|175:175|167:127,1,99.0000030212403,8|0,0:0|0:0,0:0:0:0:
306,34,131223,6,0,P|366:95|482:65,1,198.000006042481,2|8,0:0|0:0,0:0:0:0:
469,77,131576,1,0,0:0:0:0:
484,280,131694,2,0,P|429:262|371:251,1,99.0000030212403,2|0,0:0|0:0,0:0:0:0:
321,109,131929,2,0,P|376:127|434:138,1,99.0000030212403,8|0,0:0|0:0,0:0:0:0:
229,32,132165,6,0,P|206:89|207:138,1,99.0000030212403,2|0,0:0|0:0,0:0:0:0:
292,293,132400,1,8,0:0:0:0:
320,108,132518,1,8,0:0:0:0:
222,213,132636,2,0,L|322:193,1,99.0000030212403,2|0,0:0|0:0,0:0:0:0:
205,125,132871,1,8,0:0:0:0:
292,293,132989,1,0,0:0:0:0:
113,152,133106,6,0,P|84:210|84:252,1,99.0000030212403,4|0,0:0|0:0,0:0:0:0:
237,314,133342,1,8,0:0:0:0:
188,224,133459,1,0,0:0:0:0:
305,384,133577,2,0,P|334:326|334:284,1,99.0000030212403,2|0,0:0|0:0,0:0:0:0:
205,125,133812,2,0,L|364:100,1,148.50000453186,8|0,0:0|0:0,0:0:0:0:
368,83,134048,6,0,L|339:188,1,99.0000030212403,2|0,0:0|0:0,0:0:0:0:
444,148,134283,1,8,0:0:0:0:
266,96,134401,1,0,0:0:0:0:
453,49,134518,5,10,0:0:0:0:
253,188,134636,1,8,0:0:0:0:
308,16,134754,5,10,0:0:0:0:
402,237,134872,1,8,0:0:0:0:
368,83,134989,5,6,1:0:0:0:
47,143,138520,6,0,L|35:71,2,60,8|8|8,0:0|0:0|0:0,0:0:0:0:
79,175,138755,6,0,P|130:152|175:152,1,90,4|0,0:1|0:0,0:0:0:0:
326,194,138990,1,8,0:0:0:0:
183,60,139108,1,8,0:0:0:0:
227,215,139226,6,0,L|249:124,1,90,4|0,0:0|0:0,0:0:0:0:
411,67,139461,1,8,0:0:0:0:
326,194,139579,1,8,0:0:0:0:
309,16,139697,6,0,L|330:103,1,90,4|0,0:1|0:0,0:0:0:0:
363,284,139932,1,8,0:0:0:0:
416,153,140050,1,8,0:0:0:0:
385,372,140167,6,0,P|335:366|297:344,1,90,4|0,0:0|0:0,0:0:0:0:
248,127,140403,1,8,0:0:0:0:
211,359,140520,1,8,0:0:0:0:
326,194,140638,5,4,0:1:0:0:
80,121,140873,5,4,0:0:0:0:
282,28,141109,5,4,0:0:0:0:
201,255,141344,5,4,0:0:0:0:
435,124,141580,6,0,P|395:107|344:103,1,90,4|0,0:0|0:0,0:0:0:0:
123,185,141815,2,0,P|167:180|208:163,1,90,8|0,0:0|0:0,0:0:0:0:
217,134,141991,1,0,0:0:0:0:
217,134,142050,2,0,L|202:92,4,45,8|0|0|0|8,0:0|0:0|0:0|0:0|0:0,0:0:0:0:
282,28,142403,1,8,0:0:0:0:
60,110,142521,6,0,P|30:162|32:227,1,118.799999637451,4|0,0:1|0:0,0:0:0:0:
94,275,142874,2,0,L|225:251,1,118.799999637451,2|0,0:0|0:0,0:0:0:0:
292,299,143227,2,0,L|278:364,1,59.3999998187256,2|0,0:0|0:0,0:0:0:0:
286,212,143462,5,0,0:0:0:0:
436,53,143698,2,0,L|422:118,1,59.3999998187256,0|0,0:0|0:0,0:0:0:0:
360,162,143933,2,0,P|309:131|249:135,1,118.799999637451,8|0,0:0|0:0,0:0:0:0:
200,61,144286,1,0,0:0:0:0:
138,114,144404,6,0,L|108:237,1,118.799999637451,2|0,0:0|0:0,0:0:0:0:
66,322,144757,2,0,L|189:302,1,118.799999637451,2|0,0:0|0:0,0:0:0:0:
259,364,145110,2,0,L|276:304,1,59.3999998187256,2|0,0:0|0:0,0:0:0:0:
354,352,145345,6,0,L|371:292,1,59.3999998187256
447,217,145581,1,0,0:0:0:0:
377,169,145698,1,0,0:0:0:0:
463,245,145816,2,0,P|490:188|482:116,1,118.799999637451,8|0,0:0|0:0,0:0:0:0:
491,53,146169,1,8,0:0:0:0:
413,83,146287,6,0,L|291:57,1,118.799999637451,2|0,0:0|0:0,0:0:0:0:
210,39,146640,2,0,P|166:74|88:66,1,118.799999637451,2|0,0:0|0:0,0:0:0:0:
28,118,146993,2,0,P|18:72|23:48,1,59.3999998187256,2|0,0:0|0:0,0:0:0:0:
104,161,147228,5,0,0:0:0:0:
70,338,147464,2,0,L|87:276,1,59.3999998187256,0|0,0:0|0:0,0:0:0:0:
156,233,147699,2,0,L|181:358,1,118.799999637451,8|0,0:0|0:0,0:0:0:0:
256,374,148052,1,0,0:0:0:0:
323,326,148170,6,0,P|384:331|434:296,1,118.799999637451,2|0,0:0|0:0,0:0:0:0:
467,222,148523,2,0,P|406:217|356:252,1,118.799999637451,2|0,0:0|0:0,0:0:0:0:
294,195,148876,2,0,P|275:235|276:264,1,59.3999998187256,2|0,0:0|0:0,0:0:0:0:
359,140,149111,6,0,L|335:18,1,118.799999637451,0|2,0:0|0:0,0:0:0:0:
428,62,149464,1,0,0:0:0:0:
428,62,149582,1,10,0:0:0:0:
68,136,149817,1,2,0:0:0:0:
93,51,149934,1,8,0:0:0:0:
47,216,150053,6,0,P|98:182|165:186,1,118.799999637451,4|0,0:1|0:0,0:0:0:0:
227,128,150406,1,0,0:0:0:0:
227,128,150523,2,0,P|244:192|247:208,1,59.3999998187256,2|0,0:0|0:0,0:0:0:0:
194,255,150759,2,0,P|177:319|174:335,1,59.3999998187256,2|0,0:0|0:0,0:0:0:0:
243,368,150994,6,0,P|295:339|357:345,1,118.799999637451,2|0,0:0|0:0,0:0:0:0:
427,373,151347,1,0,0:0:0:0:
427,373,151465,1,8,0:0:0:0:
469,153,151700,2,0,L|451:227,1,59.3999998187256,0|0,0:0|0:0,0:0:0:0:
380,256,151936,6,0,L|356:123,1,118.799999637451,2|2,0:0|0:0,0:0:0:0:
311,70,152289,2,0,P|257:27|195:35,1,118.799999637451,0|0,0:0|0:0,0:0:0:0:
174,127,152642,2,0,L|254:107,1,59.3999998187256,2|0,0:0|0:0,0:0:0:0:
97,82,152877,6,0,L|72:207,1,118.799999637451,2|0,0:0|0:0,0:0:0:0:
60,277,153230,1,0,0:0:0:0:
60,277,153348,1,8,0:0:0:0:
320,133,153583,1,8,0:0:0:0:
293,50,153701,1,8,0:0:0:0:
347,219,153819,6,0,L|477:189,1,118.799999637451,4|4,0:1|0:3,0:0:0:0:
476,206,154289,6,0,L|360:232,1,118.799999637451,4|4,0:3|0:3,0:0:0:0:
157,321,154760,6,0,L|287:351,1,118.799999637451,8|4,0:0|0:3,0:0:0:0:
286,334,155230,6,0,L|170:307,1,118.799999637451,4|8,0:3|0:0,0:0:0:0:
13,349,155584,1,8,0:0:0:0:
67,226,155702,6,0,L|86:306,1,59.3999998187256,8|0,0:0|0:0,0:0:0:0:
219,158,155937,2,0,L|200:238,1,59.3999998187256,8|0,0:0|0:0,0:0:0:0:
29,151,156172,6,0,L|48:231,1,59.3999998187256,8|0,0:0|0:0,0:0:0:0:
255,79,156407,2,0,L|236:159,1,59.3999998187256,8|0,0:0|0:0,0:0:0:0:
110,372,156643,5,8,0:0:0:0:
274,322,156878,5,2,0:0:0:0:
191,347,156996,1,2,0:0:0:0:
110,372,157114,1,8,0:0:0:0:
274,322,157349,5,8,0:0:0:0:
110,372,157467,1,8,0:0:0:0:
161,267,157585,5,4,0:1:0:0:
161,267,157820,1,0,0:0:0:0:
161,267,158055,1,0,0:0:0:0:
161,267,158291,2,0,P|158:216|150:187,1,59.3999998187256,2|0,0:0|0:0,0:0:0:0:
34,123,158526,5,2,0:0:0:0:
34,123,158761,1,0,0:0:0:0:
34,123,158996,1,0,0:0:0:0:
34,123,159232,2,0,P|85:120|114:112,1,59.3999998187256,2|0,0:0|0:0,0:0:0:0:
323,18,159467,5,2,0:0:0:0:
323,18,159702,1,0,0:0:0:0:
323,18,159937,1,0,0:0:0:0:
323,18,160173,2,0,P|326:69|334:98,1,59.3999998187256,2|0,0:0|0:0,0:0:0:0:
461,152,160409,5,2,0:0:0:0:
461,152,160644,1,0,0:0:0:0:
461,152,160880,2,0,P|403:153|343:164,1,118.799999637451,2|0,0:0|0:0,0:0:0:0:
327,76,161233,1,0,0:0:0:0:
363,255,161350,5,2,0:0:0:0:
363,255,161586,1,0,0:0:0:0:
363,255,161821,1,0,0:0:0:0:
363,255,162057,2,0,P|372:313|370:330,1,59.3999998187256,2|0,0:0|0:0,0:0:0:0:
140,313,162292,5,2,0:0:0:0:
140,313,162527,1,0,0:0:0:0:
140,313,162763,1,0,0:0:0:0:
140,313,162998,2,0,P|141:283|149:254,1,59.3999998187256,2|2,0:0|0:0,0:0:0:0:
402,91,163233,6,0,P|344:111|293:111,1,80.9999975280763,4|0,0:1|0:0,0:0:0:0:
188,39,163469,1,8,0:0:0:0:
286,29,163586,1,8,0:0:0:0:
197,65,163704,6,0,P|184:115|180:157,1,80.9999975280763,4|0,0:0|0:0,0:0:0:0:
318,198,163939,1,8,0:0:0:0:
229,214,164057,1,8,0:0:0:0:
315,318,164175,6,0,P|328:268|332:226,1,80.9999975280763,4|8,0:0|0:0,0:0:0:0:
227,363,164410,2,0,P|174:347|139:344,1,80.9999975280763,0|8,0:0|0:0,0:0:0:0:
35,287,164646,1,8,0:0:0:0:
116,255,164763,1,8,0:0:0:0:
26,307,164881,2,0,P|14:248|15:222,1,80.9999975280763,2|2,0:0|0:0,0:0:0:0:
156,150,165116,6,0,P|86:154|19:73,1,161.999995056153,4|0,0:1|0:0,0:0:0:0:
216,74,165469,1,0,0:0:0:0:
216,74,165587,2,0,P|242:118|248:161,1,80.9999975280763,8|0,0:0|0:0,0:0:0:0:
209,231,165822,1,0,0:0:0:0:
337,129,165940,1,8,0:0:0:0:
372,212,166058,6,0,P|335:269|331:366,1,161.999995056153,4|0,0:0|0:0,0:0:0:0:
242,341,166411,2,0,L|150:362,1,80.9999975280763,0|8,0:0|0:0,0:0:0:0:
38,296,166646,1,0,0:0:0:0:
38,296,166764,2,0,P|15:341|18:385,1,80.9999975280763,0|8,0:0|0:0,0:0:0:0:
129,280,166999,6,0,L|112:182,1,80.9999975280763,4|0,0:0|0:0,0:0:0:0:
225,164,167235,1,0,0:0:0:0:
146,115,167352,1,0,0:0:0:0:
233,195,167470,2,0,P|296:185|315:172,1,80.9999975280763,8|0,0:0|0:0,0:0:0:0:
471,133,167706,1,0,0:0:0:0:
471,133,167823,1,8,0:0:0:0:
365,100,167941,6,0,P|391:161|390:227,1,121.499996292114,8|0,0:0|0:0,0:0:0:0:
383,236,168176,2,0,P|366:289|365:316,1,80.9999975280763,8|0,0:0|0:0,0:0:0:0:
512,312,168411,1,8,0:0:0:0:
472,224,168529,1,8,0:0:0:0:
435,362,168647,2,0,P|386:346|353:342,1,80.9999975280763,8|8,0:0|0:0,0:0:0:0:
104,369,168882,5,4,0:1:0:0:
104,369,169000,1,0,0:0:0:0:
104,369,169118,2,0,P|83:325|77:273,1,90,8|0,0:0|0:0,0:0:0:0:
178,124,169353,2,0,P|157:168|151:220,1,90,2|0,0:0|0:0,0:0:0:0:
306,266,169588,1,8,0:0:0:0:
252,187,169706,1,0,0:0:0:0:
270,346,169824,6,0,P|345:301|415:312,1,135,4|0,0:1|0:0,0:0:0:0:
401,319,170059,2,0,P|446:346|505:347,1,90,8|0,0:0|0:0,0:0:0:0:
333,155,170294,2,0,P|288:162|251:186,1,90,2|8,0:0|0:0,0:0:0:0:
399,219,170530,1,8,0:0:0:0:
479,83,170647,1,8,0:0:0:0:
476,264,170765,6,0,L|497:158,1,90,4|0,0:1|0:0,0:0:0:0:
195,35,171001,2,0,L|174:141,1,90,8|0,0:0|0:0,0:0:0:0:
133,298,171236,1,8,0:0:0:0:
89,123,171354,1,0,0:0:0:0:
71,227,171471,2,0,P|112:209|174:212,1,90,8|0,0:0|0:0,0:0:0:0:
401,319,171707,6,0,P|360:337|298:334,1,90,8|0,0:0|0:0,0:0:0:0:
251,186,171942,1,8,0:0:0:0:
237,276,172060,1,0,0:0:0:0:
223,366,172177,1,8,0:0:0:0:
223,366,172413,5,2,0:0:0:0:
251,186,172531,1,2,0:0:0:0:
336,237,172648,6,0,L|439:216,1,90,4|0,0:1|0:0,0:0:0:0:
337,136,172883,1,8,0:0:0:0:
251,186,173001,1,8,0:0:0:0:
254,89,173119,5,8,0:0:0:0:
336,237,173236,1,8,0:0:0:0:
155,88,173354,5,8,0:0:0:0:
319,10,173472,1,8,0:0:0:0:
237,274,173590,6,0,L|78:236,1,157.950000602531,4|0,0:0|2:0,0:0:0:0:
68,255,173825,2,0,P|49:202|59:151,1,105.300000401688,8|0,0:0|0:0,0:0:0:0:
331,25,174060,2,0,P|350:78|340:129,1,105.300000401688,0|0,0:0|0:0,0:0:0:0:
172,212,174296,1,8,0:0:0:0:
254,89,174413,1,0,0:0:0:0:
336,237,174531,6,0,L|309:351,1,105.300000401688,2|0,0:0|0:0,0:0:0:0:
146,126,174766,2,0,L|170:23,1,105.300000401688,8|0,0:0|0:0,0:0:0:0:
353,262,175002,6,0,L|326:376,1,105.300000401688,2|0,0:0|0:0,0:0:0:0:
131,107,175237,2,0,L|155:4,1,105.300000401688,8|0,0:0|0:0,0:0:0:0:
72,215,175472,6,0,P|158:227|248:147,2,210.600000803375,6|8|0,0:0|0:0|0:0,0:0:0:0:
272,57,176061,1,0,0:0:0:0:
365,87,176179,2,0,P|388:140|385:195,1,105.300000401688,8|0,0:0|0:0,0:0:0:0:
276,288,176414,6,0,B|151:302|224:350|82:366,1,210.600000803375,0|8,0:0|0:0,0:0:0:0:
197,216,176767,1,8,0:0:0:0:
107,269,176885,2,0,P|95:205|100:158,1,105.300000401688,8|0,0:0|0:0,0:0:0:0:
272,57,177120,2,0,P|322:93|424:81,1,157.950000602531,8|0,0:0|0:0,0:0:0:0:
428,65,177355,6,0,P|401:150|388:273,1,210.600000803375,4|8,0:0|0:0,0:0:0:0:
359,373,177708,2,0,P|424:357|469:353,1,105.300000401688,6|0,0:0|0:0,0:0:0:0:
361,186,177944,2,0,P|296:202|251:206,1,105.300000401688,0|10,0:0|0:0,0:0:0:0:
84,234,178179,1,0,0:0:0:0:
162,164,178297,6,0,P|177:232|180:278,1,105.300000401688,6|0,0:0|0:0,0:0:0:0:
90,106,178532,1,8,0:0:0:0:
155,28,178650,2,0,P|222:85|352:59,1,210.600000803375,6|0,0:0|0:0,0:0:0:0:
509,148,179003,2,0,P|462:120|410:118,1,105.300000401688,10|0,0:0|0:0,0:0:0:0:
364,284,179238,6,0,P|411:312|463:314,1,105.300000401688,6|0,0:0|0:0,0:0:0:0:
334,186,179474,1,8,0:0:0:0:
244,224,179591,2,0,L|131:252,1,105.300000401688,6|0,0:0|0:0,0:0:0:0:
62,188,179827,1,0,0:0:0:0:
157,336,179944,1,10,0:0:0:0:
165,158,180062,1,8,0:0:0:0:
53,277,180180,6,0,P|27:339|31:392,1,105.300000401688,14|8,0:0|0:0,0:0:0:0:
256,119,180415,2,0,P|253:66|230:19,1,105.300000401688,10|8,0:0|0:0,0:0:0:0:
140,67,180651,1,10,0:0:0:0:
340,7,180768,1,8,0:0:0:0:
165,158,180886,2,0,L|54:132,1,105.300000401688,10|8,0:0|0:0,0:0:0:0:
256,329,181121,6,0,L|419:296,1,157.950000602531,4|0,0:0|2:0,0:0:0:0:
415,281,181357,2,0,P|440:329|440:382,1,105.300000401688,8|0,0:0|0:0,0:0:0:0:
140,260,181592,2,0,L|165:154,1,105.300000401688,2|0,0:0|0:0,0:0:0:0:
407,76,181827,2,0,L|431:178,1,105.300000401688,8|0,0:0|0:0,0:0:0:0:
148,352,182063,6,0,P|86:334|54:295,1,105.300000401688,2|0,0:0|0:0,0:0:0:0:
231,79,182298,2,0,P|268:43|319:32,1,105.300000401688,8|0,0:0|0:0,0:0:0:0:
140,376,182534,6,0,P|78:358|46:319,1,105.300000401688,2|0,0:0|0:0,0:0:0:0:
212,56,182769,2,0,P|249:20|300:9,1,105.300000401688,8|0,0:0|0:0,0:0:0:0:
444,272,183004,6,0,L|333:243,1,105.300000401688,2|0,0:0|0:0,0:0:0:0:
140,260,183240,1,8,0:0:0:0:
300,136,183357,1,0,0:0:0:0:
244,304,183475,2,0,P|240:240|224:196,1,105.300000401688,2|0,0:0|0:0,0:0:0:0:
40,20,183710,2,0,P|24:70|22:122,1,105.300000401688,8|0,0:0|0:0,0:0:0:0:
196,380,183946,6,0,P|268:336|352:352,1,157.950000602531,2|0,0:0|2:0,0:0:0:0:
348,360,184181,1,8,0:0:0:0:
420,152,184299,1,8,0:0:0:0:
492,240,184416,2,0,P|440:264|372:252,1,105.300000401688,2|0,0:0|0:0,0:0:0:0:
71,233,184652,2,0,L|247:197,1,157.950000602531,8|0,0:0|0:0,0:0:0:0:
241,214,184887,6,0,L|263:105,1,105.300000401688,4|0,0:0|0:0,0:0:0:0:
168,320,185123,2,0,P|211:348|263:348,1,105.300000401688,8|0,0:0|0:0,0:0:0:0:
96,132,185358,2,0,P|44:132|0:160,1,105.300000401688,0|0,0:0|0:0,0:0:0:0:
71,233,185593,1,8,0:0:0:0:
24,40,185711,1,0,0:0:0:0:
40,356,185829,6,0,L|172:320,1,105.300000401688,4|0,0:0|0:0,0:0:0:0:
356,268,186064,2,0,P|384:328|380:372,1,105.300000401688,8|0,0:0|0:0,0:0:0:0:
160,244,186299,2,0,P|160:191|185:146,1,105.300000401688,0|0,0:0|0:0,0:0:0:0:
363,87,186535,1,8,0:0:0:0:
232,11,186652,1,0,0:0:0:0:
332,240,186770,6,0,L|492:208,1,157.950000602531,4|0,0:0|2:0,0:0:0:0:
496,181,187006,2,0,L|386:202,1,105.300000401688,8|0,0:0|0:0,0:0:0:0:
248,305,187241,1,0,0:0:0:0:
280,154,187359,1,0,0:0:0:0:
240,338,187476,2,0,P|190:370|138:368,1,105.300000401688,8|0,0:0|0:0,0:0:0:0:
19,171,187712,6,0,P|91:169|151:232,1,157.950000602531,4|0,0:0|0:0,0:0:0:0:
157,243,187947,2,0,L|185:131,1,105.300000401688,8|0,0:0|0:0,0:0:0:0:
364,100,188182,1,8,0:0:0:0:
280,154,188300,1,8,0:0:0:0:
288,24,188418,5,8,0:0:0:0:
360,232,188535,1,8,0:0:0:0:
127,60,188653,6,0,P|96:102|89:154,1,105.300000401688,4|0,0:0|0:0,0:0:0:0:
280,288,188888,1,8,0:0:0:0:
183,141,189006,1,0,0:0:0:0:
0,268,189124,6,0,P|68:244|112:236,1,105.300000401688,8|0,0:0|0:0,0:0:0:0:
280,154,189359,1,8,0:0:0:0:
136,316,189477,1,0,0:0:0:0:
183,141,189595,6,0,P|196:212|196:264,1,105.300000401688,8|0,0:0|0:0,0:0:0:0:
224,364,189830,1,8,0:0:0:0:
368,264,189948,1,8,0:0:0:0:
272,184,190065,5,8,0:0:0:0:
352,368,190183,1,8,0:0:0:0:
384,104,190301,5,8,0:0:0:0:
281,284,190418,1,8,0:0:0:0:
304,58,190536,5,10,0:2:0:0:
409,192,190654,1,10,0:2:0:0:
414,18,190771,1,10,0:2:0:0:
305,155,190889,6,0,L|138:115,1,157.950000602531,6|0,0:0|0:0,0:0:0:0:
140,137,191124,2,0,P|125:79|138:34,1,105.300000401688,4|0,0:0|0:0,0:0:0:0:
409,192,191360,6,0,P|347:255|260:258,1,157.950000602531,4|0,0:0|0:0,0:0:0:0:
262,243,191595,2,0,L|224:353,1,105.300000401688,4|0,0:0|0:0,0:0:0:0:
130,305,191831,1,4,0:3:0:0:
324,364,191948,2,0,L|482:321,1,157.950000602531,12|0,0:1|0:0,0:0:0:0:
493,317,192184,5,8,0:0:0:0:
341,120,192301,1,8,0:0:0:0:
499,156,192419,6,0,B|391:168|453:216|320:224,1,180,4|8,0:1|0:0,0:0:0:0:
262,275,192772,1,0,0:0:0:0:
262,275,192890,2,0,P|246:205|254:171,1,90,2|0,0:0|0:0,0:0:0:0:
158,174,193125,2,0,P|174:104|166:70,1,90,8|0,0:0|0:0,0:0:0:0:
13,222,193360,6,0,P|77:231|152:321,1,180,2|10,0:0|0:0,0:0:0:0:
231,366,193714,1,0,0:0:0:0:
231,366,193831,2,0,P|289:366|323:345,1,90,2|0,0:0|0:0,0:0:0:0:
347,260,194067,2,0,P|289:260|255:281,1,90,10|0,0:0|0:0,0:0:0:0:
419,365,194302,6,0,P|433:302|444:265,1,90,2|0,0:0|0:0,0:0:0:0:
394,89,194537,2,0,P|380:152|369:189,1,90,8|0,0:0|0:0,0:0:0:0:
444,352,194773,6,0,P|458:289|469:252,1,90,2|0,0:0|0:0,0:0:0:0:
378,69,195008,2,0,P|364:132|353:169,1,90,8|0,0:0|0:0,0:0:0:0:
261,274,195243,6,0,P|196:218|92:225,1,180,2|10,0:0|0:0,0:0:0:0:
43,148,195596,1,8,0:0:0:0:
43,148,195714,2,0,P|34:99|43:47,1,90,2|0,0:0|0:0,0:0:0:0:
119,238,195950,2,0,P|123:282|115:326,1,90,8|0,0:0|0:0,0:0:0:0:
124,99,196185,6,0,P|183:88|221:79,1,90,2|0,0:0|0:0,0:0:0:0:
310,217,196420,2,0,P|300:173|292:128,1,90,8|0,0:0|0:0,0:0:0:0:
135,73,196656,6,0,P|194:62|232:53,1,90,2|0,0:0|0:0,0:0:0:0:
329,190,196891,2,0,P|319:146|311:101,1,90,8|0,0:0|0:0,0:0:0:0:
203,202,197126,6,0,P|115:217|-1:245,1,180,2|10,0:0|0:0,0:0:0:0:
33,325,197479,1,0,0:0:0:0:
33,325,197597,2,0,P|84:312|138:302,1,90,2|0,0:0|0:0,0:0:0:0:
212,240,197832,2,0,P|224:302|227:335,1,90,10|0,0:0|0:0,0:0:0:0:
320,360,198068,6,0,P|406:369|483:290,1,180,2|8,0:0|0:0,0:0:0:0:
393,194,198421,1,0,0:0:0:0:
393,194,198539,2,0,P|379:259|375:300,1,90,2|0,0:0|0:0,0:0:0:0:
414,81,198774,1,8,0:0:0:0:
490,148,198892,1,8,0:0:0:0:
406,107,199009,6,0,P|366:119|285:129,1,90,4|8,0:0|0:0,0:0:0:0:
138,69,199245,1,8,0:0:0:0:
275,200,199362,1,8,0:0:0:0:
239,43,199480,2,0,P|219:106|215:133,1,90,8|8,0:0|0:0,0:0:0:0:
104,255,199715,2,0,P|124:192|128:165,1,90,8|8,0:0|0:0,0:0:0:0:
50,379,199951,6,0,P|127:336|223:341,1,180,4|8,0:1|0:0,0:0:0:0:
332,292,200304,1,0,0:0:0:0:
332,292,200421,2,0,P|350:351|348:386,1,90,2|0,0:0|0:0,0:0:0:0:
244,249,200657,2,0,P|245:204|261:162,1,90,8|0,0:0|0:0,0:0:0:0:
466,124,200892,6,0,P|379:132|308:67,1,180,2|10,0:0|0:0,0:0:0:0:
240,16,201245,1,0,0:0:0:0:
240,16,201363,2,0,P|184:35|147:42,1,90,2|0,0:0|0:0,0:0:0:0:
144,157,201598,2,0,P|200:138|237:131,1,90,10|0,0:0|0:0,0:0:0:0:
58,70,201834,6,0,P|36:129|34:159,1,90,2|0,0:0|0:0,0:0:0:0:
102,334,202069,2,0,P|124:275|126:245,1,90,8|0,0:0|0:0,0:0:0:0:
74,91,202304,6,0,P|52:150|50:180,1,90,2|0,0:0|0:0,0:0:0:0:
114,364,202539,2,0,P|136:305|138:275,1,90,8|0,0:0|0:0,0:0:0:0:
144,157,202775,6,0,P|216:115|308:135,1,180,2|10,0:0|0:0,0:0:0:0:
365,210,203128,1,8,0:0:0:0:
365,210,203246,2,0,P|407:235|453:236,1,90,2|0,0:0|0:0,0:0:0:0:
375,67,203481,2,0,P|333:42|287:41,1,90,8|0,0:0|0:0,0:0:0:0:
47,165,203717,6,0,B|153:167|97:213|222:220,1,180,4|8,0:1|0:0,0:0:0:0:
284,281,204070,1,0,0:0:0:0:
284,281,204187,2,0,P|299:328|297:373,1,90,2|0,0:0|0:0,0:0:0:0:
231,122,204423,1,8,0:0:0:0:
305,176,204540,1,8,0:0:0:0:
197,134,204658,6,0,P|196:89|210:46,1,90,2|0,0:0|0:0,0:0:0:0:
383,117,204893,2,0,P|397:159|396:204,1,90,8|0,0:0|0:0,0:0:0:0:
305,176,205129,1,2,0:0:0:0:
380,308,205247,2,0,L|481:282,1,90,8|2,0:0|0:0,0:0:0:0:
299,197,205482,1,8,0:0:0:0:
268,358,205600,6,0,L|80:323,1,180,4|8,0:1|0:0,0:0:0:0:
19,382,205953,1,0,0:0:0:0:
19,382,206070,2,0,P|2:323|8:288,1,90,2|0,0:0|0:0,0:0:0:0:
108,154,206306,2,0,P|125:213|119:248,1,90,8|8,0:0|0:0,0:0:0:0:
5,86,206541,6,0,P|59:74|107:58,1,90,8|8,0:0|0:0,0:0:0:0:
265,25,206776,1,8,0:0:0:0:
108,154,206894,1,8,0:0:0:0:
165,8,207012,2,0,P|180:77|185:109,1,90,8|8,0:0|0:0,0:0:0:0:
404,66,207247,2,0,P|389:135|384:167,1,90,8|8,0:0|0:0,0:0:0:0:
486,354,207483,6,0,P|427:309|354:311,1,135,4|0,0:1|0:0,0:0:0:0:
352,327,207718,2,0,P|307:356|257:353,1,90,8|0,0:0|0:0,0:0:0:0:
217,215,207953,1,2,0:0:0:0:
286,272,208071,1,2,0:0:0:0:
197,301,208189,2,0,L|104:278,1,90,10|2,0:0|0:0,0:0:0:0:
12,80,208424,6,0,L|158:54,1,135,4|0,0:1|0:0,0:0:0:0:
157,35,208659,2,0,P|192:78|233:86,1,90,8|0,0:0|0:0,0:0:0:0:
377,35,208895,1,2,0:0:0:0:
287,22,209012,1,2,0:0:0:0:
318,102,209130,2,0,L|298:192,1,90,10|10,0:0|0:0,0:0:0:0:
36,370,209365,6,0,L|15:234,1,135,4|0,0:1|0:0,0:0:0:0:
14,212,209601,2,0,P|57:188|105:195,1,90,8|0,0:0|0:0,0:0:0:0:
312,279,209836,5,2,0:0:0:0:
208,171,209954,1,10,0:0:0:0:
165,246,210072,5,10,0:0:0:0:
298,189,210189,1,10,0:0:0:0:
220,318,210307,5,4,0:0:0:0:
271,97,210542,5,12,0:0:0:0:
380,221,210778,5,12,0:0:0:0:
380,221,211248,5,2,0:0:0:0:
411,301,211484,1,2,0:0:0:0:
452,170,211719,5,2,0:0:0:0:
380,221,211955,1,2,0:0:0:0:
434,0,212190,6,0,P|423:41|419:90,1,90,2|0,0:0|0:0,0:0:0:0:
419,88,212543,2,0,P|387:78|363:73,1,45,2|0,0:0|0:0,0:0:0:0:
194,43,212896,5,4,0:1:0:0:
