osu file format v14

[General]
AudioFilename: audio.mp3
AudioLeadIn: 0
PreviewTime: 16540
Countdown: 0
SampleSet: Soft
StackLeniency: 0.6
Mode: 0
LetterboxInBreaks: 0
WidescreenStoryboard: 1

[Editor]
Bookmarks: 2006,9536,17124,32183,47242,58477,63438,66007,79242,85327,91505,106804,114277,118043,121867,134989,138755,140638,142521,153877,157585,163175,168941,173648,181180,190595,192419,207483,210778
DistanceSpacing: 1.2
BeatDivisor: 4
GridSize: 32
TimelineZoom: 2.600002

[Metadata]
Title:Milk Crown on Sonnetica
TitleUnicode:ミルククラウン・オン・ソーネチカ
Artist:nameless
ArtistUnicode:nameless
Creator:Milan-
Version:Insane
Source:
Tags:deetz appleeaterx utaite
BeatmapID:1306748
BeatmapSetID:550414

[Difficulty]
HPDrainRate:5
CircleSize:3.7
OverallDifficulty:7
ApproachRate:9
SliderMultiplier:0.999999999999999
SliderTickRate:1

[Events]
//Background and Video events
0,0,"23124.jpg",0,0
//Break Periods
2,79407,84727
2,135189,137920
//Storyboard Layer 0 (Background)
//Storyboard Layer 1 (Fail)
//Storyboard Layer 2 (Pass)
//Storyboard Layer 3 (Foreground)
//Storyboard Sound Samples

[TimingPoints]
2007,235.367958575239,4,2,1,55,1,0
9538,-125,4,2,1,35,0,0
17070,-66.6666666666667,4,1,1,50,0,0
30133,-71.4285714285714,4,1,1,50,0,0
30368,-76.9230769230769,4,2,1,50,0,0
32134,-83.3333333333333,4,2,1,40,0,0
47197,-100,4,2,1,40,0,0
52846,-100,4,2,1,45,0,0
58024,-83.3333333333333,4,2,1,45,0,0
58495,-74.0740740740741,4,2,1,45,0,0
62261,-74.0740740740741,4,2,1,50,0,0
64261,-74.0740740740741,4,2,1,45,0,0
65085,-62.5,4,2,1,50,0,0
65791,-64.5161290322581,4,2,1,50,0,0
66027,-66.6666666666667,4,1,1,50,0,1
79207,-100,4,2,1,45,0,0
91682,235.367958575239,4,2,1,40,1,0
91682,-83.3333333333333,4,2,1,40,0,0
105804,-100,4,2,1,45,0,0
106745,-71.4285714285714,4,2,1,50,0,0
114277,-74.0740740740741,4,2,1,40,0,0
118043,-74.0740740740741,4,2,1,50,0,0
120043,-74.0740740740741,4,2,1,45,0,0
120867,-62.5,4,2,1,50,0,0
121809,-66.6666666666667,4,1,1,50,0,1
134989,-76.9230769230769,4,2,1,50,0,0
138520,-76.9230769230769,4,2,1,45,0,0
142521,-100,4,2,1,40,0,0
153819,-100,4,2,1,45,0,0
157585,-100,4,2,1,40,0,0
163233,-90.9090909090909,4,2,1,45,0,0
165116,-83.3333333333333,4,2,1,45,0,0
168882,-74.0740740740741,4,2,1,45,0,0
170765,-74.0740740740741,4,2,1,50,0,0
172648,-62.5,4,2,1,50,0,0
173590,-66.6666666666667,4,1,1,50,0,1
190889,-66.6666666666667,4,2,1,50,0,1
192419,-71.4285714285714,4,2,1,45,0,0
211248,-71.4285714285714,4,2,1,40,0,0
212896,-71.4285714285714,4,2,1,35,0,0

[Colours]
Combo1 : 255,234,170
Combo2 : 179,255,179
Combo3 : 172,209,255
Combo4 : 252,194,203

[HitObjects]
64,112,9538,6,0,L|234:97,1,160,4|0,0:0|1:0,0:0:0:0:
382,83,10480,2,0,L|222:97,1,160,0|2,1:0|1:2,0:0:0:0:
222,97,11421,6,0,P|241:142|243:182,1,79.9999999999999,2|0,1:2|0:0,0:0:0:0:
208,262,11892,2,0,P|189:307|187:347,1,79.9999999999999,0|0,1:0|0:0,0:0:0:0:
288,326,12363,5,0,1:0:0:0:
288,326,12480,2,0,L|420:312,1,120,2|2,0:0|1:2,0:0:0:0:
486,258,13069,1,4,0:0:0:0:
414,194,13304,6,0,L|254:179,1,160,4|0,0:0|1:0,0:0:0:0:
96,165,14246,2,0,L|255:179,1,160,0|2,1:0|1:2,0:0:0:0:
255,179,15187,5,2,1:2:0:0:
244,274,15422,1,2,1:2:0:0:
327,62,15776,1,4,0:0:0:0:
327,62,16011,1,4,0:0:0:0:
327,62,16246,2,0,L|241:52,1,79.9999999999999,4|4,0:0|0:3,0:0:0:0:
417,34,16599,5,12,0:0:0:0:
417,34,16835,1,8,0:0:0:0:
469,110,16952,1,8,0:0:0:0:
401,170,17070,6,0,B|347:172|292:144|292:144|298:158|304:192,1,150.000005722046,4|8,0:0|0:0,0:0:0:0:
260,35,17423,1,0,0:0:0:0:
260,35,17541,2,0,P|283:106|301:178,1,150.000005722046,0|8,0:0|0:0,0:0:0:0:
225,255,17894,1,0,0:0:0:0:
225,255,18012,2,0,P|201:183|183:110,1,150.000005722046,2|8,0:0|0:0,0:0:0:0:
82,119,18365,1,0,0:0:0:0:
82,119,18482,2,0,B|136:117|192:145|192:145|186:129|182:107,1,150.000005722046,2|8,0:0|0:0,0:0:0:0:
443,224,18953,6,0,P|431:264|406:303,1,75.000002861023,4|0,0:0|0:0,0:0:0:0:
385,361,19188,2,0,P|397:321|422:282,1,75.000002861023,8|0,0:0|0:0,0:0:0:0:
345,263,19424,2,0,P|385:275|424:300,1,75.000002861023,0|0,0:0|0:0,0:0:0:0:
482,321,19659,2,0,P|442:309|403:284,1,75.000002861023,8|0,0:0|0:0,0:0:0:0:
366,174,19894,6,0,P|363:112|369:19,1,150.000005722046,0|8,0:0|0:0,0:0:0:0:
458,11,20248,1,8,0:0:0:0:
440,98,20365,2,0,P|365:92|290:95,1,150.000005722046,8|8,0:0|0:0,0:0:0:0:
0,35,20836,6,0,P|74:29|149:32,1,150.000005722046,6|10,0:0|0:0,0:0:0:0:
202,113,21189,1,0,0:0:0:0:
202,113,21307,2,0,P|206:144|211:198,2,75.000002861023,2|0|8,0:0|0:0|0:0,0:0:0:0:
461,200,21777,2,0,P|386:194|311:197,1,150.000005722046,6|10,0:0|0:0,0:0:0:0:
259,278,22130,1,0,0:0:0:0:
259,278,22248,2,0,P|255:309|250:363,2,75.000002861023,2|0|8,0:0|0:0|0:0,0:0:0:0:
9,178,22719,6,0,P|40:174|94:169,1,75.000002861023,4|0,0:0|0:0,0:0:0:0:
158,178,22954,2,0,P|127:174|73:169,1,75.000002861023,8|0,0:0|0:0,0:0:0:0:
75,95,23190,2,0,P|79:126|84:180,1,75.000002861023,0|0,0:0|0:0,0:0:0:0:
75,244,23425,2,0,P|79:213|84:159,1,75.000002861023,8|0,0:0|0:0,0:0:0:0:
185,78,23660,5,14,0:0:0:0:
185,78,23778,1,8,0:0:0:0:
185,78,23896,1,10,0:0:0:0:
185,78,24013,1,8,0:0:0:0:
185,78,24131,1,10,0:0:0:0:
185,78,24249,2,0,B|236:62|236:62|279:75|279:75|343:59,1,150.000005722046,8|8,0:0|0:0,0:0:0:0:
487,106,24602,6,0,P|420:122|368:199,1,150.000005722046,6|8,0:0|0:0,0:0:0:0:
430,279,24955,1,0,0:0:0:0:
430,280,25073,2,0,B|400:293|400:293|359:240|370:183,1,150.000005722046,0|8,0:0|0:0,0:0:0:0:
257,113,25426,1,0,0:0:0:0:
257,113,25543,2,0,P|282:177|249:263,1,150.000005722046,2|8,0:0|0:0,0:0:0:0:
147,258,25896,1,0,0:0:0:0:
146,259,26014,2,0,B|152:290|152:290|218:294|259:251,1,150.000005722046,2|8,0:0|0:0,0:0:0:0:
47,40,26485,6,0,P|43:98|40:217,1,150.000005722046,4|8,0:0|0:0,0:0:0:0:
153,158,26838,1,0,0:0:0:0:
153,158,26956,2,0,B|96:125|42:155|42:155|40:178|39:189,1,150.000005722046,0|8,0:0|0:0,0:0:0:0:
0,288,27309,1,0,0:0:0:0:
0,288,27426,6,0,P|51:274|170:257,1,150.000005722046,0|8,0:0|0:0,0:0:0:0:
126,347,27779,1,8,0:0:0:0:
212,323,27897,2,0,P|263:337|382:354,1,150.000005722046,8|8,0:0|0:0,0:0:0:0:
474,118,28368,6,0,P|481:158|476:209,1,75.000002861023,6|0,0:0|0:0,0:0:0:0:
474,266,28603,2,0,P|481:225|476:174,1,75.000002861023,10|0,0:0|0:0,0:0:0:0:
373,120,28838,2,0,P|393:160|399:207,1,75.000002861023,2|0,0:0|0:0,0:0:0:0:
372,259,29074,2,0,P|392:218|398:172,1,75.000002861023,10|0,0:0|0:0,0:0:0:0:
236,154,29309,6,0,P|279:165|323:194,1,75.000002861023,2|0,0:0|0:0,0:0:0:0:
235,205,29545,2,0,P|271:196|304:179,1,75.000002861023,10|0,0:0|0:0,0:0:0:0:
141,176,29780,1,2,0:0:0:0:
141,176,29898,1,8,0:0:0:0:
141,176,30015,1,8,0:0:0:0:
141,176,30133,2,0,P|97:176|62:179,1,69.9999978637695,8|0,0:0|0:0,0:0:0:0:
87,43,30368,6,0,B|26:67|10:137|10:137|91:135|139:174|139:174|103:211|31:233|31:233|71:230|104:269,1,454.999979171753,4|12,0:0|0:0,0:0:0:0:
487,98,32134,6,0,P|453:82|367:87,1,119.999996337891,4|8,0:1|0:0,0:0:0:0:
258,100,32487,2,0,P|316:107|372:86,1,119.999996337891,0|0,0:0|0:0,0:0:0:0:
421,161,32840,2,0,L|431:220,1,59.9999981689453,8|0,0:0|0:0,0:0:0:0:
342,235,33075,6,0,L|335:355,1,119.999996337891,2|8,0:0|0:0,0:0:0:0:
235,316,33428,2,0,L|241:243,1,59.9999981689453,2|0,0:0|0:0,0:0:0:0:
245,374,33663,2,0,L|235:314,1,59.9999981689453,2|8,0:0|0:0,0:0:0:0:
222,237,33899,1,8,0:0:0:0:
146,257,34017,6,0,P|89:246|32:187,1,119.999996337891,2|8,0:0|0:0,0:0:0:0:
124,168,34370,1,0,0:0:0:0:
124,168,34487,2,0,P|168:129|227:118,1,119.999996337891,2|8,0:0|0:0,0:0:0:0:
376,89,34840,6,0,P|317:78|273:40,1,119.999996337891,2|0,0:0|0:0,0:0:0:0:
183,30,35193,1,8,0:0:0:0:
321,261,35546,2,0,P|321:224|314:174,2,59.9999981689453,8|8|8,0:0|0:0|0:0,0:0:0:0:
304,349,35899,6,0,P|362:342|408:305,1,119.999996337891,4|8,0:0|0:0,0:0:0:0:
512,259,36253,2,0,P|454:266|408:303,1,119.999996337891,0|0,0:0|0:0,0:0:0:0:
331,255,36606,2,0,P|331:218|324:168,1,59.9999981689453,8|0,0:0|0:0,0:0:0:0:
415,171,36841,6,0,P|392:132|306:106,1,119.999996337891,2|8,0:0|0:0,0:0:0:0:
256,46,37194,2,0,L|197:58,1,59.9999981689453,2|0,0:0|0:0,0:0:0:0:
152,136,37429,2,0,L|210:148,2,59.9999981689453,2|8|8,0:0|0:0|0:0,0:0:0:0:
40,63,37782,6,0,P|68:128|53:194,1,119.999996337891,2|8,0:0|0:0,0:0:0:0:
143,227,38135,1,0,0:0:0:0:
143,227,38253,2,0,P|116:280|121:339,1,119.999996337891,2|8,0:0|0:0,0:0:0:0:
205,301,38606,6,0,P|251:282|326:296,1,119.999996337891,2|0,0:0|0:0,0:0:0:0:
395,243,38959,1,10,0:0:0:0:
205,89,39312,2,0,P|206:122|213:158,2,59.9999981689453,8|8|8,0:0|0:0|0:0,0:0:0:0:
242,6,39665,6,0,P|295:42|361:36,1,119.999996337891,4|8,0:1|0:0,0:0:0:0:
454,5,40018,1,0,0:0:0:0:
454,5,40136,2,0,P|395:5|348:40,1,119.999996337891,0|8,0:0|0:0,0:0:0:0:
431,92,40489,1,0,0:0:0:0:
431,92,40607,6,0,L|429:227,1,119.999996337891,2|8,0:0|0:0,0:0:0:0:
327,185,40960,2,0,L|336:257,1,59.9999981689453,2|0,0:0|0:0,0:0:0:0:
335,126,41195,2,0,L|328:185,1,59.9999981689453,2|8,0:0|0:0,0:0:0:0:
319,263,41431,1,8,0:0:0:0:
242,249,41548,6,0,P|186:260|131:322,1,119.999996337891,2|8,0:0|0:0,0:0:0:0:
60,341,41901,1,0,0:0:0:0:
60,341,42019,2,0,L|58:221,1,119.999996337891,2|8,0:0|0:0,0:0:0:0:
172,162,42372,6,0,L|173:42,1,119.999996337891,2|0,0:0|0:0,0:0:0:0:
93,2,42725,1,8,0:0:0:0:
340,127,43078,2,0,P|313:132|280:130,2,59.9999981689453,8|8|8,0:0|0:0|0:0,0:0:0:0:
424,96,43431,6,0,P|389:143|388:219,1,119.999996337891,4|8,0:0|0:0,0:0:0:0:
423,308,43784,2,0,P|418:249|383:202,1,119.999996337891,0|0,0:0|0:0,0:0:0:0:
337,280,44137,2,0,P|310:291|280:296,1,59.9999981689453,8|0,0:0|0:0,0:0:0:0:
214,358,44373,6,0,P|164:356|98:314,1,119.999996337891,2|8,0:0|0:0,0:0:0:0:
9,291,44726,2,0,L|21:356,1,59.9999981689453,2|0,0:0|0:0,0:0:0:0:
85,231,44961,2,0,L|95:171,2,59.9999981689453,0|8|8,0:0|0:0|0:0,0:0:0:0:
173,257,45314,6,0,P|223:255|289:213,1,119.999996337891,2|10,0:0|0:0,0:0:0:0:
319,302,45667,2,0,P|352:265|369:188,1,119.999996337891,0|0,0:0|0:0,0:0:0:0:
449,155,46020,1,8,0:0:0:0:
335,110,46138,6,0,B|410:105|449:156|449:156|427:87|443:42|443:42|457:70|475:78|504:60,1,299.999990844727,4|12,0:0|0:0,0:0:0:0:
487,311,46962,6,0,L|486:371,1,59.9999981689453,8|8,0:0|0:0,0:0:0:0:
387,360,47197,6,0,L|486:371,1,99.9999999999999,4|8,0:1|0:0,0:0:0:0:
186,306,47786,2,0,L|285:294,1,99.9999999999999,8|0,0:0|0:0,0:0:0:0:
274,206,48139,2,0,P|252:275|185:305,1,150,2|8,0:0|0:0,0:0:0:0:
38,84,48845,2,0,L|103:86,1,50,0|8,0:0|0:0,0:0:0:0:
103,184,49080,6,0,L|87:83,1,99.9999999999999,2|8,0:0|0:0,0:0:0:0:
323,8,49669,2,0,L|307:109,1,99.9999999999999,8|0,0:0|0:0,0:0:0:0:
411,107,50022,2,0,P|345:77|323:8,1,150,2|8,0:0|0:0,0:0:0:0:
494,240,50728,1,8,0:0:0:0:
494,240,50845,1,8,0:0:0:0:
494,240,50963,6,0,L|394:251,1,99.9999999999999,4|8,0:0|0:0,0:0:0:0:
193,342,51551,2,0,L|93:330,1,99.9999999999999,8|0,0:0|0:0,0:0:0:0:
109,233,51905,2,0,P|172:270|192:341,1,150,2|8,0:0|0:0,0:0:0:0:
34,126,52611,1,8,0:0:0:0:
34,126,52728,1,12,0:0:0:0:
33,125,52846,6,0,P|82:131|129:116,1,99.9999999999999,4|8,0:1|0:0,0:0:0:0:
258,65,53199,2,0,P|184:67|129:116,1,150,8|8,0:0|0:0,0:0:0:0:
218,204,53670,2,0,L|219:154,1,50,4|0,0:0|0:0,0:0:0:0:
235,221,53905,2,0,L|237:271,2,50,4|12|8,0:0|0:0|0:0,0:0:0:0:
262,292,54258,1,8,0:0:0:0:
262,292,54376,1,8,0:0:0:0:
262,292,54494,2,0,P|286:307|323:324,1,50,8|8,0:0|0:0,0:0:0:0:
176,333,54729,6,0,P|153:344|132:357,1,50,4|0,0:1|0:0,0:0:0:0:
14,303,54964,1,8,0:0:0:0:
14,303,55317,5,8,0:0:0:0:
218,154,55553,1,8,0:0:0:0:
218,154,55906,5,8,0:0:0:0:
218,154,56376,1,8,0:0:0:0:
159,89,56494,1,8,0:0:0:0:
224,28,56612,6,0,P|271:25|333:7,1,99.9999999999999,4|8,0:1|0:0,0:0:0:0:
400,57,56965,2,0,P|448:70|497:73,2,99.9999999999999,0|8|8,0:0|0:0|0:0,0:0:0:0:
318,102,57553,6,0,L|332:158,1,50,4|8,0:0|0:0,0:0:0:0:
423,206,57789,1,8,0:0:0:0:
423,206,57906,1,8,0:0:0:0:
423,206,58024,2,0,P|426:230|416:271,1,59.9999981689453,8|8,0:0|0:0,0:0:0:0:
415,323,58259,2,0,P|413:293|420:264,1,59.9999981689453,8|8,0:0|0:0,0:0:0:0:
339,375,58495,6,0,P|296:347|186:351,1,135.000000514984,4|8,0:1|0:0,0:0:0:0:
89,375,58848,1,0,0:0:0:0:
89,375,58966,2,0,P|155:373|213:340,1,135.000000514984,2|8,0:0|0:0,0:0:0:0:
131,279,59319,1,0,0:0:0:0:
131,279,59436,6,0,P|111:207|125:131,1,135.000000514984,2|8,0:0|0:0,0:0:0:0:
260,95,59789,1,0,0:0:0:0:
260,95,59907,2,0,P|228:124|210:158,1,67.500000257492,2|0,0:0|0:0,0:0:0:0:
202,210,60142,2,0,P|204:176|215:144,1,67.500000257492,8|0,0:0|0:0,0:0:0:0:
217,18,60378,6,0,P|302:62|358:39,1,135.000000514984,2|8,0:0|0:0,0:0:0:0:
453,17,60731,1,0,0:0:0:0:
453,17,60848,2,0,P|387:12|334:52,1,135.000000514984,2|8,0:0|0:0,0:0:0:0:
420,109,61202,1,0,0:0:0:0:
420,109,61319,6,0,P|460:161|465:231,1,135.000000514984,2|8,0:0|0:0,0:0:0:0:
343,313,61672,1,0,0:0:0:0:
343,313,61790,2,0,P|368:282|377:251,1,67.500000257492,2|0,0:0|0:0,0:0:0:0:
377,190,62025,2,0,P|383:223|377:256,1,67.500000257492,8|0,0:0|0:0,0:0:0:0:
189,310,62261,6,0,P|223:302|274:287,1,67.500000257492,4|0,0:1|0:0,0:0:0:0:
224,196,62496,2,0,P|256:205|289:212,1,67.500000257492,8|0,0:0|0:0,0:0:0:0:
354,229,62731,6,0,P|320:221|269:206,1,67.500000257492,2|0,0:0|0:0,0:0:0:0:
287,91,62967,2,0,P|254:100|221:107,1,67.500000257492,8|0,0:0|0:0,0:0:0:0:
156,124,63202,6,0,P|190:116|241:101,1,67.500000257492,2|0,0:0|0:0,0:0:0:0:
34,35,63438,2,0,P|66:44|99:51,1,67.500000257492,8|0,0:0|0:0,0:0:0:0:
78,195,63673,5,2,0:0:0:0:
78,195,63791,2,0,P|66:163|57:130,2,67.500000257492,8|8|8,0:0|0:0|0:0,0:0:0:0:
136,267,64144,1,8,0:0:0:0:
95,349,65085,6,0,P|160:345|269:319,1,160,12|8,1:0|0:0,0:0:0:0:
136,267,65438,1,8,0:0:0:0:
147,249,65556,1,8,0:0:0:0:
91,185,65674,1,8,0:0:0:0:
106,170,65791,1,8,0:0:0:0:
91,90,65909,1,8,0:0:0:0:
109,79,66027,6,0,P|174:83|275:108,1,150.000005722046,4|8,0:0|0:0,0:0:0:0:
342,169,66380,1,0,0:0:0:0:
342,169,66497,2,0,B|321:192|321:192|249:164|256:76,1,150.000005722046,0|8,0:0|0:0,0:0:0:0:
443,151,66850,1,0,0:0:0:0:
443,151,66968,6,0,P|437:187|421:221,1,75.000002861023,2|0,0:0|0:0,0:0:0:0:
367,271,67203,2,0,P|397:249|421:219,1,75.000002861023,8|0,0:0|0:0,0:0:0:0:
310,31,67439,2,0,P|331:59|344:95,1,75.000002861023,2|0,0:0|0:0,0:0:0:0:
342,169,67674,2,0,P|348:131|344:93,1,75.000002861023,8|0,0:0|0:0,0:0:0:0:
105,131,67910,6,0,P|170:127|271:102,1,150.000005722046,6|8,0:0|0:0,0:0:0:0:
182,229,68263,1,0,0:0:0:0:
182,229,68380,2,0,P|109:211|34:206,1,150.000005722046,0|8,0:0|0:0,0:0:0:0:
126,323,68733,1,0,0:0:0:0:
126,323,68851,6,0,P|191:319|292:294,1,150.000005722046,0|8,0:0|0:0,0:0:0:0:
324,225,69204,1,8,0:0:0:0:
363,306,69322,2,0,P|363:231|359:137,1,150.000005722046,8|8,0:0|0:0,0:0:0:0:
114,10,69792,6,0,P|111:84|111:159,1,150.000005722046,4|8,0:0|0:0,0:0:0:0:
221,118,70146,2,0,B|172:97|111:123|111:123|111:160,1,150.000005722046,6|0,0:0|0:0,0:0:0:0:
171,252,70499,1,10,0:0:0:0:
171,252,70616,1,0,0:0:0:0:
171,252,70734,6,0,P|118:243|83:246,2,75.000002861023,6|0|8,0:0|0:0|0:0,0:0:0:0:
128,331,71087,2,0,P|204:290|285:310,1,150.000005722046,6|0,0:0|0:0,0:0:0:0:
341,252,71440,2,0,P|349:288|348:325,1,75.000002861023,10|0,0:0|0:0,0:0:0:0:
265,200,71675,6,0,P|264:162|272:126,2,75.000002861023,6|0|8,0:0|0:0|0:0,0:0:0:0:
430,162,72028,2,0,P|395:161|355:164,1,75.000002861023,6|0,0:0|0:0,0:0:0:0:
435,74,72264,2,0,P|470:73|509:76,1,75.000002861023,0|10,0:0|0:0,0:0:0:0:
372,10,72499,1,8,0:0:0:0:
285,37,72617,6,0,P|250:38|210:34,1,75.000002861023,14|8,0:0|0:0,0:0:0:0:
99,22,72852,1,10,0:0:0:0:
118,51,72970,1,8,0:0:0:0:
62,122,73088,1,10,0:0:0:0:
79,209,73205,2,0,P|152:190|227:192,1,150.000005722046,8|8,0:0|0:0,0:0:0:0:
328,323,73558,6,0,P|295:317|246:303,1,75.000002861023,4|0,0:0|0:0,0:0:0:0:
183,282,73794,2,0,P|218:295|254:305,1,75.000002861023,8|0,0:0|0:0,0:0:0:0:
337,172,74029,2,0,P|371:158|407:148,1,75.000002861023,2|0,0:0|0:0,0:0:0:0:
481,130,74264,2,0,P|444:136|408:146,1,75.000002861023,8|0,0:0|0:0,0:0:0:0:
226,191,74500,6,0,P|189:184|73:147,1,150.000005722046,2|8,0:0|0:0,0:0:0:0:
6,78,74853,1,0,0:0:0:0:
6,78,74971,2,0,B|38:55|38:55|90:81|80:172,1,150.000005722046,2|8,0:0|0:0,0:0:0:0:
188,86,75324,1,0,0:0:0:0:
188,86,75441,6,0,P|212:52|250:21,2,75.000002861023,2|0|8,0:0|0:0|0:0,0:0:0:0:
226,191,75794,1,0,0:0:0:0:
226,191,75912,2,0,P|262:184|379:147,1,150.000005722046,2|8,0:0|0:0,0:0:0:0:
450,375,76383,6,0,P|439:308|429:220,1,150.000005722046,2|8,0:0|0:0,0:0:0:0:
512,205,76736,1,8,0:0:0:0:
512,289,76854,2,0,P|437:297|363:309,1,150.000005722046,2|8,0:0|0:0,0:0:0:0:
231,361,77207,1,0,0:0:0:0:
231,361,77324,6,0,P|156:352|82:340,1,150.000005722046,4|8,0:0|0:0,0:0:0:0:
178,262,77677,1,0,0:0:0:0:
178,262,77795,2,0,P|104:250|50:197,1,150.000005722046,2|8,0:0|0:0,0:0:0:0:
147,160,78148,6,0,P|161:96|175:76,2,75.000002861023,0|2|0,0:0|0:0|0:0,0:0:0:0:
245,147,78501,2,0,P|319:135|373:82,1,150.000005722046,8|10,0:0|0:0,0:0:0:0:
442,2,78854,1,8,0:0:0:0:
467,26,78972,1,10,0:0:0:0:
480,116,79090,1,8,0:0:0:0:
421,182,79207,5,6,1:0:0:0:
245,326,85327,6,0,L|132:306,1,99.9999999999999,4|8,0:1|0:0,0:0:0:0:
146,308,85680,1,8,0:0:0:0:
146,308,85797,1,8,0:0:0:0:
415,164,86033,6,0,L|317:182,1,99.9999999999999,4|8,0:1|0:0,0:0:0:0:
510,173,86386,2,0,L|460:182,2,50,8|8|8,0:0|0:0|0:0,0:0:0:0:
510,173,86739,6,0,P|497:125|519:66,1,99.9999999999999,4|0,0:1|0:0,0:0:0:0:
510,173,87092,2,0,P|523:221|501:280,1,99.9999999999999,8|8,0:0|0:0,0:0:0:0:
509,268,87445,1,4,0:0:0:0:
484,268,87563,1,8,0:0:0:0:
459,266,87680,1,8,0:0:0:0:
433,264,87798,1,8,0:0:0:0:
407,263,87916,1,8,0:0:0:0:
382,262,88033,1,8,0:0:0:0:
356,262,88151,6,0,P|348:216|347:198,2,50,4|0|8,0:1|0:0|0:0,0:0:0:0:
265,189,88504,2,0,P|291:150|303:137,2,50,8|8|8,0:0|0:0|0:0,0:0:0:0:
247,95,88857,2,0,P|295:68|356:74,1,99.9999999999999,4|8,0:0|0:0,0:0:0:0:
338,68,89210,1,8,0:0:0:0:
338,68,89328,1,8,0:0:0:0:
338,68,89446,1,8,0:0:0:0:
338,68,89563,6,0,L|320:4,1,50,8|8,0:0|0:0,0:0:0:0:
413,133,89799,2,0,P|371:158|322:159,1,99.9999999999999,4|8,0:1|0:0,0:0:0:0:
413,133,90152,1,4,0:0:0:0:
293,267,90387,1,4,0:0:0:0:
475,313,90623,2,0,L|437:281,1,50,4|12,0:3|0:0,0:0:0:0:
3,280,91682,6,0,P|37:296|123:291,1,119.999996337891,4|8,0:1|0:0,0:0:0:0:
232,278,92035,2,0,P|174:271|118:292,1,119.999996337891,0|0,0:0|0:0,0:0:0:0:
69,217,92388,2,0,L|59:158,1,59.9999981689453,8|0,0:0|0:0,0:0:0:0:
148,143,92623,6,0,L|155:23,1,119.999996337891,2|10,0:0|0:0,0:0:0:0:
247,0,92976,1,0,0:0:0:0:
247,0,93094,2,0,L|240:120,1,119.999996337891,2|8,0:0|0:0,0:0:0:0:
300,181,93447,1,8,0:0:0:0:
366,127,93564,6,0,P|423:138|480:197,1,119.999996337891,2|8,0:0|0:0,0:0:0:0:
388,216,93917,1,0,0:0:0:0:
388,216,94035,2,0,P|344:255|285:266,1,119.999996337891,2|8,0:0|0:0,0:0:0:0:
136,295,94388,6,0,P|195:306|239:344,1,119.999996337891,2|0,0:0|0:0,0:0:0:0:
329,354,94741,1,8,0:0:0:0:
380,167,94977,1,0,0:0:0:0:
191,123,95212,2,0,P|191:160|198:210,1,59.9999981689453,8|8,0:0|0:0,0:0:0:0:
208,35,95447,6,0,P|150:42|104:79,1,119.999996337891,4|8,0:0|0:0,0:0:0:0:
0,125,95800,2,0,P|58:118|104:81,1,119.999996337891,0|0,0:0|0:0,0:0:0:0:
181,129,96153,2,0,P|181:166|188:216,1,59.9999981689453,8|0,0:0|0:0,0:0:0:0:
97,213,96389,6,0,P|120:252|206:278,1,119.999996337891,2|10,0:0|0:0,0:0:0:0:
189,374,96742,1,0,0:0:0:0:
189,374,96860,2,0,L|314:346,1,119.999996337891,2|8,0:0|0:0,0:0:0:0:
391,348,97213,1,8,0:0:0:0:
472,321,97330,6,0,P|444:256|459:190,1,119.999996337891,2|8,0:0|0:0,0:0:0:0:
369,157,97683,1,0,0:0:0:0:
369,157,97801,2,0,P|396:104|391:45,1,119.999996337891,2|8,0:0|0:0,0:0:0:0:
307,83,98154,6,0,P|261:102|186:88,1,119.999996337891,2|0,0:0|0:0,0:0:0:0:
134,23,98507,1,8,0:0:0:0:
129,219,98743,1,0,0:0:0:0:
307,295,98978,2,0,P|306:262|299:226,1,59.9999981689453,12|8,0:0|0:0,0:0:0:0:
270,378,99213,6,0,P|217:342|151:348,1,119.999996337891,4|8,0:1|0:0,0:0:0:0:
58,379,99566,1,0,0:0:0:0:
58,379,99684,2,0,P|117:379|164:344,1,119.999996337891,2|8,0:0|0:0,0:0:0:0:
81,292,100037,1,0,0:0:0:0:
81,292,100155,6,0,L|83:157,1,119.999996337891,2|8,0:0|0:0,0:0:0:0:
172,208,100508,1,0,0:0:0:0:
172,208,100625,2,0,L|170:73,1,119.999996337891,2|8,0:0|0:0,0:0:0:0:
246,54,100979,1,8,0:0:0:0:
270,135,101096,6,0,P|326:124|381:62,1,119.999996337891,2|8,0:0|0:0,0:0:0:0:
452,43,101449,1,0,0:0:0:0:
452,43,101567,2,0,L|454:163,1,119.999996337891,2|8,0:0|0:0,0:0:0:0:
340,222,101920,6,0,L|339:342,1,119.999996337891,2|0,0:0|0:0,0:0:0:0:
419,382,102273,1,8,0:0:0:0:
362,133,102508,1,2,0:0:0:0:
172,257,102744,2,0,P|199:252|232:254,1,59.9999981689453,8|8,0:0|0:0,0:0:0:0:
88,288,102979,6,0,P|123:241|124:165,1,119.999996337891,4|8,0:0|0:0,0:0:0:0:
89,76,103332,2,0,P|94:135|129:182,1,119.999996337891,0|0,0:0|0:0,0:0:0:0:
175,104,103685,2,0,P|202:93|232:88,1,59.9999981689453,8|0,0:0|0:0,0:0:0:0:
298,26,103921,6,0,P|348:28|414:70,1,119.999996337891,2|10,0:0|0:0,0:0:0:0:
494,102,104274,1,0,0:0:0:0:
494,102,104391,2,0,L|467:242,1,119.999996337891,2|8,0:0|0:0,0:0:0:0:
389,197,104744,1,8,0:0:0:0:
339,127,104862,6,0,P|289:129|223:171,1,119.999996337891,2|8,0:0|0:0,0:0:0:0:
193,82,105215,1,8,0:0:0:0:
193,82,105333,2,0,P|158:70|130:54,1,59.9999981689453,8|0,0:0|0:0,0:0:0:0:
90,142,105568,2,0,P|55:154|27:170,1,59.9999981689453,8|0,0:0|0:0,0:0:0:0:
163,207,105804,5,8,0:0:0:0:
300,25,106039,1,8,0:0:0:0:
495,175,106274,1,8,0:0:0:0:
495,175,106392,1,8,0:0:0:0:
495,175,106510,1,8,0:0:0:0:
495,175,106627,1,8,0:0:0:0:
495,175,106745,6,0,P|437:185|339:191,1,139.999995727539,4|8,0:1|0:0,0:0:0:0:
217,207,107098,1,8,0:0:0:0:
217,207,107216,2,0,P|274:196|373:191,1,139.999995727539,4|8,0:0|0:0,0:0:0:0:
484,246,107569,1,8,0:0:0:0:
484,246,107687,6,0,P|429:226|340:181,1,139.999995727539,4|8,0:1|0:0,0:0:0:0:
227,134,108040,1,8,0:0:0:0:
227,134,108157,2,0,P|281:153|370:198,1,139.999995727539,4|8,0:0|0:0,0:0:0:0:
438,301,108510,1,8,0:0:0:0:
438,301,108628,6,0,P|400:256|346:173,1,139.999995727539,4|8,0:1|0:0,0:0:0:0:
271,75,108981,1,8,0:0:0:0:
271,75,109099,2,0,P|308:119|362:202,1,139.999995727539,4|8,0:0|0:0,0:0:0:0:
370,326,109452,1,8,0:0:0:0:
370,326,109569,6,0,P|359:268|354:170,1,139.999995727539,4|8,0:1|0:0,0:0:0:0:
337,48,109923,1,8,0:0:0:0:
337,48,110040,1,8,0:0:0:0:
370,326,110276,1,8,0:0:0:0:
16,209,110511,6,0,P|85:197|155:193,1,139.999995727539,4|8,0:1|0:0,0:0:0:0:
294,176,110864,1,8,0:0:0:0:
294,176,110982,2,0,P|225:188|156:192,1,139.999995727539,4|8,0:0|0:0,0:0:0:0:
26,136,111335,1,8,0:0:0:0:
26,136,111452,6,0,P|92:161|155:192,1,139.999995727539,4|8,0:1|0:0,0:0:0:0:
282,246,111805,1,8,0:0:0:0:
282,246,111923,2,0,P|216:222|154:191,1,139.999995727539,4|8,0:0|0:0,0:0:0:0:
69,79,112276,1,8,0:0:0:0:
69,79,112394,6,0,P|114:132|153:191,1,139.999995727539,4|8,0:1|0:0,0:0:0:0:
235,303,112747,1,8,0:0:0:0:
235,303,112865,2,0,P|190:249|153:191,1,139.999995727539,4|8,0:0|0:0,0:0:0:0:
313,218,113218,6,0,P|331:188|347:157,2,69.9999978637695,8|8|8,0:0|0:0|0:0,0:0:0:0:
352,324,113571,2,0,P|370:353|386:384,2,69.9999978637695,8|8|8,0:0|0:0|0:0,0:0:0:0:
423,63,114041,1,8,0:0:0:0:
423,63,114159,1,8,0:0:0:0:
423,63,114277,6,0,P|355:77|270:39,1,135.000000514984,4|8,0:1|0:0,0:0:0:0:
164,62,114630,1,0,0:0:0:0:
164,62,114748,2,0,P|227:42|293:56,1,135.000000514984,0|8,0:0|0:0,0:0:0:0:
235,140,115101,1,0,0:0:0:0:
235,140,115218,6,0,P|255:212|241:288,2,135.000000514984,2|8|2,0:0|0:0|0:0,0:0:0:0:
152,130,115807,2,0,L|69:123,1,67.500000257492,8|0,0:0|0:0,0:0:0:0:
1,139,116042,1,8,0:0:0:0:
91,139,116160,6,0,P|25:175|5:247,1,135.000000514984,2|8,0:0|0:0,0:0:0:0:
91,317,116513,1,0,0:0:0:0:
91,317,116631,2,0,P|64:256|4:227,1,135.000000514984,2|8,0:0|0:0,0:0:0:0:
143,219,116984,1,0,0:0:0:0:
143,219,117101,6,0,P|205:223|281:206,2,135.000000514984,2|8|2,0:0|0:0|0:0,0:0:0:0:
212,106,117690,1,8,0:0:0:0:
212,106,117807,1,8,0:0:0:0:
212,106,117925,1,8,0:0:0:0:
212,106,118043,6,0,P|246:104|300:106,1,67.500000257492,4|0,0:1|0:0,0:0:0:0:
275,207,118278,2,0,P|303:190|333:174,1,67.500000257492,8|0,0:0|0:0,0:0:0:0:
392,141,118513,6,0,P|361:157|315:185,1,67.500000257492,8|0,0:0|0:0,0:0:0:0:
363,292,118749,2,0,P|328:291|295:293,1,67.500000257492,8|0,0:0|0:0,0:0:0:0:
228,294,118984,6,0,P|262:292|316:294,1,67.500000257492,8|0,0:0|0:0,0:0:0:0:
117,248,119220,2,0,P|145:231|175:215,1,67.500000257492,8|0,0:0|0:0,0:0:0:0:
50,178,119455,5,8,0:0:0:0:
50,178,119573,2,0,P|30:150|12:120,2,67.500000257492,8|8|8,0:0|0:0|0:0,0:0:0:0:
113,96,119926,1,8,0:0:0:0:
417,35,120867,6,0,P|352:39|243:65,1,160,12|8,0:1|0:0,0:0:0:0:
376,117,121220,1,8,0:0:0:0:
365,135,121338,1,8,0:0:0:0:
421,199,121456,1,8,0:0:0:0:
406,214,121573,1,8,0:0:0:0:
421,294,121691,1,8,0:0:0:0:
403,305,121809,6,0,P|338:301|237:276,1,150.000005722046,4|8,0:0|0:0,0:0:0:0:
170,215,122162,1,0,0:0:0:0:
170,215,122279,2,0,B|191:192|191:192|263:220|256:308,1,150.000005722046,0|8,0:0|0:0,0:0:0:0:
69,233,122632,1,0,0:0:0:0:
69,233,122750,6,0,P|75:197|91:163,1,75.000002861023,2|0,0:0|0:0,0:0:0:0:
145,113,122985,2,0,P|115:135|91:165,1,75.000002861023,8|0,0:0|0:0,0:0:0:0:
202,353,123221,2,0,P|181:325|168:289,1,75.000002861023,2|0,0:0|0:0,0:0:0:0:
170,215,123456,2,0,P|164:253|168:291,1,75.000002861023,8|0,0:0|0:0,0:0:0:0:
407,253,123692,6,0,P|342:257|241:282,1,150.000005722046,6|8,0:0|0:0,0:0:0:0:
330,155,124045,1,0,0:0:0:0:
330,155,124162,2,0,P|403:173|478:178,1,150.000005722046,0|8,0:0|0:0,0:0:0:0:
386,61,124515,1,0,0:0:0:0:
386,61,124633,6,0,P|321:65|220:90,1,150.000005722046,0|8,0:0|0:0,0:0:0:0:
188,159,124986,1,8,0:0:0:0:
149,78,125104,2,0,P|149:153|153:247,1,150.000005722046,8|8,0:0|0:0,0:0:0:0:
398,374,125574,6,0,P|401:300|401:225,1,150.000005722046,4|8,0:0|0:0,0:0:0:0:
290,263,125928,2,0,B|339:284|401:260|401:260|400:221,1,150.000005722046,6|0,0:0|0:0,0:0:0:0:
341,132,126281,1,10,0:0:0:0:
341,132,126398,1,0,0:0:0:0:
341,132,126516,6,0,P|394:141|429:138,2,75.000002861023,6|0|8,0:0|0:0|0:0,0:0:0:0:
384,53,126869,2,0,P|308:94|227:74,1,150.000005722046,6|0,0:0|0:0,0:0:0:0:
171,132,127222,2,0,P|163:96|164:59,1,75.000002861023,10|0,0:0|0:0,0:0:0:0:
247,184,127457,6,0,P|248:222|240:258,2,75.000002861023,6|0|8,0:0|0:0|0:0,0:0:0:0:
82,222,127810,2,0,P|117:223|157:220,1,75.000002861023,6|0,0:0|0:0,0:0:0:0:
77,310,128046,2,0,P|42:311|3:308,1,75.000002861023,0|10,0:0|0:0,0:0:0:0:
140,374,128281,1,8,0:0:0:0:
227,347,128399,6,0,P|262:346|302:350,1,75.000002861023,14|8,0:0|0:0,0:0:0:0:
413,362,128634,1,10,0:0:0:0:
394,333,128752,1,8,0:0:0:0:
450,262,128870,1,10,0:0:0:0:
433,175,128987,2,0,P|360:194|285:192,1,150.000005722046,8|8,0:0|0:0,0:0:0:0:
184,61,129340,6,0,P|217:67|266:81,1,75.000002861023,4|0,0:0|0:0,0:0:0:0:
329,102,129576,2,0,P|294:89|258:79,1,75.000002861023,8|0,0:0|0:0,0:0:0:0:
175,212,129811,2,0,P|140:225|104:235,1,75.000002861023,2|0,0:0|0:0,0:0:0:0:
31,254,130046,2,0,P|67:247|103:237,1,75.000002861023,8|0,0:0|0:0,0:0:0:0:
286,193,130282,6,0,P|322:199|439:237,1,150.000005722046,2|8,0:0|0:0,0:0:0:0:
506,306,130635,1,0,0:0:0:0:
506,306,130753,2,0,B|474:329|474:329|422:303|432:212,1,150.000005722046,2|8,0:0|0:0,0:0:0:0:
324,298,131106,1,0,0:0:0:0:
324,298,131223,6,0,P|300:332|262:363,2,75.000002861023,2|0|8,0:0|0:0|0:0,0:0:0:0:
286,193,131576,1,0,0:0:0:0:
286,193,131694,2,0,P|249:199|133:237,1,150.000005722046,2|8,0:0|0:0,0:0:0:0:
62,9,132165,6,0,P|72:75|83:164,1,150.000005722046,2|8,0:0|0:0,0:0:0:0:
0,179,132518,1,8,0:0:0:0:
0,95,132636,2,0,P|74:86|148:74,1,150.000005722046,2|8,0:0|0:0,0:0:0:0:
281,23,132989,1,0,0:0:0:0:
281,23,133106,6,0,P|355:31|429:43,1,150.000005722046,4|8,0:0|0:0,0:0:0:0:
334,122,133459,1,0,0:0:0:0:
334,122,133577,2,0,P|408:134|462:187,1,150.000005722046,2|8,0:0|0:0,0:0:0:0:
365,224,133930,1,0,0:0:0:0:
365,224,134048,6,0,P|361:294|299:363,1,150.000005722046,2|8,0:0|0:0,0:0:0:0:
272,264,134401,2,0,P|237:278|182:284,1,75.000002861023,0|10,0:0|0:0,0:0:0:0:
133,368,134636,1,8,0:0:0:0:
108,344,134754,1,10,0:0:0:0:
95,254,134872,1,8,0:0:0:0:
154,188,134989,5,6,1:0:0:0:
48,178,138520,6,0,L|55:238,2,43.3333313496908,8|8|8,0:0|0:0|0:0,0:0:0:0:
48,178,138755,6,0,P|106:185|181:145,1,129.999994049072,4|8,0:1|0:0,0:0:0:0:
241,89,139108,1,8,0:0:0:0:
241,89,139226,2,0,P|299:82|374:122,1,129.999994049072,4|8,0:0|0:0,0:0:0:0:
445,163,139579,1,8,0:0:0:0:
445,163,139697,6,0,L|434:298,1,129.999994049072,4|8,0:1|0:0,0:0:0:0:
345,332,140050,1,8,0:0:0:0:
345,332,140168,2,0,L|334:197,1,129.999994049072,4|8,0:0|0:0,0:0:0:0:
240,176,140520,1,8,0:0:0:0:
240,176,140638,6,0,B|178:192|178:192|102:160,2,129.999994049072,4|4|4,0:1|0:0|0:0,0:0:0:0:
512,76,141344,1,4,0:0:0:0:
512,76,141580,6,0,B|450:60|450:60|374:92,1,129.999994049072,4|8,0:0|0:0,0:0:0:0:
113,176,142050,2,0,B|174:202|174:202|236:186,1,129.999994049072,8|8,0:0|0:0,0:0:0:0:
317,173,142403,1,0,0:0:0:0:
382,224,142521,6,0,P|417:265|416:374,2,150,4|2|2,0:1|0:0|0:0,0:0:0:0:
316,69,143933,2,0,P|256:91|166:71,1,150,8|0,0:0|0:0,0:0:0:0:
130,160,144404,6,0,P|95:119|96:10,2,150,2|2|2,0:0|0:0|0:0,0:0:0:0:
384,225,145816,2,0,L|363:378,1,150,8|8,0:0|0:0,0:0:0:0:
285,299,146287,6,0,L|274:137,2,150,2|2|2,0:0|0:0|0:0,0:0:0:0:
53,108,147699,2,0,L|74:261,1,150,8|0,0:0|0:0,0:0:0:0:
152,182,148170,6,0,L|163:20,2,150,2|2|2,0:0|0:0|0:0,0:0:0:0:
97,353,149229,2,0,L|133:341,5,25,0|0|2|0|0|0,0:0|0:0|0:0|0:0|0:0|0:0,0:0:0:0:
135,330,149582,2,0,B|211:348|211:348|293:323,1,150,10|8,0:0|0:0,0:0:0:0:
368,358,150053,6,0,P|360:275|308:235,1,150,4|0,0:1|0:0,0:0:0:0:
226,254,150523,2,0,L|236:142,2,99.9999999999999,2|2|2,0:0|0:0|0:0,0:0:0:0:
170,93,151230,1,0,0:0:0:0:
401,89,151465,2,0,P|340:61|249:75,1,150,8|0,0:0|0:0,0:0:0:0:
170,93,151936,6,0,P|109:121|18:107,2,150,2|0|2,0:0|0:0|0:0,0:0:0:0:
325,247,152877,2,0,L|321:148,1,99.9999999999999,2|0,0:0|0:0,0:0:0:0:
86,32,153348,1,8,0:0:0:0:
236,205,153583,1,8,0:0:0:0:
236,205,153701,1,8,0:0:0:0:
236,205,153819,6,0,L|115:193,1,99.9999999999999,4|4,0:1|0:3,0:0:0:0:
412,82,154289,2,0,L|533:70,1,99.9999999999999,4|4,0:3|0:3,0:0:0:0:
196,297,154760,6,0,L|75:285,1,99.9999999999999,8|4,0:0|0:3,0:0:0:0:
403,169,155230,2,0,L|524:157,1,99.9999999999999,4|8,0:3|0:0,0:0:0:0:
497,248,155584,1,8,0:0:0:0:
497,248,155702,6,0,L|397:257,1,99.9999999999999,8|8,0:0|0:0,0:0:0:0:
151,384,156172,2,0,L|30:372,1,99.9999999999999,8|8,0:0|0:0,0:0:0:0:
236,205,156643,5,8,0:0:0:0:
236,205,157114,6,0,P|239:161|210:106,1,99.9999999999999,8|8,0:0|0:0,0:0:0:0:
221,28,157467,2,0,L|158:41,1,50,8|4,0:0|0:1,0:0:0:0:
361,131,158291,2,0,L|464:137,1,99.9999999999999,2|2,0:0|0:0,0:0:0:0:
281,324,159232,6,0,P|284:284|317:234,1,99.9999999999999,2|2,0:0|0:0,0:0:0:0:
97,113,160174,2,0,P|125:153|132:202,1,99.9999999999999,2|2,0:0|0:0,0:0:0:0:
132,202,160880,6,0,P|183:122|299:116,1,200,2|2,0:0|0:0,0:0:0:0:
72,290,162057,2,0,P|39:250|28:197,1,99.9999999999999,2|2,0:0|0:0,0:0:0:0:
381,100,162998,2,0,P|368:148|363:162,1,50,2|2,0:0|0:0,0:0:0:0:
289,169,163233,6,0,L|313:292,1,110.000003356934,4|8,0:1|0:0,0:0:0:0:
273,352,163586,2,0,P|307:310|418:296,1,165.0000050354,8|8,0:0|0:0,0:0:0:0:
499,277,164057,2,0,L|475:400,2,110.000003356934,8|8|8,0:0|0:0|0:0,0:0:0:0:
411,293,164646,1,8,0:0:0:0:
411,293,164763,2,0,P|331:296|295:323,1,110.000003356934,8|2,0:0|0:0,0:0:0:0:
309,199,165116,6,0,P|228:196|153:117,1,179.999994506836,4|0,0:1|0:0,0:0:0:0:
101,61,165587,2,0,L|117:266,1,179.999994506836,8|8,0:0|0:0,0:0:0:0:
31,273,166058,2,0,L|16:93,1,179.999994506836,4|0,0:0|0:0,0:0:0:0:
101,61,166529,2,0,P|131:46|230:60,1,119.999996337891,8|0,0:0|0:0,0:0:0:0:
309,35,166882,1,8,0:0:0:0:
309,35,166999,6,0,P|381:57|482:7,1,179.999994506836,4|0,0:0|0:0,0:0:0:0:
506,100,167470,2,0,L|494:291,1,179.999994506836,8|8,0:0|0:0,0:0:0:0:
417,220,167941,5,8,0:0:0:0:
208,307,168176,1,8,0:0:0:0:
72,124,168411,2,0,L|88:42,2,59.9999981689453,8|8|8,0:0|0:0|0:0,0:0:0:0:
142,179,168764,1,8,0:0:0:0:
142,179,168882,6,0,P|185:152|268:154,1,135.000000514984,4|8,0:1|0:0,0:0:0:0:
392,179,169235,1,0,0:0:0:0:
392,179,169353,2,0,P|325:184|266:153,1,135.000000514984,2|8,0:0|0:0,0:0:0:0:
346,89,169706,1,0,0:0:0:0:
346,89,169824,6,0,P|404:57|471:63,1,135.000000514984,4|8,0:1|0:0,0:0:0:0:
487,158,170177,2,0,L|498:311,1,135.000000514984,0|8,0:0|0:0,0:0:0:0:
395,353,170530,1,8,0:0:0:0:
395,353,170647,1,8,0:0:0:0:
395,353,170765,6,0,P|400:322|404:269,1,67.500000257492,4|0,0:1|0:0,0:0:0:0:
305,141,171001,2,0,P|310:172|314:225,1,67.500000257492,8|0,0:0|0:0,0:0:0:0:
305,274,171236,6,0,P|310:243|314:190,1,67.500000257492,8|0,0:0|0:0,0:0:0:0:
182,242,171472,2,0,P|187:273|191:326,1,67.500000257492,8|0,0:0|0:0,0:0:0:0:
198,374,171707,6,0,P|192:340|189:307,1,67.500000257492,8|0,0:0|0:0,0:0:0:0:
87,172,171943,2,0,P|81:205|78:238,1,67.500000257492,8|0,0:0|0:0,0:0:0:0:
181,88,172177,5,8,0:0:0:0:
181,88,172413,2,0,P|213:80|253:63,1,67.500000257492,2|2,0:0|0:0,0:0:0:0:
393,22,172648,6,0,P|326:25|240:71,1,160,4|8,0:1|0:0,0:0:0:0:
340,118,173001,1,8,0:0:0:0:
329,136,173119,1,8,0:0:0:0:
385,200,173237,1,8,0:0:0:0:
370,215,173354,1,8,0:0:0:0:
385,295,173472,1,8,0:0:0:0:
367,306,173590,6,0,P|302:302|201:277,1,150.000005722046,4|8,0:0|0:0,0:0:0:0:
124,329,173943,1,0,0:0:0:0:
124,329,174060,2,0,B|180:351|231:319|231:319|217:279,1,150.000005722046,0|8,0:0|0:0,0:0:0:0:
44,276,174413,1,0,0:0:0:0:
44,276,174531,6,0,P|28:307|27:358,1,75.000002861023,2|0,0:0|0:0,0:0:0:0:
44,276,174766,2,0,P|41:238|24:205,1,75.000002861023,8|0,0:0|0:0,0:0:0:0:
152,136,175002,6,0,P|136:105|135:54,1,75.000002861023,2|0,0:0|0:0,0:0:0:0:
152,136,175237,2,0,P|149:173|132:206,1,75.000002861023,8|0,0:0|0:0,0:0:0:0:
262,72,175473,6,0,P|327:68|428:43,1,150.000005722046,6|8,0:0|0:0,0:0:0:0:
493,173,175826,1,0,0:0:0:0:
493,173,175943,2,0,P|420:155|345:150,1,150.000005722046,0|8,0:0|0:0,0:0:0:0:
245,168,176296,1,0,0:0:0:0:
245,168,176414,6,0,P|262:240|267:315,1,150.000005722046,0|8,0:0|0:0,0:0:0:0:
129,283,176767,1,8,0:0:0:0:
129,283,176885,2,0,P|134:208|151:135,1,150.000005722046,8|8,0:0|0:0,0:0:0:0:
415,37,177355,6,0,P|342:54|267:59,1,150.000005722046,4|8,0:0|0:0,0:0:0:0:
157,18,177708,2,0,B|206:-3|269:25|269:25|267:60,1,150.000005722046,6|0,0:0|0:0,0:0:0:0:
347,147,178062,1,10,0:0:0:0:
347,147,178179,1,0,0:0:0:0:
347,147,178297,6,0,P|400:156|435:153,2,75.000002861023,6|0|8,0:0|0:0|0:0,0:0:0:0:
257,156,178650,2,0,P|313:190|327:291,1,150.000005722046,6|0,0:0|0:0,0:0:0:0:
432,277,179003,2,0,P|416:322|391:348,1,75.000002861023,10|0,0:0|0:0,0:0:0:0:
306,358,179238,6,0,P|271:357|217:348,2,75.000002861023,6|0|8,0:0|0:0|0:0,0:0:0:0:
236,261,179591,2,0,P|201:260|161:263,1,75.000002861023,6|0,0:0|0:0,0:0:0:0:
64,351,179827,2,0,P|99:350|138:353,1,75.000002861023,0|10,0:0|0:0,0:0:0:0:
70,263,180062,1,8,0:0:0:0:
13,194,180180,6,0,P|9:154|15:110,1,75.000002861023,14|8,0:0|0:0,0:0:0:0:
64,43,180415,1,10,0:0:0:0:
93,24,180533,1,8,0:0:0:0:
183,21,180651,1,10,0:0:0:0:
254,74,180768,2,0,P|351:90|425:59,1,150.000005722046,8|8,0:0|0:0,0:0:0:0:
439,200,181121,6,0,P|382:190|352:195,1,75.000002861023,4|0,0:0|0:0,0:0:0:0:
439,200,181357,2,0,P|476:201|512:191,1,75.000002861023,8|0,0:0|0:0,0:0:0:0:
319,249,181592,6,0,P|271:282|253:306,1,75.000002861023,2|0,0:0|0:0,0:0:0:0:
319,249,181828,2,0,P|346:223|365:191,1,75.000002861023,8|0,0:0|0:0,0:0:0:0:
187,287,182063,6,0,P|244:296|274:291,1,75.000002861023,2|0,0:0|0:0,0:0:0:0:
187,287,182299,2,0,P|149:285|113:295,1,75.000002861023,8|0,0:0|0:0,0:0:0:0:
67,237,182534,6,0,P|100:284|124:302,1,75.000002861023,2|0,0:0|0:0,0:0:0:0:
67,237,182770,2,0,P|41:209|9:190,1,75.000002861023,8|0,0:0|0:0,0:0:0:0:
153,198,183004,6,0,P|216:183|291:122,1,150.000005722046,2|8,0:0|0:0,0:0:0:0:
258,45,183357,1,0,0:0:0:0:
258,45,183475,2,0,P|316:91|388:110,1,150.000005722046,2|8,0:0|0:0,0:0:0:0:
450,375,183946,6,0,P|440:309|429:220,1,150.000005722046,2|8,0:0|0:0,0:0:0:0:
512,205,184299,1,8,0:0:0:0:
512,289,184417,2,0,P|438:298|364:310,1,150.000005722046,2|8,0:0|0:0,0:0:0:0:
231,361,184770,1,0,0:0:0:0:
231,361,184887,6,0,P|157:353|83:341,1,150.000005722046,4|8,0:0|0:0,0:0:0:0:
178,262,185240,1,0,0:0:0:0:
178,262,185358,2,0,P|104:250|50:197,1,150.000005722046,0|8,0:0|0:0,0:0:0:0:
147,160,185711,1,0,0:0:0:0:
147,160,185829,6,0,P|151:90|213:21,1,150.000005722046,4|8,0:0|0:0,0:0:0:0:
248,129,186182,1,0,0:0:0:0:
248,129,186299,2,0,P|322:121|396:109,1,150.000005722046,0|8,0:0|0:0,0:0:0:0:
472,272,186770,6,0,P|397:263|323:251,1,150.000005722046,4|8,0:0|0:0,0:0:0:0:
238,220,187123,1,0,0:0:0:0:
238,220,187241,2,0,P|265:260|280:359,1,150.000005722046,0|8,0:0|0:0,0:0:0:0:
23,107,187712,6,0,P|97:112|161:149,2,150.000005722046,4|8|8,0:0|0:0|0:0,0:0:0:0:
79,213,188300,1,8,0:0:0:0:
102,237,188418,1,8,0:0:0:0:
192,251,188536,1,8,0:0:0:0:
258,191,188653,6,0,P|292:182|336:177,1,75.000002861023,4|0,0:0|0:0,0:0:0:0:
408,99,188888,2,0,P|445:104|482:113,1,75.000002861023,8|0,0:0|0:0,0:0:0:0:
362,41,189124,6,0,P|381:73|408:99,1,75.000002861023,8|0,0:0|0:0,0:0:0:0:
434,225,189359,2,0,P|415:257|388:283,1,75.000002861023,8|0,0:0|0:0,0:0:0:0:
507,211,189595,6,0,P|470:219|433:224,1,75.000002861023,8|0,0:0|0:0,0:0:0:0:
293,297,189830,2,0,P|255:291|219:283,2,75.000002861023,8|8|8,0:0|0:0|0:0,0:0:0:0:
439,367,190183,2,0,P|475:358|512:353,2,75.000002861023,8|8|8,0:0|0:0|0:0,0:0:0:0:
349,208,190536,5,10,0:2:0:0:
349,208,190654,1,10,0:2:0:0:
349,208,190771,1,10,0:2:0:0:
349,208,190889,2,0,P|349:173|349:126,1,75.000002861023,6|0,0:0|0:0,0:0:0:0:
268,22,191124,2,0,P|267:59|268:96,1,75.000002861023,4|0,0:0|0:0,0:0:0:0:
149,223,191360,6,0,P|175:196|201:169,1,75.000002861023,4|0,0:0|0:0,0:0:0:0:
164,14,191595,2,0,P|137:40|111:67,1,75.000002861023,4|0,0:0|0:0,0:0:0:0:
34,99,191831,1,4,0:3:0:0:
98,149,191948,2,0,P|114:204|97:305,1,150.000005722046,12|8,0:1|0:0,0:0:0:0:
35,344,192301,1,8,0:0:0:0:
110,377,192419,6,0,P|165:367|249:356,1,139.999995727539,4|8,0:1|0:0,0:0:0:0:
508,240,192890,2,0,P|453:230|369:219,1,139.999995727539,2|8,0:0|0:0,0:0:0:0:
118,247,193360,6,0,P|177:255|203:250,1,69.9999978637695,2|0,0:0|0:0,0:0:0:0:
263,216,193596,2,0,P|285:192|301:150,1,69.9999978637695,10|0,0:0|0:0,0:0:0:0:
119,136,193831,2,0,P|169:160|198:163,1,69.9999978637695,2|0,0:0|0:0,0:0:0:0:
208,97,194067,2,0,P|199:130|182:161,1,69.9999978637695,10|0,0:0|0:0,0:0:0:0:
128,43,194302,6,0,P|84:47|-19:37,1,139.999995727539,2|8,0:0|0:0,0:0:0:0:
372,44,194773,2,0,P|416:48|519:38,1,139.999995727539,2|8,0:0|0:0,0:0:0:0:
263,216,195243,6,0,P|260:246|263:295,2,69.9999978637695,2|0|10,0:0|0:0|0:0,0:0:0:0:
340,247,195596,1,8,0:0:0:0:
337,331,195714,2,0,P|266:367|202:350,1,139.999995727539,2|8,0:0|0:0,0:0:0:0:
57,143,196185,6,0,P|66:182|79:311,1,139.999995727539,2|8,0:0|0:0,0:0:0:0:
336,155,196656,2,0,P|343:85|357:16,1,139.999995727539,2|8,0:0|0:0,0:0:0:0:
113,61,197126,6,0,P|146:114|150:130,1,69.9999978637695,2|0,0:0|0:0,0:0:0:0:
240,133,197362,2,0,P|226:165|205:192,1,69.9999978637695,10|0,0:0|0:0,0:0:0:0:
82,142,197597,2,0,P|131:122|161:121,1,69.9999978637695,2|0,0:0|0:0,0:0:0:0:
205,192,197832,2,0,P|253:212|275:233,1,69.9999978637695,10|0,0:0|0:0,0:0:0:0:
484,159,198068,6,0,P|434:173|343:151,1,139.999995727539,2|8,0:0|0:0,0:0:0:0:
417,87,198421,1,0,0:0:0:0:
417,87,198539,2,0,P|344:69|279:6,1,139.999995727539,2|8,0:0|0:0,0:0:0:0:
200,34,198892,6,0,L|131:45,2,69.9999978637695,8|4|8,0:0|0:0|0:0,0:0:0:0:
259,122,199245,1,8,0:0:0:0:
259,122,199362,1,8,0:0:0:0:
259,122,199480,1,8,0:0:0:0:
259,122,199598,2,0,P|253:177|249:274,1,139.999995727539,8|8,0:0|0:0,0:0:0:0:
317,333,199951,6,0,P|280:316|161:314,1,139.999995727539,4|8,0:1|0:0,0:0:0:0:
378,171,200421,2,0,P|447:171|512:146,1,139.999995727539,2|8,0:0|0:0,0:0:0:0:
184,53,200892,6,0,P|161:114|161:132,1,69.9999978637695,2|0,0:0|0:0,0:0:0:0:
123,242,201128,2,0,P|106:212|100:178,1,69.9999978637695,10|0,0:0|0:0,0:0:0:0:
251,162,201363,2,0,P|217:195|184:212,1,69.9999978637695,2|0,0:0|0:0,0:0:0:0:
266,212,201598,2,0,P|218:211|183:199,1,69.9999978637695,10|0,0:0|0:0,0:0:0:0:
350,164,201834,6,0,P|374:229|374:298,1,139.999995727539,2|8,0:0|0:0,0:0:0:0:
100,178,202304,2,0,P|99:108|124:43,1,139.999995727539,2|8,0:0|0:0,0:0:0:0:
304,63,202775,6,0,P|276:65|208:61,2,69.9999978637695,2|0|10,0:0|0:0|0:0,0:0:0:0:
387,70,203128,1,8,0:0:0:0:
453,18,203246,2,0,P|470:91|426:151,1,139.999995727539,2|8,0:0|0:0,0:0:0:0:
136,267,203717,6,0,P|198:256|299:245,1,139.999995727539,4|8,0:1|0:0,0:0:0:0:
512,362,204187,2,0,P|450:351|349:340,1,139.999995727539,2|8,0:0|0:0,0:0:0:0:
366,260,204540,1,8,0:0:0:0:
366,260,204658,6,0,P|365:223|355:174,1,69.9999978637695,2|0,0:0|0:0,0:0:0:0:
273,246,204893,2,0,P|253:274|229:300,1,69.9999978637695,8|0,0:0|0:0,0:0:0:0:
191,214,205129,1,2,0:0:0:0:
259,165,205247,2,0,P|200:175|100:171,1,139.999995727539,8|8,0:0|0:0,0:0:0:0:
49,113,205600,6,0,P|76:197|71:268,1,139.999995727539,4|8,0:1|0:0,0:0:0:0:
359,190,206070,2,0,P|360:120|384:55,1,139.999995727539,2|8,0:0|0:0,0:0:0:0:
460,98,206423,6,0,P|449:133|444:177,2,69.9999978637695,8|8|8,0:0|0:0|0:0,0:0:0:0:
512,245,206776,1,8,0:0:0:0:
512,245,206894,1,8,0:0:0:0:
512,245,207012,1,8,0:0:0:0:
512,245,207129,2,0,P|436:251|359:306,1,139.999995727539,8|8,0:0|0:0,0:0:0:0:
419,369,207483,6,0,P|343:363|266:308,1,139.999995727539,4|8,0:1|0:0,0:0:0:0:
80,110,207953,2,0,L|83:180,3,69.9999978637695,2|2|10|2,0:0|0:0|0:0|0:0,0:0:0:0:
28,242,208424,6,0,P|89:209|159:206,1,139.999995727539,4|8,0:1|0:0,0:0:0:0:
293,79,208895,2,0,L|363:88,3,69.9999978637695,2|2|10|10,0:0|0:0|0:0|0:0,0:0:0:0:
442,51,209365,6,0,P|386:120|389:196,1,139.999995727539,4|8,0:1|0:0,0:0:0:0:
219,340,209836,2,0,L|288:331,1,69.9999978637695,2|10,0:0|0:0,0:0:0:0:
357,282,210072,1,10,0:0:0:0:
380,286,210189,1,10,0:0:0:0:
366,368,210307,5,4,0:0:0:0:
225,157,210542,1,12,0:0:0:0:
0,273,210778,1,12,0:0:0:0:
0,273,211248,5,2,0:0:0:0:
0,273,211484,1,2,0:0:0:0:
102,243,211719,1,2,0:0:0:0:
102,243,211955,1,2,0:0:0:0:
140,134,212190,5,2,0:0:0:0:
342,240,212543,1,2,0:0:0:0:
145,358,212896,5,4,0:1:0:0:
