osu file format v14

[General]
AudioFilename: audio.mp3
AudioLeadIn: 0
PreviewTime: 16540
Countdown: 0
SampleSet: Soft
StackLeniency: 0.7
Mode: 0
LetterboxInBreaks: 0
WidescreenStoryboard: 1

[Editor]
Bookmarks: 2006,9536,17124,32183,47242,58477,63438,66007,79242,85327,91505,106804,114277,118043,121867,134989,138755,140638,142521,153877,157585,163175,168941,173648,181180,190595,192419,207483,210778
DistanceSpacing: 1.6
BeatDivisor: 2
GridSize: 32
TimelineZoom: 3.000002

[Metadata]
Title:Milk Crown on Sonnetica
TitleUnicode:ミルククラウン・オン・ソーネチカ
Artist:nameless
ArtistUnicode:nameless
Creator:Milan-
Version:Normal
Source:
Tags:deetz appleeaterx utaite
BeatmapID:1341936
BeatmapSetID:550414

[Difficulty]
HPDrainRate:2
CircleSize:2
OverallDifficulty:3
ApproachRate:5
SliderMultiplier:0.599999999999999
SliderTickRate:1

[Events]
//Background and Video events
0,0,"23124.jpg",0,0
//Break Periods
2,79407,84127
2,135189,137555
2,157831,162033
2,210977,211696
//Storyboard Layer 0 (Background)
//Storyboard Layer 1 (Fail)
//Storyboard Layer 2 (Pass)
//Storyboard Layer 3 (Foreground)
//Storyboard Sound Samples

[TimingPoints]
2007,235.367958575239,4,2,1,55,1,0
9538,-100,4,2,1,35,0,0
17070,-100,4,1,1,50,0,0
30368,-100,4,2,1,50,0,0
32134,-100,4,2,1,40,0,0
47197,-100,4,2,1,40,0,0
52846,-100,4,2,1,45,0,0
58024,-100,4,2,1,45,0,0
58495,-100,4,2,1,45,0,0
62261,-100,4,2,1,50,0,0
64261,-100,4,2,1,45,0,0
65085,-100,4,2,1,50,0,0
65791,-100,4,2,1,50,0,0
66027,-100,4,1,1,50,0,1
79207,-100,4,2,1,45,0,0
91682,235.367958575239,4,2,1,40,1,0
91682,-100,4,2,1,40,0,0
105804,-100,4,2,1,45,0,0
106745,-100,4,2,1,50,0,0
114277,-100,4,2,1,40,0,0
118043,-100,4,2,1,50,0,0
120043,-100,4,2,1,45,0,0
120867,-100,4,2,1,50,0,0
121809,-100,4,1,1,50,0,1
134989,-100,4,2,1,50,0,0
138520,-100,4,2,1,45,0,0
142521,-100,4,2,1,40,0,0
153819,-100,4,2,1,45,0,0
157585,-100,4,2,1,40,0,0
163233,-100,4,2,1,45,0,0
165116,-100,4,2,1,45,0,0
168882,-100,4,2,1,45,0,0
170765,-100,4,2,1,50,0,0
172648,-100,4,2,1,50,0,0
173590,-100,4,1,1,50,0,1
190889,-100,4,2,1,50,0,1
192419,-100,4,2,1,45,0,0
211248,-100,4,2,1,40,0,0
212896,-100,4,2,1,35,0,0

[Colours]
Combo1 : 255,234,170
Combo2 : 179,255,179
Combo3 : 172,209,255
Combo4 : 252,194,203

[HitObjects]
86,198,17070,6,0,P|131:216|241:157,1,180,4|8,0:0|0:0,0:0:0:0:
300,86,18012,2,0,L|363:91,1,59.9999999999999,2|8,0:0|0:0,0:0:0:0:
350,186,18482,2,0,L|409:181,1,59.9999999999999,2|8,0:0|0:0,0:0:0:0:
492,230,18953,6,0,P|438:250|409:308,1,120,4|0,0:0|0:0,0:0:0:0:
228,365,19894,2,0,B|174:345|174:345|145:287,1,120,0|8,0:0|0:0,0:0:0:0:
36,130,20836,6,0,P|120:125|223:105,1,180,6|8,0:0|0:0,0:0:0:0:
263,25,21777,2,0,P|351:42|440:47,1,180,6|8,0:0|0:0,0:0:0:0:
402,135,22719,6,0,L|399:201,1,59.9999999999999,4|8,0:0|0:0,0:0:0:0:
305,215,23190,2,0,L|318:285,1,59.9999999999999,0|8,0:0|0:0,0:0:0:0:
240,333,23660,2,0,B|179:337|179:337|144:293|144:293|158:231,1,180,14|10,0:0|0:0,0:0:0:0:
93,160,24602,6,0,P|146:174|221:79,1,180,6|8,0:0|0:0,0:0:0:0:
312,59,25543,2,0,L|372:65,1,59.9999999999999,2|8,0:0|0:0,0:0:0:0:
365,161,26014,2,0,L|425:155,1,59.9999999999999,2|8,0:0|0:0,0:0:0:0:
492,222,26485,6,0,P|435:218|379:256,1,120,4|0,0:0|0:0,0:0:0:0:
198,302,27426,2,0,B|138:307|138:307|86:270,1,120,0|8,0:0|0:0,0:0:0:0:
135,85,28368,6,0,P|167:116|181:191,1,120,6|2,0:0|0:0,0:0:0:0:
267,232,29074,2,0,P|323:239|388:218,1,120,10|10,0:0|0:0,0:0:0:0:
451,152,29780,2,0,L|453:85,1,59.9999999999999,2|8,0:0|0:0,0:0:0:0:
477,50,30133,2,0,B|429:51|394:78|394:78|345:31|345:31|300:82|232:75,1,270,8|12,0:0|0:0,0:0:0:0:
29,300,32134,6,0,P|112:256|191:284,1,180,4|8,0:1|0:0,0:0:0:0:
284,286,33075,2,0,P|327:308|376:303,1,89.9999999999999,2|2,0:0|0:0,0:0:0:0:
443,246,33663,2,0,L|446:179,1,59.9999999999999,2|8,0:0|0:0,0:0:0:0:
483,155,34017,6,0,P|481:116|421:59,1,120,2|2,0:0|0:0,0:0:0:0:
331,76,34723,2,0,L|211:63,1,120,8|8,0:0|0:0,0:0:0:0:
67,67,35546,2,0,L|80:129,1,59.9999999999999,8|8,0:0|0:0,0:0:0:0:
38,151,35899,6,0,L|87:333,1,180,4|8,0:0|0:0,0:0:0:0:
178,345,36841,2,0,P|231:307|261:304,1,89.9999999999999,2|2,0:0|0:0,0:0:0:0:
328,243,37429,2,0,L|391:259,1,59.9999999999999,2|8,0:0|0:0,0:0:0:0:
427,282,37782,6,0,P|463:232|470:167,1,120,2|2,0:0|0:0,0:0:0:0:
387,126,38489,2,0,P|351:76|344:11,1,120,8|10,0:0|0:0,0:0:0:0:
232,111,39312,2,0,L|162:99,1,59.9999999999999,8|8,0:0|0:0,0:0:0:0:
133,72,39665,6,0,P|80:93|45:209,1,180,4|8,0:1|0:0,0:0:0:0:
135,227,40607,2,0,L|148:321,1,89.9999999999999,2|2,0:0|0:0,0:0:0:0:
236,351,41195,2,0,L|302:341,1,59.9999999999999,2|8,0:0|0:0,0:0:0:0:
340,359,41548,6,0,P|419:344|446:312,1,120,2|2,0:0|0:0,0:0:0:0:
463,222,42254,2,0,P|413:211|360:159,1,120,8|8,0:0|0:0,0:0:0:0:
265,59,43078,2,0,L|259:124,1,59.9999999999999,8|8,0:0|0:0,0:0:0:0:
212,129,43431,6,0,P|241:172|213:293,1,180,4|8,0:0|0:0,0:0:0:0:
123,317,44373,2,0,L|25:312,1,89.9999999999999,2|2,0:0|0:0,0:0:0:0:
34,216,44961,2,0,L|96:219,1,59.9999999999999,0|8,0:0|0:0,0:0:0:0:
123,181,45314,6,0,B|191:197|191:197|332:148,1,210,2|4,0:0|0:0,0:0:0:0:
401,94,46373,2,0,B|415:134|415:134|410:187,1,89.9999999999999,4|12,0:0|0:0,0:0:0:0:
351,257,46962,1,8,0:0:0:0:
420,322,47197,6,0,P|363:317|286:376,1,150,4|8,0:1|0:0,0:0:0:0:
154,317,48139,2,0,L|141:99,1,210,2|8,0:0|0:0,0:0:0:0:
160,62,49080,6,0,P|216:108|289:108,1,150,2|8,0:0|0:0,0:0:0:0:
413,32,50022,2,0,L|400:241,1,210,2|8,0:0|0:0,0:0:0:0:
443,263,50963,2,0,P|384:291|345:363,1,150,4|8,0:0|0:0,0:0:0:0:
200,362,51905,6,0,P|170:353|112:200,1,210,2|12,0:0|0:0,0:0:0:0:
141,165,52846,2,0,L|353:137,1,210,4|4,0:1|0:0,0:0:0:0:
374,44,53905,2,0,L|194:22,1,180,4|8,0:0|0:0,0:0:0:0:
152,44,54729,6,0,B|44:72|44:72|10:168,1,210,4|8,0:1|0:0,0:0:0:0:
153,191,55906,1,8,0:0:0:0:
371,378,56612,6,0,B|471:354|471:354|513:247,1,210,4|8,0:1|0:0,0:0:0:0:
193,82,58495,6,0,L|380:69,1,180,4|8,0:1|0:0,0:0:0:0:
466,89,59436,2,0,P|490:137|495:148,1,59.9999999999999,2|8,0:0|0:0,0:0:0:0:
401,174,59907,2,0,P|378:216|373:231,1,59.9999999999999,2|8,0:0|0:0,0:0:0:0:
367,323,60378,6,0,L|180:310,1,180,2|8,0:0|0:0,0:0:0:0:
92,322,61319,2,0,P|86:290|79:252,1,59.9999999999999,2|8,0:0|0:0,0:0:0:0:
163,214,61790,2,0,P|169:182|176:144,1,59.9999999999999,2|8,0:0|0:0,0:0:0:0:
134,67,62261,6,0,B|181:67|221:47|221:47|249:78|271:121|271:121|306:98|336:92,2,240,4|2|8,0:1|0:0|0:0,0:0:0:0:
80,340,65085,6,0,L|151:330,1,59.9999999999999,12|8,1:0|0:0,0:0:0:0:
234,314,65556,2,0,L|305:304,1,59.9999999999999,8|8,0:0|0:0,0:0:0:0:
386,331,66027,6,0,P|431:312|455:194,1,180,4|8,0:0|0:0,0:0:0:0:
373,144,66968,2,0,L|307:156,1,59.9999999999999,2|8,0:0|0:0,0:0:0:0:
258,76,67439,2,0,L|191:77,1,59.9999999999999,2|8,0:0|0:0,0:0:0:0:
109,38,67910,6,0,P|64:57|31:128,1,120,6|0,0:0|0:0,0:0:0:0:
96,298,68851,2,0,P|141:279|174:208,1,120,0|8,0:0|0:0,0:0:0:0:
266,50,69792,6,0,P|349:32|455:26,1,180,4|10,0:0|0:0,0:0:0:0:
460,123,70734,2,0,P|370:128|282:147,1,180,6|10,0:0|0:0,0:0:0:0:
209,209,71675,6,0,L|206:275,1,59.9999999999999,6|8,0:0|0:0,0:0:0:0:
300,290,72146,2,0,L|313:360,1,59.9999999999999,0|10,0:0|0:0,0:0:0:0:
217,367,72616,2,0,B|157:378|157:378|101:364|101:364|67:307,1,180,14|10,0:0|0:0,0:0:0:0:
34,221,73558,6,0,P|65:151|174:125,1,180,4|8,0:0|0:0,0:0:0:0:
234,179,74499,2,0,L|293:168,1,59.9999999999999,2|8,0:0|0:0,0:0:0:0:
304,72,74970,2,0,L|363:71,1,59.9999999999999,2|8,0:0|0:0,0:0:0:0:
442,127,75441,6,0,P|476:189|477:250,1,120,2|2,0:0|0:0,0:0:0:0:
288,262,76383,2,0,P|254:324|253:385,1,120,2|2,0:0|0:0,0:0:0:0:
154,372,77089,1,8,0:0:0:0:
58,359,77324,6,0,P|60:300|80:162,1,180,4|8,0:0|0:0,0:0:0:0:
113,91,78266,2,0,L|187:92,1,59.9999999999999,2|8,0:0|0:0,0:0:0:0:
249,149,78736,2,0,P|294:142|352:137,1,89.9999999999999,10|8,0:0|0:0,0:0:0:0:
386,135,79207,5,6,1:0:0:0:
97,48,85327,6,0,L|116:184,1,120,4|8,0:1|0:0,0:0:0:0:
200,207,86033,2,0,L|215:82,1,120,4|8,0:1|0:0,0:0:0:0:
307,63,86739,6,0,B|390:104|390:104|492:79,2,180,4|4|4,0:1|0:0|0:1,0:0:0:0:
279,155,88387,2,0,P|299:248|297:287,1,120,8|4,0:0|0:0,0:0:0:0:
204,249,89093,2,0,P|184:342|186:381,1,120,8|8,0:0|0:0,0:0:0:0:
280,374,89799,5,4,0:1:0:0:
369,340,90034,2,0,L|469:359,2,89.9999999999999,8|4|12,0:0|0:0|0:0,0:0:0:0:
483,84,91682,6,0,P|400:128|321:100,1,180,4|8,0:1|0:0,0:0:0:0:
228,98,92623,2,0,P|185:76|106:98,1,120,2|2,0:0|0:0,0:0:0:0:
114,185,93329,1,8,0:0:0:0:
29,229,93565,6,0,P|31:268|91:325,1,120,2|2,0:0|0:0,0:0:0:0:
181,308,94271,2,0,L|301:321,2,120,8|8|8,0:0|0:0|0:0,0:0:0:0:
149,217,95447,6,0,L|198:35,1,180,4|8,0:0|0:0,0:0:0:0:
287,71,96389,2,0,P|351:85|423:57,1,120,2|2,0:0|0:0,0:0:0:0:
480,127,97095,1,8,0:0:0:0:
400,180,97330,6,0,P|364:230|357:295,1,120,2|2,0:0|0:0,0:0:0:0:
305,368,98036,2,0,P|269:320|260:261,2,120,8|8|12,0:0|0:0|0:0,0:0:0:0:
401,373,99213,6,0,P|454:352|489:236,1,180,4|8,0:1|0:0,0:0:0:0:
498,146,100155,2,0,L|303:124,1,180,2|8,0:0|0:0,0:0:0:0:
242,68,101096,6,0,P|163:83|136:115,1,120,2|2,0:0|0:0,0:0:0:0:
52,152,101802,2,0,P|102:163|155:215,1,120,8|8,0:0|0:0,0:0:0:0:
241,242,102508,2,0,L|251:326,1,59.9999999999999,2|8,0:0|0:0,0:0:0:0:
332,347,102979,6,0,P|361:304|333:183,1,180,4|8,0:0|0:0,0:0:0:0:
345,90,103921,2,0,L|214:91,2,120,2|2|2,0:0|0:0|0:0,0:0:0:0:
432,128,105097,2,0,L|476:194,1,59.9999999999999,8|8,0:0|0:0,0:0:0:0:
462,274,105568,1,8,0:0:0:0:
381,327,105804,6,0,L|306:312,1,59.9999999999999,8|8,0:0|0:0,0:0:0:0:
259,242,106274,2,0,L|200:253,1,59.9999999999999,8|8,0:0|0:0,0:0:0:0:
122,310,106745,6,0,P|67:314|17:260,1,120,4|4,0:1|0:0,0:0:0:0:
132,115,107687,2,0,P|174:74|232:77,1,120,4|4,0:1|0:0,0:0:0:0:
387,191,108628,6,0,L|369:328,1,120,4|4,0:1|0:0,0:0:0:0:
186,362,109569,2,0,L|170:243,1,120,4|8,0:1|0:0,0:0:0:0:
230,167,110276,1,8,0:0:0:0:
169,92,110511,6,0,P|114:67|55:69,1,120,4|4,0:1|0:0,0:0:0:0:
8,255,111452,2,0,P|67:256|121:232,1,120,4|4,0:1|0:0,0:0:0:0:
298,157,112394,2,0,L|428:170,1,120,4|4,0:1|0:0,0:0:0:0:
478,243,113100,1,8,0:0:0:0:
448,334,113335,2,0,B|397:362|397:362|328:359,1,120,8|8,0:0|0:0,0:0:0:0:
258,301,114041,1,8,0:0:0:0:
168,337,114277,6,0,P|135:288|153:161,1,180,4|8,0:1|0:0,0:0:0:0:
207,99,115218,2,0,L|278:105,1,59.9999999999999,2|8,0:0|0:0,0:0:0:0:
358,74,115689,2,0,L|375:182,1,89.9999999999999,2|8,0:0|0:0,0:0:0:0:
359,209,116160,6,0,P|403:223|515:154,1,180,2|8,0:0|0:0,0:0:0:0:
459,81,117101,2,0,L|459:9,1,59.9999999999999,2|8,0:0|0:0,0:0:0:0:
362,26,117572,2,0,L|263:39,1,89.9999999999999,2|8,0:0|0:0,0:0:0:0:
235,68,118043,6,0,B|188:68|148:48|148:48|120:79|98:122|98:122|63:99|33:93,2,240,4|8|8,0:1|0:0|0:0,0:0:0:0:
432,44,120867,6,0,L|361:54,1,59.9999999999999,12|8,0:1|0:0,0:0:0:0:
278,70,121338,2,0,L|207:80,1,59.9999999999999,8|8,0:0|0:0,0:0:0:0:
126,53,121809,6,0,P|81:72|57:190,1,180,4|8,0:0|0:0,0:0:0:0:
139,240,122750,2,0,L|205:228,1,59.9999999999999,2|8,0:0|0:0,0:0:0:0:
254,308,123221,2,0,L|321:307,1,59.9999999999999,2|8,0:0|0:0,0:0:0:0:
403,346,123692,6,0,P|448:327|481:256,1,120,6|0,0:0|0:0,0:0:0:0:
416,86,124633,2,0,P|371:105|338:176,1,120,0|8,0:0|0:0,0:0:0:0:
246,334,125574,6,0,P|163:352|57:358,1,180,4|10,0:0|0:0,0:0:0:0:
52,261,126516,2,0,P|142:256|230:237,1,180,6|10,0:0|0:0,0:0:0:0:
303,175,127457,6,0,L|306:109,1,59.9999999999999,6|8,0:0|0:0,0:0:0:0:
212,94,127928,2,0,L|199:24,1,59.9999999999999,0|10,0:0|0:0,0:0:0:0:
295,17,128398,2,0,B|355:6|355:6|411:20|411:20|445:77,1,180,14|10,0:0|0:0,0:0:0:0:
478,163,129340,6,0,P|447:233|338:259,1,180,4|8,0:0|0:0,0:0:0:0:
278,205,130281,2,0,L|218:215,1,59.9999999999999,2|8,0:0|0:0,0:0:0:0:
208,312,130752,2,0,L|148:312,1,59.9999999999999,2|8,0:0|0:0,0:0:0:0:
70,257,131223,6,0,P|36:195|35:134,1,120,2|2,0:0|0:0,0:0:0:0:
224,122,132165,2,0,P|258:60|259:-1,1,120,2|2,0:0|0:0,0:0:0:0:
358,12,132871,1,8,0:0:0:0:
454,25,133106,6,0,P|452:84|432:222,1,180,4|8,0:0|0:0,0:0:0:0:
399,293,134048,2,0,L|325:292,1,59.9999999999999,2|8,0:0|0:0,0:0:0:0:
263,235,134518,2,0,P|217:241|160:247,1,89.9999999999999,10|8,0:0|0:0,0:0:0:0:
126,249,134989,5,6,1:0:0:0:
65,46,138755,6,0,L|85:181,1,120,4|4,0:1|0:0,0:0:0:0:
173,195,139461,1,8,0:0:0:0:
265,225,139697,2,0,L|245:360,1,120,4|4,0:1|0:0,0:0:0:0:
342,328,140403,1,8,0:0:0:0:
428,285,140638,6,0,L|419:213,1,59.9999999999999,4|4,0:1|0:0,0:0:0:0:
403,130,141109,2,0,L|394:58,1,59.9999999999999,4|4,0:0|0:0,0:0:0:0:
307,31,141580,2,0,L|298:103,1,59.9999999999999,4|8,0:0|0:0,0:0:0:0:
286,185,142051,2,0,L|277:257,1,59.9999999999999,8|8,0:0|0:0,0:0:0:0:
201,302,142521,6,0,P|153:315|183:136,1,359.999999999999,4|8,0:1|0:0,0:0:0:0:
343,227,144404,2,0,P|391:240|361:61,1,359.999999999999,2|8,0:0|0:0,0:0:0:0:
183,5,146287,6,0,L|219:371,1,359.999999999999,2|8,0:0|0:0,0:0:0:0:
26,357,148170,2,0,L|61:-1,1,359.999999999999,2|10,0:0|0:0,0:0:0:0:
249,35,150053,6,0,P|322:162|175:155,1,359.999999999999,4|8,0:1|0:0,0:0:0:0:
88,327,151936,2,0,P|126:184|225:293,1,359.999999999999,2|8,0:0|0:0,0:0:0:0:
316,323,153583,1,8,0:0:0:0:
256,192,153819,12,8,156643,0:0:0:0:
256,192,157585,5,4,0:1:0:0:
419,80,163233,6,0,P|361:101|337:174,1,120,4|4,0:1|0:0,0:0:0:0:
239,154,163939,2,0,L|256:265,2,89.9999999999999,8|8|8,0:0|0:0|0:0,0:0:0:0:
62,78,165116,6,0,P|143:83|182:55,1,120,4|8,0:1|0:0,0:0:0:0:
359,112,166058,2,0,P|440:106|479:135,1,120,4|8,0:0|0:0,0:0:0:0:
447,316,166999,6,0,L|321:278,1,120,4|8,0:0|0:0,0:0:0:0:
171,174,167941,2,0,L|106:194,1,59.9999999999999,8|8,0:0|0:0,0:0:0:0:
44,257,168411,2,0,P|35:304|40:359,1,89.9999999999999,8|8,0:0|0:0,0:0:0:0:
70,380,168882,6,0,L|244:329,1,180,4|8,0:1|0:0,0:0:0:0:
254,233,169824,2,0,L|426:283,1,180,4|8,0:1|0:0,0:0:0:0:
454,191,170765,6,0,L|436:115,1,59.9999999999999,4|8,0:1|0:0,0:0:0:0:
344,125,171236,2,0,L|330:66,1,59.9999999999999,8|8,0:0|0:0,0:0:0:0:
234,60,171707,2,0,L|216:-16,2,59.9999999999999,8|8|8,0:0|0:0|0:0,0:0:0:0:
67,156,172648,6,0,P|148:142|200:242,1,210,4|8,0:1|0:0,0:0:0:0:
180,286,173590,6,0,P|266:330|350:287,1,180,4|8,0:0|0:0,0:0:0:0:
418,249,174531,2,0,L|427:170,1,59.9999999999999,2|8,0:0|0:0,0:0:0:0:
341,140,175002,2,0,L|332:62,1,59.9999999999999,2|8,0:0|0:0,0:0:0:0:
248,37,175472,6,0,P|199:72|128:68,1,120,6|0,0:0|0:0,0:0:0:0:
13,217,176414,2,0,P|72:218|119:252,1,120,0|8,0:0|0:0,0:0:0:0:
285,350,177355,6,0,P|381:326|462:325,1,180,4|10,0:0|0:0,0:0:0:0:
501,237,178297,2,0,P|436:174|358:129,1,180,6|10,0:0|0:0,0:0:0:0:
274,174,179238,6,0,P|263:204|255:242,1,59.9999999999999,6|8,0:0|0:0,0:0:0:0:
162,213,179709,2,0,P|158:256|158:275,1,59.9999999999999,0|10,0:0|0:0,0:0:0:0:
113,358,180180,2,0,B|66:334|63:286|63:286|67:197,1,180,14|10,0:0|0:0,0:0:0:0:
50,103,181121,6,0,P|127:96|208:20,1,180,4|8,0:0|0:0,0:0:0:0:
270,98,182062,2,0,L|329:87,1,59.9999999999999,2|8,0:0|0:0,0:0:0:0:
401,23,182533,2,0,L|465:33,1,59.9999999999999,2|8,0:0|0:0,0:0:0:0:
443,126,183004,6,0,P|477:188|478:249,1,120,2|2,0:0|0:0,0:0:0:0:
296,177,183946,2,0,P|262:239|261:300,1,120,2|2,0:0|0:0,0:0:0:0:
196,360,184652,1,8,0:0:0:0:
105,327,184887,6,0,P|95:287|105:195,1,120,4|0,0:0|0:0,0:0:0:0:
215,54,185829,2,0,P|299:54|346:18,1,120,4|0,0:0|0:0,0:0:0:0:
421,58,186535,1,8,0:0:0:0:
387,147,186770,6,0,P|369:187|380:274,1,120,4|0,0:0|0:0,0:0:0:0:
193,194,187712,2,0,P|193:263|228:325,1,120,4|8,0:0|0:0,0:0:0:0:
296,357,188418,1,8,0:0:0:0:
391,363,188653,6,0,L|460:349,1,59.9999999999999,4|8,0:0|0:0,0:0:0:0:
415,261,189124,2,0,L|473:249,1,59.9999999999999,8|8,0:0|0:0,0:0:0:0:
433,161,189595,2,0,B|445:121|443:104|443:104|386:82|386:82|378:62|373:16,1,180,8|8,0:0|0:0,0:0:0:0:
282,53,190536,6,0,P|242:65|170:66,1,89.9999999999999,10|6,0:2|0:0,0:0:0:0:
99,53,191124,1,4,0:0:0:0:
37,127,191360,1,4,0:0:0:0:
64,218,191595,2,0,L|51:303,1,59.9999999999999,4|4,0:0|0:3,0:0:0:0:
77,320,191948,2,0,L|175:298,1,89.9999999999999,12|8,0:1|0:0,0:0:0:0:
184,256,192419,6,0,P|264:246|347:317,1,180,4|8,0:1|0:0,0:0:0:0:
435,308,193360,2,0,L|449:236,1,59.9999999999999,2|10,0:0|0:0,0:0:0:0:
390,170,193831,2,0,L|400:97,1,59.9999999999999,2|10,0:0|0:0,0:0:0:0:
439,23,194302,6,0,P|375:54|312:45,1,120,2|2,0:0|0:0,0:0:0:0:
214,206,195243,2,0,P|146:182|108:131,1,120,2|2,0:0|0:0,0:0:0:0:
56,70,195950,1,8,0:0:0:0:
20,158,196185,6,0,P|13:255|55:350,1,180,2|8,0:0|0:0,0:0:0:0:
137,331,197126,2,0,L|220:320,1,59.9999999999999,2|10,0:0|0:0,0:0:0:0:
286,287,197597,2,0,L|364:302,1,59.9999999999999,2|10,0:0|0:0,0:0:0:0:
440,310,198068,6,0,P|482:249|459:141,1,180,2|8,0:0|0:0,0:0:0:0:
434,58,199009,2,0,L|288:71,1,120,4|8,0:0|0:0,0:0:0:0:
219,85,199715,1,8,0:0:0:0:
145,146,199951,6,0,P|225:136|308:207,1,180,4|8,0:1|0:0,0:0:0:0:
389,228,200892,2,0,L|377:286,1,59.9999999999999,2|10,0:0|0:0,0:0:0:0:
283,305,201363,2,0,L|274:364,1,59.9999999999999,2|10,0:0|0:0,0:0:0:0:
179,355,201834,6,0,P|119:355|67:327,1,120,2|2,0:0|0:0,0:0:0:0:
188,177,202775,2,0,P|120:153|82:102,1,120,2|2,0:0|0:0,0:0:0:0:
158,49,203482,1,8,0:0:0:0:
243,92,203717,6,0,P|364:94|433:50,1,180,4|8,0:1|0:0,0:0:0:0:
496,114,204658,2,0,L|485:184,1,59.9999999999999,2|8,0:0|0:0,0:0:0:0:
400,216,205129,2,0,L|415:295,1,59.9999999999999,2|2,0:0|0:0,0:0:0:0:
331,329,205600,6,0,P|305:277|172:228,1,180,4|8,0:1|0:0,0:0:0:0:
117,175,206541,2,0,L|121:96,1,59.9999999999999,8|8,0:0|0:0,0:0:0:0:
216,120,207012,2,0,L|212:41,1,59.9999999999999,8|8,0:0|0:0,0:0:0:0:
288,0,207483,6,0,L|371:10,1,59.9999999999999,4|8,0:1|0:0,0:0:0:0:
444,278,208424,6,0,L|527:268,1,59.9999999999999,4|8,0:1|0:0,0:0:0:0:
272,97,209365,6,0,L|355:107,1,59.9999999999999,4|8,0:1|0:0,0:0:0:0:
444,369,210307,6,0,L|503:361,2,59.9999999999999,4|12|12,0:0|0:0|0:0,0:0:0:0:
167,182,212896,5,4,0:1:0:0:
