osu file format v14

[General]
AudioFilename: audio.mp3
AudioLeadIn: 0
PreviewTime: 16540
Countdown: 0
SampleSet: Soft
StackLeniency: 0.4
Mode: 0
LetterboxInBreaks: 0
WidescreenStoryboard: 0

[Editor]
Bookmarks: 2006,9536,17124,32183,47242,58477,63438,66007,79242,85334,91689,105811,106752,114284,118050,121816,134996,138527,151707,168941,173648,181180,190595,192419,207483,210778
DistanceSpacing: 0.95
BeatDivisor: 4
GridSize: 32
TimelineZoom: 3.800001

[Metadata]
Title:Milk Crown on Sonnetica
TitleUnicode:ミルククラウン・オン・ソーネチカ
Artist:nameless
ArtistUnicode:nameless
Creator:Milan-
Version:Milked
Source:
Tags:deetz appleeaterx utaite
BeatmapID:1166087
BeatmapSetID:550414

[Difficulty]
HPDrainRate:5.5
CircleSize:4
OverallDifficulty:9
ApproachRate:9.7
SliderMultiplier:2
SliderTickRate:1

[Events]
//Background and Video events
0,0,"kagetsu irl.jpg",0,0
//Break Periods
2,79407,84832
2,135189,138025
//Storyboard Layer 0 (Background)
//Storyboard Layer 1 (Fail)
//Storyboard Layer 2 (Pass)
//Storyboard Layer 3 (Foreground)
//Storyboard Sound Samples

[TimingPoints]
2007,235.367958575239,4,2,1,55,1,0
9538,-166.666666666667,4,2,1,35,0,0
17070,-100,4,1,1,50,0,0
30368,-111.111111111111,4,2,1,50,0,0
30604,-125,4,2,1,50,0,0
30839,-142.857142857143,4,2,1,50,0,0
31074,-90.9090909090909,4,2,1,50,0,0
32134,-125,4,2,1,40,0,0
46373,-142.857142857143,4,2,1,40,0,0
46609,-90.9090909090909,4,2,1,40,0,0
46726,-125,4,2,1,40,0,0
47197,-166.666666666667,4,2,1,40,0,0
52846,-166.666666666667,4,2,1,45,0,0
58495,-111.111111111111,4,2,1,45,0,0
62261,-105.263157894737,4,2,1,50,0,0
64261,-105.263157894737,4,2,1,45,0,0
64497,-125,4,2,1,45,0,0
64732,-142.857142857143,4,2,1,45,0,0
64967,-90.9090909090909,4,2,1,45,0,0
65085,-125,4,2,1,50,0,0
66027,-100,4,1,1,50,0,1
79207,-100,4,2,1,45,0,0
90152,-125,4,2,1,45,0,0
90387,-142.857142857143,4,2,1,45,0,0
90623,-90.9090909090909,4,2,1,45,0,0
91682,235.367958575239,4,2,1,40,1,0
91682,-125,4,2,1,40,0,0
105804,-125,4,2,1,45,0,0
106745,-142.857142857143,4,2,1,50,0,0
109864,-105.263157894737,4,2,1,50,0,0
110511,-142.857142857143,4,2,1,50,0,0
110746,-105.263157894737,4,2,1,50,0,0
110982,-142.857142857143,4,2,1,50,0,0
111217,-105.263157894737,4,2,1,50,0,0
111452,-142.857142857143,4,2,1,50,0,0
111688,-105.263157894737,4,2,1,50,0,0
111923,-142.857142857143,4,2,1,50,0,0
112159,-105.263157894737,4,2,1,50,0,0
112394,-142.857142857143,4,2,1,50,0,0
112629,-105.263157894737,4,2,1,50,0,0
112865,-142.857142857143,4,2,1,50,0,0
114277,-111.111111111111,4,2,1,40,0,0
118043,-105.263157894737,4,2,1,50,0,0
120043,-105.263157894737,4,2,1,45,0,0
120279,-125,4,2,1,45,0,0
120514,-142.857142857143,4,2,1,45,0,0
120749,-90.9090909090909,4,2,1,45,0,0
120867,-90.9090909090909,4,2,1,50,0,0
121809,-100,4,1,1,50,0,1
134989,-100,4,2,1,50,0,0
138520,-142.857142857143,4,2,1,45,0,0
142521,-200,4,2,1,40,0,0
153819,-200,4,2,1,45,0,0
157585,-166.666666666667,4,2,1,40,0,0
163233,-166.666666666667,4,2,1,45,0,0
165116,-125,4,2,1,45,0,0
168882,-111.111111111111,4,2,1,45,0,0
170765,-105.263157894737,4,2,1,50,0,0
172648,-166.666666666667,4,2,1,50,0,0
173590,-100,4,1,1,50,0,1
188653,-83.3333333333333,4,1,1,50,0,1
190536,-83.3333333333333,4,1,1,50,0,0
190889,-90.9090909090909,4,2,1,50,0,0
191124,-83.3333333333333,4,2,1,50,0,0
191360,-76.9230769230769,4,2,1,50,0,0
191595,-71.4285714285714,4,2,1,50,0,0
191831,-50,4,2,1,50,0,0
192419,-100,4,2,1,45,0,0
211248,-100,4,2,1,40,0,0
212896,-100,4,2,1,35,0,0
212955,-100,4,2,1,15,0,0

[Colours]
Combo1 : 255,234,170
Combo2 : 179,255,179
Combo3 : 172,209,255
Combo4 : 252,194,203

[HitObjects]
427,101,9538,6,0,P|430:71|423:42,2,59.9999981689454,4|0|0,0:0|0:0|0:0,0:0:0:0:
353,153,9891,1,0,0:0:0:0:
353,153,10009,2,0,L|224:142,1,119.999996337891,0|0,1:0|0:0,0:0:0:0:
156,253,10362,2,0,P|163:224|160:195,1,59.9999981689454,2|0,0:0|1:0,0:0:0:0:
193,334,10597,2,0,P|218:318|237:295,1,59.9999981689454,2|0,0:0|0:0,0:0:0:0:
297,363,10833,1,2,0:0:0:0:
347,289,10950,2,0,P|378:280|421:283,1,59.9999981689454,2|0,1:2|0:0,0:0:0:0:
290,214,11186,2,0,P|290:184|299:155,1,59.9999981689454,0|0,0:0|0:0,0:0:0:0:
237,295,11421,6,0,P|206:304|163:301,2,59.9999981689454,2|0|0,1:2|0:0|0:0,0:0:0:0:
197,214,11774,1,0,0:0:0:0:
197,214,11892,2,0,P|135:216|83:173,1,119.999996337891,0|0,1:0|0:0,0:0:0:0:
74,35,12245,2,0,L|70:95,1,59.9999981689454,2|0,0:0|1:0,0:0:0:0:
162,51,12480,2,0,L|158:111,1,59.9999981689454,2|0,0:0|0:0,0:0:0:0:
247,92,12716,1,2,0:0:0:0:
247,92,12833,2,0,P|295:58|354:61,1,119.999996337891,2|4,1:2|0:0,0:0:0:0:
193,272,13304,6,0,P|189:242|196:213,2,59.9999981689454,4|0|0,0:0|0:0|0:0,0:0:0:0:
255,341,13657,1,0,0:0:0:0:
255,341,13775,2,0,L|384:330,1,119.999996337891,0|0,1:0|0:0,0:0:0:0:
450,218,14128,2,0,P|453:247|447:277,1,59.9999981689454,2|0,0:0|1:0,0:0:0:0:
368,179,14363,2,0,P|361:149|364:120,1,59.9999981689454,2|0,0:0|0:0,0:0:0:0:
437,64,14599,1,2,0:0:0:0:
278,84,14716,2,0,P|294:58|318:41,1,59.9999981689454,2|0,1:2|0:0,0:0:0:0:
278,170,14952,2,0,L|201:159,1,59.9999981689454,0|0,0:0|0:0,0:0:0:0:
24,88,15187,6,0,L|101:77,1,59.9999981689454,2|0,1:2|0:0,0:0:0:0:
278,170,15422,1,2,1:2:0:0:
278,170,15776,6,0,L|374:157,1,89.9999972534181,4|0,0:0|0:0,0:0:0:0:
478,230,16011,2,0,L|388:242,1,89.9999972534181,4|0,0:0|0:0,0:0:0:0:
347,70,16246,2,0,P|391:67|428:91,1,89.9999972534181,4|0,0:0|0:0,0:0:0:0:
303,292,16482,2,0,P|294:279|289:265,1,29.9999990844727,4|0,0:3|0:0,0:0:0:0:
367,157,16599,1,12,0:0:0:0:
367,157,16835,5,8,0:0:0:0:
303,292,16952,1,8,0:0:0:0:
510,339,17070,6,0,P|439:356|381:311,1,150,4|0,0:0|2:0,0:0:0:0:
303,292,17305,2,0,L|312:190,1,100,8|0,0:0|0:0,0:0:0:0:
27,77,17541,2,0,P|98:59|156:104,1,150,0|0,0:0|2:0,0:0:0:0:
234,124,17776,2,0,L|225:226,1,100,8|0,0:0|0:0,0:0:0:0:
43,346,18012,6,0,P|80:283|153:273,1,150,2|0,0:0|2:0,0:0:0:0:
231,309,18247,2,0,L|329:293,1,100,8|0,0:0|0:0,0:0:0:0:
31,336,18482,6,0,P|68:273|141:263,1,150,2|0,0:0|2:0,0:0:0:0:
241,319,18718,2,0,L|339:303,1,100,8|0,0:0|0:0,0:0:0:0:
512,203,18953,6,0,P|475:140|402:130,1,150,4|0,0:0|2:0,0:0:0:0:
334,89,19188,2,0,L|325:215,1,100,8|0,0:0|0:0,0:0:0:0:
69,133,19424,2,0,P|106:70|179:60,1,150,0|0,0:0|2:0,0:0:0:0:
247,19,19659,2,0,L|257:149,1,100,8|0,0:0|0:0,0:0:0:0:
376,278,19894,5,0,0:0:0:0:
376,278,20130,5,8,0:0:0:0:
254,118,20248,1,8,0:0:0:0:
166,325,20365,2,0,P|214:334|261:318,1,100,8|0,0:0|0:0,0:0:0:0:
421,166,20601,2,0,P|372:156|326:173,1,100,8|0,0:0|0:0,0:0:0:0:
107,256,20836,6,0,B|87:205|87:205|126:93,1,150,6|0,0:0|2:0,0:0:0:0:
118,115,21071,1,10,0:0:0:0:
53,178,21189,1,0,0:0:0:0:
188,58,21307,2,0,L|292:48,1,100,2|0,0:0|0:0,0:0:0:0:
326,172,21542,2,0,L|226:181,1,100,8|0,0:0|0:0,0:0:0:0:
417,110,21777,6,0,B|437:161|437:161|398:273,1,150,6|0,0:0|2:0,0:0:0:0:
405,250,22013,1,10,0:0:0:0:
470,187,22130,1,0,0:0:0:0:
317,267,22248,2,0,L|328:366,1,100,2|0,0:0|0:0,0:0:0:0:
248,207,22484,2,0,P|205:182|155:183,1,100,8|0,0:0|0:0,0:0:0:0:
318,108,22719,6,0,L|332:-8,1,100,4|0,0:0|0:0,0:0:0:0:
90,84,22954,2,0,L|200:67,1,100,8|0,0:0|0:0,0:0:0:0:
236,306,23190,2,0,L|248:207,1,100,0|0,0:0|0:0,0:0:0:0:
476,231,23425,2,0,L|377:246,1,100,8|0,0:0|0:0,0:0:0:0:
140,278,23660,5,14,0:0:0:0:
377,246,23778,1,8,0:0:0:0:
130,137,23896,5,10,0:0:0:0:
320,316,24013,1,8,0:0:0:0:
76,360,24131,5,10,0:0:0:0:
285,234,24249,1,8,0:0:0:0:
35,176,24366,5,10,0:0:0:0:
199,366,24484,1,8,0:0:0:0:
345,161,24602,6,0,P|358:89|307:38,1,150,6|0,0:0|2:0,0:0:0:0:
242,84,24837,2,0,L|128:79,1,100,8|0,0:0|0:0,0:0:0:0:
0,250,25073,2,0,P|-13:178|38:127,1,150,0|0,0:0|2:0,0:0:0:0:
103,173,25308,2,0,L|217:168,1,100,8|0,0:0|0:0,0:0:0:0:
370,297,25543,6,0,P|328:236|256:236,1,150,2|0,0:0|2:0,0:0:0:0:
178,250,25779,2,0,L|189:351,1,100,8|0,0:0|0:0,0:0:0:0:
378,285,26014,6,0,P|336:224|264:224,1,150,2|0,0:0|2:0,0:0:0:0:
165,258,26249,2,0,L|176:359,1,100,8|0,0:0|0:0,0:0:0:0:
0,226,26485,6,0,P|72:225|112:165,1,150,4|0,0:0|2:0,0:0:0:0:
192,177,26720,2,0,L|172:78,1,100,8|0,0:0|0:0,0:0:0:0:
297,0,26956,2,0,P|370:0|410:60,1,150,0|0,0:0|2:0,0:0:0:0:
490,49,27191,2,0,L|470:147,1,100,8|0,0:0|0:0,0:0:0:0:
255,68,27426,5,0,0:0:0:0:
255,68,27662,5,8,0:0:0:0:
470,147,27779,1,8,0:0:0:0:
292,266,27897,2,0,P|279:218|293:171,1,100,8|0,0:0|0:0,0:0:0:0:
145,23,28132,2,0,P|157:70|143:117,1,100,8|0,0:0|0:0,0:0:0:0:
19,247,28368,6,0,B|69:255|69:255|116:231|116:231|164:234,1,150,6|0,0:0|2:0,0:0:0:0:
162,234,28603,1,10,0:0:0:0:
148,323,28721,1,0,0:0:0:0:
234,299,28838,2,0,L|336:291,1,100,2|0,0:0|0:0,0:0:0:0:
389,132,29074,5,10,0:0:0:0:
403,221,29191,1,0,0:0:0:0:
317,197,29309,2,0,L|215:189,1,100,2|0,0:0|0:0,0:0:0:0:
162,30,29545,5,10,0:0:0:0:
148,119,29662,1,0,0:0:0:0:
234,95,29780,1,2,0:0:0:0:
78,61,29898,5,8,0:0:0:0:
316,110,30015,1,8,0:0:0:0:
0,46,30133,1,8,0:0:0:0:
156,79,30251,5,0,0:0:0:0:
89,254,30368,6,0,P|62:194|96:139,1,134.999995880127,4|0,0:0|2:0,0:0:0:0:
286,158,30604,6,0,P|312:217|277:263,1,120,4|0,0:0|2:0,0:0:0:0:
156,78,30839,6,0,P|203:60|248:83,1,104.999996795654,4|0,0:0|2:0,0:0:0:0:
215,305,31074,6,0,P|164:303|141:288,1,55.0000016784668,4|0,0:3|2:0,0:0:0:0:
192,193,31192,5,12,0:0:0:0:
440,208,32134,5,4,0:1:0:0:
443,48,32251,2,0,L|441:128,1,80,0|8,0:0|0:0,0:0:0:0:
360,216,32487,1,0,0:0:0:0:
360,136,32604,2,0,L|363:57,1,80,0|0,0:0|0:0,0:0:0:0:
280,148,32840,2,0,L|283:69,1,80,8|0,0:0|0:0,0:0:0:0:
200,238,33075,5,2,0:0:0:0:
203,78,33193,2,0,L|200:157,1,80,0|8,0:0|0:0,0:0:0:0:
130,282,33428,2,0,P|177:317|235:313,1,120,2|0,0:0|0:0,0:0:0:0:
235,313,33663,2,0,P|258:299|277:269,1,40,2|0,0:0|0:0,0:0:0:0:
200,238,33781,1,8,0:0:0:0:
351,300,33899,1,8,0:0:0:0:
389,224,34017,6,0,P|330:219|265:299,1,160,2|8,0:0|0:0,0:0:0:0:
257,159,34370,1,0,0:0:0:0:
193,207,34487,2,0,P|134:211|69:131,1,160,2|8,0:0|0:0,0:0:0:0:
257,159,34840,2,0,P|269:82|217:25,1,160,2|0,0:0|0:0,0:0:0:0:
170,116,35193,1,8,0:0:0:0:
170,116,35546,5,8,0:0:0:0:
191,296,35664,1,8,0:0:0:0:
335,186,35782,1,8,0:0:0:0:
169,115,35899,6,0,P|130:110|93:124,1,80,4|0,0:0|0:0,0:0:0:0:
184,249,36135,2,0,P|209:218|217:180,1,80,8|0,0:0|0:0,0:0:0:0:
92,124,36370,1,0,0:0:0:0:
58,199,36488,2,0,P|73:235|103:260,1,80,0|8,0:0|0:0,0:0:0:0:
169,115,36723,1,0,0:0:0:0:
14,131,36841,6,0,L|19:35,1,80,2|0,0:0|0:0,0:0:0:0:
169,115,37076,1,8,0:0:0:0:
92,124,37194,2,0,L|96:44,1,80,2|0,0:0|0:0,0:0:0:0:
248,103,37429,1,2,0:0:0:0:
184,249,37547,1,8,0:0:0:0:
366,221,37665,1,8,0:0:0:0:
319,150,37782,6,0,P|285:198|321:294,1,160,2|8,0:0|0:0,0:0:0:0:
392,300,38135,1,0,0:0:0:0:
259,350,38253,2,0,L|179:337,1,80,2|0,0:0|0:0,0:0:0:0:
340,361,38489,1,8,0:0:0:0:
101,323,38606,2,0,P|44:295|45:191,1,160,2|0,0:0|0:0,0:0:0:0:
170,116,38959,2,0,L|90:120,1,80,10|0,0:0|0:0,0:0:0:0:
231,40,39195,1,2,0:0:0:0:
126,204,39312,5,8,0:0:0:0:
333,105,39430,1,8,0:0:0:0:
115,32,39548,1,8,0:0:0:0:
357,107,39665,5,4,0:1:0:0:
230,40,39783,2,0,L|236:135,1,80,0|8,0:0|0:0,0:0:0:0:
319,232,40018,1,0,0:0:0:0:
248,280,40136,2,0,L|244:201,1,80,0|0,0:0|0:0,0:0:0:0:
396,190,40371,2,0,L|400:269,1,80,8|0,0:0|0:0,0:0:0:0:
252,360,40607,6,0,L|247:280,1,80,2|0,0:0|0:0,0:0:0:0:
405,351,40842,1,8,0:0:0:0:
319,232,40960,2,0,P|272:197|214:201,1,120,2|0,0:0|0:0,0:0:0:0:
214,201,41195,2,0,P|191:215|172:245,1,40,2|0,0:0|0:0,0:0:0:0:
247,280,41313,1,8,0:0:0:0:
99,218,41431,1,8,0:0:0:0:
137,294,41548,6,0,P|78:299|13:219,1,160,2|8,0:0|0:0,0:0:0:0:
48,62,41901,1,0,0:0:0:0:
76,137,42019,2,0,P|36:141|0:126,2,80,2|0|8,0:0|0:0|0:0,0:0:0:0:
215,187,42372,2,0,P|292:184|337:122,1,160,2|0,0:0|0:0,0:0:0:0:
160,128,42725,1,8,0:0:0:0:
160,128,43078,5,8,0:0:0:0:
319,42,43196,1,8,0:0:0:0:
308,224,43314,1,8,0:0:0:0:
160,128,43431,6,0,P|121:123|84:137,1,80,4|0,0:0|0:0,0:0:0:0:
1,270,43667,2,0,P|17:234|49:210,1,80,8|0,0:0|0:0,0:0:0:0:
190,336,43902,1,0,0:0:0:0:
190,256,44020,2,0,P|165:224|129:208,1,80,0|8,0:0|0:0,0:0:0:0:
260,293,44255,1,0,0:0:0:0:
160,128,44373,6,0,L|182:42,1,80,2|0,0:0|0:0,0:0:0:0:
308,162,44608,1,8,0:0:0:0:
229,176,44726,2,0,L|266:20,1,160,2|0,0:0|0:0,0:0:0:0:
385,145,45079,1,8,0:0:0:0:
229,176,45197,1,8,0:0:0:0:
427,77,45314,6,0,P|460:125|453:184,1,120,2|0,0:0|0:0,0:0:0:0:
453,184,45550,2,0,P|440:221|448:265,1,80,10|0,0:0|0:0,0:0:0:0:
384,378,45785,2,0,P|390:339|377:302,2,80,2|0|8,0:0|0:0|0:0,0:0:0:0:
303,269,46138,6,0,B|254:264|254:264|226:274|226:274|170:267,1,120,4|0,0:0|0:0,0:0:0:0:
103,152,46373,6,0,P|146:181|197:182,1,104.999996795654,4|0,0:0|0:0,0:0:0:0:
325,134,46609,6,0,P|309:161|277:181,1,55.0000016784668,4|0,0:3|0:0,0:0:0:0:
172,95,46726,1,12,0:0:0:0:
172,95,46962,5,8,0:0:0:0:
109,313,47079,1,8,0:0:0:0:
172,95,47197,6,0,P|224:96|276:42,2,119.999996337891,4|8|2,0:1|0:0|0:0,0:0:0:0:
18,115,47786,2,0,P|76:121|117:163,1,119.999996337891,8|0,0:0|0:0,0:0:0:0:
174,227,48139,2,0,P|124:256|108:312,1,119.999996337891,2|0,0:0|0:0,0:0:0:0:
248,268,48492,1,8,0:0:0:0:
320,226,48609,2,0,P|304:169|253:140,1,119.999996337891,2|0,0:0|0:0,0:0:0:0:
198,35,48962,1,8,0:0:0:0:
277,61,49080,6,0,P|305:54|331:38,1,59.9999981689454,2|0,0:0|0:0,0:0:0:0:
138,96,49315,2,0,P|129:124|130:154,1,59.9999981689454,8|0,0:0|0:0,0:0:0:0:
46,257,49551,1,2,0:0:0:0:
128,238,49669,2,0,P|182:259|206:313,1,119.999996337891,8|0,0:0|0:0,0:0:0:0:
218,179,50022,2,0,P|272:158|296:104,1,119.999996337891,2|0,0:0|0:0,0:0:0:0:
284,252,50375,1,8,0:0:0:0:
357,212,50492,2,0,P|412:202|439:206,1,59.9999981689454,2|0,0:0|0:0,0:0:0:0:
308,336,50728,1,8,0:0:0:0:
218,179,50845,1,8,0:0:0:0:
308,336,50963,6,0,P|253:326|226:330,1,59.9999981689454,4|0,0:0|0:0,0:0:0:0:
101,311,51198,2,0,P|159:304|194:258,1,119.999996337891,8|2,0:0|0:0,0:0:0:0:
235,98,51551,2,0,P|176:104|141:150,1,119.999996337891,8|0,0:0|0:0,0:0:0:0:
39,254,51905,2,0,P|29:225|29:195,2,59.9999981689454,2|0|0,0:0|0:0|0:0,0:0:0:0:
194,258,52258,1,8,0:0:0:0:
266,298,52375,2,0,P|275:269|275:239,1,59.9999981689454,2|0,0:0|0:0,0:0:0:0:
114,286,52611,1,8,0:0:0:0:
281,160,52728,1,12,0:0:0:0:
114,286,52846,6,0,P|104:257|104:227,1,59.9999981689454,4|0,0:1|0:0,0:0:0:0:
199,60,53081,1,8,0:0:0:0:
131,110,53199,1,8,0:0:0:0:
51,82,53317,2,0,P|41:53|41:23,1,59.9999981689454,4|0,0:0|0:0,0:0:0:0:
13,157,53552,1,8,0:0:0:0:
175,186,53670,6,0,L|271:163,1,89.9999972534181,4|0,0:0|0:0,0:0:0:0:
262,165,53905,2,0,L|312:154,1,29.9999990844727,4|0,0:0|0:0,0:0:0:0:
376,188,54023,5,12,0:0:0:0:
246,255,54141,1,8,0:0:0:0:
400,100,54258,5,8,0:0:0:0:
306,322,54376,1,8,0:0:0:0:
333,40,54494,5,8,0:0:0:0:
395,321,54611,1,8,0:0:0:0:
243,32,54729,6,0,L|155:52,1,89.9999972534181,4|0,0:1|0:0,0:0:0:0:
155,52,54964,5,8,0:0:0:0:
159,57,55317,1,8,0:0:0:0:
159,57,55553,6,0,P|217:50|271:75,1,119.999996337891,8|0,0:0|0:0,0:0:0:0:
99,116,55906,1,8,0:0:0:0:
99,116,56376,5,8,0:0:0:0:
324,145,56494,1,8,0:0:0:0:
98,116,56612,6,0,P|86:158|93:203,1,89.9999972534181,4|0,0:1|0:0,0:0:0:0:
93,203,56847,2,0,P|118:256|104:313,1,119.999996337891,8|2,0:0|0:0,0:0:0:0:
202,224,57200,2,0,P|228:188|267:166,1,89.9999972534181,8|0,0:0|0:0,0:0:0:0:
267,166,57436,2,0,P|282:162|297:161,1,29.9999990844727,8|0,0:0|0:0,0:0:0:0:
289,253,57553,5,4,0:0:0:0:
249,75,57671,1,8,0:0:0:0:
108,206,57789,5,8,0:0:0:0:
341,80,57906,1,8,0:0:0:0:
317,339,58024,5,8,0:0:0:0:
175,137,58142,1,8,0:0:0:0:
431,88,58259,5,8,0:0:0:0:
202,224,58377,1,8,0:0:0:0:
423,356,58495,6,0,L|520:349,1,89.9999972534181,4|0,0:1|0:0,0:0:0:0:
361,266,58730,2,0,P|328:296|316:339,1,89.9999972534181,8|0,0:0|0:0,0:0:0:0:
455,266,58966,1,2,0:0:0:0:
412,192,59083,1,0,0:0:0:0:
326,185,59201,2,0,P|281:186|242:164,1,89.9999972534181,8|0,0:0|0:0,0:0:0:0:
119,324,59436,6,0,P|178:261|264:272,2,179.999994506836,2|8|2,0:0|0:0|0:0,0:0:0:0:
50,271,60025,1,0,0:0:0:0:
84,193,60142,2,0,P|88:148|68:108,1,89.9999972534181,8|0,0:0|0:0,0:0:0:0:
209,9,60378,5,2,0:0:0:0:
152,72,60495,1,0,0:0:0:0:
235,90,60613,2,0,L|325:77,1,89.9999972534181,8|0,0:0|0:0,0:0:0:0:
483,217,60848,2,0,P|423:154|337:165,1,179.999994506836,2|8,0:0|0:0,0:0:0:0:
223,230,61202,1,0,0:0:0:0:
310,246,61319,6,0,P|250:309|164:298,2,179.999994506836,2|8|2,0:0|0:0|0:0,0:0:0:0:
337,165,61908,1,0,0:0:0:0:
392,229,62025,2,0,P|416:275|412:319,1,89.9999972534181,8|0,0:0|0:0,0:0:0:0:
378,85,62261,6,0,L|472:77,1,94.9999974632264,4|0,0:1|0:0,0:0:0:0:
337,165,62496,2,0,L|243:173,1,94.9999974632264,8|0,0:0|0:0,0:0:0:0:
213,0,62731,2,0,P|210:47|233:88,1,94.9999974632264,2|0,0:0|0:0,0:0:0:0:
330,333,62967,2,0,P|332:286|309:245,1,94.9999974632264,8|0,0:0|0:0,0:0:0:0:
144,117,63202,6,0,P|103:140|57:137,1,94.9999974632264,2|0,0:0|0:0,0:0:0:0:
420,315,63438,2,0,P|460:291|506:294,1,94.9999974632264,8|0,0:0|0:0,0:0:0:0:
233,55,63673,5,2,0:0:0:0:
335,339,63791,1,8,0:0:0:0:
322,116,63908,5,8,0:0:0:0:
276,272,64026,1,8,0:0:0:0:
362,214,64144,5,8,0:0:0:0:
135,160,64261,6,0,P|199:134|262:164,1,142.49999619484,4|0,0:0|0:0,0:0:0:0:
411,117,64497,6,0,P|406:175|362:213,1,120,4|0,0:0|0:0,0:0:0:0:
336,347,64732,6,0,P|287:314|277:259,1,104.999996795654,4|0,0:0|0:0,0:0:0:0:
262,164,64967,6,0,L|267:109,1,55.0000016784668,4|0,0:3|0:0,0:0:0:0:
170,230,65085,5,12,1:0:0:0:
170,230,65320,5,8,0:0:0:0:
410,117,65438,1,8,0:0:0:0:
430,295,65556,5,8,0:0:0:0:
175,140,65674,1,8,0:0:0:0:
195,318,65791,5,8,0:0:0:0:
434,205,65909,1,8,0:0:0:0:
482,370,66027,6,0,P|411:387|353:342,1,150,4|0,0:0|2:0,0:0:0:0:
274,352,66262,2,0,L|283:250,1,100,8|0,0:0|0:0,0:0:0:0:
182,115,66497,1,0,0:0:0:0:
270,132,66615,1,0,0:0:0:0:
93,96,66733,2,0,L|101:195,1,100,8|0,0:0|0:0,0:0:0:0:
156,380,66968,6,0,P|190:316|163:248,1,150,2|0,0:0|2:0,0:0:0:0:
101,195,67203,2,0,L|-17:212,1,100,8|0,0:0|0:0,0:0:0:0:
174,383,67439,6,0,P|208:319|181:251,1,150,2|0,0:0|2:0,0:0:0:0:
105,177,67674,2,0,L|-13:194,1,100,8|0,0:0|0:0,0:0:0:0:
160,57,67910,6,0,P|221:94|288:68,1,150,6|0,0:0|2:0,0:0:0:0:
347,13,68145,2,0,L|451:14,1,100,8|0,0:0|0:0,0:0:0:0:
512,176,68380,2,0,P|450:138|383:164,1,150,0|0,0:0|2:0,0:0:0:0:
325,220,68616,2,0,L|225:219,1,100,8|0,0:0|0:0,0:0:0:0:
402,246,68851,5,0,0:0:0:0:
402,246,69086,5,8,0:0:0:0:
182,151,69204,1,8,0:0:0:0:
402,246,69322,2,0,P|429:286|431:336,1,100,8|0,0:0|0:0,0:0:0:0:
308,136,69557,2,0,P|309:86|337:45,1,100,8|0,0:0|0:0,0:0:0:0:
264,272,69792,6,0,P|218:292|169:285,1,100,4|0,0:0|0:0,0:0:0:0:
208,200,70028,1,8,0:0:0:0:
141,374,70146,2,0,P|81:300|118:213,1,200,6|0,0:0|0:0,0:0:0:0:
272,114,70499,2,0,L|162:111,1,100,10|0,0:0|0:0,0:0:0:0:
15,73,70734,5,6,0:0:0:0:
101,47,70852,1,0,0:0:0:0:
81,134,70969,1,8,0:0:0:0:
15,73,71087,2,0,P|53:132|1:252,1,200,6|0,0:0|0:0,0:0:0:0:
127,215,71440,2,0,L|240:205,1,100,10|0,0:0|0:0,0:0:0:0:
348,13,71675,5,6,0:0:0:0:
260,29,71793,1,0,0:0:0:0:
317,98,71911,1,8,0:0:0:0:
260,29,72028,2,0,P|230:118|309:188,1,200,6|0,0:0|0:0,0:0:0:0:
481,99,72382,5,10,0:0:0:0:
297,186,72499,1,8,0:0:0:0:
512,271,72617,5,14,0:0:0:0:
317,98,72735,1,8,0:0:0:0:
276,274,72852,5,10,0:0:0:0:
494,183,72970,1,8,0:0:0:0:
251,364,73088,5,10,0:0:0:0:
401,144,73205,1,8,0:0:0:0:
157,216,73323,5,10,0:0:0:0:
396,319,73441,1,8,0:0:0:0:
230,90,73558,6,0,P|158:79|106:129,1,150,4|0,0:0|2:0,0:0:0:0:
24,132,73794,2,0,L|37:251,1,100,8|0,0:0|0:0,0:0:0:0:
245,243,74029,2,0,P|316:232|368:282,1,150,2|0,0:0|2:0,0:0:0:0:
451,284,74264,2,0,L|438:403,1,100,8|0,0:0|0:0,0:0:0:0:
177,306,74500,6,0,P|156:247|174:197,2,100,2|0|8,0:0|0:0|0:0,0:0:0:0:
83,196,74853,1,0,0:0:0:0:
248,100,74971,2,0,P|155:137|77:69,1,200,2|8,0:0|0:0,0:0:0:0:
170,54,75324,1,0,0:0:0:0:
321,165,75441,6,0,B|347:116|347:116|319:20,1,150,2|0,0:0|2:0,0:0:0:0:
320,25,75677,1,8,0:0:0:0:
380,95,75794,1,0,0:0:0:0:
253,228,75912,2,0,P|330:172|418:210,1,200,2|8,0:0|0:0,0:0:0:0:
340,257,76265,1,0,0:0:0:0:
177,167,76383,6,0,B|150:215|150:215|178:311,1,150,2|0,0:0|2:0,0:0:0:0:
177,306,76618,1,8,0:0:0:0:
89,147,76736,1,8,0:0:0:0:
253,228,76854,2,0,L|355:209,1,100,2|0,0:0|0:0,0:0:0:0:
155,79,77089,2,0,P|155:24|209:-33,1,100,8|0,0:0|0:0,0:0:0:0:
470,77,77324,6,0,B|419:98|419:98|327:73,1,150,4|0,0:0|2:0,0:0:0:0:
327,73,77560,1,8,0:0:0:0:
398,126,77677,1,0,0:0:0:0:
247,51,77795,2,0,P|227:144|137:177,1,200,2|8,0:0|0:0,0:0:0:0:
155,79,78148,1,0,0:0:0:0:
85,261,78266,6,0,P|49:226|39:178,1,100,2|0,0:0|0:0,0:0:0:0:
208,148,78501,5,8,0:0:0:0:
0,99,78619,1,0,0:0:0:0:
245,64,78736,5,10,0:0:0:0:
38,178,78854,1,8,0:0:0:0:
328,104,78972,5,10,0:0:0:0:
36,19,79090,1,8,0:0:0:0:
166,295,79207,5,6,1:0:0:0:
413,160,85327,6,0,L|235:137,1,150,4|0,0:1|0:0,0:0:0:0:
264,140,85562,1,8,0:0:0:0:
438,242,85680,1,8,0:0:0:0:
249,269,85797,2,0,L|349:257,1,100,8|0,0:0|0:0,0:0:0:0:
175,343,86033,6,0,P|148:284|193:181,1,150,4|0,0:1|0:0,0:0:0:0:
168,204,86268,1,8,0:0:0:0:
63,300,86386,1,8,0:0:0:0:
249,269,86504,1,8,0:0:0:0:
63,300,86621,1,8,0:0:0:0:
235,126,86739,6,0,B|133:93|137:163|40:127,1,200,4|0,0:1|0:0,0:0:0:0:
238,38,87092,2,0,P|189:27|140:33,1,100,8|0,0:0|0:0,0:0:0:0:
172,208,87327,1,8,0:0:0:0:
326,22,87445,5,4,0:0:0:0:
304,193,87563,1,8,0:0:0:0:
407,47,87680,5,8,0:0:0:0:
389,181,87798,1,8,0:0:0:0:
485,82,87916,5,8,0:0:0:0:
474,171,88033,1,8,0:0:0:0:
314,107,88151,6,0,L|149:122,1,150,4|0,0:1|0:0,0:0:0:0:
164,120,88387,5,8,0:0:0:0:
244,196,88504,1,8,0:0:0:0:
78,252,88622,5,8,0:0:0:0:
206,295,88740,1,8,0:0:0:0:
119,384,88857,6,0,L|267:366,1,150,4|0,0:0|0:0,0:0:0:0:
267,365,89093,5,8,0:0:0:0:
160,201,89210,1,8,0:0:0:0:
346,297,89328,5,8,0:0:0:0:
244,196,89446,1,8,0:0:0:0:
387,202,89563,5,8,0:0:0:0:
306,137,89681,1,8,0:0:0:0:
206,295,89799,6,0,P|134:301|70:223,1,150,4|0,0:1|0:0,0:0:0:0:
78,252,90034,1,8,0:0:0:0:
67,33,90152,6,0,L|82:161,1,120,4|0,0:0|0:0,0:0:0:0:
177,53,90387,6,0,L|166:157,1,104.999996795654,4|0,0:0|0:0,0:0:0:0:
264,144,90623,6,0,L|237:211,1,55.0000016784668,4|0,0:3|0:0,0:0:0:0:
0,114,90740,1,12,0:0:0:0:
49,122,91682,6,0,P|110:73|197:81,1,160,4|8,0:1|0:0,0:0:0:0:
358,155,92035,1,0,0:0:0:0:
284,186,92152,2,0,P|246:176|216:150,1,80,2|0,0:0|0:0,0:0:0:0:
349,235,92388,2,0,L|354:314,1,80,8|0,0:0|0:0,0:0:0:0:
260,376,92623,6,0,L|265:297,1,80,2|0,0:0|0:0,0:0:0:0:
149,201,92858,2,0,L|154:280,1,80,10|0,0:0|0:0,0:0:0:0:
36,384,93094,2,0,L|41:305,1,80,2|0,0:0|0:0,0:0:0:0:
149,201,93329,1,8,0:0:0:0:
163,372,93447,1,8,0:0:0:0:
342,301,93564,6,0,P|304:306|244:283,1,80,2|0,0:0|0:0,0:0:0:0:
244,142,93800,2,0,L|232:221,1,80,8|0,0:0|0:0,0:0:0:0:
7,207,94035,2,0,P|58:234|163:175,1,160,2|8,0:0|0:0,0:0:0:0:
331,106,94388,2,0,P|274:118|188:34,1,160,2|0,0:0|0:0,0:0:0:0:
75,146,94741,1,8,0:0:0:0:
75,146,94977,6,0,L|80:67,1,80,2|0,0:0|0:0,0:0:0:0:
285,28,95212,1,8,0:0:0:0:
173,176,95330,1,8,0:0:0:0:
371,183,95447,6,0,L|283:180,1,80,4|0,0:0|0:0,0:0:0:0:
197,271,95683,2,0,L|276:268,1,80,8|0,0:0|0:0,0:0:0:0:
445,336,95918,2,0,L|357:333,1,80,2|0,0:0|0:0,0:0:0:0:
158,375,96153,2,0,L|246:372,1,80,8|0,0:0|0:0,0:0:0:0:
110,238,96389,6,0,P|90:287|97:332,1,80,2|0,0:0|0:0,0:0:0:0:
173,176,96624,2,0,P|171:136|154:100,1,80,10|0,0:0|0:0,0:0:0:0:
1,52,96860,2,0,L|80:49,1,80,2|0,0:0|0:0,0:0:0:0:
269,87,97095,1,8,0:0:0:0:
88,149,97213,1,8,0:0:0:0:
256,228,97330,6,0,P|162:208|98:251,1,160,2|8,0:0|0:0,0:0:0:0:
6,384,97683,1,0,0:0:0:0:
39,311,97801,2,0,L|29:232,1,80,2|0,0:0|0:0,0:0:0:0:
136,73,98036,1,8,0:0:0:0:
68,0,98154,2,0,P|37:75|82:159,1,160,2|0,0:0|0:0,0:0:0:0:
293,82,98507,1,8,0:0:0:0:
293,82,98743,6,0,L|211:77,1,80,2|0,0:0|0:0,0:0:0:0:
360,138,98978,1,12,0:0:0:0:
136,73,99096,1,8,0:0:0:0:
192,299,99213,6,0,P|241:243|226:148,1,160,4|8,0:1|0:0,0:0:0:0:
21,216,99566,1,0,0:0:0:0:
100,211,99684,2,0,P|133:188|154:155,1,80,2|0,0:0|0:0,0:0:0:0:
23,72,99919,2,0,P|56:95|77:129,1,80,8|0,0:0|0:0,0:0:0:0:
21,315,100155,6,2,P|94:287|167:316,1,160,2|8,0:0|0:0,0:0:0:0:
342,336,100508,1,0,0:0:0:0:
265,379,100625,2,0,L|254:298,1,80,2|0,0:0|0:0,0:0:0:0:
428,325,100861,1,8,0:0:0:0:
240,220,100979,1,8,0:0:0:0:
374,137,101096,6,0,P|380:176|377:216,1,80,2|0,0:0|0:0,0:0:0:0:
298,66,101332,2,0,P|281:102|274:141,1,80,8|0,0:0|0:0,0:0:0:0:
40,147,101567,2,0,P|91:174|196:115,1,160,2|8,0:0|0:0,0:0:0:0:
96,8,101920,6,0,L|107:88,2,80,2|0|0,0:0|0:0|0:0,0:0:0:0:
181,140,102273,2,0,L|170:220,1,80,8|0,0:0|0:0,0:0:0:0:
67,332,102508,2,0,L|56:252,1,80,2|0,0:0|0:0,0:0:0:0:
219,303,102744,1,8,0:0:0:0:
40,147,102861,1,8,0:0:0:0:
266,219,102979,6,0,L|348:201,1,80,4|0,0:0|0:0,0:0:0:0:
449,301,103215,2,0,L|371:285,1,80,8|0,0:0|0:0,0:0:0:0:
373,87,103450,2,0,P|429:141|423:218,1,160,2|8,0:0|0:0,0:0:0:0:
284,124,103803,6,0,L|299:26,2,80,0|2|0,0:0|0:0|0:0,0:0:0:0:
186,189,104156,2,0,L|173:109,1,80,10|0,0:0|0:0,0:0:0:0:
77,0,104391,2,0,L|64:79,1,80,2|0,0:0|0:0,0:0:0:0:
26,227,104627,1,8,0:0:0:0:
173,109,104744,1,8,0:0:0:0:
255,267,104862,6,0,P|191:289|99:243,1,160,2|8,0:0|0:0,0:0:0:0:
26,227,105156,2,0,L|16:147,1,80,8|8,0:0|0:0,0:0:0:0:
63,79,105333,2,0,B|115:113|115:113|173:109,1,120,8|0,0:0|0:0,0:0:0:0:
226,32,105568,2,0,B|284:28|284:28|335:61,1,120,8|0,0:0|0:0,0:0:0:0:
303,235,105804,6,0,P|275:191|287:108,1,120,8|0,0:0|0:0,0:0:0:0:
425,92,106039,2,0,P|453:136|441:219,1,120,8|0,0:0|0:0,0:0:0:0:
364,165,106274,5,8,0:0:0:0:
512,49,106392,1,8,0:0:0:0:
335,61,106510,5,8,0:0:0:0:
512,269,106627,1,8,0:0:0:0:
303,235,106745,6,0,L|199:218,1,104.999996795654,4|0,0:1|0:0,0:0:0:0:
199,218,106980,1,8,0:0:0:0:
126,274,107098,1,8,0:0:0:0:
0,157,107216,2,0,L|122:176,1,104.999996795654,4|0,0:0|0:0,0:0:0:0:
103,174,107451,1,8,0:0:0:0:
177,118,107569,1,8,0:0:0:0:
366,129,107687,6,0,P|316:143|267:128,1,104.999996795654,4|0,0:1|0:0,0:0:0:0:
267,128,107922,1,8,0:0:0:0:
317,52,108040,1,8,0:0:0:0:
385,219,108157,2,0,P|431:193|457:149,1,104.999996795654,4|0,0:0|0:0,0:0:0:0:
457,148,108393,1,8,0:0:0:0:
366,129,108510,1,8,0:0:0:0:
430,320,108628,6,0,L|326:303,1,104.999996795654,4|0,0:1|0:0,0:0:0:0:
326,303,108863,1,8,0:0:0:0:
256,363,108981,1,8,0:0:0:0:
213,189,109099,2,0,L|196:292,1,104.999996795654,4|0,0:0|0:0,0:0:0:0:
195,292,109334,1,8,0:0:0:0:
256,363,109452,1,8,0:0:0:0:
100,332,109569,6,0,L|78:193,1,139.999995727539,4|8,0:1|0:0,0:0:0:0:
141,136,109864,2,0,L|151:39,1,94.9999974632264,8|8,0:0|0:0,0:0:0:0:
74,8,110040,1,8,0:0:0:0:
2,242,110276,1,8,0:0:0:0:
210,187,110511,6,0,P|280:196|338:150,1,139.999995727539,4|8,0:1|0:0,0:0:0:0:
334,156,110805,2,0,L|350:270,1,94.9999974632264,8|8,0:0|0:0,0:0:0:0:
395,329,110982,6,0,P|339:289|271:297,1,139.999995727539,4|8,0:0|0:0,0:0:0:0:
271,297,111276,2,0,L|161:288,1,94.9999974632264,8|8,0:0|0:0,0:0:0:0:
101,353,111452,6,0,P|131:304|96:222,1,139.999995727539,4|8,0:1|0:0,0:0:0:0:
106,230,111747,2,0,L|-14:242,1,94.9999974632264,8|8,0:0|0:0,0:0:0:0:
0,105,111923,6,0,P|58:139|122:117,1,139.999995727539,4|8,0:0|0:0,0:0:0:0:
122,117,112217,2,0,L|242:128,1,94.9999974632264,8|8,0:0|0:0,0:0:0:0:
335,98,112394,6,0,P|305:147|340:229,1,139.999995727539,4|8,0:1|0:0,0:0:0:0:
329,220,112689,2,0,L|449:208,1,94.9999974632264,8|8,0:0|0:0,0:0:0:0:
401,309,112865,6,0,L|279:322,1,104.999996795654,4|0,0:0|0:0,0:0:0:0:
296,320,113100,5,8,0:0:0:0:
482,347,113218,1,8,0:0:0:0:
308,232,113335,5,8,0:0:0:0:
152,372,113453,1,8,0:0:0:0:
271,150,113571,5,8,0:0:0:0:
482,347,113688,1,8,0:0:0:0:
283,62,113806,5,8,0:0:0:0:
283,62,114041,5,8,0:0:0:0:
300,324,114159,1,8,0:0:0:0:
105,218,114277,6,0,L|200:196,1,89.9999972534181,4|0,0:1|0:0,0:0:0:0:
355,172,114512,2,0,P|311:169|271:150,1,89.9999972534181,8|0,0:0|0:0,0:0:0:0:
194,14,114748,2,0,L|192:104,1,89.9999972534181,0|0,0:0|0:0,0:0:0:0:
28,159,114983,2,0,L|25:69,1,89.9999972534181,8|0,0:0|0:0,0:0:0:0:
104,217,115218,6,0,P|190:207|252:269,1,179.999994506836,2|8,0:0|0:0,0:0:0:0:
234,357,115571,1,0,0:0:0:0:
319,327,115689,1,2,0:0:0:0:
128,295,115807,2,0,L|145:384,1,89.9999972534181,8|0,0:0|0:0,0:0:0:0:
319,327,116042,1,8,0:0:0:0:
479,185,116160,6,0,P|393:175|332:237,1,179.999994506836,2|8,0:0|0:0,0:0:0:0:
217,95,116513,1,0,0:0:0:0:
128,113,116631,2,0,P|189:174|276:165,1,179.999994506836,2|8,0:0|0:0,0:0:0:0:
156,27,116984,1,0,0:0:0:0:
49,183,117101,6,0,L|25:-6,2,179.999994506836,2|8|2,0:0|0:0|0:0,0:0:0:0:
276,165,117690,1,8,0:0:0:0:
156,27,117807,1,8,0:0:0:0:
118,243,117925,1,8,0:0:0:0:
370,174,118043,6,0,L|276:165,1,94.9999974632264,4|0,0:1|0:0,0:0:0:0:
119,109,118278,2,0,L|213:99,1,94.9999974632264,8|0,0:0|0:0,0:0:0:0:
454,130,118513,2,0,P|465:180|443:242,1,94.9999974632264,8|0,0:0|0:0,0:0:0:0:
225,338,118749,2,0,P|214:288|236:226,1,94.9999974632264,8|0,0:0|0:0,0:0:0:0:
512,44,118984,6,0,L|417:34,1,94.9999974632264,8|0,0:0|0:0,0:0:0:0:
316,366,119220,2,0,L|410:356,1,94.9999974632264,8|0,0:0|0:0,0:0:0:0:
324,30,119455,5,8,0:0:0:0:
498,346,119573,1,8,0:0:0:0:
454,130,119690,5,8,0:0:0:0:
354,277,119808,1,8,0:0:0:0:
404,204,119926,5,8,0:0:0:0:
324,30,120043,6,0,P|302:98|344:170,1,142.49999619484,4|0,0:0|0:0,0:0:0:0:
253,343,120279,6,0,P|249:271|303:216,1,120,4|0,0:0|0:0,0:0:0:0:
186,63,120514,6,0,P|200:132|249:163,1,104.999996795654,4|0,0:0|0:0,0:0:0:0:
142,297,120749,6,0,P|174:233|195:220,1,55.0000016784668,4|0,0:3|0:0,0:0:0:0:
404,204,120867,5,12,0:1:0:0:
404,204,121102,5,8,0:0:0:0:
132,165,121220,1,8,0:0:0:0:
378,124,121338,5,8,0:0:0:0:
253,343,121456,1,8,0:0:0:0:
52,178,121573,5,8,0:0:0:0:
271,263,121691,1,8,0:0:0:0:
103,376,121809,6,0,P|78:321|129:221,1,150,4|0,0:0|2:0,0:0:0:0:
132,165,122044,2,0,L|241:157,1,100,8|0,0:0|0:0,0:0:0:0:
359,280,122279,1,0,0:0:0:0:
271,263,122397,1,0,0:0:0:0:
447,298,122515,2,0,L|439:199,1,100,8|0,0:0|0:0,0:0:0:0:
370,57,122750,6,0,P|330:117|351:187,1,150,2|0,0:0|2:0,0:0:0:0:
438,198,122985,2,0,L|446:99,1,100,8|0,0:0|0:0,0:0:0:0:
263,170,123221,1,2,0:0:0:0:
351,187,123338,1,0,0:0:0:0:
175,152,123456,2,0,L|183:251,1,100,8|0,0:0|0:0,0:0:0:0:
413,340,123692,6,0,P|352:303|285:329,1,150,6|0,0:0|2:0,0:0:0:0:
226,384,123927,2,0,L|122:383,1,100,8|0,0:0|0:0,0:0:0:0:
53,239,124162,2,0,P|115:277|182:251,1,150,0|0,0:0|2:0,0:0:0:0:
240,195,124398,2,0,L|340:196,1,100,8|0,0:0|0:0,0:0:0:0:
163,169,124633,5,0,0:0:0:0:
163,169,124868,5,8,0:0:0:0:
226,384,124986,1,8,0:0:0:0:
163,169,125104,2,0,P|171:103|206:68,1,100,8|0,0:0|0:0,0:0:0:0:
362,278,125339,2,0,L|262:277,1,100,8|0,0:0|0:0,0:0:0:0:
383,74,125574,6,0,L|483:73,1,100,4|0,0:0|0:0,0:0:0:0:
317,137,125810,1,8,0:0:0:0:
403,162,125928,2,0,P|460:248|424:344,1,200,6|0,0:0|0:0,0:0:0:0:
249,191,126281,1,10,0:0:0:0:
330,222,126398,1,0,0:0:0:0:
271,377,126516,6,0,L|261:276,1,100,6|0,0:0|0:0,0:0:0:0:
94,188,126751,1,8,0:0:0:0:
3,224,126869,2,0,P|84:276|176:244,1,200,6|0,0:0|0:0,0:0:0:0:
190,36,127222,1,10,0:0:0:0:
130,103,127340,1,0,0:0:0:0:
317,137,127457,6,0,L|218:120,1,100,6|0,0:0|0:0,0:0:0:0:
400,100,127693,1,8,0:0:0:0:
417,191,127810,2,0,P|335:242|244:210,1,200,6|0,0:0|0:0,0:0:0:0:
38,82,128164,5,10,0:0:0:0:
317,137,128281,1,8,0:0:0:0:
97,166,128399,5,14,0:0:0:0:
305,51,128517,1,8,0:0:0:0:
0,179,128634,5,10,0:0:0:0:
235,102,128752,1,8,0:0:0:0:
60,261,128870,5,10,0:0:0:0:
225,17,128987,1,8,0:0:0:0:
420,240,129105,5,10,0:0:0:0:
235,102,129223,1,8,0:0:0:0:
128,288,129340,6,0,P|197:263|272:293,1,150,4|0,0:0|2:0,0:0:0:0:
351,328,129576,2,0,L|338:224,1,100,8|0,0:0|0:0,0:0:0:0:
490,99,129811,2,0,P|420:124|351:99,1,150,2|0,0:0|2:0,0:0:0:0:
267,58,130046,2,0,L|279:157,1,100,8|0,0:0|0:0,0:0:0:0:
439,308,130282,6,0,L|451:208,2,100,2|0|8,0:0|0:0|0:0,0:0:0:0:
252,274,130635,1,0,0:0:0:0:
183,362,130753,2,0,P|259:301|355:331,1,200,2|8,0:0|0:0,0:0:0:0:
275,383,131106,1,0,0:0:0:0:
154,266,131223,6,0,B|135:215|135:215|163:108,1,150,2|0,0:0|2:0,0:0:0:0:
159,122,131459,1,8,0:0:0:0:
100,189,131576,1,0,0:0:0:0:
254,90,131694,2,0,P|159:99|102:23,1,200,2|8,0:0|0:0,0:0:0:0:
192,20,132047,1,0,0:0:0:0:
327,156,132165,6,0,B|354:108|354:108|326:12,1,150,2|0,0:0|2:0,0:0:0:0:
327,16,132400,1,8,0:0:0:0:
415,180,132518,1,8,0:0:0:0:
251,255,132636,2,0,L|351:244,1,100,2|0,0:0|0:0,0:0:0:0:
500,329,132871,2,0,L|401:318,1,100,8|0,0:0|0:0,0:0:0:0:
192,175,133106,6,0,B|158:218|158:218|169:316,1,150,4|0,0:0|2:0,0:0:0:0:
168,313,133342,1,8,0:0:0:0:
84,280,133459,1,0,0:0:0:0:
251,255,133577,2,0,P|287:184|228:77,1,200,2|8,0:0|0:0,0:0:0:0:
192,175,133930,1,0,0:0:0:0:
306,336,134048,5,2,0:0:0:0:
306,336,134283,5,8,0:0:0:0:
192,175,134401,1,0,0:0:0:0:
368,248,134518,5,10,0:0:0:0:
168,313,134636,1,8,0:0:0:0:
408,342,134754,5,10,0:0:0:0:
101,229,134872,1,8,0:0:0:0:
440,175,134989,5,6,1:0:0:0:
264,85,138520,6,0,L|268:132,2,46.6666652425131,8|8|8,0:0|0:0|0:0,0:0:0:0:
321,24,138755,6,0,L|434:12,1,104.999996795654,4|0,0:1|0:0,0:0:0:0:
425,12,138990,1,8,0:0:0:0:
353,122,139108,1,8,0:0:0:0:
208,24,139226,2,0,L|95:12,1,104.999996795654,4|0,0:0|0:0,0:0:0:0:
104,12,139461,1,8,0:0:0:0:
176,122,139579,1,8,0:0:0:0:
353,122,139697,6,0,L|466:110,1,104.999996795654,4|0,0:1|0:0,0:0:0:0:
457,110,139932,1,8,0:0:0:0:
389,216,140050,1,8,0:0:0:0:
176,122,140167,2,0,L|63:110,1,104.999996795654,4|0,0:0|0:0,0:0:0:0:
72,110,140403,1,8,0:0:0:0:
153,228,140520,1,8,0:0:0:0:
284,242,140638,6,0,P|309:288|299:339,1,104.999996795654,4|0,0:1|0:0,0:0:0:0:
289,337,140873,6,0,P|298:287|274:241,1,104.999996795654,4|0,0:0|0:0,0:0:0:0:
199,181,141109,6,0,P|189:130|213:84,1,104.999996795654,4|0,0:0|0:0,0:0:0:0:
224,84,141344,6,0,P|199:129|208:180,1,104.999996795654,4|0,0:0|0:0,0:0:0:0:
261,242,141580,6,0,P|286:288|278:339,1,104.999996795654,4|0,0:0|0:0,0:0:0:0:
267,339,141815,6,0,L|211:329,3,34.9999989318848,8|0|0|0,0:0|0:0|0:0|0:0,0:0:0:0:
170,288,142050,2,0,L|110:297,3,34.9999989318848,8|0|0|0,0:0|0:0|0:0|0:0,0:0:0:0:
62,266,142286,1,8,0:0:0:0:
208,180,142403,1,8,0:0:0:0:
0,39,142521,6,0,P|39:68|87:58,1,100,4|0,0:1|0:0,0:0:0:0:
166,73,142874,2,0,L|330:55,1,150,2|2,0:0|0:0,0:0:0:0:
315,56,143462,2,0,L|328:119,1,50,0|0,0:0|0:0,0:0:0:0:
396,203,143698,2,0,L|406:154,1,50,0|0,0:0|0:0,0:0:0:0:
228,66,143933,2,0,L|262:229,1,150,8|0,0:0|0:0,0:0:0:0:
363,279,144404,6,0,P|323:307|275:297,1,100,2|0,0:0|0:0,0:0:0:0:
196,312,144757,2,0,L|32:294,1,150,2|2,0:0|0:0,0:0:0:0:
84,224,145228,1,0,0:0:0:0:
29,166,145345,2,0,L|23:117,1,50,0|0,0:0|0:0,0:0:0:0:
106,150,145581,2,0,L|100:101,1,50,0|0,0:0|0:0,0:0:0:0:
185,135,145816,2,0,L|179:86,1,50,8|0,0:0|0:0,0:0:0:0:
265,122,146051,1,0,0:0:0:0:
165,6,146169,1,8,0:0:0:0:
243,21,146287,6,0,L|357:7,1,100,2|0,0:0|0:0,0:0:0:0:
422,16,146640,2,0,P|369:65|379:137,1,150,2|2,0:0|0:0,0:0:0:0:
379,137,147228,2,0,P|418:180|422:231,1,100,0|0,0:0|0:0,0:0:0:0:
473,283,147581,1,0,0:0:0:0:
344,291,147699,2,0,L|394:297,1,50,8|0,0:0|0:0,0:0:0:0:
299,221,147934,2,0,L|249:226,1,50,0|0,0:0|0:0,0:0:0:0:
163,311,148170,6,0,P|172:262|150:219,1,100,2|0,0:0|0:0,0:0:0:0:
32,109,148523,2,0,P|69:141|119:144,1,100,2|0,0:0|0:0,0:0:0:0:
271,94,148876,2,0,P|224:110|198:152,1,100,2|0,0:0|0:0,0:0:0:0:
149,218,149229,1,0,0:0:0:0:
69,227,149347,2,0,L|27:213,2,25,2|0|0,0:0|0:0|0:0,0:0:0:0:
60,306,149582,2,0,L|18:292,2,25,10|0|0,0:0|0:0|0:0,0:0:0:0:
128,361,149817,2,0,L|170:347,1,25,2|0,0:0|0:0,0:0:0:0:
223,313,149935,1,8,0:0:0:0:
375,361,150053,6,0,P|328:345|302:304,1,100,4|0,0:1|0:0,0:0:0:0:
327,228,150406,1,0,0:0:0:0:
401,255,150523,2,0,L|459:242,1,50,2|0,0:0|0:0,0:0:0:0:
327,228,150759,2,0,L|269:215,1,50,2|0,0:0|0:0,0:0:0:0:
394,173,150994,2,0,P|413:124|394:75,1,100,2|0,0:0|0:0,0:0:0:0:
398,80,151465,2,0,L|290:93,1,100,8|0,0:0|0:0,0:0:0:0:
143,68,151818,1,0,0:0:0:0:
217,122,151936,6,0,L|221:60,1,50,2|0,0:0|0:0,0:0:0:0:
141,150,152171,2,0,L|141:175,2,25,2|0|0,0:0|0:0|0:0,0:0:0:0:
59,195,152406,2,0,L|71:255,1,50,2|0,0:0|0:0,0:0:0:0:
152,306,152642,2,0,L|161:256,1,50,2|0,0:0|0:0,0:0:0:0:
277,188,152877,6,0,L|227:194,1,50,2|0,0:0|0:0,0:0:0:0:
298,279,153113,2,0,L|347:285,1,50,0|0,0:0|0:0,0:0:0:0:
362,146,153348,2,0,L|372:196,1,50,8|0,0:0|0:0,0:0:0:0:
435,260,153583,1,8,0:0:0:0:
437,93,153701,1,8,0:0:0:0:
362,63,153819,6,0,P|338:58|286:88,1,75,4|0,0:1|0:0,0:0:0:0:
239,25,154054,2,0,P|220:39|203:97,1,75,4|0,0:3|0:0,0:0:0:0:
127,86,154289,2,0,P|122:109|152:161,1,75,4|0,0:3|0:0,0:0:0:0:
89,208,154525,2,0,P|103:227|161:244,1,75,4|0,0:3|0:0,0:0:0:0:
221,286,154760,6,0,P|254:260|303:256,1,75,8|0,0:0|0:0,0:0:0:0:
263,168,154995,2,0,P|304:172|342:204,1,75,4|0,0:3|0:0,0:0:0:0:
372,97,155231,2,0,P|397:130|401:179,1,75,4|0,0:3|0:0,0:0:0:0:
473,90,155466,5,8,0:0:0:0:
373,259,155584,1,8,0:0:0:0:
477,174,155702,6,0,L|388:159,1,75,8|0,0:0|0:0,0:0:0:0:
357,61,155937,2,0,L|283:113,1,75,8|0,0:0|0:0,0:0:0:0:
164,70,156172,2,0,L|149:158,1,75,8|0,0:0|0:0,0:0:0:0:
41,253,156408,2,0,L|93:326,1,75,8|0,0:0|0:0,0:0:0:0:
265,314,156643,5,8,0:0:0:0:
265,314,156878,1,2,0:0:0:0:
216,249,156996,1,2,0:0:0:0:
320,371,157114,2,0,L|409:351,1,75,8|0,0:0|0:0,0:0:0:0:
393,354,157349,1,8,0:0:0:0:
183,321,157467,1,8,0:0:0:0:
400,218,157585,5,4,0:1:0:0:
400,218,158291,6,0,L|337:209,1,59.9999981689454,2|0,0:0|0:0,0:0:0:0:
245,193,158526,1,2,0:0:0:0:
122,132,159232,6,0,L|185:123,1,59.9999981689454,2|0,0:0|0:0,0:0:0:0:
277,107,159467,1,2,0:0:0:0:
368,320,160174,6,0,L|305:311,1,59.9999981689454,2|0,0:0|0:0,0:0:0:0:
50,266,160409,2,0,P|114:209|197:234,1,179.999994506836,2|0,0:0|0:0,0:0:0:0:
234,360,160880,2,0,P|191:293|299:238,1,209.999993591309,2|0,0:0|0:0,0:0:0:0:
279,228,161350,1,2,0:0:0:0:
359,281,162057,6,0,L|438:268,1,59.9999981689454,2|0,0:0|0:0,0:0:0:0:
512,255,162292,1,2,0:0:0:0:
382,79,162998,2,0,L|442:89,1,59.9999981689454,2|2,0:0|0:0,0:0:0:0:
283,218,163233,6,0,L|278:109,1,89.9999972534181,4|0,0:1|0:0,0:0:0:0:
278,128,163469,1,8,0:0:0:0:
375,185,163586,1,8,0:0:0:0:
191,3,163704,2,0,L|186:112,1,89.9999972534181,4|0,0:0|0:0,0:0:0:0:
186,92,163939,1,8,0:0:0:0:
290,35,164057,1,8,0:0:0:0:
115,137,164175,5,4,0:0:0:0:
197,218,164293,2,0,L|138:217,1,59.9999981689454,8|0,0:0|0:0,0:0:0:0:
259,160,164528,1,8,0:0:0:0:
164,320,164646,1,8,0:0:0:0:
4,228,164763,1,8,0:0:0:0:
164,320,164881,5,2,0:0:0:0:
262,287,164999,1,2,0:0:0:0:
363,302,165116,6,0,P|401:235|378:152,1,160,4|0,0:1|0:0,0:0:0:0:
398,79,165469,1,0,0:0:0:0:
241,97,165587,2,0,L|321:103,2,80,8|0|0,0:0|0:0|0:0,0:0:0:0:
398,79,165940,1,8,0:0:0:0:
194,178,166058,2,0,P|156:111|179:28,1,160,4|0,0:0|0:0,0:0:0:0:
252,14,166411,1,0,0:0:0:0:
79,51,166529,2,0,L|0:56,2,80,8|0|0,0:0|0:0|0:0,0:0:0:0:
252,14,166882,1,8,0:0:0:0:
194,178,166999,6,0,P|132:142|54:188,1,160,4|0,0:0|0:0,0:0:0:0:
127,221,167352,1,0,0:0:0:0:
31,308,167470,2,0,L|111:299,1,80,8|0,0:0|0:0,0:0:0:0:
189,281,167705,1,0,0:0:0:0:
59,178,167823,1,8,0:0:0:0:
266,313,167941,6,0,B|310:318|310:318|390:292,1,120,8|0,0:0|0:0,0:0:0:0:
459,240,168176,2,0,B|415:245|415:245|335:219,1,120,8|0,0:0|0:0,0:0:0:0:
294,149,168411,5,8,0:0:0:0:
462,324,168529,1,8,0:0:0:0:
368,102,168647,5,8,0:0:0:0:
189,281,168765,1,8,0:0:0:0:
459,240,168882,6,0,P|478:199|476:155,1,89.9999972534181,4|0,0:1|0:0,0:0:0:0:
350,17,169118,2,0,P|348:61|367:101,1,89.9999972534181,8|0,0:0|0:0,0:0:0:0:
385,279,169353,2,0,L|267:264,1,89.9999972534181,2|0,0:0|0:0,0:0:0:0:
204,160,169588,2,0,L|322:145,1,89.9999972534181,8|0,0:0|0:0,0:0:0:0:
139,66,169824,6,0,P|94:115|89:181,1,134.999995880127,4|0,0:1|0:0,0:0:0:0:
90,182,170059,2,0,L|-28:167,1,89.9999972534181,8|0,0:0|0:0,0:0:0:0:
19,86,170294,1,2,0:0:0:0:
92,269,170412,5,8,0:0:0:0:
230,70,170530,1,8,0:0:0:0:
0,170,170647,1,8,0:0:0:0:
233,276,170765,6,0,P|281:281|326:270,1,94.9999974632264,4|0,0:1|0:0,0:0:0:0:
132,103,171001,2,0,P|127:150|138:195,1,94.9999974632264,8|0,0:0|0:0,0:0:0:0:
416,194,171236,1,8,0:0:0:0:
219,146,171354,1,0,0:0:0:0:
379,0,171472,2,0,P|391:44|387:92,1,94.9999974632264,8|0,0:0|0:0,0:0:0:0:
219,146,171707,6,0,L|233:22,1,94.9999974632264,8|0,0:0|0:0,0:0:0:0:
337,364,171942,2,0,L|326:269,1,94.9999974632264,8|0,0:0|0:0,0:0:0:0:
229,51,172177,1,8,0:0:0:0:
229,51,172413,5,2,0:0:0:0:
138,195,172530,1,2,0:0:0:0:
403,78,172648,5,4,0:1:0:0:
403,78,172883,5,8,0:0:0:0:
155,98,173001,1,8,0:0:0:0:
385,198,173119,5,8,0:0:0:0:
66,127,173236,1,8,0:0:0:0:
315,292,173354,5,8,0:0:0:0:
175,5,173472,1,8,0:0:0:0:
480,25,173590,6,0,P|496:97|456:158,1,150,4|0,0:0|2:0,0:0:0:0:
385,198,173825,2,0,L|272:188,1,100,8|0,0:0|0:0,0:0:0:0:
115,123,174060,1,0,0:0:0:0:
205,115,174178,1,0,0:0:0:0:
24,130,174296,2,0,P|6:85|12:35,1,100,8|0,0:0|0:0,0:0:0:0:
198,205,174531,6,0,P|199:277|142:323,1,150,2|0,0:0|2:0,0:0:0:0:
99,256,174766,2,0,L|-9:264,1,100,8|0,0:0|0:0,0:0:0:0:
208,209,175002,6,0,P|209:281|152:327,1,150,2|0,0:0|2:0,0:0:0:0:
100,241,175237,2,0,L|-8:249,1,100,8|0,0:0|0:0,0:0:0:0:
205,115,175472,6,0,P|277:70|344:107,1,150,6|0,0:0|2:0,0:0:0:0:
410,65,175708,2,0,L|399:191,1,100,8|0,0:0|0:0,0:0:0:0:
502,332,175943,2,0,P|430:287|363:324,1,150,0|0,0:0|2:0,0:0:0:0:
298,282,176179,2,0,L|309:408,1,100,8|0,0:0|0:0,0:0:0:0:
401,164,176414,5,0,0:0:0:0:
401,164,176649,5,8,0:0:0:0:
298,282,176767,1,8,0:0:0:0:
215,123,176885,2,0,P|261:106|308:120,1,100,8|0,0:0|0:0,0:0:0:0:
219,271,177120,2,0,P|181:238|169:191,1,100,8|0,0:0|0:0,0:0:0:0:
383,248,177355,6,0,L|368:372,1,100,4|0,0:0|0:0,0:0:0:0:
298,282,177591,1,8,0:0:0:0:
448,179,177708,2,0,P|356:199|308:119,1,200,6|0,0:0|0:0,0:0:0:0:
175,12,178062,1,10,0:0:0:0:
222,88,178179,1,0,0:0:0:0:
147,139,178297,6,0,L|40:129,1,100,6|0,0:0|0:0,0:0:0:0:
222,88,178532,1,8,0:0:0:0:
86,250,178650,2,0,P|134:169|226:189,1,200,6|0,0:0|0:0,0:0:0:0:
279,320,179003,1,10,0:0:0:0:
336,250,179121,1,0,0:0:0:0:
416,289,179238,6,0,P|465:292|507:266,1,100,6|0,0:0|0:0,0:0:0:0:
336,250,179474,1,8,0:0:0:0:
398,41,179591,2,0,P|454:118|412:204,1,200,6|0,0:0|0:0,0:0:0:0:
176,98,179944,5,10,0:0:0:0:
365,126,180062,1,8,0:0:0:0:
137,217,180180,5,14,0:0:0:0:
313,56,180298,1,8,0:0:0:0:
58,28,180415,5,10,0:0:0:0:
277,134,180533,1,8,0:0:0:0:
53,207,180651,5,10,0:0:0:0:
237,16,180768,1,8,0:0:0:0:
234,268,180886,5,10,0:0:0:0:
55,119,181004,1,8,0:0:0:0:
313,56,181121,6,0,P|384:47|434:100,1,150,4|0,0:0|2:0,0:0:0:0:
384,164,181357,2,0,L|394:263,1,100,8|0,0:0|0:0,0:0:0:0:
196,341,181592,2,0,P|267:349|317:296,1,150,2|0,0:0|2:0,0:0:0:0:
267,233,181827,2,0,L|277:133,1,100,8|0,0:0|0:0,0:0:0:0:
105,12,182063,6,0,P|176:20|210:84,1,150,2|0,0:0|2:0,0:0:0:0:
157,146,182298,2,0,L|39:133,1,100,8|0,0:0|0:0,0:0:0:0:
30,371,182534,2,0,P|1:304|40:243,1,150,2|0,0:0|2:0,0:0:0:0:
118,223,182769,2,0,L|217:233,1,100,8|0,0:0|0:0,0:0:0:0:
407,297,183004,6,0,P|341:328|277:295,1,150,2|0,0:0|2:0,0:0:0:0:
301,218,183240,2,0,L|314:113,1,100,8|0,0:0|0:0,0:0:0:0:
91,179,183475,2,0,P|156:210|220:177,1,150,2|0,0:0|2:0,0:0:0:0:
197,100,183710,2,0,L|184:-5,1,100,8|0,0:0|0:0,0:0:0:0:
16,236,183946,6,0,B|-6:185|-6:185|29:92,1,150,2|0,0:0|2:0,0:0:0:0:
27,98,184181,1,8,0:0:0:0:
94,275,184299,1,8,0:0:0:0:
220,177,184416,2,0,L|121:195,1,100,2|0,0:0|0:0,0:0:0:0:
264,98,184652,2,0,P|273:51|240:-14,1,100,8|0,0:0|0:0,0:0:0:0:
278,247,184887,6,0,P|348:266|408:225,1,150,4|0,0:0|2:0,0:0:0:0:
483,192,185123,2,0,L|467:81,1,100,8|0,0:0|0:0,0:0:0:0:
293,9,185358,2,0,B|329:48|329:48|317:146,1,150,0|0,0:0|2:0,0:0:0:0:
317,143,185593,1,8,0:0:0:0:
360,64,185711,1,0,0:0:0:0:
278,247,185829,6,0,P|198:192|110:229,1,200,4|8,0:0|0:0,0:0:0:0:
81,40,186182,1,0,0:0:0:0:
6,90,186299,2,0,P|66:129|137:111,1,150,0|0,0:0|2:0,0:0:0:0:
137,111,186535,1,8,0:0:0:0:
60,157,186652,1,0,0:0:0:0:
272,4,186770,6,0,P|222:57|229:129,1,150,4|0,0:0|2:0,0:0:0:0:
294,177,187006,2,0,L|405:160,1,100,8|0,0:0|0:0,0:0:0:0:
512,281,187241,1,0,0:0:0:0:
428,245,187359,1,0,0:0:0:0:
364,308,187476,2,0,L|253:291,1,100,8|0,0:0|0:0,0:0:0:0:
63,294,187712,6,0,P|156:282|185:191,1,200,4|8,0:0|0:0,0:0:0:0:
97,210,188065,1,0,0:0:0:0:
265,292,188182,5,8,0:0:0:0:
156,89,188300,1,8,0:0:0:0:
338,200,188418,5,8,0:0:0:0:
97,210,188535,1,8,0:0:0:0:
318,40,188653,6,0,L|455:37,1,119.999996337891,4|0,0:0|0:0,0:0:0:0:
209,181,188888,2,0,L|72:178,1,119.999996337891,8|0,0:0|0:0,0:0:0:0:
445,120,189124,2,0,P|476:170|475:229,1,119.999996337891,8|0,0:0|0:0,0:0:0:0:
156,89,189359,2,0,P|184:36|235:8,1,119.999996337891,8|0,0:0|0:0,0:0:0:0:
274,354,189595,2,0,P|214:355|164:325,1,119.999996337891,8|0,0:0|0:0,0:0:0:0:
445,120,189830,5,8,0:0:0:0:
209,181,189948,1,8,0:0:0:0:
414,32,190065,5,8,0:0:0:0:
239,268,190183,1,8,0:0:0:0:
321,16,190301,5,8,0:0:0:0:
332,284,190418,1,8,0:0:0:0:
228,44,190536,5,10,0:2:0:0:
321,16,190654,1,10,0:2:0:0:
414,32,190771,1,10,0:2:0:0:
443,118,190889,6,0,P|464:196|421:264,1,165.000005035401,6|0,0:0|0:0,0:0:0:0:
256,157,191124,6,0,P|325:113|370:181,1,179.999994506836,4|0,0:0|0:0,0:0:0:0:
191,230,191360,6,0,P|165:134|217:51,1,194.999991073609,4|0,0:0|0:0,0:0:0:0:
393,342,191595,6,0,B|330:333|330:333|291:343|291:343|258:323|258:323|191:311,1,209.999993591309,4|0,0:0|0:0,0:0:0:0:
306,18,191831,6,0,L|408:32,1,100,4|0,0:3|0:0,0:0:0:0:
304,251,191948,1,12,0:1:0:0:
304,251,192184,5,8,0:0:0:0:
443,118,192301,1,8,0:0:0:0:
230,193,192419,6,0,L|115:175,1,100,4|0,0:1|0:0,0:0:0:0:
39,48,192654,2,0,P|28:96|46:142,1,100,8|0,0:0|0:0,0:0:0:0:
137,289,192890,2,0,P|210:226|303:250,1,200,2|8,0:0|0:0,0:0:0:0:
466,330,193243,1,0,0:0:0:0:
382,361,193360,6,0,P|380:296|436:251,1,100,2|0,0:0|0:0,0:0:0:0:
495,144,193596,2,0,P|457:175|408:176,1,100,10|0,0:0|0:0,0:0:0:0:
257,150,193831,2,0,P|302:168|328:210,1,100,2|0,0:0|0:0,0:0:0:0:
170,298,194067,2,0,P|215:280|240:238,1,100,10|0,0:0|0:0,0:0:0:0:
86,111,194302,6,0,P|35:191|83:274,1,200,2|8,0:0|0:0,0:0:0:0:
176,46,194655,1,0,0:0:0:0:
203,131,194773,2,0,P|111:106|90:13,1,200,2|8,0:0|0:0,0:0:0:0:
361,57,195126,1,0,0:0:0:0:
280,17,195243,6,0,L|290:149,1,100,2|0,0:0|0:0,0:0:0:0:
449,51,195479,1,10,0:0:0:0:
293,200,195596,1,8,0:0:0:0:
483,329,195714,2,0,L|494:129,1,200,2|8,0:0|0:0,0:0:0:0:
358,34,196067,1,0,0:0:0:0:
292,95,196185,6,0,P|369:123|451:31,1,200,2|8,0:0|0:0,0:0:0:0:
226,156,196538,1,0,0:0:0:0:
292,95,196656,2,0,P|215:67|133:159,1,200,2|8,0:0|0:0,0:0:0:0:
151,270,197009,1,0,0:0:0:0:
66,300,197126,6,0,P|60:252|83:209,1,100,2|0,0:0|0:0,0:0:0:0:
137,358,197362,2,0,L|236:355,1,100,10|0,0:0|0:0,0:0:0:0:
410,211,197597,2,0,P|416:162|393:119,1,100,2|0,0:0|0:0,0:0:0:0:
339,268,197832,2,0,L|239:265,1,100,10|0,0:0|0:0,0:0:0:0:
136,171,198068,6,0,L|235:168,2,100,2|0|8,0:0|0:0|0:0,0:0:0:0:
63,117,198421,1,0,0:0:0:0:
124,0,198539,2,0,P|153:38|148:87,1,100,2|0,0:0|0:0,0:0:0:0:
12,195,198774,5,8,0:0:0:0:
235,168,198892,1,8,0:0:0:0:
86,276,199009,5,4,0:0:0:0:
148,87,199127,1,8,0:0:0:0:
314,226,199245,5,8,0:0:0:0:
117,182,199362,1,8,0:0:0:0:
295,22,199480,5,8,0:0:0:0:
235,168,199598,1,8,0:0:0:0:
432,273,199715,5,8,0:0:0:0:
372,127,199833,1,8,0:0:0:0:
209,284,199951,6,0,L|308:272,1,100,4|0,0:1|0:0,0:0:0:0:
141,122,200186,2,0,P|130:170|148:216,1,100,8|0,0:0|0:0,0:0:0:0:
281,361,200421,2,0,P|196:315|110:364,1,200,2|8,0:0|0:0,0:0:0:0:
0,236,200775,1,0,0:0:0:0:
84,267,200892,6,0,P|86:202|30:157,1,100,2|0,0:0|0:0,0:0:0:0:
208,84,201128,2,0,L|109:94,1,100,10|0,0:0|0:0,0:0:0:0:
235,170,201363,2,0,L|334:179,1,100,2|0,0:0|0:0,0:0:0:0:
420,30,201598,2,0,P|397:73|404:122,1,100,10|0,0:0|0:0,0:0:0:0:
478,258,201834,6,0,P|393:212|309:258,1,200,2|8,0:0|0:0,0:0:0:0:
194,177,202187,1,0,0:0:0:0:
221,262,202304,2,0,P|129:237|108:144,1,200,2|8,0:0|0:0,0:0:0:0:
238,20,202657,1,0,0:0:0:0:
278,101,202775,6,0,L|178:93,1,100,2|0,0:0|0:0,0:0:0:0:
327,24,203011,1,10,0:0:0:0:
222,179,203128,1,8,0:0:0:0:
413,30,203246,2,0,P|462:118|422:210,1,200,2|8,0:0|0:0,0:0:0:0:
511,239,203599,1,0,0:0:0:0:
282,248,203717,6,0,P|373:223|438:293,1,200,4|8,0:1|0:0,0:0:0:0:
237,327,204070,1,0,0:0:0:0:
192,249,204187,2,0,L|209:126,1,100,2|0,0:0|0:0,0:0:0:0:
96,11,204423,1,8,0:0:0:0:
285,96,204540,1,8,0:0:0:0:
109,215,204658,6,0,L|95:115,1,100,2|0,0:0|0:0,0:0:0:0:
27,311,204893,2,0,P|76:321|122:304,1,100,8|0,0:0|0:0,0:0:0:0:
205,149,205129,5,2,0:0:0:0:
17,203,205247,1,8,0:0:0:0:
197,66,205364,5,2,0:0:0:0:
0,211,205482,1,8,0:0:0:0:
216,233,205600,6,0,L|315:230,2,100,4|0|8,0:1|0:0|0:0,0:0:0:0:
95,115,205953,1,0,0:0:0:0:
35,196,206070,2,0,L|134:199,1,100,2|0,0:0|0:0,0:0:0:0:
376,165,206306,5,8,0:0:0:0:
186,314,206423,1,8,0:0:0:0:
428,266,206541,5,8,0:0:0:0:
215,126,206659,1,8,0:0:0:0:
278,349,206776,5,8,0:0:0:0:
461,185,206894,1,8,0:0:0:0:
195,220,207012,5,8,0:0:0:0:
367,384,207129,1,8,0:0:0:0:
295,145,207247,5,8,0:0:0:0:
99,339,207365,1,8,0:0:0:0:
397,311,207483,6,0,P|412:239|366:183,1,150,4|0,0:1|0:0,0:0:0:0:
295,145,207718,2,0,L|178:167,1,100,8|0,0:0|0:0,0:0:0:0:
48,127,207953,5,2,0:0:0:0:
101,199,208071,1,2,0:0:0:0:
48,127,208189,5,10,0:0:0:0:
101,199,208306,1,2,0:0:0:0:
141,384,208424,6,0,P|125:312|171:256,1,150,4|0,0:1|0:0,0:0:0:0:
243,218,208659,2,0,L|360:240,1,100,8|0,0:0|0:0,0:0:0:0:
490,200,208895,5,2,0:0:0:0:
437,272,209012,1,2,0:0:0:0:
490,200,209130,5,10,0:0:0:0:
386,343,209248,1,10,0:0:0:0:
458,110,209365,6,0,P|400:132|315:64,1,150,4|0,0:1|0:0,0:0:0:0:
248,112,209601,2,0,L|261:-2,1,100,8|0,0:0|0:0,0:0:0:0:
177,49,209836,5,2,0:0:0:0:
374,24,209954,1,10,0:0:0:0:
135,130,210072,5,10,0:0:0:0:
428,206,210189,1,10,0:0:0:0:
148,337,210307,5,4,0:0:0:0:
428,206,210542,5,12,0:0:0:0:
374,24,210778,5,12,0:0:0:0:
374,24,211248,5,2,0:0:0:0:
374,24,211484,1,2,0:0:0:0:
315,137,211719,1,2,0:0:0:0:
315,137,211955,1,2,0:0:0:0:
124,180,212190,5,2,0:0:0:0:
247,282,212543,1,2,0:0:0:0:
191,30,212896,6,0,L|202:78,1,50,4|0,0:1|0:0,0:0:0:0:
