osu file format v14

[General]
AudioFilename: audio.mp3
AudioLeadIn: 0
PreviewTime: 16540
Countdown: 0
SampleSet: Soft
StackLeniency: 0.7
Mode: 0
LetterboxInBreaks: 0
WidescreenStoryboard: 1

[Editor]
Bookmarks: 2006,9536,17124,32183,47242,58477,63438,66007,79242,85327,91505,106804,114277,118043,121867,134989,138755,140638,142521,153877,157585,163175,168941,173648,181180,190595,192419,207483,210778
DistanceSpacing: 2.3
BeatDivisor: 4
GridSize: 32
TimelineZoom: 3.000002

[Metadata]
Title:Milk Crown on Sonnetica
TitleUnicode:ミルククラウン・オン・ソーネチカ
Artist:nameless
ArtistUnicode:nameless
Creator:Milan-
Version:Hard
Source:
Tags:deetz appleeaterx utaite
BeatmapID:1331274
BeatmapSetID:550414

[Difficulty]
HPDrainRate:4
CircleSize:3
OverallDifficulty:5
ApproachRate:7
SliderMultiplier:0.699999999999999
SliderTickRate:1

[Events]
//Background and Video events
0,0,"23124.jpg",0,0
//Break Periods
2,79407,84427
2,135189,137855
2,157784,162098
2,210978,211996
//Storyboard Layer 0 (Background)
//Storyboard Layer 1 (Fail)
//Storyboard Layer 2 (Pass)
//Storyboard Layer 3 (Foreground)
//Storyboard Sound Samples

[TimingPoints]
2007,235.367958575239,4,2,1,55,1,0
9538,-125,4,2,1,35,0,0
17070,-66.6666666666667,4,1,1,50,0,0
30368,-66.6666666666667,4,2,1,50,0,0
32134,-83.3333333333333,4,2,1,40,0,0
47197,-100,4,2,1,40,0,0
52846,-100,4,2,1,45,0,0
58024,-83.3333333333333,4,2,1,45,0,0
58495,-74.0740740740741,4,2,1,45,0,0
62261,-74.0740740740741,4,2,1,50,0,0
64261,-74.0740740740741,4,2,1,45,0,0
65085,-71.4285714285714,4,2,1,50,0,0
65791,-64.5161290322581,4,2,1,50,0,0
66027,-66.6666666666667,4,1,1,50,0,1
79207,-100,4,2,1,45,0,0
91682,235.367958575239,4,2,1,40,1,0
91682,-83.3333333333333,4,2,1,40,0,0
105804,-83.3333333333333,4,2,1,45,0,0
106745,-71.4285714285714,4,2,1,50,0,0
114277,-74.0740740740741,4,2,1,40,0,0
118043,-74.0740740740741,4,2,1,50,0,0
120043,-74.0740740740741,4,2,1,45,0,0
120867,-71.4285714285714,4,2,1,50,0,0
121809,-66.6666666666667,4,1,1,50,0,1
134989,-76.9230769230769,4,2,1,50,0,0
138520,-76.9230769230769,4,2,1,45,0,0
142521,-100,4,2,1,40,0,0
153819,-100,4,2,1,45,0,0
157585,-100,4,2,1,40,0,0
163233,-90.9090909090909,4,2,1,45,0,0
165116,-83.3333333333333,4,2,1,45,0,0
168882,-74.0740740740741,4,2,1,45,0,0
170765,-74.0740740740741,4,2,1,50,0,0
172648,-62.5,4,2,1,50,0,0
173590,-66.6666666666667,4,1,1,50,0,1
190889,-66.6666666666667,4,2,1,50,0,1
192419,-71.4285714285714,4,2,1,45,0,0
211248,-71.4285714285714,4,2,1,40,0,0
212896,-71.4285714285714,4,2,1,35,0,0

[Colours]
Combo1 : 255,234,170
Combo2 : 179,255,179
Combo3 : 172,209,255
Combo4 : 252,194,203

[HitObjects]
61,57,9538,6,0,L|81:176,1,112,4|0,0:0|1:0,0:0:0:0:
225,83,10480,2,0,L|245:202,1,112,0|2,1:0|1:2,0:0:0:0:
150,333,11421,6,0,L|170:214,1,112,2|0,1:2|1:0,0:0:0:0:
314,307,12363,2,0,L|334:188,1,112,0|2,1:0|1:2,0:0:0:0:
402,150,13069,1,4,0:0:0:0:
324,116,13304,6,0,L|206:104,1,112,4|0,0:0|1:0,0:0:0:0:
51,24,14246,2,0,L|167:13,1,112,0|2,1:0|1:2,0:0:0:0:
349,35,15187,6,0,L|290:31,1,55.9999999999999,2|2,1:2|1:2,0:0:0:0:
350,150,15776,2,0,L|406:154,2,55.9999999999999,4|4|4,0:0|0:0|0:0,0:0:0:0:
275,200,16482,2,0,L|281:239,1,28,4|12,0:3|0:0,0:0:0:0:
228,304,16835,1,8,0:0:0:0:
228,304,16952,1,8,0:0:0:0:
228,304,17070,6,0,P|176:316|116:297,1,105.000004005432,4|8,0:0|0:0,0:0:0:0:
24,183,17541,2,0,P|76:171|136:190,1,105.000004005432,0|8,0:0|0:0,0:0:0:0:
202,45,18012,2,0,L|217:153,1,105.000004005432,2|8,0:0|0:0,0:0:0:0:
364,94,18482,2,0,L|348:203,1,105.000004005432,2|8,0:0|0:0,0:0:0:0:
271,335,18953,6,0,P|325:322|376:334,1,105.000004005432,4|8,0:0|0:0,0:0:0:0:
497,235,19424,2,0,P|509:180|497:127,1,105.000004005432,0|8,0:0|0:0,0:0:0:0:
350,81,19894,6,0,B|300:100|300:100|231:90,1,105.000004005432,0|8,0:0|0:0,0:0:0:0:
191,36,20248,1,8,0:0:0:0:
118,65,20365,2,0,B|96:112|96:112|113:185,1,105.000004005432,8|8,0:0|0:0,0:0:0:0:
61,314,20836,6,0,L|180:287,1,105.000004005432,6|10,0:0|0:0,0:0:0:0:
197,219,21189,1,0,0:0:0:0:
197,219,21307,2,0,L|299:242,1,105.000004005432,2|8,0:0|0:0,0:0:0:0:
432,158,21777,2,0,L|313:131,1,105.000004005432,6|10,0:0|0:0,0:0:0:0:
296,63,22130,1,0,0:0:0:0:
296,63,22248,2,0,L|193:86,1,105.000004005432,2|8,0:0|0:0,0:0:0:0:
35,87,22719,5,4,0:0:0:0:
160,181,22954,1,8,0:0:0:0:
14,241,23190,1,0,0:0:0:0:
160,181,23425,1,8,0:0:0:0:
138,336,23660,6,0,L|131:266,3,52.5000020027161,14|8|10|8,0:0|0:0|0:0|0:0,0:0:0:0:
227,244,24131,2,0,L|222:297,3,52.5000020027161,10|8|10|8,0:0|0:0|0:0|0:0,0:0:0:0:
310,280,24602,6,0,P|367:291|427:265,1,105.000004005432,6|8,0:0|0:0,0:0:0:0:
473,132,25073,2,0,P|423:117|372:128,1,105.000004005432,0|8,0:0|0:0,0:0:0:0:
239,45,25543,2,0,L|261:159,1,105.000004005432,2|8,0:0|0:0,0:0:0:0:
106,106,26014,2,0,L|86:209,1,105.000004005432,2|8,0:0|0:0,0:0:0:0:
110,365,26485,6,0,P|59:376|9:361,1,105.000004005432,4|8,0:0|0:0,0:0:0:0:
150,290,26956,2,0,P|195:264|223:221,1,105.000004005432,0|8,0:0|0:0,0:0:0:0:
330,105,27426,6,0,B|381:123|381:123|444:114,1,105.000004005432,0|8,0:0|0:0,0:0:0:0:
503,148,27779,1,8,0:0:0:0:
462,215,27897,2,0,B|411:207|411:207|360:225,1,105.000004005432,8|8,0:0|0:0,0:0:0:0:
204,199,28368,6,0,L|229:86,1,105.000004005432,6|10,0:0|0:0,0:0:0:0:
281,40,28721,2,0,L|357:39,2,52.5000020027161,0|2|0,0:0|0:0|0:0,0:0:0:0:
204,22,29074,2,0,L|86:32,1,105.000004005432,10|2,0:0|0:0,0:0:0:0:
26,61,29427,1,0,0:0:0:0:
26,61,29545,2,0,P|48:109|46:168,1,105.000004005432,10|2,0:0|0:0,0:0:0:0:
70,235,29898,2,0,L|6:251,2,52.5000020027161,8|8|8,0:0|0:0|0:0,0:0:0:0:
256,192,30192,12,12,31192,0:0:0:0:
484,33,32134,6,0,L|475:124,1,83.9999974365234,4|8,0:1|0:0,0:0:0:0:
319,146,32604,2,0,L|327:62,1,83.9999974365234,0|8,0:0|0:0,0:0:0:0:
415,196,33075,2,0,L|406:287,1,83.9999974365234,2|8,0:0|0:0,0:0:0:0:
349,334,33428,2,0,P|305:345|256:332,1,83.9999974365234,2|2,0:0|0:0,0:0:0:0:
208,284,33781,2,0,L|204:230,1,41.9999987182617,8|8,0:0|0:0,0:0:0:0:
129,212,34017,6,0,L|136:128,1,83.9999974365234,2|8,0:0|0:0,0:0:0:0:
258,25,34487,2,0,L|265:108,1,83.9999974365234,2|8,0:0|0:0,0:0:0:0:
326,160,34840,2,0,B|370:167|370:167|452:131,1,125.999996154785,2|8,0:0|0:0,0:0:0:0:
492,368,35546,2,0,L|442:358,2,41.9999987182617,8|8|8,0:0|0:0|0:0,0:0:0:0:
491,287,35899,6,0,P|447:279|398:298,1,83.9999974365234,4|8,0:0|0:0,0:0:0:0:
262,350,36370,2,0,P|218:358|169:339,1,83.9999974365234,0|8,0:0|0:0,0:0:0:0:
82,220,36841,2,0,L|75:124,1,83.9999974365234,2|8,0:0|0:0,0:0:0:0:
121,70,37194,2,0,P|178:59|218:70,1,83.9999974365234,2|2,0:0|0:0,0:0:0:0:
269,108,37547,2,0,L|260:160,1,41.9999987182617,8|8,0:0|0:0,0:0:0:0:
186,176,37782,6,0,L|201:263,1,83.9999974365234,2|8,0:0|0:0,0:0:0:0:
357,230,38253,2,0,L|342:317,1,83.9999974365234,2|8,0:0|0:0,0:0:0:0:
410,355,38606,2,0,B|446:366|446:366|536:333,1,125.999996154785,2|10,0:0|0:0,0:0:0:0:
438,113,39312,2,0,L|432:169,2,41.9999987182617,8|8|8,0:0|0:0|0:0,0:0:0:0:
382,55,39665,6,0,L|292:68,1,83.9999974365234,4|8,0:1|0:0,0:0:0:0:
287,226,40136,2,0,L|197:213,1,83.9999974365234,0|8,0:0|0:0,0:0:0:0:
83,108,40607,2,0,P|109:151|114:203,1,83.9999974365234,2|8,0:0|0:0,0:0:0:0:
83,257,40960,2,0,L|-7:244,1,83.9999974365234,2|2,0:0|0:0,0:0:0:0:
1,324,41313,2,0,P|7:349|14:367,1,41.9999987182617,8|8,0:0|0:0,0:0:0:0:
91,380,41548,6,0,L|181:367,1,83.9999974365234,2|8,0:0|0:0,0:0:0:0:
305,276,42019,2,0,L|221:263,1,83.9999974365234,2|8,0:0|0:0,0:0:0:0:
148,232,42372,2,0,B|134:191|134:191|161:100,1,125.999996154785,2|8,0:0|0:0,0:0:0:0:
395,134,43078,2,0,L|344:140,2,41.9999987182617,8|8|8,0:0|0:0|0:0,0:0:0:0:
408,55,43431,6,0,L|316:64,1,83.9999974365234,4|8,0:0|0:0,0:0:0:0:
173,9,43902,2,0,L|77:34,1,83.9999974365234,0|8,0:0|0:0,0:0:0:0:
15,170,44373,6,0,P|68:180|107:206,1,83.9999974365234,2|8,0:0|0:0,0:0:0:0:
173,190,44726,2,0,L|177:286,1,83.9999974365234,2|0,0:0|0:0,0:0:0:0:
251,300,45079,2,0,P|248:319|241:349,1,41.9999987182617,8|8,0:0|0:0,0:0:0:0:
314,377,45314,6,0,P|355:372|408:361,1,83.9999974365234,2|10,0:0|0:0,0:0:0:0:
492,235,45785,2,0,P|451:230|398:219,1,83.9999974365234,2|8,0:0|0:0,0:0:0:0:
330,236,46138,2,0,B|327:175|376:146|376:146|326:164|264:140,1,209.999993591309,4|12,0:0|0:0,0:0:0:0:
137,61,46962,2,0,L|148:108,1,41.9999987182617,8|8,0:0|0:0,0:0:0:0:
159,181,47197,6,0,P|91:146|26:216,1,175,4|8,0:1|0:0,0:0:0:0:
122,335,48021,1,2,0:0:0:0:
123,335,48139,2,0,P|66:299|20:310,2,105,2|8|2,0:0|0:0|0:0,0:0:0:0:
201,317,48962,1,8,0:0:0:0:
275,347,49080,6,0,P|346:344|370:254,1,175,2|8,0:0|0:0,0:0:0:0:
311,106,49904,1,2,0:0:0:0:
311,106,50022,2,0,P|267:160|267:204,2,105,2|8|8,0:0|0:0|0:0,0:0:0:0:
390,94,50845,1,8,0:0:0:0:
340,29,50963,6,0,P|282:20|188:99,1,175,4|8,0:0|0:0,0:0:0:0:
37,128,51787,1,2,0:0:0:0:
37,128,51905,2,0,P|85:145|108:191,2,105,2|8|8,0:0|0:0|0:0,0:0:0:0:
30,207,52728,1,12,0:0:0:0:
80,269,52846,6,0,P|148:289|210:261,1,140,4|8,0:1|0:0,0:0:0:0:
282,118,53552,1,8,0:0:0:0:
282,118,53670,6,0,L|295:201,1,69.9999999999999,4|4,0:0|0:0,0:0:0:0:
373,193,54023,2,0,L|381:156,2,35,12|8|8,0:0|0:0|0:0,0:0:0:0:
403,268,54376,2,0,L|435:247,2,35,8|8|8,0:0|0:0|0:0,0:0:0:0:
372,342,54729,6,0,L|297:330,1,69.9999999999999,4|8,0:1|0:0,0:0:0:0:
64,294,55317,2,0,L|133:282,1,69.9999999999999,8|8,0:0|0:0,0:0:0:0:
256,128,55906,5,8,0:0:0:0:
256,128,56376,2,0,L|256:80,1,35,8|8,0:0|0:0,0:0:0:0:
307,33,56612,6,0,L|392:42,1,69.9999999999999,4|8,0:1|0:0,0:0:0:0:
166,146,57200,2,0,L|81:155,1,69.9999999999999,8|8,0:0|0:0,0:0:0:0:
31,205,57553,6,0,P|18:181|38:96,1,105,4|8,0:0|0:0,0:0:0:0:
101,73,58024,2,0,P|131:71|146:-9,1,125.999996154785,8|8,0:0|0:0,0:0:0:0:
206,58,58495,6,0,L|315:42,1,94.5000003604888,4|8,0:1|0:0,0:0:0:0:
417,139,58966,2,0,L|323:152,1,94.5000003604888,2|8,0:0|0:0,0:0:0:0:
173,172,59436,2,0,P|219:206|230:250,1,94.5000003604888,2|8,0:0|0:0,0:0:0:0:
349,332,59907,2,0,P|368:290|382:274,2,47.2500001802444,2|0|8,0:0|0:0|0:0,0:0:0:0:
199,358,60378,6,0,L|100:350,1,94.5000003604888,2|8,0:0|0:0,0:0:0:0:
93,199,60848,2,0,L|-6:207,1,94.5000003604888,2|8,0:0|0:0,0:0:0:0:
41,61,61319,6,0,L|135:68,1,94.5000003604888,2|8,0:0|0:0,0:0:0:0:
238,179,61790,2,0,L|332:171,1,94.5000003604888,2|8,0:0|0:0,0:0:0:0:
422,47,62261,5,4,0:1:0:0:
422,200,62496,1,8,0:0:0:0:
332,77,62731,1,2,0:0:0:0:
478,124,62967,1,8,0:0:0:0:
332,171,63202,1,2,0:0:0:0:
187,125,63438,1,8,0:0:0:0:
41,172,63673,6,0,L|50:219,1,47.2500001802444,2|8,0:0|0:0,0:0:0:0:
133,225,63908,2,0,L|124:272,1,47.2500001802444,8|8,0:0|0:0,0:0:0:0:
74,336,64144,1,8,0:0:0:0:
187,125,65085,5,12,1:0:0:0:
187,125,65320,2,0,L|193:62,2,48.9999985046386,8|8|8,0:0|0:0|0:0,0:0:0:0:
281,98,65674,2,0,L|275:35,2,48.9999985046386,8|8|8,0:0|0:0|0:0,0:0:0:0:
362,132,66027,6,0,P|410:137|465:110,1,105.000004005432,4|8,0:0|0:0,0:0:0:0:
505,264,66497,2,0,P|458:241|406:246,1,105.000004005432,0|8,0:0|0:0,0:0:0:0:
248,253,66968,2,0,P|231:296|227:326,2,52.5000020027161,2|0|8,0:0|0:0|0:0,0:0:0:0:
219,97,67439,2,0,P|211:71|200:48,2,52.5000020027161,2|0|8,0:0|0:0|0:0,0:0:0:0:
145,236,67910,6,0,L|41:216,1,105.000004005432,6|8,0:0|0:0,0:0:0:0:
12,62,68380,2,0,L|115:81,1,105.000004005432,0|8,0:0|0:0,0:0:0:0:
239,178,68851,6,0,P|291:166|338:123,1,105.000004005432,0|8,0:0|0:0,0:0:0:0:
394,88,69204,1,8,0:0:0:0:
463,125,69322,2,0,P|493:187|491:240,1,105.000004005432,8|8,0:0|0:0,0:0:0:0:
395,344,69792,6,0,L|291:363,1,105.000004005432,4|8,0:0|0:0,0:0:0:0:
241,301,70146,1,6,0:0:0:0:
241,301,70263,2,0,L|137:281,1,105.000004005432,0|10,0:0|0:0,0:0:0:0:
50,150,70734,2,0,L|153:169,1,105.000004005432,6|8,0:0|0:0,0:0:0:0:
204,107,71088,1,6,0:0:0:0:
204,107,71205,2,0,L|307:87,1,105.000004005432,0|10,0:0|0:0,0:0:0:0:
460,123,71675,6,0,P|436:179|441:228,1,105.000004005432,6|8,0:0|0:0,0:0:0:0:
352,353,72146,2,0,P|353:301|331:254,1,105.000004005432,0|10,0:0|0:0,0:0:0:0:
253,239,72499,1,8,0:0:0:0:
253,239,72617,6,0,L|196:256,3,52.5000020027161,14|8|10|8,0:0|0:0|0:0|0:0,0:0:0:0:
141,203,73088,1,10,0:0:0:0:
141,203,73205,2,0,L|23:194,1,105.000004005432,8|8,0:0|0:0,0:0:0:0:
36,116,73558,6,0,L|140:123,1,105.000004005432,4|8,0:0|0:0,0:0:0:0:
243,4,74029,2,0,L|340:42,1,105.000004005432,2|8,0:0|0:0,0:0:0:0:
477,121,74500,2,0,P|415:154|397:195,1,105.000004005432,2|8,0:0|0:0,0:0:0:0:
322,166,74853,1,0,0:0:0:0:
322,166,74971,2,0,P|301:233|317:274,1,105.000004005432,2|8,0:0|0:0,0:0:0:0:
430,367,75441,6,0,L|325:359,1,105.000004005432,2|8,0:0|0:0,0:0:0:0:
253,326,75794,1,0,0:0:0:0:
253,326,75912,2,0,L|145:336,1,105.000004005432,2|8,0:0|0:0,0:0:0:0:
52,209,76383,6,0,P|89:140|126:126,1,105.000004005432,2|8,0:0|0:0,0:0:0:0:
167,74,76736,1,8,0:0:0:0:
240,103,76854,2,0,P|311:109|357:80,1,105.000004005432,2|8,0:0|0:0,0:0:0:0:
482,28,77324,6,0,L|471:139,1,105.000004005432,4|8,0:0|0:0,0:0:0:0:
328,198,77795,2,0,L|339:309,1,105.000004005432,2|8,0:0|0:0,0:0:0:0:
196,372,78266,2,0,L|133:358,2,52.5000020027161,2|0|8,0:0|0:0|0:0,0:0:0:0:
144,223,78736,2,0,L|71:231,1,52.5000020027161,10|8,0:0|0:0,0:0:0:0:
90,149,78972,2,0,L|142:143,1,52.5000020027161,10|8,0:0|0:0,0:0:0:0:
216,180,79207,5,6,1:0:0:0:
98,171,85327,6,0,L|113:283,1,105,4|8,0:1|0:0,0:0:0:0:
111,275,85797,1,8,0:0:0:0:
206,322,86033,6,0,L|219:217,1,105,4|8,0:1|0:0,0:0:0:0:
243,170,86504,2,0,L|286:166,1,35,8|8,0:0|0:0,0:0:0:0:
317,131,86739,6,0,L|430:143,2,105,4|8|4,0:1|0:0|0:0,0:0:0:0:
284,89,87563,2,0,L|283:54,4,35,8|8|8|8|8,0:0|0:0|0:0|0:0|0:0,0:0:0:0:
272,34,88151,6,0,B|211:64|211:64|136:54,2,140,4|8|8,0:1|0:0|0:0,0:0:0:0:
376,44,89328,1,8,0:0:0:0:
480,56,89563,1,8,0:0:0:0:
421,142,89799,6,0,L|435:212,1,69.9999999999999,4|8,0:1|0:0,0:0:0:0:
404,253,90152,2,0,P|375:251|337:236,2,69.9999999999999,4|4|4,0:0|0:0|0:3,0:0:0:0:
418,303,90740,1,12,0:0:0:0:
28,351,91682,6,0,L|37:260,1,83.9999974365234,4|8,0:1|0:0,0:0:0:0:
193,238,92152,2,0,L|185:322,1,83.9999974365234,2|8,0:0|0:0,0:0:0:0:
97,188,92623,2,0,L|106:97,1,83.9999974365234,2|10,0:0|0:0,0:0:0:0:
254,47,93094,2,0,L|245:130,1,83.9999974365234,2|8,0:0|0:0,0:0:0:0:
299,189,93447,1,8,0:0:0:0:
360,239,93565,6,0,L|353:323,1,83.9999974365234,2|8,0:0|0:0,0:0:0:0:
202,376,94035,2,0,L|195:293,1,83.9999974365234,2|8,0:0|0:0,0:0:0:0:
221,216,94388,2,0,B|177:209|177:209|95:245,1,125.999996154785,2|8,0:0|0:0,0:0:0:0:
8,112,94977,1,2,0:0:0:0:
143,28,95212,2,0,L|153:82,1,41.9999987182617,8|8,0:0|0:0,0:0:0:0:
208,124,95447,6,0,P|252:132|301:113,1,83.9999974365234,4|8,0:0|0:0,0:0:0:0:
405,10,95918,2,0,P|449:2|498:21,1,83.9999974365234,2|8,0:0|0:0,0:0:0:0:
430,164,96389,2,0,L|437:260,1,83.9999974365234,2|10,0:0|0:0,0:0:0:0:
347,380,96860,2,0,L|340:296,1,83.9999974365234,2|8,0:0|0:0,0:0:0:0:
267,263,97213,1,8,0:0:0:0:
292,187,97330,6,0,L|277:100,1,83.9999974365234,2|8,0:0|0:0,0:0:0:0:
118,116,97801,2,0,L|133:29,1,83.9999974365234,2|8,0:0|0:0,0:0:0:0:
56,8,98154,2,0,B|24:58|24:58|40:130,1,125.999996154785,2|8,0:0|0:0,0:0:0:0:
167,217,98743,1,2,0:0:0:0:
37,309,98978,2,0,L|32:350,1,41.9999987182617,12|8,0:0|0:0,0:0:0:0:
111,366,99213,6,0,L|201:353,1,83.9999974365234,4|8,0:1|0:0,0:0:0:0:
202,194,99684,2,0,L|292:207,1,83.9999974365234,2|8,0:0|0:0,0:0:0:0:
413,301,100155,2,0,P|387:258|382:206,1,83.9999974365234,2|8,0:0|0:0,0:0:0:0:
301,87,100625,2,0,P|313:38|346:-2,1,83.9999974365234,2|8,0:0|0:0,0:0:0:0:
384,72,100979,1,8,0:0:0:0:
423,140,101096,6,0,L|506:127,1,83.9999974365234,2|8,0:0|0:0,0:0:0:0:
381,225,101567,2,0,L|297:212,2,83.9999974365234,2|8|0,0:0|0:0|0:0,0:0:0:0:
494,337,102273,1,8,0:0:0:0:
339,376,102508,1,2,0:0:0:0:
214,275,102744,2,0,L|172:279,1,41.9999987182617,8|8,0:0|0:0,0:0:0:0:
106,324,102979,6,0,P|93:283|98:240,1,83.9999974365234,4|8,0:0|0:0,0:0:0:0:
40,93,103450,2,0,P|59:54|93:27,1,83.9999974365234,2|8,0:0|0:0,0:0:0:0:
235,98,103921,6,0,L|330:77,1,83.9999974365234,2|10,0:0|0:0,0:0:0:0:
406,211,104391,2,0,L|323:192,1,83.9999974365234,2|8,0:0|0:0,0:0:0:0:
245,206,104744,1,8,0:0:0:0:
180,252,104862,6,0,P|161:300|164:344,1,83.9999974365234,2|8,0:0|0:0,0:0:0:0:
231,369,105215,2,0,L|288:361,1,41.9999987182617,0|8,0:0|0:0,0:0:0:0:
245,206,105568,1,8,0:0:0:0:
85,221,105804,1,8,0:0:0:0:
240,187,106039,1,8,0:0:0:0:
131,70,106274,2,0,L|145:127,3,41.9999987182617,8|8|8|8,0:0|0:0|0:0|0:0,0:0:0:0:
226,101,106745,6,0,P|275:88|365:145,1,146.999995513916,4|8,0:1|0:0,0:0:0:0:
414,77,107216,2,0,L|402:229,1,146.999995513916,4|8,0:0|0:0,0:0:0:0:
323,220,107687,2,0,P|274:207|184:264,1,146.999995513916,4|8,0:1|0:0,0:0:0:0:
135,196,108158,2,0,L|147:348,1,146.999995513916,4|0,0:0|0:0,0:0:0:0:
67,337,108628,6,0,L|55:190,1,146.999995513916,4|8,0:1|0:0,0:0:0:0:
97,123,109099,2,0,P|131:108|156:5,1,146.999995513916,4|8,0:0|0:0,0:0:0:0:
203,74,109569,2,0,P|237:87|328:32,1,146.999995513916,4|8,0:1|0:0,0:0:0:0:
401,59,110040,1,8,0:0:0:0:
306,184,110276,1,8,0:0:0:0:
461,205,110511,6,0,P|487:246|465:354,1,146.999995513916,4|8,0:1|0:0,0:0:0:0:
397,349,110982,2,0,P|371:308|393:200,1,146.999995513916,4|8,0:0|0:0,0:0:0:0:
410,141,111452,2,0,P|369:167|261:145,1,146.999995513916,4|8,0:1|0:0,0:0:0:0:
216,103,111923,2,0,P|145:86|80:117,1,146.999995513916,4|8,0:0|0:0,0:0:0:0:
14,76,112394,6,0,L|47:225,1,146.999995513916,4|8,0:1|0:0,0:0:0:0:
120,194,112865,2,0,L|87:343,1,146.999995513916,4|8,0:0|0:0,0:0:0:0:
161,365,113335,6,0,L|217:357,1,48.9999985046386,8|8,0:0|0:0,0:0:0:0:
262,299,113571,2,0,L|329:314,1,48.9999985046386,8|8,0:0|0:0,0:0:0:0:
381,342,113806,1,8,0:0:0:0:
414,188,114041,2,0,L|347:203,1,48.9999985046386,8|8,0:0|0:0,0:0:0:0:
290,185,114277,6,0,P|279:157|295:79,1,94.5000003604888,4|8,0:1|0:0,0:0:0:0:
157,13,114748,2,0,P|168:41|152:119,1,94.5000003604888,0|8,0:0|0:0,0:0:0:0:
14,141,115218,2,0,L|32:241,1,94.5000003604888,2|8,0:0|0:0,0:0:0:0:
181,214,115689,1,2,0:0:0:0:
181,214,115807,2,0,P|184:256|155:311,1,94.5000003604888,8|8,0:0|0:0,0:0:0:0:
221,352,116160,6,0,L|315:359,1,94.5000003604888,2|8,0:0|0:0,0:0:0:0:
412,243,116630,2,0,L|506:235,1,94.5000003604888,2|8,0:0|0:0,0:0:0:0:
430,103,117101,2,0,L|335:110,1,94.5000003604888,2|8,0:0|0:0,0:0:0:0:
217,16,117572,2,0,L|157:7,1,47.2500001802444,2|8,0:0|0:0,0:0:0:0:
120,67,117807,2,0,L|73:59,1,47.2500001802444,8|8,0:0|0:0,0:0:0:0:
15,109,118043,5,4,0:1:0:0:
153,168,118278,1,8,0:0:0:0:
32,259,118513,1,8,0:0:0:0:
2,110,118749,5,8,0:0:0:0:
144,159,118984,1,8,0:0:0:0:
21,248,119220,1,8,0:0:0:0:
137,151,119455,6,0,L|144:201,1,47.2500001802444,8|8,0:0|0:0,0:0:0:0:
215,236,119690,2,0,L|206:283,1,47.2500001802444,8|8,0:0|0:0,0:0:0:0:
158,345,119926,1,8,0:0:0:0:
408,168,120867,5,12,0:1:0:0:
408,168,121102,2,0,L|471:174,2,48.9999985046386,8|8|8,0:0|0:0|0:0,0:0:0:0:
435,262,121456,2,0,L|498:256,2,48.9999985046386,8|8|8,0:0|0:0|0:0,0:0:0:0:
369,325,121809,6,0,P|321:320|266:347,1,105.000004005432,4|8,0:0|0:0,0:0:0:0:
190,207,122279,2,0,P|138:211|91:188,1,105.000004005432,0|8,0:0|0:0,0:0:0:0:
196,70,122750,2,0,P|213:27|217:-3,2,52.5000020027161,2|0|8,0:0|0:0|0:0,0:0:0:0:
300,188,123221,2,0,P|308:214|319:237,2,52.5000020027161,2|0|8,0:0|0:0|0:0,0:0:0:0:
394,61,123692,6,0,L|498:81,1,105.000004005432,6|8,0:0|0:0,0:0:0:0:
498,238,124162,2,0,L|395:219,1,105.000004005432,0|8,0:0|0:0,0:0:0:0:
303,90,124633,6,0,P|251:102|204:145,1,105.000004005432,0|8,0:0|0:0,0:0:0:0:
174,203,124986,1,8,0:0:0:0:
96,188,125104,2,0,P|66:126|68:73,1,105.000004005432,8|8,0:0|0:0,0:0:0:0:
205,20,125574,6,0,L|309:1,1,105.000004005432,4|8,0:0|0:0,0:0:0:0:
377,54,125928,1,6,0:0:0:0:
377,54,126045,2,0,L|481:74,1,105.000004005432,0|10,0:0|0:0,0:0:0:0:
503,230,126516,2,0,L|399:211,1,105.000004005432,6|8,0:0|0:0,0:0:0:0:
331,264,126870,1,6,0:0:0:0:
331,264,126987,2,0,L|227:284,1,105.000004005432,0|10,0:0|0:0,0:0:0:0:
71,271,127457,6,0,P|95:215|90:166,1,105.000004005432,6|8,0:0|0:0,0:0:0:0:
160,31,127928,2,0,P|159:83|181:130,1,105.000004005432,0|10,0:0|0:0,0:0:0:0:
266,129,128281,1,8,0:0:0:0:
266,129,128399,6,0,L|323:112,3,52.5000020027161,14|8|10|8,0:0|0:0|0:0|0:0,0:0:0:0:
371,181,128870,1,10,0:0:0:0:
371,181,128987,2,0,L|489:190,1,105.000004005432,8|8,0:0|0:0,0:0:0:0:
476,268,129340,6,0,L|372:261,1,105.000004005432,4|8,0:0|0:0,0:0:0:0:
269,380,129811,2,0,L|172:342,1,105.000004005432,2|8,0:0|0:0,0:0:0:0:
35,263,130282,2,0,P|97:230|115:189,1,105.000004005432,2|8,0:0|0:0,0:0:0:0:
195,216,130635,1,0,0:0:0:0:
195,216,130753,2,0,P|216:149|200:108,1,105.000004005432,2|8,0:0|0:0,0:0:0:0:
82,17,131223,6,0,L|187:25,1,105.000004005432,2|8,0:0|0:0,0:0:0:0:
267,63,131576,1,0,0:0:0:0:
267,63,131694,2,0,L|375:53,1,105.000004005432,2|8,0:0|0:0,0:0:0:0:
460,175,132165,6,0,P|423:244|386:258,1,105.000004005432,2|8,0:0|0:0,0:0:0:0:
345,310,132518,1,8,0:0:0:0:
272,281,132636,2,0,P|201:275|155:304,1,105.000004005432,2|8,0:0|0:0,0:0:0:0:
30,356,133106,6,0,L|41:245,1,105.000004005432,4|8,0:0|0:0,0:0:0:0:
184,186,133577,2,0,L|173:75,1,105.000004005432,2|8,0:0|0:0,0:0:0:0:
326,42,134048,5,2,0:0:0:0:
289,194,134283,2,0,L|303:261,2,52.5000020027161,8|0|10,0:0|0:0|0:0,0:0:0:0:
364,170,134636,2,0,L|380:109,2,52.5000020027161,8|10|8,0:0|0:0|0:0,0:0:0:0:
425,223,134989,5,6,1:0:0:0:
40,186,138755,6,0,P|98:193|139:175,1,90.9999958343507,4|8,0:1|0:0,0:0:0:0:
185,126,139108,1,8,0:0:0:0:
185,126,139226,2,0,P|243:119|284:137,1,90.9999958343507,4|8,0:0|0:0,0:0:0:0:
356,122,139579,1,8,0:0:0:0:
356,122,139697,6,0,L|348:226,1,90.9999958343507,4|8,0:1|0:0,0:0:0:0:
431,220,140050,1,8,0:0:0:0:
431,220,140168,2,0,L|423:324,1,90.9999958343507,4|8,0:0|0:0,0:0:0:0:
358,350,140520,1,8,0:0:0:0:
358,350,140638,6,0,B|313:363|313:363|260:349,2,90.9999958343507,4|4|4,0:1|0:0|0:0,0:0:0:0:
255,233,141344,1,4,0:0:0:0:
255,233,141580,2,0,P|201:247|162:276,1,90.9999958343507,4|8,0:0|0:0,0:0:0:0:
39,186,142050,2,0,P|49:141|74:103,1,90.9999958343507,8|8,0:0|0:0,0:0:0:0:
228,101,142521,6,0,L|343:93,2,105,4|2|2,0:1|0:0|0:0,0:0:0:0:
426,233,143933,1,8,0:0:0:0:
426,233,144404,6,0,L|311:225,2,105,2|2|2,0:0|0:0|0:0,0:0:0:0:
223,344,145816,2,0,P|209:292|225:237,1,105,8|8,0:0|0:0,0:0:0:0:
208,207,146287,6,0,L|94:220,2,105,2|2|2,0:0|0:0|0:0,0:0:0:0:
348,23,147699,1,8,0:0:0:0:
348,23,148170,6,0,L|462:36,2,105,2|2|2,0:0|0:0|0:0,0:0:0:0:
117,20,149582,2,0,P|172:37|213:79,1,105,10|8,0:0|0:0,0:0:0:0:
240,86,150053,6,0,L|249:207,2,105,4|0|2,0:1|0:0|0:0,0:0:0:0:
403,248,151465,1,8,0:0:0:0:
403,248,151936,6,0,L|394:369,2,105,2|0|2,0:0|0:0|0:0,0:0:0:0:
329,225,152877,6,0,P|291:232|249:234,1,69.9999999999999,2|0,0:0|0:0,0:0:0:0:
187,261,153348,2,0,P|155:239|124:210,1,69.9999999999999,8|8,0:0|0:0,0:0:0:0:
131,179,153701,1,8,0:0:0:0:
131,179,153819,6,0,L|120:102,1,69.9999999999999,4|4,0:1|0:3,0:0:0:0:
300,27,154289,2,0,L|309:96,1,69.9999999999999,4|4,0:3|0:3,0:0:0:0:
228,179,154760,2,0,L|217:102,1,69.9999999999999,8|4,0:0|0:3,0:0:0:0:
397,27,155230,2,0,L|406:96,1,69.9999999999999,4|8,0:3|0:0,0:0:0:0:
440,179,155584,1,8,0:0:0:0:
440,179,155702,6,0,L|358:174,1,69.9999999999999,8|8,0:0|0:0,0:0:0:0:
248,273,156172,2,0,L|166:268,1,69.9999999999999,8|8,0:0|0:0,0:0:0:0:
58,172,156643,1,8,0:0:0:0:
58,172,157114,6,0,B|75:200|75:200|79:237,1,69.9999999999999,8|8,0:0|0:0,0:0:0:0:
39,310,157467,2,0,L|50:352,1,35,8|4,0:0|0:1,0:0:0:0:
361,60,162998,6,0,L|352:101,1,35,2|2,0:0|0:0,0:0:0:0:
274,92,163233,6,0,L|291:183,1,77.0000023498535,4|8,0:1|0:0,0:0:0:0:
278,247,163586,2,0,P|237:265|163:248,1,115.50000352478,8|8,0:0|0:0,0:0:0:0:
108,197,164057,2,0,P|66:179|31:179,2,77.0000023498535,8|8|8,0:0|0:0|0:0,0:0:0:0:
89,281,164646,1,8,0:0:0:0:
89,281,164763,2,0,L|107:365,1,77.0000023498535,8|2,0:0|0:0,0:0:0:0:
184,377,165116,6,0,P|212:344|342:337,1,167.999994873047,4|8,0:1|0:0,0:0:0:0:
496,158,165940,1,8,0:0:0:0:
496,158,166058,2,0,P|414:163|350:111,1,167.999994873047,4|8,0:0|0:0,0:0:0:0:
129,18,166882,1,8,0:0:0:0:
129,18,166999,6,0,L|146:197,1,167.999994873047,4|8,0:0|0:0,0:0:0:0:
314,355,167823,1,8,0:0:0:0:
314,355,167941,6,0,L|322:269,1,83.9999974365234,8|8,0:0|0:0,0:0:0:0:
303,108,168411,2,0,L|248:117,1,41.9999987182617,8|8,0:0|0:0,0:0:0:0:
228,191,168647,2,0,L|283:200,1,41.9999987182617,8|8,0:0|0:0,0:0:0:0:
349,190,168882,6,0,P|400:222|416:261,1,94.5000003604888,4|8,0:1|0:0,0:0:0:0:
300,365,169353,2,0,P|249:333|233:294,1,94.5000003604888,2|8,0:0|0:0,0:0:0:0:
134,177,169824,6,0,L|21:196,1,94.5000003604888,4|8,0:1|0:0,0:0:0:0:
47,32,170294,2,0,L|92:46,1,47.2500001802444,2|8,0:0|0:0,0:0:0:0:
159,91,170530,2,0,L|204:76,1,47.2500001802444,8|8,0:0|0:0,0:0:0:0:
264,24,170765,5,4,0:1:0:0:
259,185,171001,1,8,0:0:0:0:
401,112,171236,1,8,0:0:0:0:
276,10,171471,5,8,0:0:0:0:
276,171,171707,1,8,0:0:0:0:
424,111,171942,1,8,0:0:0:0:
302,5,172177,5,8,0:0:0:0:
298,166,172413,2,0,L|311:231,1,47.2500001802444,2|2,0:0|0:0,0:0:0:0:
369,284,172648,5,4,0:1:0:0:
369,284,172883,2,0,L|441:277,2,55.9999999999999,8|8|8,0:0|0:0|0:0,0:0:0:0:
317,357,173237,2,0,L|377:384,2,55.9999999999999,8|8|8,0:0|0:0|0:0,0:0:0:0:
250,304,173590,6,0,P|202:309|147:282,1,105.000004005432,4|8,0:0|0:0,0:0:0:0:
79,146,174060,2,0,P|130:141|177:164,1,105.000004005432,0|8,0:0|0:0,0:0:0:0:
327,116,174531,2,0,P|334:90|345:67,2,52.5000020027161,2|0|8,0:0|0:0|0:0,0:0:0:0:
344,272,175002,2,0,P|355:295|362:320,2,52.5000020027161,2|0|8,0:0|0:0|0:0,0:0:0:0:
491,214,175473,6,0,L|387:194,1,105.000004005432,6|8,0:0|0:0,0:0:0:0:
240,139,175943,2,0,L|136:159,1,105.000004005432,0|8,0:0|0:0,0:0:0:0:
56,294,176414,6,0,P|101:322|164:325,1,105.000004005432,0|8,0:0|0:0,0:0:0:0:
227,305,176767,1,8,0:0:0:0:
294,345,176885,2,0,P|326:304|340:254,1,105.000004005432,8|8,0:0|0:0,0:0:0:0:
496,235,177355,6,0,L|476:122,1,105.000004005432,4|8,0:0|0:0,0:0:0:0:
400,115,177708,1,6,0:0:0:0:
400,115,177826,2,0,L|404:9,1,105.000004005432,0|10,0:0|0:0,0:0:0:0:
270,93,178297,2,0,L|290:206,1,105.000004005432,6|8,0:0|0:0,0:0:0:0:
372,221,178650,1,6,0:0:0:0:
372,221,178768,2,0,L|368:327,1,105.000004005432,0|10,0:0|0:0,0:0:0:0:
207,344,179238,6,0,P|146:320|85:332,1,105.000004005432,6|8,0:0|0:0,0:0:0:0:
8,200,179709,2,0,P|60:201|107:179,1,105.000004005432,0|10,0:0|0:0,0:0:0:0:
192,194,180062,1,8,0:0:0:0:
192,194,180180,6,0,L|178:261,3,52.5000020027161,14|8|10|8,0:0|0:0|0:0|0:0,0:0:0:0:
264,144,180651,1,10,0:0:0:0:
264,144,180768,2,0,L|248:26,1,105.000004005432,8|8,0:0|0:0,0:0:0:0:
327,22,181121,6,0,P|379:49|428:42,1,105.000004005432,4|8,0:0|0:0,0:0:0:0:
491,186,181592,2,0,P|439:182|394:207,1,105.000004005432,2|8,0:0|0:0,0:0:0:0:
239,239,182063,2,0,L|255:355,1,105.000004005432,2|8,0:0|0:0,0:0:0:0:
112,271,182534,2,0,L|126:166,1,105.000004005432,2|8,0:0|0:0,0:0:0:0:
43,33,183004,6,0,L|159:26,1,105.000004005432,2|8,0:0|0:0,0:0:0:0:
283,107,183475,2,0,L|387:113,1,105.000004005432,2|8,0:0|0:0,0:0:0:0:
490,233,183946,6,0,P|453:302|416:316,1,105.000004005432,2|8,0:0|0:0,0:0:0:0:
361,276,184299,1,8,0:0:0:0:
290,311,184417,2,0,P|254:291|183:296,1,105.000004005432,2|8,0:0|0:0,0:0:0:0:
76,185,184887,6,0,L|92:300,1,105.000004005432,4|8,0:0|0:0,0:0:0:0:
203,178,185358,2,0,L|188:74,1,105.000004005432,0|8,0:0|0:0,0:0:0:0:
263,38,185711,1,0,0:0:0:0:
263,38,185829,6,0,P|316:56|381:43,1,105.000004005432,4|8,0:0|0:0,0:0:0:0:
490,141,186299,2,0,P|438:135|389:153,1,105.000004005432,0|8,0:0|0:0,0:0:0:0:
243,214,186770,6,0,L|240:321,1,105.000004005432,4|8,0:0|0:0,0:0:0:0:
394,354,187241,2,0,L|445:338,2,52.5000020027161,0|0|8,0:0|0:0|0:0,0:0:0:0:
330,209,187712,6,0,L|332:104,1,105.000004005432,4|8,0:0|0:0,0:0:0:0:
192,32,188182,2,0,L|195:98,1,52.5000020027161,8|8,0:0|0:0,0:0:0:0:
117,106,188418,2,0,L|115:175,1,52.5000020027161,8|8,0:0|0:0,0:0:0:0:
164,220,188653,5,4,0:0:0:0:
19,281,188888,1,8,0:0:0:0:
171,241,189124,1,8,0:0:0:0:
309,314,189359,1,8,0:0:0:0:
160,260,189595,1,8,0:0:0:0:
11,310,189830,6,0,L|-3:373,2,52.5000020027161,8|8|8,0:0|0:0|0:0,0:0:0:0:
27,232,190183,2,0,L|13:169,2,52.5000020027161,8|8|8,0:0|0:0|0:0,0:0:0:0:
94,273,190536,6,0,P|137:246|150:186,1,105.000004005432,10|10,0:2|0:2,0:0:0:0:
228,180,190889,1,6,0:0:0:0:
100,87,191124,1,4,0:0:0:0:
242,18,191360,1,4,0:0:0:0:
251,174,191595,1,4,0:0:0:0:
128,87,191831,5,4,0:3:0:0:
205,100,191948,2,0,L|330:84,1,105.000004005432,12|8,0:1|0:0,0:0:0:0:
386,104,192301,1,8,0:0:0:0:
452,153,192419,6,0,P|465:200|454:260,1,97.9999970092773,4|8,0:1|0:0,0:0:0:0:
333,343,192890,2,0,P|326:294|339:247,1,97.9999970092773,2|8,0:0|0:0,0:0:0:0:
287,100,193360,2,0,L|340:87,2,48.9999985046386,2|0|10,0:0|0:0|0:0,0:0:0:0:
180,216,193831,2,0,L|233:229,2,48.9999985046386,2|0|10,0:0|0:0|0:0,0:0:0:0:
68,105,194302,6,0,P|86:151|82:201,1,97.9999970092773,2|8,0:0|0:0,0:0:0:0:
200,94,194773,2,0,P|196:45|214:0,1,97.9999970092773,2|8,0:0|0:0,0:0:0:0:
350,77,195243,6,0,P|408:99|423:143,1,97.9999970092773,2|10,0:0|0:0,0:0:0:0:
478,183,195596,1,8,0:0:0:0:
448,255,195714,2,0,P|426:313|382:328,1,97.9999970092773,2|8,0:0|0:0,0:0:0:0:
254,259,196185,6,0,L|134:272,1,97.9999970092773,2|8,0:0|0:0,0:0:0:0:
107,120,196656,2,0,L|204:130,1,97.9999970092773,2|8,0:0|0:0,0:0:0:0:
352,78,197126,2,0,L|348:27,2,48.9999985046386,2|0|10,0:0|0:0|0:0,0:0:0:0:
415,221,197597,2,0,L|411:269,2,48.9999985046386,2|0|10,0:0|0:0|0:0,0:0:0:0:
257,216,198068,6,0,P|240:286|245:314,1,97.9999970092773,2|8,0:0|0:0,0:0:0:0:
119,214,198539,2,0,P|122:165|106:119,1,97.9999970092773,2|8,0:0|0:0,0:0:0:0:
39,76,198892,1,8,0:0:0:0:
39,76,199009,6,0,L|81:35,3,48.9999985046386,4|8|8|8,0:0|0:0|0:0|0:0,0:0:0:0:
160,58,199480,1,8,0:0:0:0:
160,58,199598,2,0,L|274:51,1,97.9999970092773,8|8,0:0|0:0,0:0:0:0:
335,64,199951,6,0,P|370:117|370:161,1,97.9999970092773,4|8,0:1|0:0,0:0:0:0:
216,165,200421,2,0,P|181:218|181:262,1,97.9999970092773,2|8,0:0|0:0,0:0:0:0:
297,354,200892,2,0,L|344:342,2,48.9999985046386,2|0|10,0:0|0:0|0:0,0:0:0:0:
142,383,201363,2,0,L|89:370,2,48.9999985046386,2|0|10,0:0|0:0|0:0,0:0:0:0:
95,232,201834,6,0,L|-11:253,1,97.9999970092773,2|8,0:0|0:0,0:0:0:0:
59,106,202304,2,0,L|165:127,1,97.9999970092773,2|8,0:0|0:0,0:0:0:0:
302,69,202775,6,0,P|268:133|276:176,1,97.9999970092773,2|10,0:0|0:0,0:0:0:0:
343,183,203128,1,8,0:0:0:0:
295,245,203246,2,0,P|316:314|352:339,1,97.9999970092773,2|8,0:0|0:0,0:0:0:0:
477,265,203717,6,0,L|480:159,1,97.9999970092773,4|8,0:1|0:0,0:0:0:0:
408,27,204187,2,0,L|405:124,1,97.9999970092773,2|8,0:0|0:0,0:0:0:0:
328,107,204540,1,8,0:0:0:0:
267,156,204658,2,0,P|226:166|169:146,1,97.9999970092773,2|8,0:0|0:0,0:0:0:0:
41,64,205129,1,2,0:0:0:0:
41,64,205247,2,0,L|50:166,1,97.9999970092773,8|8,0:0|0:0,0:0:0:0:
109,214,205600,6,0,L|88:329,1,97.9999970092773,4|8,0:1|0:0,0:0:0:0:
231,376,206070,2,0,L|213:279,1,97.9999970092773,2|8,0:0|0:0,0:0:0:0:
241,206,206423,2,0,P|297:171|339:175,1,97.9999970092773,8|8,0:0|0:0,0:0:0:0:
404,184,206776,2,0,L|459:167,2,48.9999985046386,8|8|8,0:0|0:0|0:0,0:0:0:0:
389,106,207129,2,0,L|441:83,2,48.9999985046386,8|8|8,0:0|0:0|0:0,0:0:0:0:
316,73,207483,6,0,P|276:73|221:45,1,97.9999970092773,4|8,0:1|0:0,0:0:0:0:
69,65,207953,2,0,L|65:15,2,48.9999985046386,2|2|10,0:0|0:0|0:0,0:0:0:0:
41,219,208424,2,0,P|81:219|136:191,1,97.9999970092773,4|8,0:1|0:0,0:0:0:0:
288,211,208894,2,0,L|292:161,2,48.9999985046386,2|2|10,0:0|0:0|0:0,0:0:0:0:
349,273,209248,1,10,0:0:0:0:
349,273,209365,6,0,L|330:381,1,97.9999970092773,4|8,0:1|0:0,0:0:0:0:
177,338,209836,2,0,L|167:274,1,48.9999985046386,2|10,0:0|0:0,0:0:0:0:
204,218,210072,2,0,L|207:152,1,48.9999985046386,10|10,0:0|0:0,0:0:0:0:
145,119,210307,5,4,0:0:0:0:
300,140,210542,1,12,0:0:0:0:
436,62,210778,1,12,0:0:0:0:
337,283,212896,5,4,0:1:0:0:
