osu file format v14

[General]
AudioFilename: nameless.mp3
AudioLeadIn: 0
PreviewTime: 65968
Countdown: 0
SampleSet: Soft
StackLeniency: 0.7
Mode: 0
LetterboxInBreaks: 0
WidescreenStoryboard: 1

[Editor]
DistanceSpacing: 0.8
BeatDivisor: 2
GridSize: 4
TimelineZoom: 2.5

[Metadata]
Title:Milk Crown on Sonnetica
TitleUnicode:ミルククラウン・オン・ソーネチカ
Artist:nameless
ArtistUnicode:nameless
Creator:Len
Version:yf's sb Hard
Source:
Tags:utaite ユジー yuzy P 窓付き@ vocaloid Hatsune Miku Fast yf_bmp toybot Reol [_halloween_] byfar Evil_twilight
BeatmapID:1173436
BeatmapSetID:327557

[Difficulty]
HPDrainRate:5.1
CircleSize:4
OverallDifficulty:5.8
ApproachRate:8
SliderMultiplier:1.13
SliderTickRate:1

[Events]
//Background and Video events
0,0,"23124.jpg",0,0
//Break Periods
2,135189,137770
2,190736,191669
//Storyboard Layer 0 (Background)
//Storyboard Layer 1 (Fail)
//Storyboard Layer 2 (Pass)
//Storyboard Layer 3 (Foreground)
//Storyboard Sound Samples

[TimingPoints]
2007,235.367958575239,4,2,1,70,1,0
2830,-133.333333333333,4,2,1,70,0,0
9538,-100,4,2,1,70,0,0
17070,-100,4,2,1,70,0,1
30251,-100,4,2,1,70,0,0
30604,-100,4,2,1,70,0,0
32134,-100,4,2,1,70,0,0
47197,-133.333333333333,4,2,1,70,0,0
54729,-100,4,2,1,70,0,0
66027,-100,4,2,1,70,0,1
79207,-100,4,2,1,70,0,0
90740,-200,4,2,1,70,0,0
91211,-125,4,2,1,70,0,0
91682,235.367958575239,4,2,1,70,1,0
114277,-100,4,2,1,70,0,0
121809,-100,4,2,1,70,0,1
134989,-100,4,2,1,70,0,0
141815,-100,4,2,1,40,0,0
142403,-100,4,2,1,60,0,0
142521,-133.333333333333,4,2,1,70,0,0
157585,-133.333333333333,4,2,1,70,0,0
163233,-100,4,2,1,70,0,0
165116,-133.333333333333,4,2,1,70,0,0
168882,-100,4,2,1,70,0,0
172648,-133.333333333333,4,2,1,70,0,0
173590,-100,4,2,1,70,0,1
190536,-100,4,2,1,70,0,0
192419,-100,4,2,1,70,0,1
207483,-133.333333333333,4,2,1,70,0,1
210778,-100,4,2,1,70,0,0

[Colours]
Combo1 : 255,234,170
Combo2 : 179,255,179
Combo3 : 172,209,255
Combo4 : 252,194,203

[HitObjects]
152,56,2006,5,2,0:0:0:0:
168,140,2242,1,2,0:0:0:0:
168,140,2360,1,0,0:0:0:0:
88,112,2595,1,2,0:0:0:0:
100,196,2830,2,0,B|52:188|64:216|16:208,2,84.750003232956,2|2|0,0:0|0:0|0:0,0:0:0:0:
132,224,3419,2,0,L|124:284,1,42.375001616478,2|2,0:0|0:0,0:0:0:0:
112,344,3654,2,0,L|104:284,1,42.375001616478,2|2,0:0|0:0,0:0:0:0:
192,320,3889,5,0,0:0:0:0:
268,284,4125,1,2,0:0:0:0:
268,284,4242,1,2,0:0:0:0:
340,332,4478,1,2,0:0:0:0:
348,248,4713,2,0,P|345:208|352:152,2,84.750003232956,2|2|2,0:0|0:0|0:0,0:0:0:0:
388,264,5302,2,0,L|460:256,1,42.375001616478,2|0,0:0|0:0,0:0:0:0:
461,283,5537,2,0,L|504:288,1,42.375001616478,2|0,0:0|0:0,0:0:0:0:
492,200,5772,5,2,0:0:0:0:
468,164,5890,1,2,0:0:0:0:
468,120,6008,1,0,0:0:0:0:
488,84,6125,2,0,L|436:96,1,42.375001616478,2|0,0:0|0:0,0:0:0:0:
376,44,6361,2,0,B|352:32|352:32|294:37,2,84.750003232956,2|2|2,0:0|0:0|0:0,0:0:0:0:
332,120,6949,2,0,L|284:124,1,42.375001616478,0|2,0:0|0:0,0:0:0:0:
252,144,7185,2,0,L|209:140,1,42.375001616478,0|2,0:0|0:0,0:0:0:0:
176,116,7420,2,0,L|128:120,1,42.375001616478,0|2,0:0|0:0,0:0:0:0:
56,152,7655,5,2,0:0:0:0:
80,188,7773,1,2,0:0:0:0:
80,232,7891,1,0,0:0:0:0:
60,268,8008,2,0,L|112:256,1,42.375001616478,2|0,0:0|0:0,0:0:0:0:
176,296,8244,2,0,B|188:324|188:324|180:392,2,84.750003232956,2|2|2,0:0|0:0|0:0,0:0:0:0:
104,340,8832,2,0,L|52:352,1,42.375001616478,0|2,0:0|0:0,0:0:0:0:
20,340,9068,2,0,L|35:288,1,42.375001616478,0|2,0:0|0:0,0:0:0:0:
60,268,9303,2,0,L|44:216,1,42.375001616478,0|2,0:0|0:0,0:0:0:0:
8,144,9538,5,4,1:0:0:0:
48,136,9656,1,2,0:0:0:0:
76,108,9774,1,0,0:0:0:0:
84,68,9891,1,0,0:0:0:0:
68,32,10009,5,0,1:0:0:0:
97,59,10127,1,2,0:0:0:0:
137,65,10245,1,0,0:0:0:0:
174,48,10362,6,0,L|230:43,1,56.5,2|0,0:0|1:0,0:0:0:0:
280,104,10597,2,0,L|336:108,2,56.5,2|0|2,0:0|0:0|0:0,0:0:0:0:
224,160,10950,1,0,1:0:0:0:
212,192,11068,1,0,0:0:0:0:
216,224,11186,1,2,0:0:0:0:
236,252,11304,1,2,0:0:0:0:
272,268,11421,5,0,1:0:0:0:
308,248,11539,1,0,0:0:0:0:
348,248,11657,1,2,0:0:0:0:
384,268,11774,1,2,0:0:0:0:
400,304,11892,5,0,1:0:0:0:
404,263,12010,1,0,0:0:0:0:
428,230,12128,1,2,0:0:0:0:
464,212,12245,2,0,L|455:156,1,56.5,2|0,0:0|1:0,0:0:0:0:
408,88,12480,2,0,L|417:32,2,56.5,2|0|2,0:0|0:0|0:0,0:0:0:0:
376,164,12833,2,0,L|263:156,1,113,0|2,1:0|0:0,0:0:0:0:
228,44,13304,5,0,1:0:0:0:
220,84,13422,1,2,0:0:0:0:
192,112,13540,1,0,0:0:0:0:
152,120,13657,1,0,0:0:0:0:
116,104,13775,5,0,1:0:0:0:
143,133,13893,1,2,0:0:0:0:
149,173,14011,1,0,0:0:0:0:
132,210,14128,6,0,L|127:266,1,56.5,2|0,0:0|1:0,0:0:0:0:
188,316,14363,2,0,L|192:372,2,56.5,2|0|2,0:0|0:0|0:0,0:0:0:0:
244,260,14716,1,0,1:0:0:0:
280,244,14834,1,0,0:0:0:0:
320,252,14952,1,2,0:0:0:0:
348,280,15069,1,0,0:0:0:0:
356,320,15187,6,0,L|416:308,1,56.5,0|2,1:0|0:0,0:0:0:0:
448,328,15422,2,0,L|508:316,1,56.5,0|2,1:0|0:0,0:0:0:0:
456,188,15776,1,2,1:2:0:0:
503,316,16011,5,2,1:2:0:0:
456,188,16246,2,0,P|454:129|464:72,1,113,2|2,1:2|0:0,0:0:0:0:
364,52,16599,2,0,P|372:107|370:164,1,113,0|0,1:2|1:0,0:0:0:0:
308,216,16952,1,0,1:0:0:0:
308,216,17070,6,0,L|195:209,2,113,4|0|2,1:0|1:0|0:2,0:0:0:0:
424,292,17776,1,0,1:0:0:0:
369,164,18012,2,0,P|361:109|363:52,1,113,2|0,0:2|1:2,0:0:0:0:
293,18,18365,2,0,L|181:30,1,113,2|0,0:0|0:0,0:0:0:0:
128,84,18718,1,2,1:2:0:0:
48,192,18953,5,2,0:0:0:0:
128,300,19188,1,0,1:0:0:0:
256,252,19424,1,2,0:0:0:0:
384,300,19659,1,0,1:0:0:0:
464,192,19894,2,0,B|447:228|447:228|468:312,1,113,2|0,0:0|1:0,0:0:0:0:
428,372,20248,2,0,L|372:380,1,56.5,0|2,1:0|0:0,0:0:0:0:
336,236,20601,1,0,1:0:0:0:
428,124,20836,5,4,0:1:0:0:
448,88,20954,1,2,0:0:0:0:
444,48,21071,1,2,1:2:0:0:
420,16,21189,2,0,L|352:24,1,56.5,2|2,0:0|0:0,0:0:0:0:
256,108,21542,1,0,1:0:0:0:
84,124,21777,5,2,0:2:0:0:
64,88,21895,1,2,0:0:0:0:
68,48,22012,1,2,1:2:0:0:
92,16,22130,2,0,L|160:24,1,56.5,2|2,0:0|0:0,0:0:0:0:
256,108,22484,1,0,1:0:0:0:
192,228,22719,6,0,B|180:264|180:264|201:335,2,113,2|0|2,0:0|1:0|0:0,0:0:0:0:
264,268,23307,2,0,L|284:337,2,56.5,0|2|0,1:2|1:2|0:2,0:0:0:0:
264,188,23660,2,0,L|328:180,1,56.5,2|0,0:0|1:0,0:0:0:0:
392,220,23896,2,0,P|400:192|396:144,1,56.5,0|0,1:0|1:0,0:0:0:0:
343,103,24131,2,0,P|336:76|335:48,2,56.5,2|0|0,0:0|1:0|1:0,0:0:0:0:
416,64,24484,2,0,L|472:71,1,56.5,0|4,1:0|1:0,0:0:0:0:
480,208,24837,5,2,1:2:0:0:
380,300,25073,1,2,0:0:0:0:
480,208,25308,1,2,1:2:0:0:
472,71,25543,6,0,L|465:127,1,56.5,2|0,0:0|1:0,0:0:0:0:
480,208,25779,2,0,L|492:328,2,113,0|2|0,1:0|0:0|1:0,0:0:0:0:
348,240,26485,5,2,0:0:0:0:
420,356,26720,1,2,1:2:0:0:
348,240,26956,1,2,0:0:0:0:
211,232,27191,1,2,1:2:0:0:
348,240,27426,6,0,L|292:247,1,56.5,2|0,0:0|1:0,0:0:0:0:
211,232,27662,2,0,P|189:184|195:116,1,113,0|2,1:0|0:0,0:0:0:0:
280,24,28132,1,2,1:2:0:0:
148,56,28368,5,4,0:1:0:0:
272,104,28603,2,0,P|304:104|326:91,2,56.5,0|2|2,1:0|0:0|0:0,0:0:0:0:
396,48,29074,2,0,P|428:48|450:60,2,56.5,0|2|2,1:0|0:0|0:0,0:0:0:0:
508,116,29545,2,0,L|500:192,1,56.5,0|2,1:0|0:0,0:0:0:0:
456,240,29780,2,0,L|464:316,3,56.5,2|2|2|0,0:0|1:2|1:2|1:0,0:0:0:0:
340,356,30368,5,4,0:3:0:0:
336,340,30604,1,4,0:3:0:0:
332,324,30839,1,4,0:3:0:0:
328,308,31074,2,0,L|336:236,1,56.5,4|0,0:3|1:0,0:0:0:0:
334,251,32134,6,0,B|284:276|284:276|228:263,1,113,4|0,1:1|1:0,0:0:0:0:
212,127,32604,2,0,P|264:139|273:191,1,113,2|0,0:0|1:0,0:0:0:0:
228,264,32957,2,0,L|104:272,1,113,2|2,0:0|0:0,0:0:0:0:
56,216,33310,2,0,L|-8:212,2,56.5,0|2|0,1:0|0:0|0:0,0:0:0:0:
92,144,33663,2,0,B|104:104|104:104|88:16,1,113,2|2,1:2|1:2,0:0:0:0:
172,28,34017,6,0,L|296:20,1,113,2|2,1:2|1:2,0:0:0:0:
336,148,34487,2,0,B|368:116|368:116|360:44,1,113,2|2,1:2|1:2,0:0:0:0:
284,20,34840,1,2,1:2:0:0:
428,0,35076,2,0,L|484:6,1,56.5,2|2,0:0|1:2,0:0:0:0:
507,140,35429,2,0,P|504:167|507:195,3,56.5,2|0|0|0,0:0|1:0|1:0|1:0,0:0:0:0:
436,232,35899,6,0,P|450:286|428:340,1,113,2|2,0:0|1:2,0:0:0:0:
296,344,36370,2,0,P|304:308|388:288,1,113,2|2,0:0|1:2,0:0:0:0:
436,232,36723,2,0,L|420:120,1,113,2|2,0:0|0:0,0:0:0:0:
372,56,37076,2,0,P|399:43|440:44,2,56.5,0|2|2,1:0|0:0|0:0,0:0:0:0:
339,132,37429,2,0,P|295:163|242:148,1,113,2|2,1:2|1:2,0:0:0:0:
184,92,37782,6,0,L|32:108,2,113,2|2|2,1:2|1:2|1:2,0:0:0:0:
216,224,38489,1,2,1:2:0:0:
216,224,38606,2,0,L|103:235,1,113,2|2,0:2|2:2,0:0:0:0:
56,304,38959,2,0,L|0:300,2,56.5,0|2|4,1:0|0:0|0:3,0:0:0:0:
124,348,39312,1,2,1:2:0:0:
160,332,39430,1,2,1:2:0:0:
200,332,39548,1,4,0:3:0:0:
237,348,39665,6,0,B|328:384|316:312|400:344,1,169.5,4|2,2:1|0:0,0:0:0:0:
470,301,40136,2,0,P|479:327|480:356,2,56.5,2|2|0,0:0|0:0|1:0,0:0:0:0:
396,264,40489,1,2,0:0:0:0:
396,264,40607,2,0,P|392:208|416:128,1,113,0|0,0:0|1:0,0:0:0:0:
472,108,40960,2,0,P|428:74|372:76,1,113,2|2,0:0|0:0,0:0:0:0:
324,140,41313,2,0,P|316:167|312:200,1,56.5,0|0,1:0|1:0,0:0:0:0:
248,248,41548,6,0,B|185:232|205:272|138:256,2,113,2|0|2,0:0|1:0|1:2,0:0:0:0:
229,328,42137,2,0,P|240:360|268:380,1,56.5,0|0,0:0|1:0,0:0:0:0:
308,308,42372,2,0,L|420:296,1,113,2|2,0:0|0:0,0:0:0:0:
488,344,42725,1,2,1:2:0:0:
488,344,43078,1,2,0:0:0:0:
504,308,43196,1,0,1:0:0:0:
500,268,43314,1,0,1:0:0:0:
480,236,43431,6,0,B|468:192|468:192|488:128,1,113,2|0,0:0|1:0,0:0:0:0:
476,48,43784,2,0,L|420:44,1,56.5,2|0,0:0|0:0,0:0:0:0:
344,16,44020,2,0,L|288:20,2,56.5,2|0|2,0:0|1:0|0:0,0:0:0:0:
352,100,44373,2,0,L|236:108,2,113,2|0|2,0:0|1:0|0:0,0:0:0:0:
340,236,45079,2,0,L|333:292,1,56.5,0|0,1:0|1:0,0:0:0:0:
256,316,45314,5,2,1:0:0:0:
256,180,45550,1,2,1:0:0:0:
333,292,45785,1,2,1:0:0:0:
179,292,46020,1,2,1:0:0:0:
179,292,46138,2,0,L|66:292,1,113,2|2,1:0|1:0,0:0:0:0:
56,212,46491,2,0,L|0:212,2,56.5,0|0|2,0:0|1:0|1:0,0:0:0:0:
116,88,46962,1,0,1:0:0:0:
116,88,47079,1,0,1:0:0:0:
116,88,47197,6,0,P|157:96|193:73,1,84.750003232956,4|0,0:2|1:0,0:0:0:0:
272,40,47550,2,0,P|272:64|292:92,1,42.375001616478,2|0,0:0|0:0,0:0:0:0:
316,156,47786,2,0,P|335:170|369:170,1,42.375001616478,0|2,1:0|0:0,0:0:0:0:
435,168,48021,2,0,P|476:121|469:60,1,127.125004849434,2|2,0:0|0:0,0:0:0:0:
400,12,48492,1,0,1:0:0:0:
353,173,48845,2,0,L|345:229,1,42.375001616478,0|0,0:0|1:0,0:0:0:0:
348,296,49080,6,0,P|308:291|278:260,1,84.750003232956,2|0,0:2|1:0,0:0:0:0:
208,209,49433,2,0,P|201:232|175:254,1,42.375001616478,2|0,0:0|0:0,0:0:0:0:
136,309,49669,2,0,P|113:317|80:308,1,42.375001616478,0|2,1:0|0:0,0:0:0:0:
17,290,49904,2,0,P|-10:234|12:177,1,127.125004849434,2|2,0:0|0:0,0:0:0:0:
92,148,50375,1,0,1:0:0:0:
136,309,50728,2,0,L|167:336,1,42.375001616478,2|4,0:0|1:2,0:0:0:0:
244,360,50963,6,0,P|249:320|228:283,1,84.750003232956,2|0,0:2|1:0,0:0:0:0:
196,202,51316,2,0,P|219:202|247:182,1,42.375001616478,2|0,0:0|0:0,0:0:0:0:
311,158,51552,2,0,P|325:138|325:104,1,42.375001616478,0|2,1:0|0:0,0:0:0:0:
323,38,51787,2,0,P|276:-2|215:4,1,127.125004849434,2|2,0:0|0:0,0:0:0:0:
167,74,52258,1,0,1:0:0:0:
328,120,52611,2,0,L|380:116,1,42.375001616478,2|4,0:0|1:2,0:0:0:0:
436,64,52846,5,0,0:0:0:0:
452,96,52964,1,2,0:0:0:0:
452,128,53081,1,0,1:0:0:0:
440,160,53199,2,0,L|445:244,1,84.750003232956,0|2,1:0|0:0,0:0:0:0:
408,316,53552,2,0,L|404:360,1,42.375001616478,0|2,1:0|0:0,0:0:0:0:
256,320,53905,1,2,0:0:0:0:
228,304,54023,1,0,1:0:0:0:
196,300,54141,1,0,1:0:0:0:
164,304,54258,2,0,P|136:316|120:328,1,42.375001616478,0|0,1:0|1:0,0:0:0:0:
48,336,54494,2,0,L|52:272,1,42.375001616478,0|0,1:0|1:0,0:0:0:0:
56,216,54729,5,4,1:2:0:0:
188,191,54964,2,0,P|114:213|91:140,1,169.5,0|0,1:0|1:0,0:0:0:0:
196,56,55553,2,0,L|328:52,1,113,0|2,1:0|0:0,0:0:0:0:
376,96,55906,1,0,1:0:0:0:
376,96,56376,1,0,1:0:0:0:
380,128,56494,1,0,1:0:0:0:
376,160,56612,5,4,1:2:0:0:
243,184,56847,2,0,P|316:162|339:235,1,169.5,0|0,1:0|1:0,0:0:0:0:
236,320,57436,2,0,L|104:324,1,113,0|2,1:0|0:0,0:0:0:0:
56,280,57789,1,0,1:0:0:0:
76,252,57906,1,0,1:0:0:0:
80,220,58024,2,0,P|79:191|72:156,1,56.5,0|0,1:0|1:0,0:0:0:0:
12,96,58259,2,0,P|12:67|20:32,1,56.5,0|0,1:0|1:0,0:0:0:0:
100,76,58495,6,0,L|160:72,2,56.5,4|0|0,1:0|1:0|1:0,0:0:0:0:
224,24,58966,2,0,L|284:28,2,56.5,2|2|0,1:2|0:0|1:0,0:0:0:0:
264,152,59436,5,2,0:0:0:0:
392,104,59672,2,0,P|421:102|456:112,1,56.5,0|0,1:0|0:0,0:0:0:0:
412,188,59907,2,0,P|382:186|348:196,2,56.5,2|0|0,0:0|0:0|1:0,0:0:0:0:
484,232,60260,1,2,0:0:0:0:
484,232,60378,6,0,L|480:296,2,56.5,2|0|0,0:0|0:0|1:0,0:0:0:0:
396,272,60731,1,2,0:0:0:0:
396,272,60849,2,0,L|400:336,2,56.5,2|0|0,0:0|0:0|1:0,0:0:0:0:
316,320,61202,1,0,0:0:0:0:
316,320,61319,6,0,B|268:304|256:336|204:316,2,113,2|0|2,0:0|1:0|0:0,0:0:0:0:
399,328,61908,2,0,L|396:272,2,56.5,2|0|0,0:0|1:0|1:0,0:0:0:0:
315,319,62261,6,0,P|302:280|307:238,1,84.75,4|0,1:0|0:0,0:0:0:0:
300,220,62496,2,0,P|324:185|361:165,1,84.75,0|0,1:0|0:0,0:0:0:0:
368,148,62731,2,0,P|410:146|448:165,1,84.75,0|0,1:0|0:0,0:0:0:0:
464,152,62967,2,0,L|467:95,1,56.5,0|0,1:0|0:0,0:0:0:0:
412,28,63202,6,0,P|374:11|332:12,1,84.75,4|0,1:0|0:0,0:0:0:0:
314,4,63437,2,0,P|277:24|253:59,1,84.75,0|0,1:0|0:0,0:0:0:0:
237,65,63673,2,0,P|232:100|248:144,1,56.5,0|0,1:0|1:0,0:0:0:0:
164,164,63908,2,0,L|108:164,1,56.5,0|0,1:0|0:0,0:0:0:0:
40,116,64144,1,0,1:0:0:0:
39,116,64497,6,0,P|58:63|54:7,2,113,2|2|2,0:0|0:0|0:0,0:0:0:0:
35,197,65085,6,0,B|4:284|80:280|45:359,1,169.5,4|0,0:0|1:0,0:0:0:0:
136,332,65556,1,0,1:0:0:0:
168,324,65674,1,0,1:0:0:0:
200,328,65791,1,0,1:0:0:0:
232,344,65909,1,0,1:0:0:0:
255,367,66027,6,0,P|310:377|360:344,1,113,4|8,1:0|1:0,0:0:0:0:
420,292,66380,1,2,0:0:0:0:
420,292,66497,2,0,P|373:262|318:271,1,113,2|8,0:0|1:0,0:0:0:0:
248,224,66850,1,0,0:0:0:0:
248,224,66968,6,0,P|237:199|237:169,1,56.5,2|0,0:0|0:0,0:0:0:0:
376,168,67203,2,0,L|316:180,1,56.5,8|0,1:0|0:0,0:0:0:0:
288,96,67439,2,0,P|299:70|299:40,1,56.5,2|0,0:0|0:0,0:0:0:0:
159,40,67674,2,0,L|219:52,1,56.5,8|0,1:0|0:0,0:0:0:0:
299,42,67910,6,0,B|353:28|353:68|409:52,1,113,2|8,0:0|1:0,0:0:0:0:
484,16,68263,1,0,0:0:0:0:
484,16,68380,2,0,P|492:48|488:80,1,56.5,2|0,0:0|0:0,0:0:0:0:
432,136,68616,2,0,P|424:168|428:200,1,56.5,8|0,1:0|0:0,0:0:0:0:
484,248,68851,2,0,P|507:297|485:348,1,113,0|8,0:0|1:0,0:0:0:0:
408,372,69204,1,8,0:0:0:0:
408,372,69322,1,8,0:0:0:0:
244,272,69557,1,8,1:0:0:0:
244,272,69675,1,8,0:0:0:0:
244,272,69792,6,0,L|188:276,2,56.5,4|2|8,1:0|0:1|1:0,0:0:0:0:
252,192,70146,2,0,B|188:196|188:196|160:180|161:157,1,113,2|2,0:1|0:0,0:0:0:0:
228,116,70499,2,0,L|284:112,1,56.5,8|2,1:0|0:1,0:0:0:0:
328,180,70734,6,0,L|324:236,2,56.5,0|2|8,0:0|0:1|1:0,0:0:0:0:
408,172,71088,2,0,B|404:236|404:236|420:264|442:262,1,113,2|2,0:1|0:1,0:0:0:0:
484,196,71441,2,0,L|488:140,1,56.5,8|2,1:0|0:1,0:0:0:0:
424,92,71675,5,0,0:0:0:0:
412,60,71793,1,0,0:0:0:0:
416,28,71911,1,8,1:0:0:0:
436,0,72028,2,0,L|323:2,2,113,2|2|0,0:0|0:0|0:0,0:0:0:0:
492,60,72617,6,0,L|496:128,1,56.5,2|0,0:0|1:0,0:0:0:0:
440,172,72853,2,0,P|412:164|364:168,1,56.5,0|0,1:0|1:0,0:0:0:0:
348,92,73088,2,0,P|319:91|292:84,1,56.5,2|0,0:0|1:0,0:0:0:0:
240,16,73323,1,2,0:0:0:0:
240,16,73441,1,0,1:0:0:0:
240,16,73558,6,0,P|185:6|135:39,1,113,4|8,1:0|1:0,0:0:0:0:
75,91,73911,1,2,0:0:0:0:
75,91,74028,2,0,P|122:121|177:112,1,113,2|8,0:0|1:0,0:0:0:0:
247,159,74381,1,0,0:0:0:0:
247,159,74500,6,0,P|258:184|258:214,1,56.5,2|0,0:0|0:0,0:0:0:0:
119,215,74735,2,0,L|179:203,1,56.5,8|0,1:0|0:0,0:0:0:0:
207,287,74971,2,0,P|196:313|196:343,1,56.5,2|0,0:0|0:0,0:0:0:0:
336,343,75206,2,0,L|276:331,1,56.5,8|0,1:0|0:0,0:0:0:0:
196,341,75441,6,0,B|141:354|141:314|85:330,1,113,2|8,0:0|1:0,0:0:0:0:
11,367,75794,1,0,0:0:0:0:
11,367,75912,2,0,P|3:335|7:303,1,56.5,2|0,0:0|0:0,0:0:0:0:
63,247,76147,2,0,P|71:215|67:183,1,56.5,8|0,1:0|0:0,0:0:0:0:
11,135,76382,2,0,P|-12:85|9:34,1,113,2|8,0:0|1:0,0:0:0:0:
87,11,76735,1,8,1:0:0:0:
87,11,76853,1,8,0:0:0:0:
251,111,77088,1,8,1:0:0:0:
251,111,77206,1,8,0:0:0:0:
251,111,77324,6,0,L|307:107,2,56.5,4|2|8,1:0|0:1|1:0,0:0:0:0:
243,191,77677,1,0,0:0:0:0:
243,191,77795,2,0,B|307:187|307:187|335:203|333:225,1,113,2|8,0:1|1:0,0:0:0:0:
300,300,78148,1,0,0:0:0:0:
300,300,78266,6,0,L|296:356,2,56.5,2|2|8,0:1|0:1|1:0,0:0:0:0:
380,292,78620,1,0,0:0:0:0:
380,292,78736,2,0,B|376:356|376:356|392:384|414:382,1,113,2|8,0:1|1:0,0:0:0:0:
488,356,79090,1,8,1:0:0:0:
488,356,79207,5,4,1:0:0:0:
472,316,79325,1,0,0:0:0:0:
480,272,79443,1,8,1:0:0:0:
512,240,79560,1,8,1:0:0:0:
512,196,79678,1,0,1:0:0:0:
488,156,79796,1,8,1:0:0:0:
448,140,79913,2,0,L|444:64,1,56.5,4|0,0:0|0:0,0:0:0:0:
356,4,80149,5,0,1:0:0:0:
372,44,80267,1,0,1:0:0:0:
364,88,80385,1,8,1:0:0:0:
332,120,80502,1,8,1:0:0:0:
332,164,80620,1,0,1:0:0:0:
356,204,80738,1,8,1:0:0:0:
396,220,80855,2,0,L|400:296,1,56.5,4|0,0:0|0:0,0:0:0:0:
320,352,81090,5,0,1:0:0:0:
276,348,81208,1,0,1:0:0:0:
232,344,81326,1,8,1:0:0:0:
188,340,81443,1,8,1:0:0:0:
144,336,81561,6,0,L|136:272,2,56.5,0|0|0,1:0|1:0|1:0,0:0:0:0:
64,328,81914,2,0,L|56:264,2,56.5,0|0|0,1:0|1:0|1:0,0:0:0:0:
144,336,82268,5,4,1:0:0:0:
176,304,82385,1,0,1:0:0:0:
176,260,82503,1,8,1:0:0:0:
152,220,82621,1,8,1:0:0:0:
112,204,82738,2,0,L|108:128,1,56.5,0|0,1:0|1:0,0:0:0:0:
28,192,82973,6,0,L|24:116,1,56.5,4|0,1:0|1:0,0:0:0:0:
80,72,83209,1,0,1:0:0:0:
112,40,83326,1,0,1:0:0:0:
156,40,83444,1,8,1:0:0:0:
196,64,83562,1,8,1:0:0:0:
212,104,83679,2,0,L|288:108,1,56.5,0|0,1:0|1:0,0:0:0:0:
324,52,83915,5,4,1:0:0:0:
368,48,84032,1,0,1:0:0:0:
412,44,84150,1,8,1:0:0:0:
456,40,84268,1,8,1:0:0:0:
500,36,84385,2,0,L|496:96,1,56.5,0|0,1:0|1:0,0:0:0:0:
504,172,84621,5,4,1:0:0:0:
460,168,84738,1,0,1:0:0:0:
416,164,84856,1,8,1:0:0:0:
372,160,84974,1,8,1:0:0:0:
328,156,85091,2,0,L|332:216,1,56.5,0|0,1:0|1:0,0:0:0:0:
320,292,85327,5,4,1:0:0:0:
480,256,85562,1,8,1:0:0:0:
440,280,85680,1,8,1:0:0:0:
396,268,85797,2,0,L|392:332,2,56.5,0|0|4,1:0|1:0|1:0,0:0:0:0:
240,312,86268,1,8,1:0:0:0:
200,288,86386,1,8,1:0:0:0:
156,300,86503,2,0,L|152:236,2,56.5,0|0|4,1:0|1:0|1:0,0:0:0:0:
4,352,86974,5,0,1:0:0:0:
12,309,87092,1,0,1:0:0:0:
20,266,87210,2,0,L|31:202,2,56.5,8|8|4,1:0|1:0|0:0,0:0:0:0:
88,92,87680,1,0,1:0:0:0:
96,135,87798,1,0,1:0:0:0:
104,178,87916,2,0,L|115:241,1,56.5,8|8,1:0|1:0,0:0:0:0:
184,168,88151,6,0,L|195:231,1,56.5,4|0,1:0|1:0,0:0:0:0:
272,212,88387,1,8,1:0:0:0:
316,216,88504,1,8,1:0:0:0:
360,220,88622,1,0,1:0:0:0:
404,224,88740,1,0,1:0:0:0:
448,228,88857,2,0,L|456:168,1,56.5,8|0,1:0|1:0,0:0:0:0:
468,92,89093,5,8,1:0:0:0:
424,96,89210,1,8,1:0:0:0:
380,100,89328,1,0,1:0:0:0:
336,104,89446,1,0,1:0:0:0:
292,108,89563,2,0,L|284:48,1,56.5,8|0,1:0|1:0,0:0:0:0:
212,16,89799,5,4,1:0:0:0:
55,71,90034,1,0,1:0:0:0:
55,71,90152,1,0,1:0:0:0:
220,92,90387,1,0,1:0:0:0:
63,147,90623,1,0,1:0:0:0:
63,147,90740,2,0,B|127:143|95:195|163:191,1,113,0|0,1:0|0:0,0:0:0:0:
160,192,91682,6,0,B|210:167|210:167|266:180,1,113,4|0,1:1|1:0,0:0:0:0:
282,316,92152,2,0,P|230:304|221:252,1,113,2|0,0:0|1:0,0:0:0:0:
266,179,92505,2,0,L|390:171,1,113,2|2,0:0|0:0,0:0:0:0:
456,168,92858,2,0,L|520:172,2,56.5,0|2|0,1:0|0:0|0:0,0:0:0:0:
420,240,93211,2,0,B|408:280|408:280|424:368,1,113,2|2,1:2|1:2,0:0:0:0:
340,356,93565,6,0,L|216:364,1,113,2|2,1:2|1:2,0:0:0:0:
176,236,94035,2,0,B|144:268|144:268|152:340,1,113,2|2,1:2|1:2,0:0:0:0:
228,364,94388,1,2,1:2:0:0:
84,384,94624,2,0,L|28:378,1,56.5,2|2,0:0|1:2,0:0:0:0:
5,244,94977,2,0,P|8:217|5:189,3,56.5,2|0|0|0,0:0|1:0|1:0|1:0,0:0:0:0:
76,152,95447,6,0,P|62:98|84:44,1,113,2|2,0:0|1:2,0:0:0:0:
216,40,95918,2,0,P|208:76|124:96,1,113,2|2,0:0|1:2,0:0:0:0:
76,152,96271,2,0,L|92:264,1,113,2|2,0:0|0:0,0:0:0:0:
140,328,96624,2,0,P|113:341|72:340,2,56.5,0|2|2,1:0|0:0|0:0,0:0:0:0:
173,252,96977,2,0,P|217:221|270:236,1,113,2|2,1:2|1:2,0:0:0:0:
328,292,97330,6,0,L|480:276,2,113,2|2|2,1:2|1:2|1:2,0:0:0:0:
296,160,98037,1,2,1:2:0:0:
296,160,98154,2,0,L|409:149,1,113,2|2,0:2|2:2,0:0:0:0:
456,80,98507,2,0,L|512:84,2,56.5,0|2|4,1:0|0:0|0:3,0:0:0:0:
388,36,98860,1,2,1:2:0:0:
352,52,98978,1,2,1:2:0:0:
312,52,99096,1,4,0:3:0:0:
275,36,99213,6,0,B|184:0|196:72|112:40,1,169.5,4|2,2:1|0:0,0:0:0:0:
42,83,99684,2,0,P|33:57|32:28,2,56.5,2|2|0,0:0|0:0|1:0,0:0:0:0:
116,120,100037,1,2,0:0:0:0:
116,120,100155,2,0,P|120:176|96:256,1,113,0|0,0:0|1:0,0:0:0:0:
40,276,100508,2,0,P|84:310|140:308,1,113,2|2,0:0|0:0,0:0:0:0:
188,244,100861,2,0,P|196:217|200:184,1,56.5,0|0,1:0|1:0,0:0:0:0:
264,136,101096,6,0,B|327:152|307:112|374:128,2,113,2|0|2,0:0|1:0|1:2,0:0:0:0:
283,56,101685,2,0,P|272:24|244:4,1,56.5,0|0,0:0|1:0,0:0:0:0:
204,76,101920,2,0,L|92:88,1,113,2|2,0:0|0:0,0:0:0:0:
52,12,102273,1,2,1:2:0:0:
52,12,102508,1,0,1:0:0:0:
24,40,102626,1,2,0:0:0:0:
8,76,102744,1,0,1:0:0:0:
12,116,102862,1,0,1:0:0:0:
32,148,102979,6,0,B|44:192|44:192|24:256,1,113,2|0,0:0|1:0,0:0:0:0:
36,336,103332,2,0,L|92:340,1,56.5,2|0,0:0|0:0,0:0:0:0:
168,368,103568,2,0,L|224:364,2,56.5,2|0|2,0:0|1:0|0:0,0:0:0:0:
160,284,103921,2,0,L|276:276,2,113,2|0|2,0:0|1:0|0:0,0:0:0:0:
172,148,104627,2,0,L|179:92,1,56.5,0|0,1:0|1:0,0:0:0:0:
256,68,104862,5,2,1:0:0:0:
256,204,105098,1,2,1:0:0:0:
179,92,105333,1,2,1:0:0:0:
333,92,105568,1,2,1:0:0:0:
196,16,105804,5,2,1:0:0:0:
256,204,106039,1,2,1:0:0:0:
316,16,106274,5,2,1:0:0:0:
344,16,106392,1,0,1:0:0:0:
372,16,106510,1,2,1:0:0:0:
400,16,106627,1,0,1:0:0:0:
428,16,106745,6,0,L|436:104,1,84.75,0|2,1:0|2:0,0:0:0:0:
437,117,106980,2,0,P|419:138|393:147,1,56.5,0|0,1:0|1:0,0:0:0:0:
312,140,107216,2,0,L|244:124,1,56.5,0|0,1:0|1:0,0:0:0:0:
176,128,107451,2,0,P|149:119|131:97,1,56.5,0|0,1:0|1:0,0:0:0:0:
56,132,107687,6,0,L|48:220,1,84.75,0|2,1:0|2:0,0:0:0:0:
46,233,107922,2,0,P|64:254|90:263,1,56.5,0|0,1:0|1:0,0:0:0:0:
172,256,108158,2,0,L|240:240,1,56.5,0|0,1:0|1:0,0:0:0:0:
308,236,108393,2,0,P|334:245|352:267,1,56.5,0|0,1:0|1:0,0:0:0:0:
408,328,108628,6,0,L|396:392,1,56.5,0|2,1:2|1:2,0:0:0:0:
432,248,108863,2,0,P|449:226|475:217,1,56.5,0|0,1:0|1:0,0:0:0:0:
324,344,109099,2,0,L|260:356,1,56.5,0|2,1:2|1:2,0:0:0:0:
488,312,109334,2,0,P|497:338|492:365,1,56.5,0|0,1:0|1:0,0:0:0:0:
432,248,109569,6,0,P|411:187|424:124,1,113,0|0,1:0|1:0,0:0:0:0:
464,76,109923,2,0,L|496:72,2,28.25,0|0|0,1:0|1:0|1:0,0:0:0:0:
464,76,110276,1,0,1:0:0:0:
308,72,110511,6,0,P|323:47|328:12,1,56.5,0|2,1:0|0:0,0:0:0:0:
268,144,110746,2,0,P|273:171|288:194,1,56.5,0|2,1:0|0:0,0:0:0:0:
228,76,110982,6,0,P|204:60|177:54,1,56.5,0|2,1:0|0:0,0:0:0:0:
348,140,111217,2,0,P|371:155|398:161,1,56.5,0|2,1:0|0:0,0:0:0:0:
268,144,111452,6,0,L|208:156,1,56.5,0|2,1:0|0:0,0:0:0:0:
140,188,111688,2,0,L|84:176,1,56.5,0|2,1:0|0:0,0:0:0:0:
36,112,111923,1,0,1:0:0:0:
100,260,112159,1,0,1:0:0:0:
100,260,112276,1,0,1:0:0:0:
100,260,112394,6,0,P|84:284|80:320,1,56.5,0|2,1:0|0:0,0:0:0:0:
140,188,112629,2,0,P|134:160|119:137,1,56.5,0|2,1:0|0:0,0:0:0:0:
180,256,112865,6,0,P|203:271|230:277,1,56.5,0|2,1:0|0:0,0:0:0:0:
60,192,113100,2,0,P|36:176|9:170,1,56.5,0|2,1:0|0:0,0:0:0:0:
140,188,113335,6,0,L|200:176,1,56.5,0|2,1:0|0:0,0:0:0:0:
268,144,113571,2,0,L|323:155,1,56.5,0|2,1:0|0:0,0:0:0:0:
384,208,113806,2,0,P|460:212|492:176,1,113,0|0,1:0|1:0,0:0:0:0:
508,116,114159,1,0,0:0:0:0:
508,116,114277,5,4,1:0:0:0:
380,20,114512,1,8,1:0:0:0:
232,76,114748,2,0,P|179:73|128:32,1,113,0|8,0:0|1:0,0:0:0:0:
32,208,115218,5,4,1:0:0:0:
160,112,115453,1,8,1:0:0:0:
308,168,115689,2,0,P|360:165|412:124,1,113,0|8,0:0|1:0,0:0:0:0:
484,152,116042,1,0,1:0:0:0:
485,175,116160,6,0,L|493:303,1,113,2|0,1:2|1:0,0:0:0:0:
412,260,116513,1,0,1:0:0:0:
400,242,116631,2,0,L|408:114,1,113,2|0,1:2|1:0,0:0:0:0:
400,28,116984,1,0,0:0:0:0:
408,48,117101,6,0,P|479:55|520:28,1,113,2|0,0:0|1:0,0:0:0:0:
336,92,117572,1,2,0:0:0:0:
300,120,117690,1,0,1:0:0:0:
256,124,117807,1,0,1:0:0:0:
216,104,117925,1,0,1:0:0:0:
197,65,118043,6,0,P|210:104|205:146,1,84.75,4|0,1:0|0:0,0:0:0:0:
212,164,118278,2,0,P|188:199|151:219,1,84.75,0|0,1:0|0:0,0:0:0:0:
144,236,118513,2,0,P|102:238|64:219,1,84.75,0|0,1:0|0:0,0:0:0:0:
48,232,118749,2,0,L|45:289,1,56.5,0|0,1:0|0:0,0:0:0:0:
100,356,118984,6,0,P|138:373|180:372,1,84.75,4|0,1:0|0:0,0:0:0:0:
198,380,119219,2,0,P|235:360|259:325,1,84.75,0|0,1:0|0:0,0:0:0:0:
275,319,119455,2,0,P|280:284|264:240,1,56.5,0|0,1:0|1:0,0:0:0:0:
348,220,119690,2,0,L|404:220,1,56.5,0|0,1:0|0:0,0:0:0:0:
472,268,119926,1,0,1:0:0:0:
473,268,120279,6,0,P|454:321|458:377,2,113,2|2|2,0:0|0:0|0:0,0:0:0:0:
477,187,120867,6,0,B|508:100|432:104|467:25,1,169.5,4|0,0:0|1:0,0:0:0:0:
376,52,121338,1,0,1:0:0:0:
344,60,121456,1,0,1:0:0:0:
312,56,121573,1,0,1:0:0:0:
280,40,121691,1,0,1:0:0:0:
257,17,121809,6,0,P|202:7|152:40,1,113,4|8,1:0|1:0,0:0:0:0:
92,92,122162,1,2,0:0:0:0:
92,92,122279,2,0,P|139:122|194:113,1,113,2|8,0:0|1:0,0:0:0:0:
264,160,122632,1,0,0:0:0:0:
264,160,122750,6,0,P|275:185|275:215,1,56.5,2|0,0:0|0:0,0:0:0:0:
136,216,122985,2,0,L|196:204,1,56.5,8|0,1:0|0:0,0:0:0:0:
224,288,123221,2,0,P|213:314|213:344,1,56.5,2|0,0:0|0:0,0:0:0:0:
353,344,123456,2,0,L|293:332,1,56.5,8|0,1:0|0:0,0:0:0:0:
213,342,123692,6,0,B|159:356|159:316|103:332,1,113,2|8,0:0|1:0,0:0:0:0:
28,368,124045,1,0,0:0:0:0:
28,368,124162,2,0,P|20:336|24:304,1,56.5,2|0,0:0|0:0,0:0:0:0:
80,248,124398,2,0,P|88:216|84:184,1,56.5,8|0,1:0|0:0,0:0:0:0:
28,136,124633,2,0,P|5:87|27:36,1,113,0|8,0:0|1:0,0:0:0:0:
104,12,124986,1,8,0:0:0:0:
104,12,125104,1,8,0:0:0:0:
268,112,125339,1,8,1:0:0:0:
268,112,125457,1,8,0:0:0:0:
268,112,125574,6,0,L|324:108,2,56.5,4|2|8,1:0|0:1|1:0,0:0:0:0:
260,192,125928,2,0,B|324:188|324:188|352:204|351:227,1,113,2|2,0:1|0:0,0:0:0:0:
284,268,126281,2,0,L|228:272,1,56.5,8|2,1:0|0:1,0:0:0:0:
184,204,126516,6,0,L|188:148,2,56.5,0|2|8,0:0|0:1|1:0,0:0:0:0:
104,212,126870,2,0,B|108:148|108:148|92:120|70:122,1,113,2|2,0:1|0:1,0:0:0:0:
28,188,127223,2,0,L|24:244,1,56.5,8|2,1:0|0:1,0:0:0:0:
88,292,127457,5,0,0:0:0:0:
100,324,127575,1,0,0:0:0:0:
96,356,127693,1,8,1:0:0:0:
76,384,127810,2,0,L|189:382,2,113,2|2|0,0:0|0:0|0:0,0:0:0:0:
20,324,128399,6,0,L|16:256,1,56.5,2|0,0:0|1:0,0:0:0:0:
72,212,128635,2,0,P|100:220|148:216,1,56.5,0|0,1:0|1:0,0:0:0:0:
164,292,128870,2,0,P|193:293|220:300,1,56.5,2|0,0:0|1:0,0:0:0:0:
272,368,129105,1,2,0:0:0:0:
272,368,129223,1,0,1:0:0:0:
272,368,129340,6,0,P|327:378|377:345,1,113,4|8,1:0|1:0,0:0:0:0:
437,293,129693,1,2,0:0:0:0:
437,293,129810,2,0,P|390:263|335:272,1,113,2|8,0:0|1:0,0:0:0:0:
265,225,130163,1,0,0:0:0:0:
265,225,130282,6,0,P|254:200|254:170,1,56.5,2|0,0:0|0:0,0:0:0:0:
393,169,130517,2,0,L|333:181,1,56.5,8|0,1:0|0:0,0:0:0:0:
305,97,130753,2,0,P|316:71|316:41,1,56.5,2|0,0:0|0:0,0:0:0:0:
176,41,130988,2,0,L|236:53,1,56.5,8|0,1:0|0:0,0:0:0:0:
316,43,131223,6,0,B|371:30|371:70|427:54,1,113,2|8,0:0|1:0,0:0:0:0:
501,17,131576,1,0,0:0:0:0:
501,17,131694,2,0,P|509:49|505:81,1,56.5,2|0,0:0|0:0,0:0:0:0:
449,137,131929,2,0,P|441:169|445:201,1,56.5,8|0,1:0|0:0,0:0:0:0:
501,249,132164,2,0,P|524:299|503:350,1,113,2|8,0:0|1:0,0:0:0:0:
425,373,132517,1,8,1:0:0:0:
425,373,132635,1,8,0:0:0:0:
261,273,132870,1,8,1:0:0:0:
261,273,132988,1,8,0:0:0:0:
261,273,133106,6,0,L|205:277,2,56.5,4|2|8,1:0|0:1|1:0,0:0:0:0:
269,193,133459,1,0,0:0:0:0:
269,193,133577,2,0,B|205:197|205:197|177:181|179:159,1,113,2|8,0:1|1:0,0:0:0:0:
212,84,133930,1,0,0:0:0:0:
212,84,134048,6,0,L|216:28,2,56.5,2|2|8,0:1|0:1|1:0,0:0:0:0:
132,92,134402,1,0,0:0:0:0:
132,92,134518,6,0,B|136:28|136:28|120:0|98:2,1,113,2|8,0:1|1:0,0:0:0:0:
0,128,134989,1,4,1:0:0:0:
112,208,138520,6,0,L|64:216,3,37.6666666666667,0|0|0|4,1:0|1:0|1:0|2:2,0:0:0:0:
176,124,138990,5,0,1:0:0:0:
176,124,139108,1,0,1:0:0:0:
176,124,139226,1,4,2:2:0:0:
68,40,139461,1,0,1:0:0:0:
68,40,139579,1,0,1:0:0:0:
68,40,139697,6,0,P|112:57|176:32,1,113,4|0,0:0|1:0,0:0:0:0:
248,76,140050,1,0,1:0:0:0:
248,76,140167,2,0,P|292:93|356:68,1,113,4|0,0:0|1:0,0:0:0:0:
416,16,140520,1,0,1:0:0:0:
416,16,140638,5,4,0:0:0:0:
388,148,140873,1,2,0:0:0:0:
504,220,141109,1,4,0:0:0:0:
456,92,141344,1,2,0:0:0:0:
420,224,141580,5,4,0:0:0:0:
304,152,141815,2,0,L|276:156,8,28.25,0|0|0|0|0|0|0|0|0,1:0|1:0|1:0|1:0|1:0|1:0|1:0|1:0|1:0,0:0:0:0:
304,232,142403,1,0,1:0:0:0:
304,232,142521,6,0,P|224:253|149:217,1,169.500006465912,4|2,1:0|0:0,0:0:0:0:
112,84,143227,1,0,0:0:0:0:
148,216,143462,2,0,P|149:259|131:297,1,84.750003232956,2|0,0:0|0:0,0:0:0:0:
104,312,143816,1,0,1:0:0:0:
104,312,143933,1,0,1:0:0:0:
104,312,144404,6,0,P|184:290|259:326,1,169.500006465912,2|2,0:0|0:0,0:0:0:0:
396,320,145110,1,0,0:0:0:0:
258,325,145345,2,0,P|257:282|275:244,1,84.750003232956,2|0,0:0|0:0,0:0:0:0:
303,232,145699,1,0,1:0:0:0:
303,232,145816,1,0,1:0:0:0:
376,120,146051,1,2,0:0:0:0:
376,120,146169,1,0,1:0:0:0:
376,120,146287,6,0,P|299:145|236:94,1,169.500006465912,2|2,0:0|0:0,0:0:0:0:
120,20,146993,1,0,0:0:0:0:
108,156,147228,2,0,L|23:159,1,84.750003232956,2|0,0:0|0:0,0:0:0:0:
8,184,147581,1,0,1:0:0:0:
8,184,147699,1,0,1:0:0:0:
40,52,147934,1,0,0:0:0:0:
191,167,148170,6,0,P|204:229|193:292,1,127.125004849434,2|0,0:0|0:0,0:0:0:0:
172,312,148641,2,0,L|72:320,1,84.750003232956,2|0,0:0|0:0,0:0:0:0:
296,376,149111,2,0,P|283:314|294:251,1,127.125004849434,2|0,0:0|1:0,0:0:0:0:
315,231,149582,2,0,L|415:223,1,84.750003232956,0|2,1:0|0:0,0:0:0:0:
464,168,149935,1,0,1:0:0:0:
464,168,150053,6,0,P|439:66|368:142,1,254.250009698868,4|0,0:1|1:0,0:0:0:0:
476,252,150994,2,0,L|488:348,1,84.750003232956,2|0,0:0|0:0,0:0:0:0:
464,356,151347,1,0,1:0:0:0:
464,356,151465,1,0,1:0:0:0:
464,356,151936,6,0,B|344:312|336:384|212:348,1,254.250009698868,2|0,0:0|1:0,0:0:0:0:
144,232,152877,2,0,L|132:136,1,84.750003232956,2|0,0:0|0:0,0:0:0:0:
156,128,153230,1,0,1:0:0:0:
156,128,153348,1,0,1:0:0:0:
60,32,153583,1,0,1:0:0:0:
60,32,153701,1,0,1:0:0:0:
60,32,153819,5,4,1:0:0:0:
24,164,154054,1,0,1:0:0:0:
156,128,154289,1,0,1:0:0:0:
56,36,154525,1,0,1:0:0:0:
96,164,154760,5,4,1:0:0:0:
228,200,154995,1,0,1:0:0:0:
192,68,155230,1,0,1:0:0:0:
100,168,155466,1,0,1:0:0:0:
100,168,155584,1,0,1:0:0:0:
100,168,155702,5,0,1:0:0:0:
176,280,155937,1,0,1:0:0:0:
308,308,156172,1,0,1:0:0:0:
424,236,156408,1,0,1:0:0:0:
456,104,156643,1,0,1:0:0:0:
328,144,156878,1,0,1:0:0:0:
328,144,156996,1,0,1:0:0:0:
328,144,157114,2,0,P|308:80|320:16,1,127.125004849434,2|0,1:0|1:0,0:0:0:0:
348,4,157585,5,4,1:0:0:0:
196,44,157820,1,2,0:0:0:0:
196,44,158291,5,0,1:0:0:0:
348,84,158526,1,2,0:0:0:0:
348,84,158997,2,0,L|296:96,1,42.375001616478,2|0,0:0|0:0,0:0:0:0:
232,112,159232,5,0,1:0:0:0:
80,152,159467,1,2,0:0:0:0:
80,152,159938,1,0,0:0:0:0:
80,152,160056,1,0,0:0:0:0:
80,152,160174,5,0,1:0:0:0:
232,192,160409,1,2,0:0:0:0:
144,316,160644,1,2,0:0:0:0:
144,316,160880,2,0,P|126:267|160:192,1,127.125004849434,0|0,1:0|0:0,0:0:0:0:
232,192,161350,5,0,1:0:0:0:
384,232,161585,1,2,0:0:0:0:
384,232,162057,5,0,1:0:0:0:
232,272,162292,1,2,0:0:0:0:
232,272,162763,1,0,0:0:0:0:
324,384,162998,1,0,1:0:0:0:
456,328,163233,6,0,P|468:288|460:216,1,113,4|0,1:0|1:0,0:0:0:0:
408,156,163586,1,0,1:0:0:0:
408,156,163704,2,0,P|396:116|404:44,1,113,0|0,1:0|1:0,0:0:0:0:
484,32,164057,1,0,1:0:0:0:
484,32,164175,6,0,L|472:92,1,56.5,0|0,0:0|1:0,0:0:0:0:
403,46,164410,2,0,L|362:91,1,56.5,0|0,1:0|1:0,0:0:0:0:
324,20,164646,2,0,P|269:50|160:36,1,169.5,0|0,1:0|1:0,0:0:0:0:
136,108,165116,6,0,P|177:116|213:93,1,84.750003232956,4|0,0:2|1:0,0:0:0:0:
292,60,165469,2,0,P|292:84|312:112,1,42.375001616478,2|0,0:0|1:0,0:0:0:0:
336,176,165705,2,0,P|355:190|389:190,1,42.375001616478,0|2,1:0|0:0,0:0:0:0:
455,188,165940,2,0,P|496:141|489:80,1,127.125004849434,2|2,1:2|0:0,0:0:0:0:
408,80,166411,1,0,1:0:0:0:
408,80,166529,1,0,1:0:0:0:
373,193,166764,2,0,L|365:249,1,42.375001616478,0|0,0:0|1:0,0:0:0:0:
368,316,166999,6,0,P|328:311|298:280,1,84.750003232956,2|0,0:2|1:0,0:0:0:0:
228,229,167352,2,0,P|221:252|195:274,1,42.375001616478,2|0,0:0|0:0,0:0:0:0:
156,329,167588,2,0,P|133:337|100:328,1,42.375001616478,0|2,1:0|0:0,0:0:0:0:
37,310,167823,1,0,1:0:0:0:
37,310,167941,2,0,L|24:224,1,84.750003232956,2|2,1:2|1:2,0:0:0:0:
52,152,168294,1,0,1:0:0:0:
52,152,168411,5,0,1:0:0:0:
68,124,168529,1,0,1:0:0:0:
72,92,168647,1,0,1:0:0:0:
68,60,168765,1,0,1:0:0:0:
52,32,168882,6,0,P|91:19|133:24,1,84.75,4|0,1:0|0:0,0:0:0:0:
151,17,169117,2,0,P|186:41|206:78,1,84.75,0|0,1:0|0:0,0:0:0:0:
223,85,169352,2,0,P|225:127|206:165,1,84.75,0|0,1:0|0:0,0:0:0:0:
219,181,169588,2,0,L|276:184,1,56.5,0|0,1:0|0:0,0:0:0:0:
303,100,169823,6,0,P|265:83|223:84,1,84.75,4|0,1:0|0:0,0:0:0:0:
205,77,170058,2,0,P|168:97|144:132,1,84.75,0|0,1:0|0:0,0:0:0:0:
128,138,170294,2,0,P|123:173|139:217,1,56.5,0|0,1:0|1:0,0:0:0:0:
180,252,170529,2,0,L|256:264,1,56.5,0|0,1:0|0:0,0:0:0:0:
316,256,170765,5,4,1:0:0:0:
316,256,171001,1,0,1:0:0:0:
316,256,171236,1,0,1:0:0:0:
316,256,171471,1,0,1:0:0:0:
316,256,171706,6,0,B|376:244|360:284|424:270,1,113,4|0,0:0|1:0,0:0:0:0:
488,220,172060,1,0,1:0:0:0:
488,220,172177,1,0,1:0:0:0:
448,348,172413,1,2,0:0:0:0:
448,348,172530,1,0,1:0:0:0:
448,348,172648,6,0,P|400:364|328:324,1,127.125004849434,4|0,1:0|1:0,1:0:0:0:
272,240,173119,1,0,1:0:0:0:
268,272,173236,1,0,1:0:0:0:
264,304,173354,1,0,1:0:0:0:
260,336,173472,1,0,1:0:0:0:
256,368,173590,6,0,P|201:378|151:345,1,113,4|8,1:0|1:0,0:0:0:0:
92,292,173943,1,2,0:0:0:0:
92,292,174060,2,0,P|139:262|194:271,1,113,2|8,0:0|1:0,0:0:0:0:
264,224,174413,1,0,0:0:0:0:
264,224,174531,6,0,P|275:199|275:169,1,56.5,2|0,0:0|0:0,0:0:0:0:
136,168,174766,2,0,L|196:180,1,56.5,8|0,1:0|0:0,0:0:0:0:
224,96,175002,2,0,P|213:70|213:40,1,56.5,2|0,0:0|0:0,0:0:0:0:
353,40,175237,2,0,L|293:52,1,56.5,8|0,1:0|0:0,0:0:0:0:
213,42,175473,6,0,B|159:28|159:68|103:52,1,113,2|8,0:0|1:0,0:0:0:0:
28,16,175826,1,0,0:0:0:0:
28,16,175943,2,0,P|20:48|24:80,1,56.5,2|0,0:0|0:0,0:0:0:0:
80,136,176179,2,0,P|88:168|84:200,1,56.5,8|0,1:0|0:0,0:0:0:0:
28,248,176414,2,0,P|5:297|27:348,1,113,0|8,0:0|1:0,0:0:0:0:
104,372,176767,1,8,0:0:0:0:
104,372,176885,1,8,0:0:0:0:
268,272,177120,1,8,1:0:0:0:
268,272,177238,1,8,0:0:0:0:
268,272,177355,6,0,L|324:276,2,56.5,4|2|8,1:0|0:1|1:0,0:0:0:0:
260,192,177709,2,0,B|324:196|324:196|352:180|351:157,1,113,2|2,0:1|0:0,0:0:0:0:
284,116,178062,2,0,L|228:112,1,56.5,8|2,1:0|0:1,0:0:0:0:
184,180,178297,6,0,L|188:236,2,56.5,0|2|8,0:0|0:1|1:0,0:0:0:0:
104,172,178651,2,0,B|108:236|108:236|92:264|70:262,1,113,2|2,0:1|0:1,0:0:0:0:
28,196,179004,2,0,L|24:140,1,56.5,8|2,1:0|0:1,0:0:0:0:
88,92,179238,5,0,0:0:0:0:
100,60,179356,1,0,0:0:0:0:
96,28,179474,1,8,1:0:0:0:
76,0,179591,2,0,L|189:2,2,113,2|2|0,0:0|0:0|0:0,0:0:0:0:
20,60,180180,6,0,L|16:128,1,56.5,2|0,0:0|1:0,0:0:0:0:
72,172,180416,2,0,P|100:164|148:168,1,56.5,0|0,1:0|1:0,0:0:0:0:
164,92,180651,2,0,P|193:91|220:84,1,56.5,2|0,0:0|1:0,0:0:0:0:
272,16,180886,1,2,0:0:0:0:
272,16,181004,1,0,1:0:0:0:
272,16,181121,6,0,P|327:6|377:39,1,113,4|8,1:0|1:0,0:0:0:0:
437,91,181474,1,2,0:0:0:0:
437,91,181591,2,0,P|390:121|335:112,1,113,2|8,0:0|1:0,0:0:0:0:
265,159,181944,1,0,0:0:0:0:
265,159,182063,6,0,P|254:184|254:214,1,56.5,2|0,0:0|0:0,0:0:0:0:
393,215,182298,2,0,L|333:203,1,56.5,8|0,1:0|0:0,0:0:0:0:
305,287,182534,2,0,P|316:313|316:343,1,56.5,2|0,0:0|0:0,0:0:0:0:
176,343,182769,2,0,L|236:331,1,56.5,8|0,1:0|0:0,0:0:0:0:
316,341,183004,6,0,B|371:354|371:314|427:330,1,113,2|8,0:0|1:0,0:0:0:0:
501,367,183357,1,0,0:0:0:0:
501,367,183475,2,0,P|509:335|505:303,1,56.5,2|0,0:0|0:0,0:0:0:0:
449,247,183710,2,0,P|441:215|445:183,1,56.5,8|0,1:0|0:0,0:0:0:0:
501,135,183945,2,0,P|524:85|503:34,1,113,2|8,0:0|1:0,0:0:0:0:
425,11,184298,1,8,1:0:0:0:
425,11,184416,1,8,0:0:0:0:
261,111,184651,1,8,1:0:0:0:
261,111,184769,1,8,0:0:0:0:
261,111,184887,6,0,L|205:107,2,56.5,4|2|8,1:0|0:1|1:0,0:0:0:0:
269,191,185240,1,0,0:0:0:0:
269,191,185358,2,0,B|205:187|205:187|177:203|179:225,1,113,2|8,0:1|1:0,0:0:0:0:
212,300,185711,1,0,0:0:0:0:
212,300,185829,6,0,L|216:356,2,56.5,6|2|8,1:1|0:1|1:0,0:0:0:0:
132,292,186183,1,0,0:0:0:0:
132,292,186299,2,0,B|136:356|136:356|120:384|98:382,1,113,2|8,0:1|1:0,0:0:0:0:
24,356,186653,1,8,1:0:0:0:
24,356,186770,6,0,L|20:296,1,56.5,4|0,1:0|0:0,0:0:0:0:
72,240,187006,2,0,L|68:180,1,56.5,8|0,1:0|0:0,0:0:0:0:
8,132,187241,1,2,0:0:0:0:
8,132,187359,1,2,0:0:0:0:
8,132,187476,2,0,L|4:72,1,56.5,8|0,1:0|0:0,0:0:0:0:
60,20,187712,6,0,P|114:58|208:36,1,169.5,4|0,1:0|0:0,0:0:0:0:
240,108,188182,1,2,0:0:0:0:
280,128,188300,1,0,1:0:0:0:
324,132,188418,1,0,1:0:0:0:
368,120,188535,1,0,1:0:0:0:
400,88,188653,5,4,1:0:0:0:
420,244,188888,1,0,1:0:0:0:
480,96,189124,1,0,1:0:0:0:
500,252,189359,1,0,1:0:0:0:
340,236,189595,5,4,1:0:0:0:
400,88,189830,1,0,1:0:0:0:
405,131,189948,1,0,1:0:0:0:
411,175,190065,1,0,1:0:0:0:
416,219,190183,1,0,1:0:0:0:
422,263,190301,1,0,1:0:0:0:
427,307,190418,1,0,1:0:0:0:
433,351,190536,5,4,1:0:0:0:
204,168,192419,6,0,L|317:175,2,113,4|0|2,1:0|1:0|0:2,0:0:0:0:
88,92,193125,1,0,1:0:0:0:
143,220,193361,2,0,P|151:275|149:332,1,113,2|0,0:2|1:2,0:0:0:0:
219,366,193714,2,0,L|331:354,1,113,2|0,0:0|0:0,0:0:0:0:
384,300,194067,1,2,1:2:0:0:
464,192,194302,5,2,0:0:0:0:
384,84,194537,1,0,1:0:0:0:
256,132,194773,1,2,0:0:0:0:
128,84,195008,1,0,1:0:0:0:
48,192,195243,2,0,B|65:156|65:156|44:72,1,113,2|0,0:0|1:0,0:0:0:0:
84,12,195597,2,0,L|140:4,1,56.5,0|2,1:0|0:0,0:0:0:0:
176,148,195950,1,0,1:0:0:0:
84,260,196185,6,0,L|148:252,2,56.5,2|0|0,0:0|0:0|1:0,0:0:0:0:
80,348,196538,2,0,L|148:340,1,56.5,2|2,0:0|0:0,0:0:0:0:
256,276,196891,1,0,1:0:0:0:
428,260,197126,6,0,L|364:252,2,56.5,2|0|0,0:0|1:0|1:0,0:0:0:0:
432,348,197479,2,0,L|364:340,1,56.5,2|2,0:0|0:0,0:0:0:0:
256,276,197833,1,0,1:0:0:0:
320,156,198068,6,0,B|332:120|332:120|311:49,2,113,2|0|2,0:0|1:0|0:0,0:0:0:0:
248,116,198656,2,0,L|228:47,2,56.5,0|2|0,1:2|1:2|0:2,0:0:0:0:
248,196,199009,2,0,L|184:204,1,56.5,2|0,0:0|1:0,0:0:0:0:
120,164,199245,2,0,P|112:192|116:240,1,56.5,0|0,1:0|1:0,0:0:0:0:
169,281,199480,2,0,P|176:308|177:336,2,56.5,2|0|0,0:0|1:0|1:0,0:0:0:0:
96,320,199833,2,0,L|40:313,1,56.5,0|4,1:0|1:0,0:0:0:0:
32,176,200186,5,2,1:2:0:0:
132,84,200422,1,2,0:0:0:0:
32,176,200657,1,2,1:2:0:0:
40,313,200892,6,0,L|47:257,1,56.5,2|0,0:0|1:0,0:0:0:0:
32,176,201128,2,0,L|20:56,2,113,0|2|0,1:0|0:0|1:0,0:0:0:0:
164,144,201834,5,2,0:0:0:0:
92,28,202069,1,2,1:2:0:0:
164,144,202305,1,2,0:0:0:0:
301,152,202540,1,2,1:2:0:0:
164,144,202775,6,0,L|220:137,1,56.5,2|0,0:0|1:0,0:0:0:0:
301,152,203011,2,0,P|323:200|317:268,1,113,0|2,1:0|0:0,0:0:0:0:
232,360,203481,1,2,1:2:0:0:
364,328,203717,5,4,0:1:0:0:
240,280,203952,2,0,P|208:280|186:293,2,56.5,0|2|2,1:0|0:0|0:0,0:0:0:0:
116,336,204423,2,0,P|84:336|62:324,2,56.5,0|2|2,1:0|0:0|0:0,0:0:0:0:
4,268,204894,2,0,L|12:192,1,56.5,0|2,1:0|0:0,0:0:0:0:
56,144,205129,2,0,L|48:68,2,56.5,2|2|2,0:0|1:2|1:2,0:0:0:0:
128,188,205482,2,0,L|184:192,1,56.5,0|4,1:0|0:1,0:0:0:0:
256,76,205835,6,0,P|288:76|310:63,2,56.5,0|2|2,1:0|0:0|0:0,0:0:0:0:
380,20,206306,2,0,P|412:20|434:32,2,56.5,0|2|2,1:0|0:0|0:0,0:0:0:0:
387,104,206659,2,0,P|378:130|376:158,1,56.5,0|0,1:0|1:0,0:0:0:0:
432,224,206894,2,0,L|492:220,2,56.5,2|2|2,1:2|1:2|1:2,0:0:0:0:
348,240,207247,2,0,L|360:308,1,56.5,0|0,1:0|1:1,0:0:0:0:
336,376,207483,5,4,0:0:0:0:
176,376,207718,1,0,1:0:0:0:
196,232,207953,1,2,0:0:0:0:
228,240,208071,1,2,0:0:0:0:
256,260,208189,1,0,1:0:0:0:
284,240,208306,1,2,0:0:0:0:
316,232,208424,5,4,0:0:0:0:
196,232,208659,1,0,1:0:0:0:
212,108,208895,5,2,0:0:0:0:
240,116,209012,1,2,0:0:0:0:
256,140,209130,1,0,1:0:0:0:
272,116,209248,1,0,1:0:0:0:
300,108,209365,5,4,0:0:0:0:
212,108,209601,1,0,1:0:0:0:
224,16,209836,1,2,0:0:0:0:
240,20,209954,1,2,1:2:0:0:
256,28,210072,1,0,1:0:0:0:
272,20,210189,1,0,1:0:0:0:
288,16,210307,6,0,L|392:20,2,84.750003232956,2|0|2,1:0|1:0|1:0,0:0:0:0:
