osu file format v14

[General]
AudioFilename: nameless.mp3
AudioLeadIn: 0
PreviewTime: 65968
Countdown: 0
SampleSet: Soft
StackLeniency: 0.7
Mode: 0
LetterboxInBreaks: 0
WidescreenStoryboard: 1

[Editor]
DistanceSpacing: 0.9
BeatDivisor: 3
GridSize: 4
TimelineZoom: 2.5

[Metadata]
Title:Milk Crown on Sonnetica
TitleUnicode:ミルククラウン・オン・ソーネチカ
Artist:nameless
ArtistUnicode:nameless
Creator:Len
Version:toybot's Insane
Source:
Tags:utaite ユジー yuzy P 窓付き@ vocaloid Hatsune Miku Fast yf_bmp toybot Reol [_halloween_] byfar Evil_twilight
BeatmapID:924446
BeatmapSetID:327557

[Difficulty]
HPDrainRate:6
CircleSize:3.9
OverallDifficulty:7
ApproachRate:9
SliderMultiplier:1.4
SliderTickRate:2

[Events]
//Background and Video events
0,0,"23124.jpg",0,0
//Break Periods
//Storyboard Layer 0 (Background)
//Storyboard Layer 1 (Fail)
//Storyboard Layer 2 (Pass)
//Storyboard Layer 3 (Foreground)
//Storyboard Sound Samples

[TimingPoints]
2007,235.367958575239,4,2,0,40,1,0
2007,-133.333333333333,4,2,0,40,0,0
8479,-117.647058823529,4,2,0,40,0,0
9538,-166.666666666667,4,2,0,40,0,0
15187,-117.647058823529,4,2,0,40,0,0
17070,-111.111111111111,4,2,1,40,0,0
31781,-111.111111111111,4,2,1,40,0,0
32134,-111.111111111111,4,2,1,40,0,0
40607,-100,4,2,1,40,0,0
41548,-111.111111111111,4,2,1,40,0,0
48609,-125,4,2,1,40,0,0
49198,-111.111111111111,4,2,1,40,0,0
50492,-125,4,2,1,40,0,0
51081,-111.111111111111,4,2,1,40,0,0
52846,-100,4,2,1,40,0,0
55906,-133.333333333333,4,2,1,40,0,0
56612,-100,4,2,1,40,0,0
64497,-133.333333333333,4,2,1,40,0,0
65085,-133.333333333333,4,2,1,40,0,0
65320,-111.111111111111,4,2,1,40,0,0
65556,-100,4,2,1,40,0,0
65791,-80,4,2,1,40,0,0
66027,-100,4,2,1,60,0,1
72852,-100,4,2,1,60,0,1
73558,-100,4,2,1,60,0,1
79207,-100,4,2,0,40,0,0
81561,-90.9090909090909,4,2,0,40,0,0
82267,-100,4,2,0,40,0,0
84621,-90.9090909090909,4,2,0,40,0,0
85562,-100,4,2,0,40,0,0
88151,-125,4,2,0,40,0,0
88857,-111.111111111111,4,2,0,40,0,0
89799,-100,4,2,0,40,0,0
91211,-133.333333333333,4,2,0,40,0,0
91682,235.367958575239,4,2,0,40,1,0
91682,-111.111111111111,4,2,0,40,0,0
103450,-101.010101010101,4,2,0,40,0,0
104391,-90.9090909090909,4,2,0,40,0,0
106745,-100,4,2,0,40,0,0
119926,-133.333333333333,4,2,0,40,0,0
120867,-111.111111111111,4,2,0,40,0,0
121809,-100,4,2,1,60,0,1
134989,-166.666666666667,4,2,0,40,0,0
138755,-125,4,2,0,40,0,0
140638,-111.111111111111,4,2,0,40,0,0
142521,-133.333333333333,4,2,2,40,0,0
157349,-125,4,2,0,40,0,0
159232,-121.951219512195,4,2,0,40,0,0
161292,-121.951219512195,4,2,0,5,0,0
161350,-121.951219512195,4,2,0,40,0,0
163233,-117.647058823529,4,2,0,40,0,0
165116,-111.111111111111,4,2,0,40,0,0
173590,-100,4,2,1,60,0,1
175002,-90.9090909090909,4,2,1,60,0,1
175472,-100,4,2,1,60,0,1
192419,-100,4,2,1,60,0,0
207483,-125,4,2,1,60,0,0
208424,-111.111111111111,4,2,1,60,0,0
209365,-100,4,2,1,60,0,0
211248,-200,4,2,1,60,0,0

[Colours]
Combo1 : 255,234,170
Combo2 : 179,255,179
Combo3 : 172,209,255
Combo4 : 252,194,203

[HitObjects]
128,176,2006,5,0,0:0:0:0:
200,120,2242,1,0,0:0:0:0:
200,120,2360,2,0,P|216:152|204:224,1,105.000004005432,2|2,0:0|0:0,0:0:0:0:
120,288,2830,2,0,L|16:296,2,105.000004005432,2|2|2,0:0|0:0|0:0,0:0:0:0:
200,320,3419,2,0,P|216:364|216:380,1,52.5000020027161,2|2,0:0|0:0,0:0:0:0:
280,268,3654,2,0,P|296:224|296:208,1,52.5000020027161,0|2,0:0|0:0,0:0:0:0:
207,218,3889,5,2,0:0:0:0:
264,128,4007,2,0,B|304:124|304:124|328:128|328:128|384:124,2,105.000004005432,0|2|2,0:0|0:0|0:0,0:0:0:0:
108,188,4713,2,0,P|96:140|128:76,2,105.000004005432,2|2|2,0:0|0:0|0:0,0:0:0:0:
207,218,5302,2,0,P|204:264|192:292,1,52.5000020027161,2|0,0:0|0:0,0:0:0:0:
92,336,5537,2,0,P|95:290|107:262,1,52.5000020027161,2|0,0:0|0:0,0:0:0:0:
200,368,5772,5,2,0:0:0:0:
288,324,5890,2,0,L|352:316,1,52.5000020027161,0|0,0:0|0:0,0:0:0:0:
420,372,6125,2,0,P|436:332|412:256,1,105.000004005432,2|2,0:0|0:0,0:0:0:0:
211,118,6596,2,0,P|195:158|219:234,2,105.000004005432,2|2|2,0:0|0:0|0:0,0:0:0:0:
343,166,7185,2,0,L|279:174,1,52.5000020027161,2|2,0:0|0:0,0:0:0:0:
158,111,7420,2,0,L|211:118,1,52.5000020027161,0|2,0:0|0:0,0:0:0:0:
400,66,7655,6,0,L|296:80,1,105.000004005432,2|0,0:0|0:0,0:0:0:0:
206,217,8008,2,0,P|202:261|206:293,1,52.5000020027161,2|0,0:0|0:0,0:0:0:0:
346,218,8244,2,0,P|346:191|343:166,1,52.5000020027161,2|0,0:0|0:0,0:0:0:0:
211,118,8479,6,0,B|135:110|163:142|83:134,2,119.000002269745,2|2|2,0:0|0:0|0:0,0:0:0:0:
346,218,9068,2,0,L|338:302,1,59.5000011348725,2|0,0:0|0:0,0:0:0:0:
202,269,9303,2,0,L|210:353,1,59.5000011348725,2|0,0:0|0:0,0:0:0:0:
292,360,9538,5,4,1:2:0:0:
432,216,10009,1,4,3:0:0:0:
288,76,10480,1,0,0:0:0:0:
148,220,10950,1,4,3:0:0:0:
152,244,11421,5,4,3:0:0:0:
264,80,11892,1,4,3:0:0:0:
428,192,12363,1,0,0:0:0:0:
312,360,12833,1,4,3:0:0:0:
308,340,13069,1,2,0:0:0:0:
304,320,13304,6,0,L|292:176,1,125.999996154785,4|0,3:0|0:0,0:0:0:0:
293,194,13775,1,4,3:0:0:0:
184,264,14128,6,0,P|124:280|100:280,2,83.9999974365235,0|2|2,0:0|0:0|0:0,0:0:0:0:
212,184,14716,2,0,L|216:128,1,41.9999987182618,4|2,3:0|0:0,0:0:0:0:
140,92,14952,2,0,L|136:148,1,41.9999987182618,0|2,0:0|0:0,0:0:0:0:
264,248,15187,6,0,P|312:256|344:252,1,59.5000011348725,4|0,3:0|0:0,0:0:0:0:
408,216,15422,1,4,3:0:0:0:
412,332,15540,2,0,B|332:316|376:352|280:336,1,119.000002269745,0|4,0:0|3:0,0:0:0:0:
308,172,15893,1,0,0:0:0:0:
192,204,16011,6,0,L|64:216,2,119.000002269745,4|4|4,3:0|3:0|3:0,0:0:0:0:
324,184,16599,1,0,1:0:0:0:
324,184,17070,6,0,P|340:116|308:56,1,125.999996154785,4|8,0:0|0:0,0:0:0:0:
248,32,17423,1,0,0:0:0:0:
168,16,17541,2,0,L|16:8,1,125.999996154785,0|8,0:0|0:0,0:0:0:0:
0,88,17894,1,0,0:0:0:0:
64,152,18012,6,0,P|88:100|88:67,1,62.9999980773926,0|0,0:0|0:0,0:0:0:0:
28,232,18247,2,0,P|4:284|4:317,1,62.9999980773926,8|0,0:0|0:0,0:0:0:0:
200,274,18482,2,0,P|140:263|88:296,1,125.999996154785,0|8,0:0|0:0,0:0:0:0:
296,344,18953,6,0,L|368:332,1,62.9999980773926,2|0,0:0|0:0,0:0:0:0:
424,280,19188,2,0,P|436:232|432:196,1,62.9999980773926,8|0,0:0|0:0,0:0:0:0:
340,160,19424,2,0,L|268:172,1,62.9999980773926,2|0,0:0|0:0,0:0:0:0:
196,136,19659,2,0,P|184:88|188:52,1,62.9999980773926,8|0,0:0|0:0,0:0:0:0:
260,48,19894,6,0,B|332:32|312:68|396:44,1,125.999996154785,0|8,0:0|0:0,0:0:0:0:
472,24,20248,1,8,0:0:0:0:
444,112,20365,2,0,P|440:156|440:200,1,62.9999980773926,0|0,0:0|0:0,0:0:0:0:
352,284,20601,1,8,0:0:0:0:
332,192,20718,1,0,0:0:0:0:
248,152,20836,6,0,P|187:149|112:144,1,125.999996154785,4|8,0:0|0:0,0:0:0:0:
84,300,21189,1,2,0:0:0:0:
16,252,21307,2,0,P|72:220|140:240,1,125.999996154785,2|8,0:0|0:0,0:0:0:0:
180,348,21660,1,0,0:0:0:0:
252,300,21777,6,0,B|264:260|264:260|260:212|240:160,1,125.999996154785,2|8,0:0|0:0,0:0:0:0:
176,128,22130,1,2,0:0:0:0:
56,184,22248,2,0,L|124:188,1,62.9999980773926,2|0,0:0|0:0,0:0:0:0:
296,72,22484,2,0,L|228:68,1,62.9999980773926,8|0,0:0|0:0,0:0:0:0:
96,264,22719,6,0,P|144:264|200:196,2,125.999996154785,0|8|0,0:0|0:0|0:0,0:0:0:0:
176,128,23307,1,0,0:0:0:0:
176,128,23425,2,0,P|216:128|252:144,1,62.9999980773926,8|0,0:0|0:0,0:0:0:0:
304,196,23660,6,0,L|320:340,1,125.999996154785,0|8,0:0|0:0,0:0:0:0:
408,308,24013,1,8,0:0:0:0:
392,144,24131,2,0,L|376:0,1,125.999996154785,8|0,0:0|0:0,0:0:0:0:
292,116,24484,1,8,0:0:0:0:
216,72,24602,6,0,B|140:60|164:88|92:80,1,125.999996154785,4|8,0:0|0:0,0:0:0:0:
126,168,24955,1,0,0:0:0:0:
126,168,25073,2,0,P|157:165|188:155,1,62.9999980773926,0|0,0:0|0:0,0:0:0:0:
353,129,25308,2,0,P|323:119|292:116,1,62.9999980773926,8|0,0:0|0:0,0:0:0:0:
252,208,25543,6,0,P|244:288|288:336,1,125.999996154785,2|8,0:0|0:0,0:0:0:0:
390,259,25896,1,0,0:0:0:0:
390,259,26014,2,0,L|328:256,1,62.9999980773926,2|0,0:0|0:0,0:0:0:0:
268,322,26249,2,0,L|205:325,1,62.9999980773926,8|0,0:0|0:0,0:0:0:0:
120,288,26485,5,2,0:0:0:0:
208,80,26720,1,8,0:0:0:0:
76,216,26956,1,2,0:0:0:0:
272,132,27191,1,8,0:0:0:0:
432,260,27426,6,0,P|440:304|440:344,1,62.9999980773926,2|0,0:0|0:0,0:0:0:0:
312,268,27662,2,0,P|314:236|320:205,1,62.9999980773926,8|0,0:0|0:0,0:0:0:0:
400,144,27897,2,0,B|412:64|380:96|392:16,1,125.999996154785,2|8,0:0|0:0,0:0:0:0:
308,120,28250,1,0,0:0:0:0:
216,76,28368,6,0,L|148:72,1,62.9999980773926,2|2,0:0|0:0,0:0:0:0:
92,128,28603,1,8,0:0:0:0:
144,192,28721,2,0,B|191:189|191:189|219:180|219:180|279:176,1,125.999996154785,2|2,0:0|0:0,0:0:0:0:
416,216,29074,5,8,0:0:0:0:
364,280,29192,2,0,B|316:277|316:277|288:268|288:268|228:264,1,125.999996154785,2|0,0:0|0:0,0:0:0:0:
152,304,29545,5,8,0:0:0:0:
204,368,29662,2,0,L|276:364,2,62.9999980773926,2|2|8,0:0|0:0|0:0,0:0:0:0:
80,344,30015,2,0,P|72:300|80:268,1,62.9999980773926,8|8,0:0|0:0,0:0:0:0:
144,192,30251,5,4,3:0:0:0:
144,192,30368,2,0,L|288:180,1,125.999996154785,2|2,3:0|3:0,0:0:0:0:
196,92,30839,1,2,3:0:0:0:
217,281,31074,1,4,3:0:0:0:
217,281,31192,5,8,0:0:0:0:
217,281,31781,2,0,P|300:288|344:244,1,125.999996154785,0|0,0:0|0:0,0:0:0:0:
364,188,32134,6,0,L|368:120,1,62.9999980773926,4|2,0:0|0:0,0:0:0:0:
312,64,32369,2,0,P|272:60|228:64,1,62.9999980773926,0|2,1:0|0:0,0:0:0:0:
192,120,32604,2,0,P|152:124|108:120,1,62.9999980773926,0|2,0:0|0:0,0:0:0:0:
56,80,32840,1,0,1:0:0:0:
56,80,32957,1,0,0:0:0:0:
12,152,33075,6,0,P|0:220|40:292,1,125.999996154785,0|0,0:0|0:0,0:0:0:0:
104,300,33428,2,0,P|108:264|88:216,2,62.9999980773926,0|2|0,0:0|0:0|0:0,0:0:0:0:
40,360,33781,1,0,1:0:0:0:
40,360,33899,1,0,1:0:0:0:
20,270,34017,6,0,P|13:240|18:209,1,62.9999980773926,2|2,0:0|0:0,0:0:0:0:
182,206,34252,2,0,P|188:236|184:267,1,62.9999980773926,0|2,1:0|0:0,0:0:0:0:
101,238,34487,2,0,B|80:172|120:184|100:96,1,125.999996154785,0|0,0:0|1:0,0:0:0:0:
48,56,34840,6,0,P|120:80|176:56,1,125.999996154785,2|0,0:0|0:0,0:0:0:0:
232,16,35193,2,0,L|300:8,1,62.9999980773926,0|0,1:0|0:0,0:0:0:0:
360,96,35429,2,0,L|292:88,1,62.9999980773926,0|0,0:0|0:0,0:0:0:0:
224,152,35664,1,0,1:0:0:0:
224,152,35782,1,0,1:0:0:0:
292,196,35899,6,0,B|344:192|344:192|360:184|360:184|428:176,1,125.999996154785,0|0,0:0|1:0,0:0:0:0:
500,180,36253,1,2,0:0:0:0:
456,272,36370,2,0,P|416:280|372:268,1,62.9999980773926,0|2,0:0|0:0,0:0:0:0:
292,196,36606,2,0,P|323:193|353:200,1,62.9999980773926,0|0,1:0|0:0,0:0:0:0:
392,353,36841,6,0,P|335:329|316:272,1,125.999996154785,0|0,0:0|1:0,0:0:0:0:
353,201,37194,1,0,0:0:0:0:
424,168,37312,2,0,L|488:164,1,62.9999980773926,2|0,0:0|0:0,0:0:0:0:
364,108,37547,1,0,1:0:0:0:
368,112,37665,1,0,1:0:0:0:
280,136,37782,6,0,P|248:144|204:144,1,62.9999980773926,2|2,0:0|0:0,0:0:0:0:
88,192,38018,2,0,P|120:200|164:200,1,62.9999980773926,0|2,0:0|0:0,0:0:0:0:
296,224,38253,2,0,B|228:232|228:232|220:264|168:292,1,125.999996154785,2|2,0:0|0:0,0:0:0:0:
88,192,38606,6,0,L|72:56,1,125.999996154785,2|2,0:0|0:0,0:0:0:0:
0,180,38959,2,0,L|12:272,1,62.9999980773926,0|0,1:0|0:0,0:0:0:0:
100,288,39195,1,0,0:0:0:0:
100,288,39312,1,0,1:0:0:0:
176,188,39430,1,0,1:0:0:0:
176,188,39548,1,0,1:0:0:0:
236,296,39665,6,0,B|316:312|280:280|368:296,1,125.999996154785,4|0,0:0|1:0,0:0:0:0:
440,336,40018,1,2,0:0:0:0:
496,216,40136,2,0,P|452:232|372:180,1,125.999996154785,0|0,0:0|1:0,0:0:0:0:
448,152,40489,1,0,0:0:0:0:
388,96,40607,6,0,P|312:84|292:84,1,70,0|2,0:0|0:0,0:0:0:0:
232,168,40842,2,0,P|308:180|328:180,1,70,0|2,1:0|0:0,0:0:0:0:
52,143,41195,5,0,0:0:0:0:
52,143,41313,2,0,P|44:178|45:213,1,70,0|0,1:0|1:0,0:0:0:0:
112,272,41548,6,0,P|148:224|136:148,1,125.999996154785,0|0,0:0|1:0,0:0:0:0:
200,92,41901,1,2,0:0:0:0:
264,152,42019,2,0,P|295:157|340:160,1,62.9999980773926,0|2,0:0|0:0,0:0:0:0:
448,120,42254,1,0,1:0:0:0:
376,216,42372,6,0,L|364:76,1,125.999996154785,2|0,0:0|0:0,0:0:0:0:
260,89,42725,2,0,L|263:151,1,62.9999980773926,0|0,1:0|0:0,0:0:0:0:
176,248,42961,2,0,L|179:185,1,62.9999980773926,0|0,0:0|0:0,0:0:0:0:
128,96,43196,1,0,0:0:0:0:
128,96,43314,1,0,0:0:0:0:
54,177,43431,6,0,B|98:177|98:177|126:185|126:185|190:185,1,125.999996154785,0|0,0:0|1:0,0:0:0:0:
263,151,43784,1,2,0:0:0:0:
316,220,43902,2,0,P|320:272|312:308,2,62.9999980773926,0|2|0,0:0|0:0|1:0,0:0:0:0:
263,151,44255,1,0,0:0:0:0:
210,82,44373,6,0,P|206:30|214:-6,1,62.9999980773926,0|2,0:0|0:0,0:0:0:0:
360,52,44608,2,0,L|297:48,1,62.9999980773926,0|2,1:0|0:0,0:0:0:0:
137,158,44843,2,0,L|263:151,1,125.999996154785,2|0,0:0|1:0,0:0:0:0:
316,220,45197,1,0,1:0:0:0:
408,184,45314,6,0,L|416:104,1,62.9999980773926,2|0,0:0|0:0,0:0:0:0:
244,284,45550,2,0,L|264:352,1,62.9999980773926,0|0,1:0|0:0,0:0:0:0:
316,220,45785,2,0,B|336:152|284:160|312:80,1,125.999996154785,2|0,0:0|1:0,0:0:0:0:
236,192,46138,2,0,P|176:220|112:204,2,125.999996154785,2|2|2,3:0|3:0|3:0,0:0:0:0:
306,97,46726,5,0,0:0:0:0:
384,84,46844,1,0,0:0:0:0:
452,124,46962,1,0,1:0:0:0:
478,198,47079,1,0,1:0:0:0:
450,272,47197,6,0,L|380:280,1,62.9999980773926,4|2,0:0|0:0,0:0:0:0:
242,201,47433,2,0,P|298:175|357:195,1,125.999996154785,0|0,1:0|0:0,0:0:0:0:
312,320,47786,2,0,P|300:284|308:244,1,62.9999980773926,0|2,1:0|0:0,0:0:0:0:
376,112,48021,5,2,0:0:0:0:
392,100,48374,2,0,L|460:92,1,62.9999980773926,0|0,0:0|0:0,0:0:0:0:
304,68,48609,2,0,P|248:80|184:44,2,112,2|2|2,0:0|0:0|0:0,0:0:0:0:
368,136,49198,5,2,0:0:0:0:
324,216,49315,2,0,P|260:220|248:220,1,62.9999980773926,0|2,1:0|0:0,0:0:0:0:
150,187,49551,2,0,P|212:182|261:219,1,125.999996154785,0|2,0:0|0:0,0:0:0:0:
184,384,49904,6,0,B|172:348|172:348|192:252,1,125.999996154785,2|0,0:0|0:0,0:0:0:0:
220,104,50257,2,0,L|292:96,1,62.9999980773926,0|0,0:0|0:0,0:0:0:0:
150,187,50492,6,0,P|108:212|32:196,2,112,2|2|2,0:0|0:0|0:0,0:0:0:0:
88,132,51081,5,2,0:0:0:0:
47,205,51198,2,0,P|39:241|43:277,1,62.9999980773926,0|2,1:0|0:0,0:0:0:0:
128,324,51434,2,0,P|136:288|132:252,2,62.9999980773926,0|0|2,0:0|1:0|0:0,0:0:0:0:
68,376,51787,6,0,L|216:364,1,125.999996154785,2|0,0:0|0:0,0:0:0:0:
280,356,52140,2,0,L|256:292,1,62.9999980773926,0|0,0:0|0:0,0:0:0:0:
291,177,52375,2,0,B|307:221|307:221|328:243|328:243|345:289,1,125.999996154785,0|0,0:0|1:0,0:0:0:0:
345,289,52728,1,0,1:0:0:0:
432,236,52846,6,0,P|444:184|436:152,1,70,0|0,0:0|0:0,0:0:0:0:
400,96,53081,1,0,1:0:0:0:
324,64,53199,1,0,1:0:0:0:
192,144,53317,2,0,P|152:172|116:180,2,70,0|0|0,0:0|0:0|1:0,0:0:0:0:
244,80,53670,5,2,3:0:0:0:
268,304,53905,1,2,3:0:0:0:
200,256,54023,1,0,1:0:0:0:
320,240,54141,1,0,1:0:0:0:
268,304,54258,6,0,B|244:260|244:260|256:160,1,140,0|0,1:0|1:0,0:0:0:0:
336,52,54611,1,0,1:0:0:0:
336,52,54670,1,0,0:0:0:0:
336,52,54729,6,0,L|328:124,1,70,4|0,0:0|0:0,0:0:0:0:
254,170,54964,1,0,1:0:0:0:
164,116,55082,2,0,B|76:100|112:136|24:124,1,140,2|2,0:0|1:2,0:0:0:0:
128,200,55435,1,0,0:0:0:0:
56,248,55553,6,0,P|96:280|184:268,1,140,0|0,1:0|0:0,0:0:0:0:
254,170,55906,2,0,L|248:108,2,52.5000020027161,0|0|0,1:0|0:0|0:0,0:0:0:0:
416,48,56376,6,8,L|412:108,1,52.5000020027161,0|0,1:0|1:0,0:0:0:0:
488,224,56612,6,0,B|508:176|508:176|488:68,2,140,4|0|2,0:0|1:0|0:0,0:0:0:0:
416,180,57200,1,0,1:0:0:0:
360,244,57318,2,0,L|276:240,1,70,2|0,0:0|1:0,0:0:0:0:
216,192,57553,6,0,P|200:152|212:96,1,70,2|0,0:0|1:0,0:0:0:0:
304,76,57789,2,0,P|303:110|288:142,1,70,2|0,1:2|1:0,0:0:0:0:
128,208,58024,2,0,L|80:200,7,35,0|0|0|0|0|0|0|0,1:0|0:0|0:0|0:0|0:0|0:0|0:0|0:0,0:0:0:0:
76,180,58495,6,0,L|56:80,1,70,4|0,0:0|1:0,0:0:0:0:
44,24,58730,1,0,0:0:0:0:
44,24,58848,1,0,0:0:0:0:
127,58,58966,2,0,P|162:58|196:48,1,70,0|0,0:0|0:0,0:0:0:0:
272,8,59201,2,0,P|306:7|340:18,1,70,0|0,1:0|0:0,0:0:0:0:
417,63,59436,6,0,P|363:105|296:96,1,140,0|0,0:0|1:0,0:0:0:0:
296,96,59907,2,0,L|224:88,1,70,0|0,0:0|0:0,0:0:0:0:
124,176,60142,2,0,L|196:167,1,70,0|0,1:0|0:0,0:0:0:0:
304,208,60378,5,0,0:0:0:0:
196,264,60495,2,0,P|192:308|204:340,2,70,0|0|0,0:0|1:0|0:0,0:0:0:0:
412,280,60848,2,0,B|334:263|354:307|274:291,1,140,0|0,0:0|1:0,0:0:0:0:
152,188,61202,1,0,0:0:0:0:
60,248,61319,6,0,L|76:96,1,140,0|0,0:0|1:0,0:0:0:0:
74,108,61790,2,0,P|40:84|-8:80,1,70,0|0,0:0|0:0,0:0:0:0:
136,48,62025,2,0,P|170:23|218:19,1,70,0|0,1:0|0:0,0:0:0:0:
368,68,62261,5,0,1:0:0:0:
280,216,62496,1,0,1:0:0:0:
368,52,62731,5,0,1:0:0:0:
372,188,62967,1,0,1:0:0:0:
368,36,63202,5,0,1:0:0:0:
192,240,63438,1,0,1:0:0:0:
368,24,63673,5,0,1:0:0:0:
460,160,63908,1,0,1:0:0:0:
104,260,64144,6,0,B|80:224|80:224|100:116,1,140,0|0,1:0|0:0,0:0:0:0:
180,80,64497,2,0,P|145:42|84:36,2,105.000004005432,0|0|0,0:0|0:0|0:0,0:0:0:0:
240,168,65085,6,0,P|200:184|180:184,1,52.5000020027161,4|0,0:0|0:0,0:0:0:0:
292,72,65320,2,0,P|317:76|352:92,1,62.9999980773926,0|0,1:0|1:0,0:0:0:0:
460,160,65556,2,0,L|468:100,3,35,0|0|0|0,1:0|0:0|1:0|0:0,0:0:0:0:
400,252,65791,2,0,L|408:320,3,43.75,0|0|0|0,1:0|0:0|1:0|0:0,0:0:0:0:
320,208,66027,6,0,B|272:192|272:192|160:216,1,140,4|8,0:0|0:0,0:0:0:0:
104,240,66380,1,0,0:0:0:0:
8,164,66497,2,0,P|0:128|4:80,1,70,0|0,0:0|0:0,0:0:0:0:
104,240,66733,2,0,P|112:276|108:324,1,70,8|0,0:0|0:0,0:0:0:0:
104,120,66968,5,0,0:0:0:0:
268,288,67203,1,8,0:0:0:0:
268,24,67439,5,0,0:0:0:0:
268,288,67674,1,8,0:0:0:0:
232,192,67792,1,0,0:0:0:0:
332,212,67910,6,0,B|416:232|388:180|500:208,1,140,0|8,0:0|0:0,0:0:0:0:
504,292,68263,1,0,0:0:0:0:
448,360,68380,2,0,P|388:356|360:336,1,70,0|0,0:0|0:0,0:0:0:0:
304,300,68616,2,0,P|232:304|208:376,1,140,8|0,0:0|0:0,0:0:0:0:
132,300,68969,5,0,0:0:0:0:
176,220,69086,2,0,P|179:185|184:124,1,70,8|0,0:0|0:0,0:0:0:0:
68,184,69322,2,0,P|65:219|60:280,1,70,0|0,0:0|0:0,0:0:0:0:
132,300,69557,2,0,L|220:296,1,70,8|0,0:0|0:0,0:0:0:0:
297,207,69792,6,0,P|233:184|175:219,1,140,2|8,0:1|0:0,0:0:0:0:
316,284,70146,2,0,P|367:240|365:172,1,140,2|2,0:1|0:1,0:0:0:0:
320,96,70499,2,0,L|236:80,1,70,8|2,0:0|0:1,0:0:0:0:
68,184,70734,6,0,P|120:200|180:128,1,140,2|8,0:1|0:0,0:0:0:0:
24,120,71087,2,0,L|12:276,1,140,2|2,0:1|0:1,0:0:0:0:
100,348,71440,2,0,L|92:256,1,70,8|2,0:0|0:1,0:0:0:0:
178,147,71675,6,0,B|260:140|230:175|316:168,1,140,2|8,0:1|0:0,0:0:0:0:
288,80,72028,1,2,0:1:0:0:
384,112,72146,2,0,P|400:152|396:200,1,70,0|2,0:0|0:1,0:0:0:0:
297,234,72382,2,0,P|299:199|313:167,1,70,8|2,0:0|0:1,0:0:0:0:
372,280,72617,6,0,P|340:312|244:304,1,140,8|8,0:0|0:0,0:0:0:0:
196,244,72970,1,8,0:0:0:0:
88,264,73088,2,0,P|80:216|84:180,1,70,8|8,0:0|0:0,0:0:0:0:
120,116,73323,1,0,0:0:0:0:
120,116,73441,1,8,0:0:0:0:
208,152,73558,6,0,P|224:112|180:12,1,140,4|8,0:0|0:0,0:0:0:0:
304,76,73911,1,0,0:0:0:0:
384,92,74029,2,0,P|428:92|476:80,1,70,0|0,0:0|0:0,0:0:0:0:
352,180,74264,2,0,P|308:180|260:192,1,70,8|0,0:0|0:0,0:0:0:0:
436,220,74500,5,0,0:0:0:0:
208,152,74735,1,8,0:0:0:0:
320,356,74971,5,0,0:0:0:0:
208,152,75206,1,8,0:0:0:0:
284,224,75324,1,0,0:0:0:0:
192,268,75441,6,0,B|136:264|136:264|108:248|108:248|44:240,1,140,0|8,0:0|0:0,0:0:0:0:
12,168,75794,1,0,0:0:0:0:
12,168,75912,2,0,P|40:124|136:136,1,140,0|8,0:0|0:0,0:0:0:0:
208,152,76265,1,0,0:0:0:0:
284,104,76383,6,0,P|296:64|292:32,2,70,0|0|8,0:0|0:0|0:0,0:0:0:0:
292,188,76736,1,0,0:0:0:0:
220,240,76854,2,0,P|208:280|212:312,1,70,0|0,0:0|0:0,0:0:0:0:
296,284,77089,2,0,L|384:272,1,70,8|0,0:0|0:0,0:0:0:0:
512,184,77324,6,0,B|452:180|452:180|432:172|432:172|352:164,1,140,4|8,0:0|0:0,0:0:0:0:
292,188,77677,1,0,0:0:0:0:
208,152,77795,2,0,P|192:112|200:76,1,70,0|0,0:0|0:0,0:0:0:0:
271,38,78030,2,0,P|287:78|279:114,1,70,8|0,0:0|0:0,0:0:0:0:
120,156,78266,5,0,0:0:0:0:
120,156,78383,1,0,0:0:0:0:
120,156,78501,2,0,L|32:152,1,70,8|0,0:0|0:0,0:0:0:0:
104,244,78736,2,0,B|195:250|142:206|254:214,1,140,0|8,0:0|0:0,0:0:0:0:
216,300,79090,1,0,0:0:0:0:
120,156,79207,6,0,P|112:104|120:72,2,70,4|0|2,0:0|0:0|0:1,0:0:0:0:
200,120,79560,1,2,1:0:0:0:
288,132,79678,2,0,L|324:136|360:140,1,70,0|2,1:0|1:0,0:0:0:0:
260,224,79913,6,0,P|223:219|188:216,1,70,0|2,0:0|0:1,0:0:0:0:
328,280,80149,2,0,P|364:275|400:272,1,70,0|2,0:0|1:0,0:0:0:0:
256,376,80384,2,0,B|244:344|244:344|248:304,1,70,0|2,0:0|1:0,0:0:0:0:
332,128,80619,2,0,B|344:160|344:160|340:200,1,70,2|0,1:0|0:0,0:0:0:0:
190,216,80855,5,4,0:0:0:0:
140,144,80972,2,0,P|144:100|148:64,2,70,0|2|0,0:1|1:0|1:0,0:0:0:0:
100,260,81326,2,0,L|92:348,1,70,0|0,1:0|1:0,0:0:0:0:
0,204,81561,6,0,P|44:192|92:192,1,77.0000023498536,2|0,0:1|0:0,0:0:0:0:
244,128,81796,2,0,P|188:124|148:112,1,77.0000023498536,2|0,0:1|0:0,0:0:0:0:
132,292,82032,2,0,P|184:272|232:248,1,77.0000023498536,2|0,0:1|0:0,0:0:0:0:
288,208,82267,6,0,P|300:240|304:276,2,70,4|0|2,0:0|0:0|1:0,0:0:0:0:
244,128,82620,1,2,1:0:0:0:
316,72,82738,2,0,P|348:60|408:56,1,70,0|2,1:0|1:0,0:0:0:0:
444,168,82973,6,0,L|344:152,1,70,0|2,0:0|0:0,0:0:0:0:
223,63,83208,2,0,P|227:97|244:128,1,70,0|2,0:0|1:0,0:0:0:0:
353,221,83444,2,0,P|370:191|374:157,1,70,0|2,0:0|1:0,0:0:0:0:
224,64,83679,2,0,L|124:80,1,70,2|0,1:0|0:0,0:0:0:0:
136,224,83915,6,0,B|196:216|196:216|208:208|208:208|296:196,1,140,4|0,0:0|1:0,0:0:0:0:
353,220,84268,1,0,1:0:0:0:
408,320,84385,2,0,P|356:336|316:320,1,70,0|0,0:0|1:0,0:0:0:0:
136,224,84621,6,0,L|148:136,1,77.0000023498536,2|0,0:1|0:0,0:0:0:0:
248,52,84856,2,0,L|264:144,1,77.0000023498536,2|0,0:1|0:0,0:0:0:0:
72,288,85091,2,0,B|52:236|52:236|72:124,1,154.000004699707,2|4,0:1|0:0,0:0:0:0:
72,124,85562,6,0,L|-4:136,1,70,2|2,1:0|1:0,0:0:0:0:
124,52,85797,1,0,1:0:0:0:
168,156,85915,1,0,0:0:0:0:
224,92,86033,2,0,B|304:76|280:112|364:92,2,140,2|2|2,0:1|1:0|1:0,0:0:0:0:
180,272,86739,5,4,0:0:0:0:
180,272,86974,2,0,P|215:278|256:280,1,70,2|2,0:1|1:0,0:0:0:0:
328,224,87210,1,0,0:0:0:0:
360,328,87327,1,0,1:0:0:0:
444,288,87445,2,0,P|480:240|448:148,2,140,2|2|2,0:1|0:1|0:1,0:0:0:0:
432,296,88151,6,0,L|376:304,1,56,2|2,0:1|0:1,0:0:0:0:
328,224,88387,2,0,L|272:232,1,56,2|2,1:0|1:0,0:0:0:0:
408,120,88622,1,0,1:0:0:0:
408,120,88740,1,2,1:0:0:0:
408,120,88857,6,0,L|336:132,1,62.9999980773926,2|2,0:1|0:1,0:0:0:0:
256,24,89093,2,0,B|252:64|260:56|256:100,1,62.9999980773926,2|2,0:1|1:0,0:0:0:0:
104,120,89328,2,0,L|176:132,1,62.9999980773926,2|0,1:2|1:0,0:0:0:0:
256,184,89563,1,2,1:0:0:0:
256,184,89681,1,2,0:1:0:0:
208,284,89799,6,0,P|160:296|124:288,1,70,2|2,0:0|0:0,0:0:0:0:
164,216,90034,1,0,1:0:0:0:
292,264,90152,2,0,P|292:308|272:344,1,70,2|0,0:0|0:0,0:0:0:0:
256,184,90387,2,0,B|338:166|309:204|404:185,1,140,2|2,0:0|0:0,0:0:0:0:
482,168,90740,5,0,1:0:0:0:
482,168,91211,2,0,P|436:107|360:104,1,157.500006008148,2|0,0:0|0:0,0:0:0:0:
256,184,91682,6,0,L|176:192,1,62.9999980773926,4|0,0:0|0:0,0:0:0:0:
120,156,91917,1,0,1:0:0:0:
120,156,92035,1,2,0:0:0:0:
56,296,92152,2,0,P|48:244|56:216,1,62.9999980773926,0|0,0:0|0:0,0:0:0:0:
128,336,92388,1,0,1:0:0:0:
128,336,92505,1,0,0:0:0:0:
212,272,92623,6,0,L|300:276,1,62.9999980773926,0|2,0:0|0:0,0:0:0:0:
400,328,92858,2,0,L|312:332,1,62.9999980773926,0|2,1:0|0:0,0:0:0:0:
220,192,93094,2,0,B|262:195|300:196|300:196|318:207|344:220,1,125.999996154785,2|0,0:0|1:0,0:0:0:0:
420,252,93447,1,0,1:0:0:0:
480,197,93564,6,0,P|488:153|480:117,1,62.9999980773926,2|2,0:0|0:0,0:0:0:0:
348,0,93799,2,0,P|340:44|348:80,1,62.9999980773926,0|2,1:0|0:0,0:0:0:0:
408,161,94035,2,0,L|420:36,1,125.999996154785,0|0,0:0|1:0,0:0:0:0:
280,112,94388,5,2,0:0:0:0:
312,184,94506,2,0,P|320:220|320:256,1,62.9999980773926,0|0,0:0|0:0,0:0:0:0:
208,236,94741,2,0,B|180:196|180:196|204:100,1,125.999996154785,2|0,1:2|0:0,0:0:0:0:
220,44,95094,1,0,0:0:0:0:
132,72,95212,2,0,L|64:80,1,62.9999980773926,0|0,1:0|1:0,0:0:0:0:
0,52,95447,6,0,P|28:76|16:176,1,125.999996154785,0|0,0:0|1:0,0:0:0:0:
4,232,95800,1,2,0:0:0:0:
76,280,95918,2,0,P|80:328|104:360,1,62.9999980773926,0|2,0:0|0:0,0:0:0:0:
208,236,96153,2,0,P|204:188|180:156,1,62.9999980773926,0|2,1:0|0:0,0:0:0:0:
132,224,96389,5,0,0:0:0:0:
188,312,96507,2,0,L|268:320,1,62.9999980773926,2|0,0:0|1:0,0:0:0:0:
332,328,96742,1,2,0:0:0:0:
408,200,96860,2,0,B|359:204|359:204|332:194|332:194|275:198,1,125.999996154785,2|0,0:0|1:0,0:0:0:0:
208,236,97213,1,0,1:0:0:0:
156,144,97330,6,0,P|148:104|152:72,1,62.9999980773926,0|0,0:0|0:0,0:0:0:0:
236,108,97566,2,0,P|260:80|308:64,1,62.9999980773926,0|0,1:0|0:0,0:0:0:0:
424,152,97801,2,0,P|366:173|309:149,1,125.999996154785,2|0,0:0|1:0,0:0:0:0:
484,92,98154,6,0,B|508:132|508:132|492:220,1,125.999996154785,2|0,0:0|0:0,0:0:0:0:
480,292,98507,1,2,1:2:0:0:
396,248,98625,2,0,L|308:236,1,62.9999980773926,0|0,0:0|1:0,0:0:0:0:
280,312,98860,2,0,P|223:289|168:316,1,125.999996154785,0|0,0:0|1:0,0:0:0:0:
168,316,99213,6,0,P|167:278|164:240,1,62.9999980773926,0|2,0:0|0:0,0:0:0:0:
52,208,99449,2,0,P|52:246|56:284,1,62.9999980773926,0|2,1:0|0:0,0:0:0:0:
251,171,99684,2,0,B|176:192|204:152|128:176,1,125.999996154785,0|0,0:0|0:0,0:0:0:0:
52,208,100037,1,0,0:0:0:0:
24,128,100155,6,0,P|85:131|128:175,1,125.999996154785,2|0,0:0|1:0,0:0:0:0:
165,253,100508,1,2,0:0:0:0:
252,172,100625,2,0,L|268:96,1,62.9999980773926,0|0,0:0|0:0,0:0:0:0:
328,216,100861,2,0,L|344:292,1,62.9999980773926,0|0,1:0|1:0,0:0:0:0:
396,160,101096,5,0,0:0:0:0:
420,84,101214,2,0,P|424:48|412:8,2,62.9999980773926,0|0|0,0:0|1:0|0:0,0:0:0:0:
344,56,101567,2,0,B|296:48|296:48|272:56|272:56|208:48,1,125.999996154785,2|2,0:0|1:2,0:0:0:0:
135,147,101920,6,0,P|190:177|252:172,1,125.999996154785,2|0,0:0|0:0,0:0:0:0:
396,160,102273,2,0,P|352:164|320:192,1,62.9999980773926,2|0,1:2|0:0,0:0:0:0:
296,248,102508,2,0,L|312:376,1,125.999996154785,2|2,0:0|1:2,0:0:0:0:
384,240,102861,1,0,1:0:0:0:
216,312,102979,6,0,P|180:320|144:320,1,62.9999980773926,2|2,0:0|0:0,0:0:0:0:
108,240,103215,2,0,P|144:232|180:232,1,62.9999980773926,0|0,1:0|0:0,0:0:0:0:
213,325,103450,6,0,P|173:327|134:320,1,69.2999997885132,2|2,0:0|0:0,0:0:0:0:
110,226,103686,2,0,P|150:224|189:231,1,69.2999997885132,0|0,1:0|0:0,0:0:0:0:
296,248,103921,6,0,B|308:212|308:212|300:172,1,69.2999997885132,2|2,0:0|0:0,0:0:0:0:
224,88,104156,2,0,B|212:124|212:124|220:164,1,69.2999997885132,0|0,1:0|0:0,0:0:0:0:
327,234,104391,6,0,B|326:193|326:193|303:154,1,77.0000023498536,2|2,0:0|0:0,0:0:0:0:
193,96,104626,2,0,B|194:138|194:138|217:176,1,77.0000023498536,0|0,1:0|1:0,0:0:0:0:
380,68,104862,6,0,L|284:60,1,77.0000023498536,0|0,0:0|0:0,0:0:0:0:
135,174,105097,2,0,L|231:166,1,77.0000023498536,0|0,1:0|1:0,0:0:0:0:
428,244,105333,1,0,0:0:0:0:
348,200,105451,1,0,0:0:0:0:
264,232,105568,2,0,P|236:264|224:328,1,77.0000023498536,0|0,1:0|0:0,0:0:0:0:
340,312,105804,5,0,1:0:0:0:
284,116,106039,2,0,P|272:60|296:16,1,77.0000023498536,0|0,1:0|0:0,0:0:0:0:
348,72,106274,2,0,B|256:88|292:40|180:60,1,154.000004699707,0|0,1:0|1:0,0:0:0:0:
144,132,106627,1,0,0:0:0:0:
56,96,106745,6,0,P|56:168|88:208,1,93.3333333333333,2|0,0:1|0:0,0:0:0:0:
136,220,106980,2,0,L|252:200,1,93.3333333333333,0|0,1:0|0:0,0:0:0:0:
304,228,107216,2,0,P|304:300|272:340,1,93.3333333333333,2|0,0:1|0:0,0:0:0:0:
224,352,107451,2,0,L|108:332,1,93.3333333333333,0|0,1:0|0:0,0:0:0:0:
70,274,107687,6,0,B|54:230|54:230|70:166,1,93.3333333333333,2|0,0:1|0:0,0:0:0:0:
144,132,107922,2,0,L|256:112,1,93.3333333333333,0|0,1:0|0:0,0:0:0:0:
384,188,108157,2,0,B|395:233|395:233|379:277,1,93.3333333333333,2|0,0:1|0:0,0:0:0:0:
293,303,108393,2,0,L|200:288,1,93.3333333333333,0|0,1:0|0:0,0:0:0:0:
152,222,108628,6,0,P|139:178|144:132,1,93.3333333333333,2|0,0:1|0:0,0:0:0:0:
240,72,108863,2,0,P|253:116|248:162,1,93.3333333333333,0|0,1:0|0:0,0:0:0:0:
51,119,109099,2,0,L|143:131,1,93.3333333333333,2|0,0:1|0:0,0:0:0:0:
240,248,109334,2,0,L|332:235,1,93.3333333333333,0|0,1:0|0:0,0:0:0:0:
424,224,109569,5,2,0:1:0:0:
364,128,109726,1,0,0:0:0:0:
368,116,109805,1,0,1:0:0:0:
264,152,109961,1,0,0:0:0:0:
268,164,110040,2,0,B|192:140|208:200|120:176,1,140,0|0,1:0|1:0,0:0:0:0:
216,52,110511,6,0,P|252:40|292:44,1,70,2|0,0:1|0:0,0:0:0:0:
368,116,110746,2,0,L|360:196,1,70,0|0,1:0|1:0,0:0:0:0:
246,317,110982,2,0,L|238:237,1,70,2|0,0:1|0:0,0:0:0:0:
340,304,111217,2,0,P|336:356|316:384,1,70,0|0,1:0|1:0,0:0:0:0:
160,348,111452,5,2,0:1:0:0:
148,272,111570,1,0,0:0:0:0:
80,224,111688,2,0,P|66:256|67:290,1,70,0|0,1:0|1:0,0:0:0:0:
176,192,111923,2,0,L|184:108,1,70,2|0,0:1|0:0,0:0:0:0:
244,64,112159,2,0,P|284:48|332:56,1,70,0|0,1:0|1:0,0:0:0:0:
376,104,112394,5,2,0:1:0:0:
296,128,112512,1,0,0:0:0:0:
244,64,112629,2,0,L|160:48,1,70,0|0,1:0|1:0,0:0:0:0:
40,136,112865,2,0,L|124:120,1,70,2|0,0:1|0:0,0:0:0:0:
324,224,113100,2,0,L|240:208,1,70,0|0,1:0|1:0,0:0:0:0:
176,192,113335,5,2,1:0:0:0:
388,20,113571,1,0,1:0:0:0:
292,328,113806,1,0,1:0:0:0:
108,122,114041,2,2,L|100:76,3,35,2|2|2|2,1:0|0:0|1:0|0:0,0:0:0:0:
84,152,114277,6,0,B|164:128|140:180|236:152,1,140,4|0,0:0|1:0,0:0:0:0:
192,76,114630,1,0,0:0:0:0:
312,128,114748,2,0,P|264:184|276:248,1,140,0|0,0:0|1:0,0:0:0:0:
344,204,115101,1,0,0:0:0:0:
424,344,115218,6,0,B|448:296|448:296|420:200,2,140,0|0|0,0:0|1:0|0:0,0:0:0:0:
360,292,115807,1,0,1:0:0:0:
300,352,115924,2,0,L|228:364,1,70,0|0,0:0|1:0,0:0:0:0:
72,320,116160,6,0,B|124:308|160:336|160:336|168:312|200:292,1,140,0|0,0:0|1:0,0:0:0:0:
360,292,116513,1,0,0:0:0:0:
308,232,116631,2,0,P|260:244|192:168,1,140,0|0,0:0|1:0,0:0:0:0:
184,112,116984,1,0,0:0:0:0:
253,28,117101,6,0,L|268:168,2,140,0|0|0,0:0|1:0|0:0,0:0:0:0:
336,44,117690,1,0,1:0:0:0:
380,112,117807,2,0,P|384:160|372:200,1,70,0|0,1:0|1:0,0:0:0:0:
240,280,118043,6,0,L|156:296,1,70,0|0,1:0|0:0,0:0:0:0:
156,208,118278,2,0,L|68:192,1,70,0|0,1:0|0:0,0:0:0:0:
324,260,118513,6,0,L|412:244,1,70,0|0,1:0|0:0,0:0:0:0:
368,160,118749,2,0,L|444:116,1,70,0|0,1:0|0:0,0:0:0:0:
264,200,118984,6,0,L|244:112,1,70,0|0,1:0|0:0,0:0:0:0:
199,72,119220,2,0,P|229:54|264:56,1,70,0|0,1:0|0:0,0:0:0:0:
312,258,119455,2,0,P|282:276|248:275,1,70,0|0,1:0|0:0,0:0:0:0:
156,208,119690,1,0,1:0:0:0:
140,128,119808,1,0,1:0:0:0:
248,131,119926,6,0,P|308:124|364:116,1,105.000004005432,0|0,1:0|0:0,0:0:0:0:
464,212,120279,2,0,P|416:188|348:208,2,105.000004005432,2|2|2,3:0|3:0|3:0,0:0:0:0:
414,330,120867,6,0,L|404:268,1,62.9999980773926,0|0,0:0|0:0,0:0:0:0:
284,176,121102,2,0,L|296:248,1,62.9999980773926,0|0,1:0|1:0,0:0:0:0:
232,300,121338,2,0,B|152:316|188:276|100:292,1,125.999996154785,0|0,1:0|1:0,0:0:0:0:
136,368,121691,1,0,1:0:0:0:
204,224,121809,6,0,P|180:172|96:168,1,140,4|8,0:0|0:0,0:0:0:0:
36,208,122162,1,0,0:0:0:0:
4,80,122279,2,0,L|84:92,1,70,0|0,0:0|0:0,0:0:0:0:
212,40,122515,2,0,L|132:52,1,70,8|0,0:0|0:0,0:0:0:0:
104,163,122750,6,0,L|248:140,1,140,0|8,0:0|0:0,0:0:0:0:
308,96,123103,1,0,0:0:0:0:
438,182,123221,2,0,P|375:207|316:174,1,140,0|8,0:0|0:0,0:0:0:0:
380,128,123574,1,0,0:0:0:0:
496,124,123692,6,0,B|520:168|520:168|500:284,1,140,0|8,0:0|0:0,0:0:0:0:
416,336,124045,1,0,0:0:0:0:
339,312,124162,2,0,L|311:144,1,140,0|8,0:0|0:0,0:0:0:0:
238,149,124515,1,0,0:0:0:0:
172,228,124633,6,0,B|88:256|120:192|16:224,1,140,0|8,0:0|0:0,0:0:0:0:
64,296,124986,1,0,0:0:0:0:
160,340,125104,2,0,P|196:308|284:328,1,140,0|8,0:0|0:0,0:0:0:0:
416,336,125457,1,0,0:0:0:0:
352,272,125574,6,0,P|344:228|348:176,1,70,2|0,0:1|0:0,0:0:0:0:
408,84,125810,1,8,0:0:0:0:
448,164,125928,2,0,P|388:172|324:112,1,140,2|2,0:1|0:1,0:0:0:0:
232,52,126281,2,0,P|258:48|304:36,1,70,8|2,0:0|0:1,0:0:0:0:
238,149,126516,6,0,B|182:141|182:141|154:125|154:125|98:117,1,140,2|8,0:1|0:0,0:0:0:0:
16,236,126869,2,0,P|76:252|132:188,1,140,2|2,0:1|0:1,0:0:0:0:
192,268,127222,2,0,P|184:328|184:356,1,70,8|2,0:0|0:1,0:0:0:0:
280,316,127457,5,2,0:1:0:0:
324,236,127575,2,0,P|316:196|304:160,1,70,0|8,0:0|0:0,0:0:0:0:
224,128,127810,2,0,B|308:144|276:96|380:116,1,140,2|2,0:1|0:1,0:0:0:0:
440,152,128164,1,8,0:0:0:0:
440,152,128281,1,2,0:1:0:0:
468,232,128399,6,0,P|384:248|308:252,1,140,0|8,0:0|0:0,0:0:0:0:
248,220,128752,1,8,0:0:0:0:
152,248,128870,2,0,P|140:292|144:324,1,70,8|8,0:0|0:0,0:0:0:0:
240,368,129105,2,0,L|220:276,1,70,0|8,0:0|0:0,0:0:0:0:
176,160,129340,6,0,B|136:136|136:136|88:164|24:148,1,140,4|8,0:0|0:0,0:0:0:0:
80,72,129693,1,0,0:0:0:0:
188,68,129811,2,0,B|228:92|228:92|276:64|340:80,1,140,0|8,0:0|0:0,0:0:0:0:
384,128,130164,1,0,0:0:0:0:
300,228,130282,6,0,P|288:176|292:144,1,70,0|0,0:0|0:0,0:0:0:0:
384,248,130517,2,0,P|356:296|268:312,2,140,8|0|8,0:0|0:0|0:0,0:0:0:0:
456,200,131106,1,0,0:0:0:0:
384,128,131223,6,0,P|372:48|368:-16,1,140,0|8,0:0|0:0,0:0:0:0:
452,48,131576,1,0,0:0:0:0:
300,120,131694,2,0,B|216:136|248:96|160:112,1,140,0|8,0:0|0:0,0:0:0:0:
80,228,132165,6,0,P|144:240|196:180,1,140,0|8,0:0|0:0,0:0:0:0:
268,240,132518,1,0,0:0:0:0:
344,196,132636,2,0,P|396:188|428:196,1,70,0|0,0:0|0:0,0:0:0:0:
296,320,132871,2,0,P|261:323|227:314,1,70,8|0,0:0|0:0,0:0:0:0:
388,276,133106,5,4,0:0:0:0:
388,276,133342,2,0,L|476:288,1,70,8|0,0:0|0:0,0:0:0:0:
512,208,133577,2,0,B|432:196|432:196|492:168|480:128,1,140,0|8,0:0|0:0,0:0:0:0:
472,68,133930,1,0,0:0:0:0:
400,116,134048,6,0,P|352:124|312:116,1,70,8|0,0:0|0:0,0:0:0:0:
256,96,134283,1,8,0:0:0:0:
256,96,134401,1,8,0:0:0:0:
184,168,134518,2,0,P|176:216|188:256,1,70,8|8,0:0|0:0,0:0:0:0:
332,320,134754,2,0,P|335:285|327:251,1,70,8|8,0:0|0:0,0:0:0:0:
256,208,134989,5,4,0:0:0:0:
179,236,135460,1,2,0:0:0:0:
128,171,135931,1,2,0:0:0:0:
173,103,136284,1,2,0:0:0:0:
253,125,136637,1,2,0:0:0:0:
253,125,136872,6,0,P|316:120|348:116,1,83.9999974365235,2|2,0:0|0:0,0:0:0:0:
408,196,137343,2,0,P|345:201|313:205,1,83.9999974365235,2|2,0:0|0:0,0:0:0:0:
248,244,137814,2,0,P|220:284|232:360,2,125.999996154785,2|2|0,0:0|0:0|1:0,0:0:0:0:
304,312,138755,5,0,1:0:0:0:
168,208,138990,2,0,L|108:200,2,56,0|0|4,1:0|1:0|3:0,0:0:0:0:
348,144,139461,2,0,L|408:136,2,56,0|0|4,1:0|1:0|3:0,0:0:0:0:
255,12,139932,2,0,L|256:68,2,56,0|0|4,1:0|1:0|3:0,0:0:0:0:
256,168,140403,1,0,1:0:0:0:
256,168,140520,1,0,1:0:0:0:
232,256,140638,6,0,P|176:288|116:272,1,125.999996154785,4|4,3:0|3:0,0:0:0:0:
348,144,141109,2,0,P|404:112|464:128,1,125.999996154785,4|4,3:0|3:0,0:0:0:0:
416,192,141462,1,0,0:0:0:0:
344,228,141580,6,0,B|296:232|296:232|264:224|264:224|208:228,1,125.999996154785,4|0,3:0|1:0,0:0:0:0:
119,274,141933,1,0,0:0:0:0:
68,208,142050,2,0,B|60:176|60:176|68:132,1,62.9999980773926,0|0,1:0|0:0,0:0:0:0:
204,64,142286,2,0,B|212:96|212:96|204:140,1,62.9999980773926,0|0,1:0|0:0,0:0:0:0:
148,172,142521,6,0,P|212:172|276:244,2,157.500006008148,6|0|2,0:0|0:0|0:0,0:0:0:0:
180,264,143462,1,0,0:0:0:0:
68,208,143698,1,2,0:0:0:0:
68,208,143816,1,2,0:0:0:0:
68,208,143933,2,0,L|52:84,1,105.000004005432,0|0,1:0|0:0,0:0:0:0:
204,64,144404,6,0,B|225:46|228:24|228:24|269:84|234:141,2,157.500006008148,2|0|2,0:0|0:0|0:0,0:0:0:0:
144,8,145345,1,0,0:0:0:0:
176,184,145581,1,2,0:0:0:0:
176,184,145698,1,2,0:0:0:0:
176,184,145816,2,0,P|240:216|276:204,1,105.000004005432,0|0,1:0|0:0,0:0:0:0:
336,160,146169,1,0,1:0:0:0:
336,160,146287,6,0,P|340:92|348:36,1,105.000004005432,4|0,3:0|0:0,0:0:0:0:
428,120,146640,2,0,P|424:188|416:244,1,105.000004005432
332,244,146993,2,0,L|276:252,1,52.5000020027161,2|0,0:0|0:0,0:0:0:0:
384,312,147228,2,0,P|432:304|496:344,2,105.000004005432,0|2|0,0:0|0:0|1:0,0:0:0:0:
272,360,147934,1,0,0:0:0:0:
168,280,148170,6,0,P|156:216|152:160,1,105.000004005432,4|0,3:0|0:0,0:0:0:0:
56,140,148523,2,0,P|68:204|72:260,1,105.000004005432,0|0,0:0|0:0,0:0:0:0:
32,336,148876,2,0,L|92:328,1,52.5000020027161,2|0,0:0|0:0,0:0:0:0:
168,280,149111,2,0,B|232:284|204:308|280:312,1,105.000004005432,0|2,0:0|0:0,0:0:0:0:
268,228,149464,1,2,0:0:0:0:
268,228,149582,1,0,1:0:0:0:
392,264,149817,2,0,P|396:219|390:191,1,52.5000020027161,2|0,0:0|1:0,0:0:0:0:
348,148,150053,6,0,P|400:192|504:172,2,157.500006008148,4|0|2,0:0|0:0|0:0,0:0:0:0:
432,104,150994,1,0,0:0:0:0:
356,40,151230,1,2,0:0:0:0:
356,40,151347,1,2,0:0:0:0:
356,40,151465,2,0,L|240:32,1,105.000004005432,0|0,1:0|0:0,0:0:0:0:
124,124,151936,6,0,B|184:144|184:144|292:108,1,157.500006008148,4|0,3:0|0:0,0:0:0:0:
348,148,152406,2,0,P|340:203|332:256,1,105.000004005432,0|2,0:0|0:0,0:0:0:0:
232,296,152877,1,0,0:0:0:0:
380,336,153113,2,0,L|436:352,2,52.5000020027161,2|2|0,0:0|0:0|1:0,0:0:0:0:
232,296,153583,1,0,1:0:0:0:
440,204,153819,5,2,1:2:0:0:
448,116,154054,1,2,1:2:0:0:
316,172,154289,5,2,1:2:0:0:
328,272,154525,1,2,1:2:0:0:
188,216,154760,5,2,1:2:0:0:
200,92,154995,1,2,1:2:0:0:
64,168,155231,5,2,1:2:0:0:
76,312,155466,1,2,1:2:0:0:
76,312,155584,1,0,1:2:0:0:
144,264,155702,6,0,P|204:248|260:264,1,105.000004005432,2|2,1:2|1:2,1:2:0:0:
368,120,156172,2,0,P|308:136|252:120,1,105.000004005432,2|2,1:2|1:2,1:2:0:0:
200,336,156643,5,2,1:2:0:0:
312,48,157114,1,0,1:0:0:0:
180,152,157349,6,0,L|116:160,1,56,0|0,1:0|1:0,0:0:0:0:
256,200,157585,1,4,0:0:0:0:
332,152,158291,6,0,L|396:160,1,56,0|0,1:0|0:0,0:0:0:0:
256,216,158527,1,4,0:0:0:0:
176,144,159232,6,0,L|104:140,1,57.4000008758545,0|0,1:0|0:0,0:0:0:0:
256,232,159467,1,4,0:0:0:0:
336,144,160174,6,0,L|408:140,1,57.4000008758545,0|0,1:0|0:0,0:0:0:0:
256,248,160409,1,4,0:0:0:0:
256,84,160644,5,0,0:0:0:0:
256,332,160880,1,4,1:2:0:0:
118,238,161115,6,0,L|176:232,1,57.4000008758545,0|0,1:0|0:0,0:0:0:0:
256,164,161350,1,4,0:0:0:0:
393,238,162057,6,0,L|336:232,1,57.4000008758545,0|0,1:0|0:0,0:0:0:0:
256,148,162292,1,4,0:0:0:0:
256,332,162998,6,0,L|256:268,1,57.4000008758545,0|0,1:0|0:0,0:0:0:0:
256,132,163233,2,0,P|216:104|128:124,1,119.000002269745,4|0,0:0|1:0,0:0:0:0:
188,184,163586,1,0,1:0:0:0:
116,224,163704,2,0,P|55:233|-12:244,1,119.000002269745,0|0,0:0|1:0,0:0:0:0:
128,308,164057,1,0,1:0:0:0:
128,308,164175,6,0,P|180:316|204:320,1,59.5000011348725,0|0,0:0|1:0,0:0:0:0:
272,276,164410,2,0,L|264:204,1,59.5000011348725,0|0,0:0|1:0,0:0:0:0:
324,160,164646,2,0,P|376:168|384:280,1,178.500003404617,0|0,1:0|0:0,0:0:0:0:
265,216,165116,6,0,L|285:80,1,125.999996154785,4|0,0:0|0:0,0:0:0:0:
176,200,165469,1,0,0:0:0:0:
176,200,165587,2,0,P|180:240|188:272,1,62.9999980773926,0|0,1:0|0:0,0:0:0:0:
376,160,165822,2,0,P|372:120|364:88,1,62.9999980773926,0|0,0:0|1:0,0:0:0:0:
212,48,166058,6,0,B|136:36|164:76|80:64,1,125.999996154785,0|0,0:0|0:0,0:0:0:0:
8,32,166411,1,0,0:0:0:0:
0,144,166529,2,0,P|52:156|76:168,1,62.9999980773926,0|0,1:0|0:0,0:0:0:0:
128,256,166764,2,0,P|180:244|204:232,1,62.9999980773926,0|0,0:0|1:0,0:0:0:0:
264,180,166999,6,0,L|276:104,2,62.9999980773926,0|0|0,0:0|0:0|0:0,0:0:0:0:
384,288,167352,2,0,L|396:364,1,62.9999980773926,0|0,0:0|1:0,0:0:0:0:
456,240,167588,2,0,P|412:204|336:212,1,125.999996154785,0|0,0:0|1:0,0:0:0:0:
280,312,167941,6,0,P|168:332|136:336,1,125.999996154785,0|0,1:0|1:0,0:0:0:0:
155,333,168294,1,0,0:0:0:0:
72,248,168411,2,0,P|184:228|216:224,1,125.999996154785,0|0,1:0|1:0,0:0:0:0:
280,228,168765,1,0,1:0:0:0:
368,156,168882,6,0,P|372:116|368:84,1,62.9999980773926,4|0,0:0|0:0,0:0:0:0:
225,124,169118,2,0,L|288:124,1,62.9999980773926,0|0,1:0|0:0,0:0:0:0:
142,93,169353,2,0,P|140:124|144:156,1,62.9999980773926,0|0,0:0|0:0,0:0:0:0:
288,40,169588,2,0,L|220:40,1,62.9999980773926,0|0,1:0|0:0,0:0:0:0:
224,208,169824,6,0,B|276:208|276:208|296:216|296:216|356:216,1,125.999996154785,4|0,0:0|1:0,0:0:0:0:
444,184,170177,1,0,0:0:0:0:
488,268,170294,2,0,P|492:304|484:340,1,62.9999980773926,0|0,0:0|1:0,0:0:0:0:
348,216,170530,2,0,P|344:180|352:144,1,62.9999980773926,0|0,1:0|1:0,0:0:0:0:
444,92,170765,5,0,1:0:0:0:
328,320,171001,1,0,1:0:0:0:
228,88,171236,2,0,P|224:36|232:8,1,62.9999980773926,0|0,1:0|0:0,0:0:0:0:
312,60,171471,1,0,1:0:0:0:
224,208,171707,6,0,B|148:220|176:188|96:200,2,125.999996154785,0|0|0,1:0|1:0|1:0,0:0:0:0:
344,144,172413,1,0,0:0:0:0:
344,144,172530,1,0,0:0:0:0:
256,192,172648,12,0,173472,1:0:0:0:
228,108,173590,6,0,P|176:76|96:100,1,140,4|8,0:0|0:0,0:0:0:0:
56,168,173943,1,0,0:0:0:0:
166,229,174060,2,0,P|167:194|160:160,1,70,0|0,0:0|0:0,0:0:0:0:
28,248,174296,2,0,P|27:282|34:317,1,70,8|0,0:0|0:0,0:0:0:0:
124,344,174531,6,0,L|200:328,1,70,0|0,0:0|0:0,0:0:0:0:
296,272,174766,2,0,L|280:364,1,70,8|0,0:0|0:0,0:0:0:0:
100,260,175002,6,0,L|184:244,1,77.0000023498536,0|0,0:0|0:0,0:0:0:0:
308,195,175237,2,0,L|292:295,1,77.0000023498536,8|0,0:0|0:0,0:0:0:0:
160,160,175472,6,0,P|140:108|180:32,1,140,0|8,0:0|0:0,0:0:0:0:
228,108,175826,1,0,0:0:0:0:
304,64,175943,2,0,B|380:48|360:88|444:72,1,140,0|8,0:0|0:0,0:0:0:0:
336,152,176414,6,0,P|276:184|248:268,1,140,0|8,0:0|0:0,0:0:0:0:
348,316,176767,1,8,0:0:0:0:
348,316,176885,2,0,P|348:272|340:236,1,70,0|0,0:0|0:0,0:0:0:0:
164,216,177120,2,0,P|164:260|172:296,1,70,8|0,0:0|0:0,0:0:0:0:
252,144,177355,6,0,B|200:140|200:140|172:128|172:128|92:124,1,140,2|8,0:1|0:0,0:0:0:0:
43,242,177708,2,0,B|116:260|116:260|164:216,1,140,2|2,0:1|0:1,0:0:0:0:
272,160,178062,2,0,L|260:252,1,70,8|2,0:0|0:1,0:0:0:0:
348,316,178297,5,2,0:1:0:0:
416,264,178415,2,0,P|420:224|408:180,1,70,0|8,0:0|0:0,0:0:0:0:
356,132,178650,2,0,P|440:164|500:128,1,140,2|2,0:1|0:1,0:0:0:0:
424,80,179003,1,8,0:0:0:0:
316,212,179121,1,2,0:1:0:0:
316,212,179238,6,0,L|236:208,2,70,2|2|8,0:1|0:1|0:0,0:0:0:0:
416,264,179591,2,0,L|496:260,2,70,2|0|2,0:1|0:0|0:1,0:0:0:0:
348,368,179944,2,0,P|336:320|340:288,1,70,8|2,0:0|0:1,0:0:0:0:
400,180,180180,6,0,P|368:136|272:132,1,140,0|8,0:0|0:0,0:0:0:0:
192,264,180533,1,8,0:0:0:0:
108,236,180651,2,0,P|140:192|236:188,1,140,8|0,0:0|0:0,0:0:0:0:
296,244,181004,1,8,0:0:0:0:
296,244,181121,6,0,L|284:316,1,70,4|0,0:0|0:0,0:0:0:0:
200,352,181357,2,0,P|156:360|116:356,1,70,8|0,0:0|0:0,0:0:0:0:
284,313,181592,2,0,B|368:317|332:345|432:349,1,140,0|8,0:0|0:0,0:0:0:0:
400,264,181945,1,0,0:0:0:0:
480,208,182063,5,0,0:0:0:0:
272,148,182298,1,8,0:0:0:0:
480,68,182534,5,0,0:0:0:0:
272,148,182769,1,8,0:0:0:0:
348,212,182887,1,0,0:0:0:0:
348,212,183004,6,0,B|368:144|368:144|344:64,1,140,0|8,0:0|0:0,0:0:0:0:
268,36,183357,1,0,0:0:0:0:
196,96,183475,2,0,B|148:108|148:108|112:100|112:100|56:112,1,140,0|8,0:0|0:0,0:0:0:0:
112,188,183828,1,0,0:0:0:0:
8,216,183946,6,2,P|64:208|144:324,1,210,2|10,0:1|0:1,0:1:0:0:
232,256,184416,2,0,P|240:216|240:172,1,70,0|0,0:0|0:0,0:0:0:0:
316,312,184652,2,0,P|308:352|308:396,1,70,8|0,0:0|0:0,0:0:0:0:
408,284,184887,6,0,L|384:136,1,140,4|8,0:0|0:0,0:0:0:0:
240,100,185240,1,0,0:0:0:0:
176,156,185358,2,0,P|208:180|264:176,1,70,0|0,0:0|0:0,0:0:0:0:
384,60,185593,2,0,P|349:66|323:87,1,70,8|0,0:0|0:0,0:0:0:0:
316,236,185829,6,0,P|265:275|180:260,1,140,4|8,0:0|0:0,0:0:0:0:
88,184,186182,1,0,0:0:0:0:
88,184,186299,2,0,P|92:140|96:100,1,70,0|0,0:0|0:0,0:0:0:0:
36,256,186535,2,0,P|76:272|116:264,1,70,8|0,0:0|0:0,0:0:0:0:
176,156,186770,6,0,B|260:140|228:184|332:164,1,140,4|8,0:0|0:0,0:0:0:0:
476,236,187241,1,0,0:0:0:0:
408,292,187359,1,0,0:0:0:0:
396,208,187476,2,0,L|404:120,1,70,8|0,0:0|0:0,0:0:0:0:
312,272,187712,6,0,P|280:296|176:280,1,140,4|8,0:0|0:0,0:0:0:0:
240,224,188065,1,0,0:0:0:0:
176,156,188182,2,0,P|168:104|168:72,1,70,0|0,0:0|0:0,0:0:0:0:
252,112,188418,1,8,0:0:0:0:
92,160,188535,1,8,0:0:0:0:
92,160,188653,6,0,L|8:152,1,70,0|0,0:0|0:0,0:0:0:0:
128,300,188888,2,0,P|134:265|136:230,1,70,8|0,0:0|0:0,0:0:0:0:
80,72,189124,2,0,L|164:64,1,70,8|0,0:0|0:0,0:0:0:0:
252,112,189359,2,0,P|254:146|260:181,1,70,8|0,0:0|0:0,0:0:0:0:
220,276,189595,6,0,P|264:264|340:328,1,140,8|8,0:0|0:0,0:0:0:0:
412,360,189948,1,8,0:0:0:0:
460,276,190065,2,0,L|452:196,1,70,8|8,0:0|0:0,0:0:0:0:
360,172,190301,2,0,L|368:92,1,70,8|8,0:0|0:0,0:0:0:0:
464,32,190536,5,2,0:0:0:0:
512,108,190654,2,0,P|444:116|420:112,1,70,2|2,0:0|0:0,0:0:0:0:
336,32,190889,1,2,0:0:0:0:
444,240,191124,1,2,0:0:0:0:
236,348,191360,1,2,0:0:0:0:
128,140,191595,1,2,0:0:0:0:
285,189,191831,5,2,0:0:0:0:
285,189,191948,1,0,0:0:0:0:
115,283,192184,2,0,P|150:281|184:272,1,70,0|0,0:0|0:0,0:0:0:0:
204,188,192419,6,0,L|216:32,1,140,4|0,0:0|1:0,0:0:0:0:
128,140,192772,1,0,0:0:0:0:
292,100,192890,2,0,B|376:88|344:124|444:108,1,140,0|0,0:0|1:0,0:0:0:0:
332,252,193243,1,0,0:0:0:0:
332,252,193360,6,0,P|324:196|332:156,1,70,0|0,0:0|0:0,0:0:0:0:
428,109,193596,2,0,P|435:144|436:179,1,70,0|0,1:0|0:0,0:0:0:0:
396,304,193831,2,0,L|248:292,1,140,0|0,0:0|1:0,0:0:0:0:
184,244,194184,1,0,0:0:0:0:
133,316,194302,6,0,P|200:331|256:292,1,140,0|0,0:0|1:0,0:0:0:0:
280,208,194655,1,0,0:0:0:0:
208,152,194773,2,0,P|160:144|120:148,1,70,0|0,0:0|0:0,0:0:0:0:
256,292,195008,2,0,P|304:300|344:296,1,70,0|0,1:0|0:0,0:0:0:0:
400,216,195243,6,0,B|387:163|387:163|395:135|395:135|383:79,1,140,0|0,0:0|1:0,0:0:0:0:
472,168,195596,1,0,1:0:0:0:
312,136,195714,2,0,L|232:124,1,70,0|0,0:0|0:0,0:0:0:0:
210,235,195950,2,0,L|280:224,1,70,0|0,1:0|0:0,0:0:0:0:
328,296,196185,6,0,L|216:380,1,140,0|0,0:0|1:0,0:0:0:0:
400,352,196538,1,0,0:0:0:0:
400,352,196656,2,0,P|420:312|388:224,1,140,0|0,0:0|1:0,0:0:0:0:
136,292,197126,6,0,P|116:252|148:164,1,140,0|0,0:0|1:0,0:0:0:0:
210,235,197479,1,0,0:0:0:0:
296,200,197597,2,0,P|300:148|288:108,1,70,0|0,0:0|0:0,0:0:0:0:
216,44,197832,2,0,P|212:96|224:136,1,70,0|0,1:0|0:0,0:0:0:0:
368,80,198068,6,0,B|452:80|416:48|508:48,1,140,0|0,0:0|1:0,0:0:0:0:
408,228,198539,2,0,P|396:180|400:144,1,70,0|0,0:0|0:0,0:0:0:0:
484,184,198774,2,0,P|496:232|492:268,1,70,0|0,1:0|1:0,0:0:0:0:
392,312,199009,6,0,L|296:304,1,70,0|0,0:0|1:0,0:0:0:0:
248,248,199245,2,0,L|244:204,2,35,0|0|0,1:0|0:0|1:0,0:0:0:0:
200,328,199480,2,0,B|164:292|164:292|156:176,1,140,0|0,1:0|0:0,0:0:0:0:
212,132,199833,1,0,1:0:0:0:
320,168,199951,6,0,B|396:184|380:144|468:160,1,140,4|0,0:0|1:0,0:0:0:0:
352,84,200304,1,0,0:0:0:0:
352,84,200421,2,0,B|276:68|292:108|204:92,1,140,0|0,0:0|1:0,0:0:0:0:
128,248,200775,1,0,0:0:0:0:
44,224,200892,6,0,P|76:176|180:176,1,140,0|0,0:0|1:0,0:0:0:0:
228,208,201245,1,0,0:0:0:0:
252,312,201363,2,0,P|188:308|164:300,1,70,0|0,0:0|0:0,0:0:0:0:
312,240,201598,2,0,P|346:233|381:234,1,70,0|0,1:0|0:0,0:0:0:0:
440,300,201834,6,0,L|424:132,1,140,0|0,0:0|1:0,0:0:0:0:
374,85,202187,1,0,0:0:0:0:
302,141,202304,2,0,P|346:173|442:145,1,140,0|0,0:0|1:0,0:0:0:0:
464,84,202657,1,0,0:0:0:0:
412,8,202775,6,0,B|364:4|364:4|324:16|324:16|256:12,1,140,0|0,0:0|1:0,0:0:0:0:
216,124,203128,1,0,1:0:0:0:
88,68,203246,2,0,L|160:60,1,70,0|0,0:0|0:0,0:0:0:0:
192,208,203481,2,0,L|120:200,1,70,0|0,1:0|0:0,0:0:0:0:
216,124,203717,6,0,P|268:156|280:232,1,140,4|0,0:0|1:0,0:0:0:0:
232,300,204070,1,0,0:0:0:0:
360,344,204187,2,0,P|360:264|372:184,1,140,0|0,0:0|1:0,0:0:0:0:
448,264,204540,1,0,0:0:0:0:
504,192,204658,6,0,P|504:144|496:116,1,70,0|0,0:0|0:0,0:0:0:0:
360,56,204893,2,0,P|360:104|368:132,1,70,0|0,1:0|0:0,0:0:0:0:
448,48,205129,1,0,0:0:0:0:
284,172,205364,1,0,1:0:0:0:
152,44,205600,6,0,L|0:28,1,140,0|0,0:0|1:0,0:0:0:0:
88,144,205953,1,0,0:0:0:0:
88,144,206070,2,0,L|164:128,1,70,0|0,0:0|0:0,0:0:0:0:
4,112,206306,2,0,B|-4:148|-4:148|12:192,1,70,0|0,1:0|1:0,0:0:0:0:
20,276,206541,6,0,P|80:256|152:316,1,140,0|0,0:0|1:0,0:0:0:0:
208,352,206894,1,0,1:0:0:0:
296,276,207012,2,0,P|300:240|284:188,1,70,0|0,1:0|1:0,0:0:0:0:
200,152,207247,2,0,P|196:188|212:240,1,70,0|0,0:0|1:0,0:0:0:0:
444,164,207483,5,4,0:0:0:0:
293,207,207718,1,0,1:0:0:0:
444,164,207953,2,0,L|448:104,1,56,2|2,0:0|0:0,0:0:0:0:
352,132,208189,2,0,L|340:72,1,56,2|2,1:2|0:0,0:0:0:0:
293,207,208424,5,4,0:0:0:0:
120,168,208659,1,0,1:0:0:0:
293,207,208895,2,0,L|304:280,1,62.9999980773926,2|2,0:0|0:0,0:0:0:0:
192,244,209130,2,0,L|180:308,1,62.9999980773926,2|2,1:2|1:2,0:0:0:0:
120,168,209365,5,4,0:0:0:0:
244,36,209601,1,0,1:0:0:0:
293,207,209836,2,0,P|256:220|208:216,1,70,2|2,0:0|1:2,0:0:0:0:
68,96,210072,2,0,P|105:83|153:87,1,70,2|2,1:2|1:2,0:0:0:0:
244,140,210307,5,4,1:2:0:0:
336,120,210542,1,4,1:2:0:0:
428,100,210778,1,4,1:2:0:0:
428,100,211248,6,0,P|436:148|432:180,1,70,2|2,0:0|0:0,0:0:0:0:
300,268,211719,2,0,P|292:220|296:188,1,70,2|2,0:0|0:0,0:0:0:0:
472,244,212190,2,0,P|421:251|370:222,1,105,2|2,0:0|0:0,0:0:0:0:
132,80,212896,5,4,0:0:0:0:
