osu file format v14

[General]
AudioFilename: nameless.mp3
AudioLeadIn: 0
PreviewTime: 65968
Countdown: 0
SampleSet: Normal
StackLeniency: 0.7
Mode: 0
LetterboxInBreaks: 0
WidescreenStoryboard: 1

[Editor]
Bookmarks: 2007,17070,30251,31192,32134,47197,58495,64144,65085,66027,79207,91211,91682,105804,106745,114277,119926,120867,121809,134989,142521,156643,157114,157585,165116,172648,173590,190536,207483,210307,210542,210778,211248,212543,212896
DistanceSpacing: 1.1
BeatDivisor: 2
GridSize: 32
TimelineZoom: 2.5

[Metadata]
Title:Milk Crown on Sonnetica
TitleUnicode:ミルククラウン・オン・ソーネチカ
Artist:nameless
ArtistUnicode:nameless
Creator:Len
Version:Normal
Source:
Tags:utaite ユジー yuzy P 窓付き@ vocaloid Hatsune Miku Fast yf_bmp toybot Reol [_halloween_] byfar Evil_twilight
BeatmapID:727857
BeatmapSetID:327557

[Difficulty]
HPDrainRate:4
CircleSize:3.3
OverallDifficulty:4
ApproachRate:5.3
SliderMultiplier:0.829999999999999
SliderTickRate:2

[Events]
//Background and Video events
0,0,"23124.jpg",0,0
//Break Periods
2,91882,103708
2,142721,152665
//Storyboard Layer 0 (Background)
//Storyboard Layer 1 (Fail)
//Storyboard Layer 2 (Pass)
//Storyboard Layer 3 (Foreground)
//Storyboard Sound Samples

[TimingPoints]
2007,235.367958575239,4,1,1,70,1,0
2007,-100,4,1,1,70,0,0
9068,-100,4,1,1,70,0,0
15540,-100,4,1,1,70,0,0
17070,-100,4,1,1,70,0,1
30251,-100,4,1,1,70,0,0
30604,-100,4,1,1,70,0,0
32134,-100,4,1,1,70,0,0
57789,-100,4,1,1,30,0,0
58024,-100,4,1,1,70,0,0
58495,-100,4,1,1,70,0,0
66027,-100,4,1,1,70,0,1
79207,-100,4,1,1,70,0,0
91211,-100,4,1,1,70,0,0
91682,235.367958575239,4,1,1,70,1,0
114277,-100,4,1,1,70,0,0
121809,-100,4,1,1,70,0,1
134989,-100,4,1,1,70,0,0
142521,-100,4,1,1,70,0,0
157114,-100,4,1,1,50,0,0
157585,-100,4,1,1,70,0,0
165116,-100,4,1,1,70,0,0
172648,-100,4,1,1,40,0,0
173590,-100,4,1,1,70,0,1
190536,-100,4,1,1,70,0,0
192419,-100,4,1,1,70,0,1
210778,-100,4,1,1,70,0,0

[Colours]
Combo1 : 255,234,170
Combo2 : 179,255,179
Combo3 : 172,209,255
Combo4 : 252,194,203

[HitObjects]
409,283,2006,6,0,L|225:271,1,166
159,309,2713,1,0,0:0:0:0:
74,274,2948,2,0,P|47:216|78:114,1,166
238,45,3889,6,0,L|403:55,1,166
468,121,4596,1,0,0:0:0:0:
401,183,4831,2,0,P|393:252|451:330,1,166
268,292,5772,6,0,L|102:302,1,166
27,249,6478,1,0,0:0:0:0:
65,165,6714,2,0,P|66:117|44:57,2,82.9999999999999
221,259,7655,6,0,L|386:248,1,166
471,283,8361,1,0,0:0:0:0:
503,197,8597,2,0,P|506:147|431:40,1,166
274,106,9538,6,0,L|159:93,1,82.9999999999999
109,56,10009,1,0,0:0:0:0:
6,207,10480,2,0,P|10:273|31:306,1,82.9999999999999
101,321,10950,2,0,L|215:311,1,82.9999999999999
260,363,11421,6,0,P|291:325|430:319,1,166
481,348,12127,1,0,0:0:0:0:
508,260,12363,2,0,B|513:207|513:207|486:70,1,166
309,76,13304,6,0,L|226:83,1,82.9999999999999
148,131,13775,2,0,L|65:123,1,82.9999999999999
3,191,14246,2,0,P|-2:242|72:328,1,166
147,282,14952,1,0,0:0:0:0:
227,325,15187,6,0,B|276:329|312:300|325:256|325:256|344:321|410:333|466:326|479:281,1,290.5
496,230,16246,2,0,P|498:174|484:118,1,82.9999999999999
468,109,16599,2,0,L|369:97,1,82.9999999999999
318,36,17070,6,0,P|248:76|133:56,1,166
83,29,17776,1,0,0:0:0:0:
26,100,18012,2,0,P|10:160|45:270,1,166
123,286,18718,1,0,0:0:0:0:
197,233,18953,6,0,P|246:232|365:315,2,166
123,286,20130,1,0,0:0:0:0:
36,258,20365,2,0,P|10:180|13:153,1,82.9999999999999
42,95,20836,6,0,L|219:114,1,166
287,69,21542,1,0,0:0:0:0:
361,121,21777,2,0,P|405:101|507:175,1,166
428,321,22719,6,0,L|336:303,1,82.9999999999999
263,344,23190,2,0,L|171:326,1,82.9999999999999
95,356,23660,2,0,P|80:297|92:250,1,82.9999999999999
151,215,24131,2,0,P|152:173|138:134,1,82.9999999999999
78,65,24602,6,0,P|121:103|251:70,1,166
287,30,25308,1,0,0:0:0:0:
362,81,25543,2,0,B|379:136|379:136|356:259,1,166
278,286,26249,1,0,0:0:0:0:
223,212,26485,6,0,P|178:193|122:193,1,82.9999999999999
55,213,26956,2,0,L|39:318,1,82.9999999999999
113,351,27426,2,0,L|316:334,1,166
460,355,28368,6,0,P|478:295|464:178,1,166
405,128,29074,1,0,0:0:0:0:
328,178,29309,2,0,L|125:161,1,166
91,221,30015,1,0,0:0:0:0:
29,152,30251,6,0,L|25:19,1,124.5
106,68,30839,2,0,P|164:73|230:30,1,124.5
501,275,32134,6,0,L|334:258,1,166
252,296,32840,1,0,0:0:0:0:
185,233,33075,2,0,P|173:161|221:60,1,166
291,42,33781,1,0,0:0:0:0:
368,89,34017,6,0,B|431:101|481:64|481:64|467:134,1,166
415,182,34723,1,0,0:0:0:0:
485,239,34958,2,0,P|435:271|330:213,1,166
247,79,35899,6,0,L|69:91,1,166
7,145,36606,1,0,0:0:0:0:
73,207,36841,2,0,L|61:325,1,82.9999999999999
126,357,37312,2,0,P|197:365|240:344,1,82.9999999999999
262,290,37782,6,0,L|441:309,1,166
392,222,38489,1,0,0:0:0:0:
463,165,38724,2,0,P|464:112|364:36,1,166
261,171,39665,6,0,L|82:152,1,166
46,230,40371,1,0,0:0:0:0:
98,305,40607,2,0,P|143:308|203:291,1,82.9999999999999
260,257,41078,2,0,P|301:253|341:261,1,82.9999999999999
380,343,41548,6,0,P|425:303|390:184,1,166
331,168,42254,1,0,0:0:0:0:
239,172,42490,2,0,L|62:180,1,166
201,49,43431,6,0,L|378:57,1,166
446,11,44137,1,0,0:0:0:0:
502,82,44373,2,0,P|504:133|486:187,1,82.9999999999999
415,204,44843,2,0,L|322:195,1,82.9999999999999
251,153,45314,5,0,0:0:0:0:
180,211,45550,2,0,P|174:280|256:356,1,166
320,317,46256,2,0,L|491:333,1,166
418,162,47197,6,0,L|247:178,1,166
172,133,47903,1,0,0:0:0:0:
112,202,48139,2,0,P|77:128|129:53,1,166
205,46,48845,1,0,0:0:0:0:
271,108,49080,6,0,L|436:92,1,166
511,145,49786,1,0,0:0:0:0:
461,221,50022,2,0,P|416:208|319:303,1,166
304,359,50728,1,0,0:0:0:0:
219,325,50963,6,0,L|42:347,1,166
0,271,51669,1,0,0:0:0:0:
72,214,51905,2,0,B|91:178|86:137|86:137|49:101|56:42,1,166
146,66,52611,1,0,0:0:0:0:
183,149,52846,6,0,P|224:116|213:3,1,166
92,142,53787,2,0,P|75:220|128:280,1,166
212,240,54494,1,0,0:0:0:0:
282,297,54729,6,0,L|420:280,1,124.5
355,205,55317,1,0,0:0:0:0:
435,161,55553,2,0,P|441:106|397:39,1,124.5
318,33,56141,1,0,0:0:0:0:
178,150,56612,6,0,P|116:123|25:158,1,166
5,244,57318,1,0,0:0:0:0:
70,307,57553,2,0,L|186:289,1,82.9999999999999
235,332,58024,2,0,L|351:314,1,82.9999999999999
398,361,58495,6,0,L|430:186,1,166
393,112,59201,1,0,0:0:0:0:
318,58,59436,2,0,P|262:45|156:131,1,166
148,184,60142,1,0,0:0:0:0:
196,261,60378,6,0,L|373:242,1,166
422,175,61084,1,0,0:0:0:0:
488,237,61319,2,0,P|491:308|391:371,1,166
255,298,62261,6,0,L|89:315,1,166
14,264,62967,1,0,0:0:0:0:
57,183,63202,2,0,L|48:80,1,82.9999999999999
125,49,63673,2,0,L|217:67,1,82.9999999999999
287,22,64144,5,0,0:0:0:0:
256,192,65085,12,0,66027,0:0:0:0:
446,274,66968,6,0,P|389:225|273:233,1,166
227,273,67674,1,0,0:0:0:0:
150,222,67910,6,0,B|132:175|132:175|158:59,1,166
240,23,68616,1,0,0:0:0:0:
307,83,68851,2,0,P|371:93|470:23,1,166
363,202,69792,6,0,P|281:195|213:239,1,166
179,325,70499,1,0,0:0:0:0:
100,278,70734,2,0,B|78:220|78:220|102:93,1,166
174,68,71440,1,0,0:0:0:0:
244,125,71675,6,0,P|308:128|392:33,2,166
174,68,72852,1,0,0:0:0:0:
97,117,73088,2,0,L|79:213,1,82.9999999999999
109,286,73558,6,0,P|175:255|287:268,1,166
340,313,74264,1,0,0:0:0:0:
416,262,74500,2,0,P|428:213|407:61,1,166
357,32,75206,1,0,0:0:0:0:
278,78,75441,6,0,B|196:53|196:53|96:76,1,166
42,18,76147,1,0,0:0:0:0:
4,101,76383,2,0,L|18:276,1,166
31,356,77089,1,0,0:0:0:0:
114,320,77324,6,0,P|176:307|274:341,1,166
345,285,78030,1,0,0:0:0:0:
406,352,78266,2,0,P|433:302|384:202,1,166
301,207,78972,1,0,0:0:0:0:
211,187,79207,6,0,P|170:117|198:42,1,166
287,63,79913,2,0,L|461:48,1,166
507,121,80619,1,0,0:0:0:0:
449,192,80855,6,0,P|391:151|285:183,1,166
246,240,81561,2,0,L|254:347,2,82.9999999999999
161,204,82267,6,0,L|190:37,1,166
264,93,82973,2,0,P|328:98|421:34,1,166
470,117,83679,1,0,0:0:0:0:
407,183,83915,6,0,B|397:224|397:224|423:246|442:275|437:318|421:360,1,166
344,370,84621,2,0,L|237:354,1,82.9999999999999
171,345,85091,1,0,0:0:0:0:
119,269,85327,6,0,P|108:212|171:105,1,166
244,108,86033,2,0,P|216:53|94:46,1,166
38,73,86739,6,0,L|22:247,1,166
52,325,87445,2,0,L|169:309,1,82.9999999999999
218,350,87916,1,0,0:0:0:0:
290,294,88151,6,0,P|299:236|241:143,1,166
157,127,88857,2,0,L|54:137,1,82.9999999999999
33,53,89328,2,0,L|115:44,1,82.9999999999999
256,192,89799,12,0,91682,0:0:0:0:
256,192,104862,12,0,106745,0:0:0:0:
430,42,107687,6,0,L|454:206,1,166
405,283,108393,1,0,0:0:0:0:
326,235,108628,6,0,P|252:224|153:284,1,166
121,338,109334,1,0,0:0:0:0:
47,283,109569,2,0,B|30:233|30:233|55:111,2,166
121,338,110746,6,0,L|226:330,1,82.9999999999999
280,282,111217,1,0,0:0:0:0:
345,344,111452,2,0,P|370:268|290:193,1,166
231,207,112159,1,0,0:0:0:0:
145,174,112394,6,0,P|98:108|123:32,1,166
209,64,113100,1,0,0:0:0:0:
291,25,113335,2,0,B|349:16|406:38|406:38|418:109,1,166
351,258,114277,6,0,P|377:311|481:345,2,166
277,204,115454,1,0,0:0:0:0:
202,256,115689,2,0,L|102:243,1,82.9999999999999
58,176,116160,6,0,L|77:345,2,166
110,100,117337,1,0,0:0:0:0:
189,144,117572,2,0,L|289:131,1,82.9999999999999
326,60,118043,6,0,P|389:79|490:13,2,166
271,133,119220,1,0,0:0:0:0:
333,199,119455,2,0,P|335:248|319:297,1,82.9999999999999
252,334,119926,5,0,0:0:0:0:
256,192,120867,12,0,121809,0:0:0:0:
35,71,122750,6,0,L|233:54,1,166
275,108,123456,1,0,0:0:0:0:
357,68,123692,6,0,P|361:141|265:199,1,166
207,171,124398,1,0,0:0:0:0:
138,231,124633,2,0,B|114:263|119:309|136:340|136:340|213:335,1,166
258,279,125339,1,0,0:0:0:0:
327,336,125574,6,0,P|345:258|294:197,1,166
207,171,126281,1,0,0:0:0:0:
138,231,126516,2,0,P|79:214|44:119,1,166
68,35,127222,1,0,0:0:0:0:
151,72,127457,6,0,B|216:76|250:33|250:33|285:29|332:62,1,166
368,117,128164,1,0,0:0:0:0:
443,66,128399,2,0,P|460:129|385:207,1,166
311,187,129105,1,0,0:0:0:0:
245,250,129340,6,0,B|226:289|235:331|235:331|263:360|326:365,1,166
393,327,130046,1,0,0:0:0:0:
476,364,130282,2,0,P|481:303|401:235,1,166
322,264,130988,1,0,0:0:0:0:
264,193,131223,6,0,P|252:128|306:27,1,166
381,19,131929,1,0,0:0:0:0:
467,48,132165,2,0,P|479:106|469:157,1,82.9999999999999
438,212,132636,2,0,L|328:202,1,82.9999999999999
264,193,133106,6,0,P|285:263|228:339,1,166
192,254,133812,1,0,0:0:0:0:
171,164,134048,2,0,P|91:154|33:210,2,166
256,192,135107,12,0,138755,0:0:0:0:
286,314,139697,6,0,L|451:300,1,166
491,217,140403,1,0,0:0:0:0:
440,141,140638,6,0,P|359:112|275:127,1,166
206,175,141344,1,0,0:0:0:0:
133,230,141580,2,0,P|81:229|32:211,1,82.9999999999999
10,139,142050,2,0,L|21:38,1,82.9999999999999
100,15,142521,1,0,0:0:0:0:
256,192,153819,12,0,156643,0:0:0:0:
79,86,157585,6,0,L|166:79,1,82.9999999999999
334,137,158291,1,0,0:0:0:0:
413,91,158526,2,0,P|423:137|414:184,1,82.9999999999999
266,273,159232,1,0,0:0:0:0:
175,266,159467,6,0,L|78:257,1,82.9999999999999
13,93,160174,1,0,0:0:0:0:
104,86,160409,2,0,L|201:77,1,82.9999999999999
250,144,160880,2,0,P|272:103|269:32,2,82.9999999999999
42,323,162057,6,0,L|139:314,1,82.9999999999999
305,292,162763,1,0,0:0:0:0:
389,327,162998,2,0,P|393:286|384:246,1,82.9999999999999
208,193,163704,6,0,L|125:200,1,82.9999999999999
44,158,164175,2,0,P|34:103|47:57,1,82.9999999999999
121,37,164646,2,0,L|203:44,1,82.9999999999999
273,102,165116,6,0,P|317:58|429:80,1,166
469,139,165822,1,0,0:0:0:0:
403,202,166058,2,0,P|398:263|408:304,1,82.9999999999999
329,339,166529,2,0,L|218:327,1,82.9999999999999
165,370,166999,6,0,B|123:328|59:338|59:338|26:307|28:263,1,166
69,212,167705,1,0,0:0:0:0:
157,186,167941,2,0,L|327:197,1,166
441,57,168882,6,0,L|271:68,1,166
192,28,169588,1,0,0:0:0:0:
117,80,169824,2,0,P|111:129|126:179,1,82.9999999999999
195,209,170294,2,0,L|277:200,1,82.9999999999999
349,256,170765,6,0,P|368:198|342:134,2,124.5
269,300,171707,2,0,L|80:280,1,166
36,220,172413,2,0,L|33:144,1,41.5
256,192,172648,12,0,173590,0:0:0:0:
31,72,174531,6,0,L|122:61,1,82.9999999999999
182,122,175002,2,0,P|232:102|281:103,1,82.9999999999999
344,136,175472,5,0,0:0:0:0:
427,98,175708,2,0,P|438:49|434:14,2,82.9999999999999
488,166,176414,2,0,P|448:205|467:326,1,166
277,362,177355,6,0,L|105:343,1,166
23,367,178062,1,0,0:0:0:0:
3,278,178297,2,0,P|11:230|30:194,1,82.9999999999999
92,136,178768,2,0,L|193:146,1,82.9999999999999
240,206,179238,6,0,P|263:151|213:64,2,166
164,257,180415,1,0,0:0:0:0:
201,340,180651,2,0,P|248:353|289:346,1,82.9999999999999
357,298,181121,6,0,P|376:217|352:118,1,166
287,81,181827,1,0,0:0:0:0:
195,89,182063,2,0,L|93:100,1,82.9999999999999
78,183,182534,2,0,L|160:191,1,82.9999999999999
193,276,183004,6,0,L|13:294,2,166
267,328,184181,1,0,0:0:0:0:
349,288,184416,2,0,P|367:235|368:196,1,82.9999999999999
295,153,184887,6,0,L|115:171,1,166
62,106,185593,1,0,0:0:0:0:
11,182,185829,2,0,P|10:236|96:320,1,166
163,275,186535,1,0,0:0:0:0:
229,337,186770,6,0,L|406:319,1,166
446,244,187476,1,0,0:0:0:0:
372,189,187712,2,0,P|344:143|338:110,1,82.9999999999999
410,59,188182,2,0,P|366:29|304:31,1,82.9999999999999
260,74,188653,6,0,L|86:52,1,166
8,81,189359,1,0,0:0:0:0:
58,157,189595,2,0,P|67:219|62:248,1,82.9999999999999
3,306,190065,2,0,P|49:330|91:329,1,82.9999999999999
147,270,190536,6,0,P|216:261|285:306,1,124.5
323,353,191124,2,0,P|376:353|419:332,1,82.9999999999999
459,270,191595,2,0,L|466:171,1,82.9999999999999
424,166,191948,2,0,L|417:67,1,82.9999999999999
344,28,192419,6,0,P|281:13|167:68,1,166
140,124,193125,1,0,0:0:0:0:
213,178,193360,2,0,P|216:241|203:278,1,82.9999999999999
144,323,193831,2,0,L|48:316,1,82.9999999999999
6,243,194302,6,0,P|2:169|71:78,1,166
135,63,195008,1,0,0:0:0:0:
207,118,195243,2,0,P|252:118|301:98,1,82.9999999999999
361,52,195714,2,0,P|406:52|455:72,1,82.9999999999999
497,136,196185,6,0,L|462:321,1,166
397,359,196891,1,0,0:0:0:0:
325,302,197126,2,0,P|276:276|151:297,1,166
94,338,197832,1,0,0:0:0:0:
31,271,198068,6,0,B|23:243|23:243|38:169,1,82.9999999999999
112,144,198539,2,0,L|111:44,1,82.9999999999999
197,31,199009,2,0,L|286:49,1,82.9999999999999
315,131,199480,2,0,L|404:113,1,82.9999999999999
459,48,199951,6,0,P|413:114|442:201,1,166
506,246,200657,1,0,0:0:0:0:
465,327,200892,2,0,P|402:342|297:312,1,166
251,243,201598,1,0,0:0:0:0:
301,166,201834,6,0,P|300:119|187:44,1,166
129,70,202540,1,0,0:0:0:0:
66,136,202775,2,0,P|66:201|83:242,1,82.9999999999999
132,285,203246,2,0,L|228:277,1,82.9999999999999
250,193,203717,6,0,L|423:207,1,166
484,267,204423,1,0,0:0:0:0:
424,336,204658,2,0,B|394:366|346:354|346:354|308:321|239:323,1,166
181,344,205364,1,0,0:0:0:0:
110,285,205600,6,0,P|95:229|102:178,1,82.9999999999999
142,126,206070,1,0,0:0:0:0:
221,170,206306,2,0,P|266:173|312:161,1,82.9999999999999
362,96,206776,1,0,0:0:0:0:
443,138,207012,2,0,B|452:164|452:164|444:237,1,82.9999999999999
482,303,207483,6,0,B|436:252|371:259|371:259|348:327|255:343,1,249
201,291,208424,2,0,B|161:178|273:179|211:50,1,249
130,93,209365,6,0,B|85:98|42:77|20:47|20:47|-31:106|19:191,1,249
70,227,210307,2,0,P|71:301|59:333,2,82.9999999999999
223,127,211248,6,0,L|331:142,1,82.9999999999999
392,111,211719,2,0,L|377:219,1,82.9999999999999
408,280,212190,2,0,L|300:265,1,82.9999999999999
285,289,212543,2,0,L|177:274,1,82.9999999999999
162,298,212896,5,0,0:0:0:0:
