osu file format v14

[General]
AudioFilename: nameless.mp3
AudioLeadIn: 0
PreviewTime: 65968
Countdown: 0
SampleSet: Normal
StackLeniency: 0.7
Mode: 0
LetterboxInBreaks: 0
WidescreenStoryboard: 1

[Editor]
Bookmarks: 2007,17070,30251,31192,32134,47197,58495,64144,65085,66027,79207,91211,91682,105804,106745,114277,119690,119926,120867,121809,134989,142521,156643,157114,157585,165116,172648,173590,190536,207483,210307,210542,210778,211248,212543,212896
DistanceSpacing: 0.9
BeatDivisor: 2
GridSize: 32
TimelineZoom: 2.5

[Metadata]
Title:Milk Crown on Sonnetica
TitleUnicode:ミルククラウン・オン・ソーネチカ
Artist:nameless
ArtistUnicode:nameless
Creator:Len
Version:Light Hard
Source:
Tags:utaite ユジー yuzy P 窓付き@ vocaloid Hatsune Miku Fast yf_bmp toybot Reol [_halloween_] byfar Evil_twilight
BeatmapID:728416
BeatmapSetID:327557

[Difficulty]
HPDrainRate:5.1
CircleSize:3.7
OverallDifficulty:5.8
ApproachRate:7.7
SliderMultiplier:1.13
SliderTickRate:2

[Events]
//Background and Video events
0,0,"23124.jpg",0,0
//Break Periods
2,91881,104067
2,142721,153024
//Storyboard Layer 0 (Background)
//Storyboard Layer 1 (Fail)
//Storyboard Layer 2 (Pass)
//Storyboard Layer 3 (Foreground)
//Storyboard Sound Samples

[TimingPoints]
2007,235.367958575239,4,1,1,70,1,0
2007,-100,4,1,1,70,0,0
9068,-100,4,1,1,70,0,0
15540,-100,4,1,1,70,0,0
17070,-100,4,1,1,70,0,1
30251,-100,4,1,1,70,0,0
30604,-100,4,1,1,70,0,0
32134,-100,4,1,1,70,0,0
57789,-100,4,1,1,30,0,0
58024,-100,4,1,1,70,0,0
58495,-100,4,1,1,70,0,0
66027,-100,4,1,1,70,0,1
79207,-100,4,1,1,70,0,0
91211,-125,4,1,1,70,0,0
91682,235.367958575239,4,1,1,70,1,0
114277,-100,4,1,1,70,0,0
121809,-100,4,1,1,70,0,1
134989,-100,4,1,1,70,0,0
142521,-100,4,1,1,70,0,0
157114,-100,4,1,1,50,0,0
157585,-100,4,1,1,70,0,0
165116,-100,4,1,1,70,0,0
172648,-100,4,1,1,40,0,0
173590,-100,4,1,1,70,0,1
190536,-100,4,1,1,70,0,0
192419,-100,4,1,1,70,0,1
210778,-100,4,1,1,70,0,0

[Colours]
Combo1 : 255,234,170
Combo2 : 179,255,179
Combo3 : 172,209,255
Combo4 : 252,194,203

[HitObjects]
383,108,2006,6,0,P|321:122|253:93,1,113
242,76,2360,2,0,P|190:66|126:88,1,113
86,160,2830,2,0,L|96:286,1,113
169,324,3301,1,0,0:0:0:0:
169,324,3419,2,0,L|257:313,1,56.5
263,340,3654,2,0,L|351:329,1,56.5
361,349,3889,6,0,B|378:322|378:322|362:231,1,113
352,198,4242,1,0,0:0:0:0:
290,131,4478,2,0,P|242:120|170:143,1,113
126,207,4949,1,0,0:0:0:0:
63,142,5184,1,0,0:0:0:0:
63,142,5302,2,0,L|72:48,2,56.5
14,218,5772,6,0,L|29:353,1,113
64,355,6125,2,0,P|116:321|193:327,1,113
250,348,6596,2,0,P|305:343|351:311,1,113
408,240,7067,2,0,L|402:166,1,56.5
437,153,7302,2,0,L|431:79,2,56.5
256,192,7655,12,0,9068,0:0:0:0:
459,103,9538,6,0,L|337:93,1,113
268,139,10009,2,0,P|206:120|176:83,1,113
138,60,10362,1,0,0:0:0:0:
138,60,10480,2,0,L|124:182,1,113
43,210,10950,2,0,L|55:322,1,113
135,365,11421,6,0,P|206:358|256:316,1,113
290,260,11892,2,0,L|429:271,1,113
442,290,12245,1,0,0:0:0:0:
442,290,12363,2,0,B|451:258|451:258|438:166,1,113
431,134,12716,1,0,0:0:0:0:
397,103,12833,2,0,P|350:86|281:98,1,113
213,145,13304,6,0,L|71:124,1,113
62,152,13657,1,0,0:0:0:0:
62,152,13775,2,0,P|53:223|76:273,1,113
107,281,14128,1,0,0:0:0:0:
151,289,14246,2,0,L|292:278,1,113
336,333,14716,2,0,P|351:274|320:213,1,113
253,183,15187,6,0,L|164:169,1,56.5
156,193,15422,2,0,L|67:179,1,56.5
15,108,15776,1,0,0:0:0:0:
15,108,16011,6,0,L|144:97,1,113
230,50,16482,1,0,0:0:0:0:
230,50,16599,2,0,B|249:89|249:89|235:167,1,113
205,190,16952,1,0,0:0:0:0:
161,203,17070,6,0,L|33:191,1,113
4,284,17541,2,0,P|47:336|104:341,1,113
136,324,17894,1,0,0:0:0:0:
136,324,18012,2,0,L|277:341,1,113
337,289,18482,2,0,P|357:227|342:170,1,113
255,137,18953,6,0,L|114:154,2,113
285,96,19541,1,0,0:0:0:0:
318,57,19659,2,0,L|451:79,1,113
489,157,20130,1,0,0:0:0:0:
420,231,20365,2,0,P|439:283|425:344,1,113
329,364,20836,6,0,L|199:351,1,113
178,318,21189,1,0,0:0:0:0:
178,318,21307,2,0,P|158:254|178:192,1,113
245,145,21777,1,0,0:0:0:0:
167,78,22013,2,0,L|106:81,2,56.5
255,27,22484,1,0,0:0:0:0:
329,95,22719,6,0,P|391:111|451:93,1,113
495,183,23190,2,0,B|506:225|506:225|489:313,1,113
409,351,23660,2,0,L|336:363,2,56.5
393,250,24131,2,0,L|407:186,2,56.5
343,263,24484,1,0,0:0:0:0:
293,275,24602,6,0,L|148:255,1,113
91,308,25073,2,0,P|84:228|129:170,1,113
189,158,25543,1,0,0:0:0:0:
120,82,25779,2,0,L|33:85,2,56.5
210,35,26249,2,0,L|278:48,1,56.5
300,83,26485,6,0,L|422:72,1,113
455,100,26838,1,0,0:0:0:0:
455,100,26956,2,0,P|467:164|453:212,1,113
361,251,27426,1,0,0:0:0:0:
270,203,27662,1,0,0:0:0:0:
181,252,27897,2,0,L|171:316,2,56.5
111,177,28368,6,0,B|105:154|105:154|125:56,1,113
168,43,28721,1,0,0:0:0:0:
168,43,28838,2,0,P|235:42|281:75,1,113
306,161,29309,2,0,L|286:285,1,113
198,321,29780,1,0,0:0:0:0:
108,273,30015,2,0,L|40:283,2,56.5
139,232,30368,5,0,0:0:0:0:
62,164,30604,2,0,P|58:118|101:43,1,113
185,45,31074,2,0,L|261:59,1,56.5
330,161,32134,6,0,L|274:150,2,56.5
405,112,32604,2,0,P|419:175|371:243,1,113
371,252,32957,1,0,0:0:0:0:
371,252,33075,2,0,L|259:230,1,113
184,280,33546,2,0,P|123:278|71:246,1,113
54,214,33899,1,0,0:0:0:0:
54,214,34017,6,0,L|49:83,1,113
119,43,34487,1,0,0:0:0:0:
190,98,34723,2,0,L|259:91,1,56.5
281,63,34958,2,0,L|408:80,1,113
477,46,35429,1,0,0:0:0:0:
507,130,35664,2,0,L|494:195,1,56.5
461,214,35899,6,0,L|479:334,1,113
404,379,36370,1,0,0:0:0:0:
325,333,36606,2,0,L|252:347,2,56.5
366,252,37076,1,0,0:0:0:0:
291,199,37312,2,0,L|298:133,2,56.5
249,216,37665,1,0,0:0:0:0:
207,233,37782,6,0,L|67:217,1,113
30,156,38253,2,0,P|14:99|37:36,1,113
70,31,38606,2,0,L|182:43,1,113
225,29,38959,1,0,0:0:0:0:
291,90,39195,2,0,P|305:144|291:199,1,113
249,216,39548,1,0,0:0:0:0:
207,233,39665,6,0,L|74:218,1,113
52,300,40136,2,0,L|164:312,1,113
241,360,40607,1,0,0:0:0:0:
302,294,40842,2,0,L|290:231,2,56.5
382,336,41313,2,0,L|441:328,1,56.5
478,348,41548,6,0,B|488:321|488:321|470:228,1,113
405,176,42019,2,0,L|426:65,1,113
393,33,42372,2,0,P|333:66|271:54,1,113
252,38,42725,1,0,0:0:0:0:
179,92,42961,2,0,L|60:79,1,113
32,109,43314,1,0,0:0:0:0:
32,109,43431,6,0,P|24:181|47:228,1,113
122,252,43902,1,0,0:0:0:0:
196,201,44137,2,0,L|266:183,2,56.5
217,289,44608,2,0,L|271:303,2,56.5
152,353,45079,1,0,0:0:0:0:
65,325,45314,6,0,P|34:270|46:202,1,113
68,188,45667,1,0,0:0:0:0:
101,156,45785,2,0,P|102:100|73:52,1,113
114,34,46138,2,0,L|255:51,1,113
313,22,46609,1,0,0:0:0:0:
313,22,46726,2,0,P|307:92|269:130,1,113
240,143,47079,1,0,0:0:0:0:
194,141,47197,6,0,L|81:127,1,113
11,184,47668,1,0,0:0:0:0:
52,264,47903,1,0,0:0:0:0:
52,264,48021,2,0,L|164:250,1,113
202,274,48374,2,0,P|265:255|331:283,1,113
363,339,48845,1,0,0:0:0:0:
448,310,49080,6,0,L|463:234,2,56.5
375,255,49551,2,0,L|363:135,1,113
388,104,49904,2,0,P|313:108|275:85,1,113
255,53,50257,1,0,0:0:0:0:
175,96,50492,2,0,B|166:130|166:130|179:215,1,113
235,276,50963,6,0,P|175:297|119:275,1,113
63,220,51434,2,0,L|75:80,1,113
111,84,51787,2,0,B|147:70|147:70|257:101,1,113
260,106,52140,1,0,0:0:0:0:
337,60,52375,2,0,P|345:132|301:190,1,113
244,203,52846,6,0,L|131:170,1,113
62,117,53317,2,0,L|74:49,2,56.5
26,144,53670,2,0,P|20:208|44:257,1,113
81,268,54023,1,0,0:0:0:0:
157,220,54258,2,0,B|191:212|191:212|283:241,1,113
306,316,54729,6,0,P|349:268|351:209,1,113
333,181,55082,2,0,P|341:126|380:86,1,113
465,117,55553,2,0,L|476:238,1,113
484,273,55906,1,0,0:0:0:0:
412,330,56141,2,0,P|357:337|306:316,1,113
237,256,56612,6,0,L|251:168,2,56.5
194,270,56965,1,0,0:0:0:0:
151,285,57083,2,0,L|35:272,1,113
11,236,57436,1,0,0:0:0:0:
11,236,57553,2,0,P|2:169|22:119,1,113
108,95,58024,2,0,L|220:107,1,113
308,69,58495,6,0,P|364:59|441:87,1,113
451,110,58848,1,0,0:0:0:0:
451,110,58966,2,0,L|438:229,1,113
455,322,59436,2,0,P|396:289|341:296,1,113
268,349,59907,2,0,L|180:338,2,56.5
225,256,60378,6,0,P|226:188|259:137,1,113
291,123,60731,1,0,0:0:0:0:
291,123,60848,2,0,L|143:111,1,113
88,64,61319,1,0,0:0:0:0:
20,140,61555,2,0,L|11:201,2,56.5
108,189,62025,2,0,L|120:278,1,56.5
92,290,62261,6,0,B|120:308|120:308|236:289,1,113
278,231,62731,1,0,0:0:0:0:
208,156,62967,2,0,L|215:100,1,56.5
196,52,63202,2,0,L|323:39,1,113
396,91,63673,1,0,0:0:0:0:
358,185,63908,2,0,L|365:240,2,56.5
256,192,64379,12,0,65556,0:0:0:0:
81,109,66027,6,0,L|227:96,1,113
286,140,66497,1,0,0:0:0:0:
367,79,66733,2,0,L|381:16,2,56.5
452,134,67203,2,0,L|446:203,1,56.5
411,227,67439,2,0,L|417:296,1,56.5
449,321,67674,1,0,0:0:0:0:
357,361,67910,6,0,P|297:357|243:323,1,113
208,239,68380,1,0,0:0:0:0:
112,274,68616,2,0,L|99:355,2,56.5
40,201,69086,1,0,0:0:0:0:
40,201,69204,2,0,P|36:133|110:69,1,169.5
202,103,69792,6,0,L|358:88,1,113
355,61,70146,2,0,B|371:97|371:97|360:198,1,113
285,236,70616,1,0,0:0:0:0:
285,236,70734,2,0,L|172:225,1,113
127,248,71087,2,0,B|111:284|111:284|122:385,1,113
213,319,71558,1,0,0:0:0:0:
213,319,71675,6,0,L|325:329,1,113
383,245,72146,1,0,0:0:0:0:
457,314,72382,2,0,L|466:371,2,56.5
502,222,72852,2,0,L|506:165,1,56.5
464,136,73088,2,0,L|468:79,1,56.5
439,38,73323,1,0,0:0:0:0:
356,96,73558,6,0,P|301:85|259:48,1,113
159,26,74029,1,0,0:0:0:0:
100,107,74264,2,0,L|21:94,2,56.5
151,194,74735,2,0,L|145:263,1,56.5
104,280,74971,2,0,L|110:349,1,56.5
145,372,75206,1,0,0:0:0:0:
229,315,75441,6,0,P|291:315|358:349,1,113
376,367,75794,1,0,0:0:0:0:
376,367,75912,2,0,L|495:352,1,113
497,251,76383,2,0,P|492:199|456:143,1,113
359,142,76854,2,0,L|246:156,1,113
198,140,77207,1,0,0:0:0:0:
149,125,77324,6,0,P|137:64|153:15,2,113
192,217,78030,2,0,P|204:278|188:327,1,113
104,268,78501,1,0,0:0:0:0:
22,327,78736,2,0,L|9:399,2,56.5
2,227,79207,5,0,0:0:0:0:
256,192,79325,12,0,81561,0:0:0:0:
66,99,82267,6,0,P|138:76|207:119,1,113
211,117,82620,1,0,0:0:0:0:
211,117,82738,2,0,L|202:239,1,113
268,306,83208,2,0,L|360:294,1,56.5
361,263,83444,2,0,L|417:270,2,56.5
291,188,83915,6,0,L|299:75,1,113
340,45,84268,1,0,0:0:0:0:
385,24,84385,2,0,P|446:29|492:83,1,113
430,149,84856,1,0,0:0:0:0:
484,234,85091,1,0,0:0:0:0:
422,315,85327,6,0,L|296:307,1,113
267,278,85680,1,0,0:0:0:0:
267,278,85797,2,0,P|213:308|141:304,1,113
82,247,86268,1,0,0:0:0:0:
131,158,86504,1,0,0:0:0:0:
91,64,86739,5,0,0:0:0:0:
188,34,86974,2,0,L|261:43,2,56.5
217,131,87445,2,0,P|214:188|171:241,1,113
82,247,87916,1,0,0:0:0:0:
125,338,88151,6,0,B|161:356|161:356|242:340,1,113
281,329,88504,1,0,0:0:0:0:
330,316,88622,2,0,P|341:256|318:197,1,113
234,161,89093,1,0,0:0:0:0:
289,76,89328,1,0,0:0:0:0:
197,31,89563,2,0,L|112:43,1,56.5
100,70,89799,6,0,L|44:62,2,56.5
125,114,90152,2,0,B|136:146|136:146|118:234,1,113
41,288,90623,2,0,L|28:218,1,56.5
209,136,91211,6,0,B|252:121|252:121|293:143|293:143|344:119|405:159,1,180.8
256,192,104862,12,0,106274,0:0:0:0:
460,178,106745,5,0,0:0:0:0:
361,151,106980,1,0,0:0:0:0:
348,49,107216,1,0,0:0:0:0:
253,86,107451,1,0,0:0:0:0:
163,36,107687,2,0,P|151:91|179:159,1,113
257,192,108157,2,0,P|273:245|261:299,1,113
174,353,108628,5,0,0:0:0:0:
134,259,108863,1,0,0:0:0:0:
52,319,109099,1,0,0:0:0:0:
17,223,109334,1,0,0:0:0:0:
77,141,109569,2,0,L|196:153,1,113
268,88,110040,2,0,P|335:72|392:92,1,113
441,161,110511,5,0,0:0:0:0:
389,248,110746,1,0,0:0:0:0:
420,344,110982,2,0,L|301:333,1,113
224,275,111452,1,0,0:0:0:0:
145,340,111688,1,0,0:0:0:0:
51,299,111923,2,0,P|36:243|57:179,1,113
138,141,112394,5,0,0:0:0:0:
231,181,112629,2,0,P|290:181|354:139,2,113
138,141,113335,2,0,P|132:207|160:253,1,113
247,285,113806,1,0,0:0:0:0:
331,228,114041,2,0,L|398:238,1,56.5
422,273,114277,6,0,B|441:239|441:239|431:147,1,113
467,69,114748,1,0,0:0:0:0:
371,33,114983,2,0,L|306:22,2,56.5
301,107,115454,2,0,L|183:117,1,113
106,57,115924,1,0,0:0:0:0:
31,126,116160,6,0,P|21:198|41:240,1,113
127,279,116631,1,0,0:0:0:0:
209,219,116866,2,0,L|288:232,1,56.5
297,267,117101,2,0,L|408:249,2,113
240,352,117807,2,0,L|184:342,1,56.5
148,306,118043,6,0,L|36:323,1,113
88,236,118513,2,0,P|101:183|72:105,1,113
9,60,118984,1,0,0:0:0:0:
104,25,119220,1,0,0:0:0:0:
183,88,119455,2,0,L|255:81,1,56.5
272,43,119690,2,0,L|328:48,2,56.5
256,192,120161,12,0,121338,0:0:0:0:
452,253,121809,6,0,P|386:296|348:298,1,113
275,233,122279,1,0,0:0:0:0:
197,300,122515,2,0,L|189:358,2,56.5
107,251,122985,2,0,L|99:195,1,56.5
138,161,123221,2,0,L|145:105,1,56.5
116,62,123456,1,0,0:0:0:0:
208,18,123692,6,0,P|255:58|317:69,1,113
398,33,124162,1,0,0:0:0:0:
473,101,124398,2,0,L|487:163,2,56.5
386,153,124868,1,0,0:0:0:0:
386,153,124986,2,0,B|330:164|330:164|311:143|292:133|269:118|215:134,1,169.5
147,191,125574,6,0,P|139:258|159:313,1,113
192,331,125928,2,0,L|312:321,1,113
392,270,126398,1,0,0:0:0:0:
392,270,126516,2,0,L|413:138,1,113
435,114,126869,2,0,P|368:120|309:78,1,113
269,16,127340,1,0,0:0:0:0:
269,16,127457,6,0,L|156:25,1,113
104,112,127928,1,0,0:0:0:0:
10,70,128164,2,0,L|21:8,2,56.5
31,169,128634,2,0,L|21:224,1,56.5
54,263,128870,2,0,L|44:318,1,56.5
77,357,129105,1,0,0:0:0:0:
161,300,129340,6,0,P|221:294|285:318,1,113
349,245,129811,1,0,0:0:0:0:
426,310,130046,2,0,L|415:372,2,56.5
486,228,130516,2,0,L|476:172,1,56.5
432,144,130752,2,0,L|441:88,1,56.5
416,44,130987,1,0,0:0:0:0:
329,98,131223,6,0,B|293:109|293:109|208:89,1,113
180,58,131576,1,0,0:0:0:0:
180,58,131694,2,0,L|60:74,1,113
11,157,132165,2,0,P|6:218|35:265,1,113
129,234,132636,2,0,B|165:223|165:223|250:243,1,113
287,254,132989,1,0,0:0:0:0:
335,268,133106,6,0,P|336:326|303:378,2,113
312,168,133812,2,0,L|184:138,1,113
132,68,134283,1,0,0:0:0:0:
90,160,134518,2,0,L|79:241,2,56.5
1,109,134989,1,0,0:0:0:0:
256,192,135107,12,0,138167,0:0:0:0:
417,110,138755,5,0,0:0:0:0:
334,169,138990,2,0,L|252:160,2,56.5
386,256,139461,2,0,L|468:247,2,56.5
294,301,139932,2,0,L|212:292,1,56.5
197,325,140167,2,0,B|165:301|165:301|68:317,1,113
6,259,140638,6,0,P|10:198|42:153,1,113
135,126,141109,1,0,0:0:0:0:
176,218,141344,1,0,0:0:0:0:
263,166,141580,1,0,0:0:0:0:
329,242,141815,1,0,0:0:0:0:
414,187,142050,2,0,L|402:103,1,56.5
367,97,142286,2,0,L|379:13,2,56.5
256,192,153819,12,0,156643,0:0:0:0:
401,153,157114,6,0,P|338:148|343:38,1,169.5
366,33,157585,1,0,0:0:0:0:
462,322,158291,2,0,L|333:302,1,113
50,322,159232,6,0,L|179:302,1,113
256,124,159938,1,0,0:0:0:0:
350,304,160409,2,0,L|462:322,2,113
256,124,161350,5,0,0:0:0:0:
0,291,162057,2,0,L|111:273,1,113
256,124,162763,1,0,0:0:0:0:
400,273,163233,6,0,L|512:291,2,113
314,329,163939,1,0,0:0:0:0:
236,262,164175,2,0,L|226:188,2,56.5
142,302,164646,2,0,L|134:357,2,56.5
69,230,165116,6,0,P|54:165|108:92,1,113
117,103,165469,1,0,0:0:0:0:
166,91,165587,2,0,L|315:108,1,113
372,65,166058,1,0,0:0:0:0:
411,158,166293,1,0,0:0:0:0:
499,107,166529,2,0,P|509:173|478:235,1,113
453,246,166882,1,0,0:0:0:0:
453,246,166999,6,0,L|310:230,1,113
248,277,167470,1,0,0:0:0:0:
181,200,167705,2,0,L|193:125,2,56.5
89,244,168176,1,0,0:0:0:0:
113,342,168411,2,0,L|237:328,1,113
306,267,168882,6,0,P|324:332|311:382,2,113
221,209,169588,1,0,0:0:0:0:
300,144,169824,2,0,L|386:151,2,56.5
211,94,170294,2,0,L|125:101,2,56.5
277,16,170765,6,0,L|389:24,1,113
434,49,171118,1,0,0:0:0:0:
461,91,171236,2,0,P|460:166|430:215,1,113
396,218,171589,1,0,0:0:0:0:
396,218,171707,2,0,P|329:183|281:318,1,226
328,363,172413,2,0,L|411:349,1,56.5
256,192,172648,12,0,173590,0:0:0:0:
313,151,174296,5,0,0:0:0:0:
402,103,174531,2,0,L|419:0,2,56.5
447,194,175002,2,0,L|506:181,2,56.5
408,227,175355,1,0,0:0:0:0:
365,254,175472,6,0,P|288:231|222:260,1,113
179,303,175943,1,0,0:0:0:0:
117,221,176179,2,0,L|132:155,2,56.5
32,276,176649,2,0,L|47:357,1,56.5
81,365,176885,2,0,B|121:373|121:373|220:349,1,113
240,342,177238,1,0,0:0:0:0:
288,329,177355,6,0,P|296:271|276:218,1,113
229,206,177708,2,0,L|105:222,1,113
74,191,178062,1,0,0:0:0:0:
123,102,178297,2,0,L|235:116,1,113
279,91,178650,2,0,L|391:105,1,113
422,145,179003,2,0,L|432:251,1,56.5
471,227,179238,6,0,L|460:381,1,113
419,365,179591,1,0,0:0:0:0:
419,365,179709,2,0,P|364:328|294:335,1,113
224,366,180180,1,0,0:0:0:0:
138,310,180415,2,0,L|151:236,1,56.5
182,216,180651,2,0,L|169:142,1,56.5
203,120,180886,1,0,0:0:0:0:
288,174,181121,6,0,B|314:183|314:183|425:168,1,113
478,108,181592,1,0,0:0:0:0:
403,39,181827,2,0,L|316:52,1,56.5
299,27,182063,2,0,L|212:40,1,56.5
195,16,182298,1,0,0:0:0:0:
119,84,182534,2,0,P|114:146|152:197,1,113
240,201,183004,6,0,L|362:188,1,113
383,148,183357,1,0,0:0:0:0:
383,148,183475,2,0,P|409:212|395:277,1,113
327,321,183946,2,0,L|205:308,1,113
126,359,184416,1,0,0:0:0:0:
83,266,184652,2,0,L|101:184,1,56.5
138,184,184887,6,0,B|141:148|141:148|110:56,1,113
152,39,185240,1,0,0:0:0:0:
152,39,185358,2,0,L|278:57,1,113
360,22,185829,2,0,P|346:118|370:159,1,113
391,159,186182,1,0,0:0:0:0:
430,190,186299,2,0,P|439:245|420:297,1,113
379,328,186652,1,0,0:0:0:0:
379,328,186770,6,0,L|267:312,1,113
176,359,187241,1,0,0:0:0:0:
124,271,187476,2,0,L|58:292,2,56.5
196,199,187947,2,0,L|290:209,1,56.5
286,242,188182,2,0,L|398:232,1,113
432,194,188535,1,0,0:0:0:0:
432,194,188653,6,0,P|444:129|419:74,1,113
382,62,189006,1,0,0:0:0:0:
331,67,189124,2,0,L|218:76,1,113
133,20,189595,1,0,0:0:0:0:
59,89,189830,2,0,L|0:80,2,56.5
116,173,190301,1,0,0:0:0:0:
216,156,190536,6,0,L|275:147,2,56.5
192,201,190889,2,0,B|187:258|187:258|225:318,1,113
313,338,191360,1,0,0:0:0:0:
395,278,191595,2,0,L|376:139,1,113
394,117,191948,2,0,P|323:138|273:117,1,113
247,95,192301,1,0,0:0:0:0:
211,58,192419,6,0,P|140:37|90:58,1,113
39,126,192890,2,0,L|53:258,1,113
102,325,193360,2,0,P|165:303|226:315,1,113
255,331,193714,1,0,0:0:0:0:
297,358,193831,2,0,P|352:362|404:341,1,113
460,256,194302,6,0,L|476:126,1,113
412,62,194773,2,0,P|349:48|280:79,1,113
252,148,195243,1,0,0:0:0:0:
319,224,195479,2,0,L|307:279,2,56.5
414,188,195950,1,0,0:0:0:0:
481,264,196185,6,0,P|473:325|428:367,1,113
337,353,196656,2,0,L|211:363,1,113
138,307,197126,1,0,0:0:0:0:
200,226,197362,2,0,L|189:144,1,56.5
152,137,197597,2,0,L|169:15,1,113
261,63,198068,6,0,L|381:46,1,113
454,107,198539,2,0,P|459:162|419:226,1,113
389,236,198892,1,0,0:0:0:0:
338,243,199009,2,0,L|218:226,1,113
128,257,199480,2,0,L|117:178,1,56.5
73,180,199715,2,0,L|84:101,1,56.5
119,90,199951,6,0,B|152:83|152:83|263:108,1,113
281,187,200421,2,0,P|339:190|398:158,1,113
448,85,200892,1,0,0:0:0:0:
510,165,201128,2,0,L|496:232,1,56.5
449,233,201363,2,0,L|478:360,1,113
377,309,201834,6,0,L|246:333,1,113
186,266,202304,1,0,0:0:0:0:
99,319,202540,1,0,0:0:0:0:
25,249,202775,2,0,P|13:190|41:130,1,113
75,117,203128,1,0,0:0:0:0:
75,117,203246,2,0,L|206:141,1,113
278,93,203717,5,0,0:0:0:0:
356,157,203952,1,0,0:0:0:0:
450,119,204187,1,0,0:0:0:0:
511,200,204423,2,0,L|493:266,1,56.5
508,304,204658,2,0,B|476:313|476:313|379:283,1,113
313,234,205129,2,0,L|163:256,1,113
113,303,205600,5,0,0:0:0:0:
29,245,205835,2,0,L|22:171,1,56.5
67,161,206070,2,0,L|81:23,1,113
164,103,206541,2,0,P|222:101|285:44,1,113
307,103,206894,1,0,0:0:0:0:
307,103,207012,2,0,L|457:125,1,113
488,194,207483,6,0,P|493:272|456:324,1,113
386,344,207953,2,0,L|308:329,1,56.5
302,290,208189,2,0,L|246:300,1,56.5
207,333,208424,6,0,L|81:316,1,113
29,240,208895,2,0,L|21:159,1,56.5
62,150,209130,2,0,L|70:69,1,56.5
108,63,209365,6,0,B|141:54|141:54|229:74,1,113
269,159,209836,2,0,L|341:144,1,56.5
357,108,210072,2,0,L|429:123,1,56.5
451,152,210307,6,0,P|460:207|433:256,2,113
277,46,211248,6,0,L|132:52,1,113
198,146,211719,2,0,L|310:141,1,113
343,237,212190,2,0,L|230:241,1,113
193,277,212543,2,0,L|80:272,1,113
36,246,212896,1,0,0:0:0:0:
