osu file format v14

[General]
AudioFilename: nameless.mp3
AudioLeadIn: 0
PreviewTime: 65968
Countdown: 0
SampleSet: Soft
StackLeniency: 0.7
Mode: 0
LetterboxInBreaks: 0
WidescreenStoryboard: 1

[Editor]
DistanceSpacing: 0.7
BeatDivisor: 2
GridSize: 4
TimelineZoom: 2.300001

[Metadata]
Title:Milk Crown on Sonnetica
TitleUnicode:ミルククラウン・オン・ソーネチカ
Artist:nameless
ArtistUnicode:nameless
Creator:Len
Version:G's ExTra
Source:
Tags:utaite ユジー yuzy P 窓付き@ vocaloid Hatsune Miku Fast yf_bmp toybot Reol [_halloween_] byfar Evil_twilight
BeatmapID:890955
BeatmapSetID:327557

[Difficulty]
HPDrainRate:7
CircleSize:4.1
OverallDifficulty:8
ApproachRate:9.4
SliderMultiplier:1.8
SliderTickRate:1

[Events]
//Background and Video events
0,0,"23124.jpg",0,0
//Break Periods
//Storyboard Layer 0 (Background)
//Storyboard Layer 1 (Fail)
//Storyboard Layer 2 (Pass)
//Storyboard Layer 3 (Foreground)
//Storyboard Sound Samples

[TimingPoints]
2007,235.367958575239,4,2,0,40,1,0
17070,-100,4,2,1,40,0,1
24602,-100,4,2,1,40,0,0
66027,-100,4,2,1,60,0,1
79207,-100,4,2,0,40,0,0
91682,235.367958575239,4,2,0,40,1,0
106745,-100,4,2,0,40,0,1
114277,-100,4,2,0,40,0,0
121809,-100,4,2,1,60,0,1
134989,-100,4,2,0,40,0,0
142521,-200,4,2,0,40,0,0
154760,-142.857142857143,4,2,0,40,0,0
155702,-125,4,2,0,40,0,0
156643,-111.111111111111,4,2,0,40,0,0
157585,-100,4,2,0,40,0,0
160880,-200,4,2,0,40,0,0
161292,-200,4,2,0,5,0,0
161350,-100,4,2,0,40,0,0
173590,-100,4,2,1,60,0,1
190536,-100,4,2,1,60,0,0
192419,-100,4,2,1,60,0,1
198068,-100,4,2,1,60,0,0
199951,-100,4,2,1,60,0,1
207483,-100,4,2,1,60,0,0
212896,-100,4,2,1,60,0,1
212955,-100,4,2,1,60,0,0

[Colours]
Combo1 : 255,234,170
Combo2 : 179,255,179
Combo3 : 172,209,255
Combo4 : 252,194,203

[HitObjects]
160,32,2006,6,0,B|103:46|71:129|100:190,1,180,4|0,0:0|0:0,0:0:0:0:
176,224,2360,1,2,0:0:0:0:
112,288,2477,1,0,0:0:0:0:
160,364,2595,2,0,B|136:310|49:293|-6:332,2,180,2|2|2,0:0|0:0|0:0,0:0:0:0:
160,364,3301,1,2,0:0:0:0:
196,280,3419,6,0,P|170:245|173:195,1,90,2|2,0:0|0:0,0:0:0:0:
232,132,3654,2,0,P|258:167|255:217,1,90,0|2,0:0|0:0,0:0:0:0:
284,296,3889,5,2,0:0:0:0:
284,296,4007,1,0,0:0:0:0:
372,280,4125,1,0,0:0:0:0:
372,280,4242,1,2,0:0:0:0:
444,332,4360,1,0,0:0:0:0:
448,240,4478,2,0,B|394:214|376:124|420:71,2,180,2|2|2,0:0|0:0|0:0,0:0:0:0:
448,240,5184,1,2,0:0:0:0:
312,192,5302,2,0,B|270:156|180:174|154:228,1,180,2|2,0:0|0:0,0:0:0:0:
72,364,5772,5,2,0:0:0:0:
148,316,5889,1,0,0:0:0:0:
155,226,6008,2,0,P|143:182|107:153,1,90,0|2,0:0|0:0,0:0:0:0:
168,84,6243,1,0,0:0:0:0:
220,160,6361,2,0,B|268:192|355:167|380:104,2,180,2|2|2,0:0|0:0|0:0,0:0:0:0:
220,160,7067,1,2,0:0:0:0:
168,84,7185,6,0,P|137:45|96:31,1,90,2|2,0:0|0:0,0:0:0:0:
16,60,7420,1,0,0:0:0:0:
0,148,7538,1,2,0:0:0:0:
72,200,7655,5,2,0:0:0:0:
72,200,7773,1,0,0:0:0:0:
56,288,7891,1,0,0:0:0:0:
56,288,8008,1,2,0:0:0:0:
124,344,8126,1,0,0:0:0:0:
176,272,8244,2,0,B|228:243|314:266|340:323,2,180,2|2|2,0:0|0:0|0:0,0:0:0:0:
176,272,8950,1,2,0:0:0:0:
56,204,9068,2,0,B|7:182|-15:96|13:44,1,180,2|2,0:0|0:0,0:0:0:0:
12,45,9421,1,0,0:0:0:0:
120,4,9538,5,4,1:2:0:0:
200,48,9656,1,0,0:0:0:0:
212,136,9774,1,0,0:0:0:0:
148,200,9891,1,0,0:0:0:0:
56,204,10009,5,4,3:0:0:0:
28,288,10127,1,0,0:0:0:0:
76,364,10244,1,0,0:0:0:0:
164,380,10362,6,0,B|210:322|289:339,1,135,2|0,0:0|0:0,0:0:0:0:
324,360,10597,2,0,B|316:304|373:233|431:236,1,180,2|2,0:0|0:0,0:0:0:0:
476,160,10950,1,4,3:0:0:0:
384,156,11068,2,0,P|359:117|364:68,2,90,2|0|2,0:0|0:0|0:0,0:0:0:0:
276,112,11421,5,4,3:0:0:0:
300,200,11539,1,0,0:0:0:0:
272,284,11657,1,0,0:0:0:0:
204,340,11774,1,0,0:0:0:0:
140,280,11892,5,4,3:0:0:0:
204,216,12010,1,0,0:0:0:0:
168,132,12127,1,0,0:0:0:0:
108,200,12245,6,0,B|53:165|40:86|85:28,2,180,2|2|2,0:0|0:0|0:0,0:0:0:0:
256,108,12833,5,4,3:0:0:0:
20,176,13069,1,2,0:0:0:0:
256,108,13304,5,4,3:0:0:0:
324,48,13422,1,0,0:0:0:0:
412,60,13540,1,0,0:0:0:0:
460,136,13657,1,0,0:0:0:0:
396,200,13775,5,4,3:0:0:0:
368,284,13893,1,0,0:0:0:0:
428,348,14010,1,0,0:0:0:0:
344,316,14128,6,0,B|290:294|214:318|183:376,1,180,0|2,0:0|0:0,0:0:0:0:
104,336,14481,1,0,0:0:0:0:
152,260,14599,2,0,P|125:221|76:208,1,90,2|4,0:0|3:0,0:0:0:0:
8,164,14834,1,2,0:0:0:0:
84,116,14952,1,0,0:0:0:0:
124,36,15069,1,2,0:0:0:0:
176,108,15187,5,4,3:0:0:0:
264,124,15305,1,0,0:0:0:0:
348,92,15422,1,4,3:0:0:0:
384,8,15540,5,0,0:0:0:0:
348,92,15776,1,4,3:0:0:0:
432,160,16011,1,4,3:0:0:0:
320,216,16246,1,4,3:0:0:0:
432,308,16482,1,4,3:0:0:0:
280,364,16599,2,0,B|221:388|143:359|124:296,1,180,0|0,1:0|1:0,0:0:0:0:
127,305,16952,1,0,1:0:0:0:
152,192,17070,6,0,B|156:128|101:66|34:68,1,180,4|8,0:0|0:0,0:0:0:0:
152,20,17423,1,0,0:0:0:0:
240,96,17541,2,0,P|286:89|319:51,1,90
404,136,17776,1,8,0:0:0:0:
508,84,17894,1,0,0:0:0:0:
404,136,18012,6,0,B|371:187|402:275|462:288,1,180,0|8,0:0|0:0,0:0:0:0:
356,348,18365,1,0,0:0:0:0:
240,264,18482,2,0,B|189:231|101:262|88:322,1,180,0|8,0:0|0:0,0:0:0:0:
8,232,18835,1,0,0:0:0:0:
94,48,18953,6,0,P|115:87|112:132,1,90,2|0,0:0|0:0,0:0:0:0:
219,88,19188,2,0,P|225:44|255:11,1,90,8|0,0:0|0:0,0:0:0:0:
356,140,19424,2,0,P|324:171|280:179,1,90,2|0,0:0|0:0,0:0:0:0:
352,272,19659,2,0,P|396:266|436:286,1,90,8|0,0:0|0:0,0:0:0:0:
440,168,19894,5,0,0:0:0:0:
476,56,20012,1,0,0:0:0:0:
368,104,20130,1,8,0:0:0:0:
368,104,20248,1,8,0:0:0:0:
260,60,20365,2,0,P|225:87|171:85,1,90
80,28,20601,2,0,P|126:74|122:152,1,135,8|0,0:0|0:0,0:0:0:0:
92,188,20836,5,4,0:0:0:0:
28,288,20954,1,2,0:0:0:0:
108,372,21071,1,8,0:0:0:0:
216,324,21189,1,2,0:0:0:0:
208,208,21307,1,2,0:0:0:0:
404,12,21542,1,8,0:0:0:0:
404,12,21777,5,2,0:0:0:0:
486,96,21895,1,2,0:0:0:0:
424,194,22012,1,8,0:0:0:0:
308,170,22130,1,2,0:0:0:0:
293,55,22248,1,2,0:0:0:0:
92,188,22484,1,8,0:0:0:0:
92,188,22719,6,0,B|59:235|83:325|148:340,1,180,0|8,0:0|0:0,0:0:0:0:
260,348,23072,1,0,0:0:0:0:
332,256,23190,2,0,P|329:208|300:171,1,90
373,22,23425,2,0,P|374:67|400:104,1,90,8|0,0:0|0:0,0:0:0:0:
508,152,23660,5,0,0:0:0:0:
484,36,23778,1,8,0:0:0:0:
484,36,23896,1,8,0:0:0:0:
484,36,24013,1,8,0:0:0:0:
484,36,24131,1,8,0:0:0:0:
268,100,24249,2,0,P|224:91|192:60,1,90,8|0,0:0|0:0,0:0:0:0:
76,64,24484,1,8,0:0:0:0:
132,168,24602,6,0,B|163:221|131:313|55:319,1,180,4|8,0:0|0:0,0:0:0:0:
176,376,24955,1,0,0:0:0:0:
268,304,25073,2,0,L|460:344,1,180,0|8,0:0|0:0,0:0:0:0:
500,236,25426,1,0,0:0:0:0:
400,176,25543,6,0,B|369:123|401:31|477:25,2,180,2|8|2,0:0|0:0|0:0,0:0:0:0:
304,244,26132,1,0,0:0:0:0:
256,136,26249,2,0,P|219:111|174:109,1,90,8|0,0:0|0:0,0:0:0:0:
68,164,26485,6,0,B|28:192|5:278|58:333,1,180,2|8,0:0|0:0,0:0:0:0:
156,380,26838,1,0,0:0:0:0:
268,348,26956,2,0,B|308:320|331:234|278:179,1,180,2|8,0:0|0:0,0:0:0:0:
180,132,27309,1,0,0:0:0:0:
248,36,27426,6,0,B|298:73|384:54|411:-2,2,180,2|8|2,0:0|0:0|0:0,0:0:0:0:
136,76,28015,1,0,0:0:0:0:
100,188,28132,2,0,P|55:195|20:228,1,90,8|0,0:0|0:0,0:0:0:0:
32,340,28368,5,2,0:0:0:0:
148,356,28485,1,2,0:0:0:0:
256,308,28603,1,8,0:0:0:0:
308,200,28721,1,2,0:0:0:0:
200,160,28838,5,2,0:0:0:0:
252,52,28956,1,2,0:0:0:0:
360,4,29074,1,8,0:0:0:0:
476,20,29191,1,2,0:0:0:0:
404,112,29309,5,2,0:0:0:0:
312,188,29427,1,0,0:0:0:0:
360,296,29545,1,8,0:0:0:0:
476,284,29663,1,2,0:0:0:0:
508,172,29780,1,2,0:0:0:0:
404,112,29898,5,8,0:0:0:0:
108,136,30015,1,8,0:0:0:0:
280,384,30133,1,8,0:0:0:0:
276,232,30251,5,4,3:0:0:0:
276,232,30368,2,0,L|256:48,3,180,2|2|2|4,3:0|3:0|3:0|3:0,0:0:0:0:
148,8,31192,1,8,0:0:0:0:
148,8,32134,5,4,0:0:0:0:
96,80,32251,1,2,0:0:0:0:
136,160,32369,2,0,P|180:163|228:124,1,90,0|2,1:0|0:0,0:0:0:0:
308,64,32604,1,0,0:0:0:0:
392,36,32722,1,2,0:0:0:0:
460,96,32840,2,0,P|463:140|424:188,1,90,0|0,1:0|0:0,0:0:0:0:
348,172,33075,5,0,0:0:0:0:
240,220,33193,2,0,B|213:268|236:357|302:372,1,180,2|0,0:0|0:0,0:0:0:0:
212,336,33546,2,0,P|173:311|116:316,1,90,2|0,0:0|0:0,0:0:0:0:
44,336,33781,1,0,1:0:0:0:
44,336,33899,1,0,1:0:0:0:
0,256,34017,6,0,P|4:204|30:174,1,90,2|2,0:0|0:0,0:0:0:0:
167,131,34252,2,0,P|166:176|140:212,1,90,0|2,1:0|0:0,0:0:0:0:
68,48,34487,1,0,0:0:0:0:
148,4,34605,1,2,0:0:0:0:
236,24,34723,1,0,1:0:0:0:
296,88,34840,2,0,B|322:141|419:153|466:117,1,180,2|0,0:0|0:0,0:0:0:0:
508,48,35193,1,0,1:0:0:0:
508,48,35546,5,0,0:0:0:0:
480,164,35664,1,0,1:0:0:0:
456,280,35782,1,0,1:0:0:0:
352,224,35899,6,0,B|300:196|221:216|192:280,1,180,0|0,0:0|1:0,0:0:0:0:
148,352,36253,1,2,0:0:0:0:
72,304,36370,2,0,P|98:267|96:212,1,90,0|2,0:0|0:0,0:0:0:0:
12,39,36606,2,0,P|14:83|40:120,1,90,0|0,1:0|0:0,0:0:0:0:
156,120,36841,5,0,0:0:0:0:
239,83,36959,1,2,0:0:0:0:
300,151,37076,1,0,1:0:0:0:
255,228,37194,1,0,0:0:0:0:
165,212,37312,1,2,0:0:0:0:
132,294,37429,1,0,0:0:0:0:
193,362,37547,1,0,1:0:0:0:
193,362,37665,1,0,1:0:0:0:
274,320,37782,5,2,0:0:0:0:
388,352,37900,2,0,B|444:324|472:248|445:188,1,180,2|2,0:0|0:0,0:0:0:0:
336,168,38253,2,0,B|312:117|340:41|396:13,1,180,2|2,0:0|0:0,0:0:0:0:
304,84,38606,2,0,B|253:107|177:79|149:23,1,180,2|2,0:0|0:0,0:0:0:0:
32,40,38959,5,0,1:0:0:0:
116,124,39077,1,0,0:0:0:0:
112,240,39195,1,0,0:0:0:0:
12,180,39312,1,0,1:0:0:0:
12,180,39430,1,0,1:0:0:0:
8,296,39548,1,0,1:0:0:0:
72,360,39665,5,4,0:0:0:0:
156,316,39783,1,2,0:0:0:0:
244,296,39901,2,0,P|294:297|336:330,1,90,0|2,1:0|0:0,0:0:0:0:
404,364,40136,2,0,B|342:352|313:265|352:209,1,180,0|0,0:0|1:0,0:0:0:0:
420,164,40489,1,0,0:0:0:0:
510,29,40607,6,0,P|513:73|492:112,1,90,0|2,0:0|0:0,0:0:0:0:
420,164,40842,1,0,1:0:0:0:
348,72,40960,2,0,L|156:40,1,180,2|0,0:0|0:0,0:0:0:0:
88,8,41313,1,0,1:0:0:0:
88,8,41431,1,0,1:0:0:0:
84,96,41548,6,0,P|45:70|-8:72,2,90,0|2|0,0:0|0:0|1:0,0:0:0:0:
112,180,41901,1,2,0:0:0:0:
172,248,42019,2,0,P|216:245|252:220,1,90,0|2,0:0|0:0,0:0:0:0:
316,156,42254,1,0,1:0:0:0:
404,168,42372,2,0,B|461:186|485:270|446:326,1,180,2|0,0:0|0:0,0:0:0:0:
360,304,42725,1,0,1:0:0:0:
360,304,43078,6,0,L|176:336,1,180
96,312,43431,6,0,B|39:294|15:210|54:154,1,180,0|0,0:0|1:0,0:0:0:0:
120,104,43784,1,2,0:0:0:0:
208,92,43902,2,0,P|229:58|225:9,2,90,0|2|0,0:0|0:0|1:0,0:0:0:0:
128,132,44255,1,0,0:0:0:0:
136,220,44373,5,0,0:0:0:0:
224,196,44490,1,2,0:0:0:0:
304,236,44608,2,0,P|281:274|286:318,1,90,0|2,1:0|0:0,0:0:0:0:
421,375,44843,2,0,B|471:349|487:258|450:217,1,180,2|0,0:0|1:0,0:0:0:0:
449,216,45197,1,0,1:0:0:0:
504,144,45314,6,0,B|491:90|401:62|349:100,1,180,2|0,0:0|1:0,0:0:0:0:
288,160,45667,1,0,0:0:0:0:
212,208,45785,2,0,B|163:243|73:215|60:161,1,180,2|0,0:0|1:0,0:0:0:0:
48,72,46138,5,2,3:0:0:0:
416,176,46373,1,2,3:0:0:0:
140,356,46609,1,2,3:0:0:0:
208,300,46726,2,0,B|248:266|233:166|180:144,1,180,0|0,0:0|1:0,0:0:0:0:
180,144,47079,1,0,1:0:0:0:
300,128,47197,6,0,P|277:91|284:43,1,90,4|2,0:0|0:0,0:0:0:0:
368,76,47433,1,0,1:0:0:0:
440,20,47550,2,0,P|463:57|456:105,1,90,2|0,0:0|0:0,0:0:0:0:
388,160,47786,1,0,1:0:0:0:
452,224,47903,1,2,0:0:0:0:
420,336,48021,2,0,B|374:378|281:350|272:285,1,180,2|0,0:0|0:0,0:0:0:0:
304,208,48374,5,0,0:0:0:0:
140,136,48609,1,2,0:0:0:0:
368,76,48845,1,2,0:0:0:0:
92,68,49080,6,0,P|58:42|4:44,1,90,2|2,0:0|0:0,0:0:0:0:
32,128,49315,1,0,1:0:0:0:
88,200,49433,2,0,P|132:199|167:172,1,90,2|0,0:0|0:0,0:0:0:0:
200,88,49669,1,0,1:0:0:0:
288,64,49786,1,2,0:0:0:0:
396,112,49904,2,0,B|436:152|423:241|361:270,1,180,2|0,0:0|0:0,0:0:0:0:
288,220,50257,5,0,0:0:0:0:
148,332,50492,1,2,0:0:0:0:
200,88,50728,1,2,0:0:0:0:
308,372,50963,6,0,P|357:377|398:347,1,90,2|2,0:0|0:0,0:0:0:0:
460,300,51198,1,0,1:0:0:0:
424,216,51316,2,0,L|440:124,1,90,2|0,0:0|0:0,0:0:0:0:
392,48,51551,1,0,1:0:0:0:
476,16,51669,1,2,0:0:0:0:
336,116,51787,2,0,B|288:144|198:117|187:43,1,180,2|0,0:0|0:0,0:0:0:0:
108,12,52140,5,0,0:0:0:0:
228,144,52375,1,0,0:0:0:0:
60,204,52611,1,0,1:0:0:0:
60,204,52728,1,0,1:0:0:0:
28,288,52846,5,0,0:0:0:0:
124,356,52964,1,0,0:0:0:0:
232,308,53081,1,0,1:0:0:0:
232,308,53199,1,0,1:0:0:0:
236,192,53317,1,0,0:0:0:0:
268,80,53434,1,0,0:0:0:0:
384,60,53552,1,0,1:0:0:0:
472,136,53670,5,2,3:0:0:0:
472,136,53905,1,2,3:0:0:0:
364,180,54023,5,0,1:0:0:0:
364,180,54141,1,0,1:0:0:0:
252,148,54258,1,0,1:0:0:0:
252,148,54376,1,0,1:0:0:0:
140,116,54494,1,0,1:0:0:0:
140,116,54611,1,0,1:0:0:0:
28,80,54729,6,0,B|-4:128|11:218|68:243,1,180,4|0,0:0|1:0,0:0:0:0:
108,316,55082,2,0,P|143:283|200:279,1,90,2|0,0:0|0:0,0:0:0:0:
328,352,55317,2,0,P|284:358|244:340,1,90,2|0,1:2|0:0,0:0:0:0:
232,184,55553,2,0,B|279:146|373:169|391:228,1,180,0|0,1:0|0:0,0:0:0:0:
452,280,55906,1,0,1:0:0:0:
472,192,56023,1,0,0:0:0:0:
492,104,56141,5,0,0:0:0:0:
492,104,56376,1,0,1:0:0:0:
492,104,56494,1,0,1:0:0:0:
404,28,56612,6,0,B|361:-4|267:13|242:76,1,180,4|0,0:0|1:0,0:0:0:0:
228,156,56965,1,0,0:0:0:0:
160,96,57083,2,0,P|123:73|62:77,2,90,2|0|2,0:0|1:0|0:0,0:0:0:0:
228,156,57436,1,0,1:0:0:0:
256,240,57553,2,0,P|293:263|354:259,2,90,2|0|2,0:0|1:0|1:2,0:0:0:0:
228,156,57906,1,0,1:0:0:0:
160,96,58024,5,0,1:0:0:0:
129,105,58083,1,0,0:0:0:0:
107,128,58142,1,0,0:0:0:0:
90,155,58201,1,0,0:0:0:0:
83,185,58259,1,0,0:0:0:0:
80,216,58318,1,0,0:0:0:0:
86,246,58377,1,0,0:0:0:0:
98,274,58436,1,0,0:0:0:0:
119,295,58495,6,0,P|75:299|40:326,1,90,4|0,0:0|1:0,0:0:0:0:
192,348,58730,2,0,B|244:365|328:333|348:278,1,180
316,196,59083,1,0,0:0:0:0:
388,140,59201,2,0,B|389:85|448:17|507:17,2,180,0|0|0,1:0|0:0|1:0,0:0:0:0:
316,196,59789,1,0,0:0:0:0:
280,112,59907,2,0,P|242:84|186:88,1,90
120,120,60142,1,0,1:0:0:0:
128,208,60260,1,0,0:0:0:0:
76,284,60378,6,0,P|114:312|170:308,1,90
220,252,60613,1,0,1:0:0:0:
212,164,60731,1,0,0:0:0:0:
268,100,60848,2,0,B|313:61|409:77|436:133,1,180,0|0,0:0|1:0,0:0:0:0:
472,204,61202,1,0,0:0:0:0:
384,212,61319,6,0,B|352:251|364:309|405:284|411:352|373:394,2,180,0|0|0,0:0|1:0|0:0,0:0:0:0:
460,164,61908,1,0,0:0:0:0:
468,76,62025,2,0,P|432:49|388:45,1,90,0|0,1:0|0:0,0:0:0:0:
304,84,62261,6,0,P|263:65|239:28,1,90,0|0,1:0|0:0,0:0:0:0:
32,60,62496,2,0,L|117:92,1,90,0|0,1:0|0:0,0:0:0:0:
254,219,62731,2,0,P|211:207|168:220,1,90,0|0,1:0|0:0,0:0:0:0:
324,316,62967,2,0,P|368:312|403:285,1,90,0|0,1:0|0:0,0:0:0:0:
400,168,63202,5,0,1:0:0:0:
432,56,63320,1,0,0:0:0:0:
284,148,63438,5,0,1:0:0:0:
255,35,63556,1,0,0:0:0:0:
188,216,63673,5,0,1:0:0:0:
106,132,63791,1,0,0:0:0:0:
176,332,63908,5,0,1:0:0:0:
62,300,64026,1,0,0:0:0:0:
280,280,64144,5,0,1:0:0:0:
280,280,65085,6,0,B|306:225|390:202|451:241,1,180,4|0,0:0|1:0,0:0:0:0:
500,332,65438,1,0,1:0:0:0:
460,220,65556,1,0,1:0:0:0:
504,112,65674,1,0,1:0:0:0:
428,24,65791,1,0,1:0:0:0:
324,76,65909,1,0,1:0:0:0:
344,192,66027,6,0,B|314:146|235:128|168:159,1,180,4|8,0:0|0:0,0:0:0:0:
116,252,66380,1,0,0:0:0:0:
220,304,66497,2,0,P|222:348|196:383,2,90,0|0|8,0:0|0:0|0:0,0:0:0:0:
116,252,66850,1,0,0:0:0:0:
44,160,66968,6,0,B|8:110|36:13|101:1,1,180,0|8,0:0|0:0,0:0:0:0:
204,8,67321,1,0,0:0:0:0:
312,52,67439,2,0,B|348:102|320:199|255:211,1,180,0|8,0:0|0:0,0:0:0:0:
168,264,67792,1,0,0:0:0:0:
180,148,67910,6,0,P|146:119|102:110,1,90
276,324,68145,2,0,P|317:309|347:275,1,90,8|0,0:0|0:0,0:0:0:0:
64,296,68380,2,0,P|55:339|70:381,1,90
180,148,68616,2,0,P|146:119|102:110,1,90,8|0,0:0|0:0,0:0:0:0:
280,216,68851,6,0,B|330:244|417:218|446:157,1,180,0|8,0:0|0:0,0:0:0:0:
439,169,69204,1,0,0:0:0:0:
408,56,69322,2,0,B|358:28|271:54|242:115,1,180,0|8,0:0|0:0,0:0:0:0:
172,192,69675,1,0,0:0:0:0:
80,124,69792,6,0,P|101:84|89:35,1,90,2|0,0:1|0:0,0:0:0:0:
208,16,70028,1,8,0:0:0:0:
8,220,70146,2,0,B|-26:267|12:360|78:365,1,180,2|2,0:1|0:1,0:0:0:0:
188,368,70499,1,8,0:0:0:0:
69,363,70616,1,2,0:1:0:0:
240,264,70734,6,0,P|280:240|333:243,1,90,2|0,0:1|0:0,0:0:0:0:
416,312,70969,1,8,0:0:0:0:
428,196,71087,2,0,B|362:184|333:91|380:42,1,180,2|2,0:1|0:1,0:0:0:0:
264,12,71440,1,8,0:0:0:0:
371,52,71558,1,2,0:1:0:0:
212,120,71675,6,0,P|164:115|131:83,1,90,2|0,0:1|0:0,0:0:0:0:
32,148,71911,1,8,0:0:0:0:
160,212,72028,2,0,B|192:266|150:361|87:361,1,180,2|2,0:1|0:1,0:0:0:0:
204,300,72382,2,0,P|241:272|295:277,1,90,8|2,0:0|0:1,0:0:0:0:
384,332,72617,5,8,0:0:0:0:
344,220,72735,1,8,0:0:0:0:
456,248,72852,5,8,0:0:0:0:
496,136,72970,1,8,0:0:0:0:
248,152,73088,5,8,0:0:0:0:
208,40,73205,2,0,B|158:6|70:28|51:92,1,180,8|8,0:0|0:0,0:0:0:0:
96,192,73558,6,0,B|158:208|185:295|149:347,1,180,4|8,0:0|0:0,0:0:0:0:
264,380,73911,1,0,0:0:0:0:
312,272,74029,2,0,B|330:209|423:184|474:221,1,180,0|8,0:0|0:0,0:0:0:0:
500,104,74382,1,0,0:0:0:0:
384,84,74500,6,0,P|364:48|374:-6,2,90,0|0|8,0:0|0:0|0:0,0:0:0:0:
296,164,74853,1,0,0:0:0:0:
240,60,74971,2,0,B|190:30|107:54|94:118,1,180,0|8,0:0|0:0,0:0:0:0:
104,236,75324,1,0,0:0:0:0:
196,164,75441,6,0,B|253:173|283:262|252:312,1,180,0|8,0:0|0:0,0:0:0:0:
156,376,75794,1,0,0:0:0:0:
88,280,75912,2,0,P|39:281|0:316,1,90
356,364,76147,2,0,B|414:381|490:348|509:275,2,180,8|0|8,0:0|0:0|0:0,0:0:0:0:
356,364,76736,1,0,0:0:0:0:
264,292,76854,2,0,P|235:255|181:244,1,90
132,144,77089,1,8,0:0:0:0:
248,140,77207,1,0,0:0:0:0:
330,222,77324,6,0,B|390:245|469:206|481:145,1,180,4|8,0:0|0:0,0:0:0:0:
464,40,77677,1,0,0:0:0:0:
372,116,77795,2,0,P|349:77|352:25,2,90,0|0|8,0:0|0:0|0:0,0:0:0:0:
264,160,78148,1,0,0:0:0:0:
208,56,78266,6,0,P|169:33|117:36,1,90
60,132,78501,2,0,P|98:154|142:154,1,90,8|0,0:0|0:0,0:0:0:0:
264,160,78736,1,0,0:0:0:0:
324,260,78854,1,0,0:0:0:0:
256,356,78972,1,8,0:0:0:0:
144,316,79090,1,0,0:0:0:0:
152,200,79207,6,0,B|159:143|109:67|44:70,1,180,4|2,0:0|0:1,0:0:0:0:
144,84,79560,1,2,1:0:0:0:
224,124,79678,2,0,P|270:115|299:82,1,90,0|2,1:0|1:0,0:0:0:0:
462,56,79913,2,0,P|418:63|388:96,1,90,0|2,0:0|0:1,0:0:0:0:
332,168,80149,5,0,0:0:0:0:
420,176,80266,1,2,1:0:0:0:
432,264,80384,1,0,0:0:0:0:
356,308,80502,1,2,1:0:0:0:
288,248,80619,2,0,B|237:227|160:251|130:309,1,180,2|4,1:0|0:0,0:0:0:0:
48,272,80972,1,0,0:1:0:0:
92,192,81090,5,2,1:0:0:0:
32,124,81208,1,0,1:0:0:0:
120,100,81326,2,0,P|111:57|74:27,1,90,0|0,1:0|1:0,0:0:0:0:
92,192,81561,2,0,B|115:130|198:111|256:144,2,180,2|2|2,0:1|0:1|0:1,0:0:0:0:
92,192,82149,1,0,0:0:0:0:
52,352,82267,6,0,B|98:379|181:360|204:298,1,180,4|2,0:0|1:0,0:0:0:0:
188,208,82620,1,2,1:0:0:0:
244,138,82738,2,0,P|254:90|298:58,1,90,0|2,1:0|1:0,0:0:0:0:
420,132,82973,2,0,P|378:147|336:136,1,90,0|2,0:0|0:0,0:0:0:0:
376,56,83208,5,0,0:0:0:0:
468,52,83326,1,2,1:0:0:0:
512,132,83444,1,0,0:0:0:0:
464,208,83561,1,2,1:0:0:0:
372,208,83679,2,0,B|340:254|371:353|435:360,1,180,2|4,1:0|0:0,0:0:0:0:
340,332,84032,1,0,0:0:0:0:
252,324,84150,5,0,1:0:0:0:
172,364,84268,1,0,1:0:0:0:
180,276,84385,2,0,P|170:227|128:198,1,90,0|0,0:0|1:0,0:0:0:0:
60,160,84621,2,0,B|35:107|74:21|130:14,2,180,2|2|2,0:1|0:1|0:1,0:0:0:0:
60,160,85209,1,0,0:0:0:0:
132,216,85327,6,0,P|152:173|144:127,1,90,4|0,0:0|0:0,0:0:0:0:
220,80,85562,1,2,1:0:0:0:
252,164,85680,1,2,1:0:0:0:
332,124,85797,2,0,P|326:79|346:40,1,90,0|0,1:0|0:0,0:0:0:0:
458,191,86033,2,0,B|517:156|523:71|492:32,2,180,2|2|2,0:1|1:0|1:0,0:0:0:0:
368,208,86621,1,0,1:0:0:0:
308,276,86739,6,0,P|310:319|345:357,1,90,4|0,0:0|0:0,0:0:0:0:
252,376,86974,1,2,0:1:0:0:
172,332,87092,1,2,1:0:0:0:
84,352,87210,2,0,P|81:307|52:274,1,90,0|0,0:0|1:0,0:0:0:0:
108,204,87445,2,0,B|44:190|24:93|69:46,2,180,2|2|2,0:1|0:1|0:1,0:0:0:0:
108,204,88033,1,0,0:0:0:0:
160,132,88151,5,2,0:1:0:0:
252,128,88269,1,2,0:1:0:0:
304,200,88387,1,2,1:0:0:0:
296,288,88504,1,2,1:0:0:0:
368,344,88622,1,0,1:0:0:0:
460,344,88740,1,2,1:0:0:0:
504,268,88857,5,2,0:1:0:0:
456,192,88975,1,2,0:1:0:0:
476,104,89093,1,2,0:1:0:0:
424,28,89210,1,2,1:0:0:0:
336,36,89328,1,2,1:2:0:0:
288,112,89446,1,0,1:0:0:0:
200,116,89563,5,2,1:0:0:0:
124,64,89681,1,2,0:1:0:0:
44,108,89799,6,0,P|38:153|64:196,1,90,2|2,0:0|0:0,0:0:0:0:
140,228,90034,1,0,1:0:0:0:
228,212,90152,2,0,B|267:251|257:341|205:379,2,180,2|2|2,0:0|0:0|0:0,0:0:0:0:
248,124,90740,5,0,1:0:0:0:
340,120,90976,1,2,0:0:0:0:
376,204,91211,1,2,0:0:0:0:
308,260,91446,1,2,0:0:0:0:
228,212,91682,6,0,B|179:179|93:208|75:273,1,180,4|0,0:0|1:0,0:0:0:0:
40,184,92035,1,2,0:0:0:0:
112,128,92152,2,0,B|126:70|69:0|2:5,1,180,0|0,0:0|1:0,0:0:0:0:
100,8,92505,1,0,0:0:0:0:
180,52,92623,6,0,P|228:36|253:6,1,90,0|2,0:0|0:0,0:0:0:0:
308,80,92858,2,0,L|400:40,1,90,0|2,1:0|0:0,0:0:0:0:
412,132,93094,2,0,P|454:118|497:129,1,90,2|0,0:0|0:0,0:0:0:0:
508,220,93329,1,0,1:0:0:0:
508,220,93447,1,0,1:0:0:0:
476,304,93564,5,2,0:0:0:0:
388,320,93682,1,2,0:0:0:0:
316,264,93800,1,0,1:0:0:0:
228,272,93917,1,2,0:0:0:0:
168,340,94035,2,0,P|143:303|97:285,1,90,0|2,0:0|0:0,0:0:0:0:
24,244,94271,1,0,1:0:0:0:
100,156,94388,2,0,B|79:98|114:14|181:7,1,180,2|0,0:0|0:0,0:0:0:0:
260,8,94741,2,0,L|444:56,1,180,2|0,1:2|0:0,0:0:0:0:
504,148,95094,5,0,0:0:0:0:
400,204,95212,1,0,1:0:0:0:
316,124,95330,1,0,1:0:0:0:
236,208,95447,6,0,B|198:255|221:346|287:362,1,180,0|0,0:0|1:0,0:0:0:0:
368,372,95800,1,2,0:0:0:0:
428,304,95918,2,0,P|465:279|509:282,1,90,0|2,0:0|0:0,0:0:0:0:
192,328,96153,2,0,P|147:330|110:306,1,90,0|2,1:0|0:0,0:0:0:0:
28,264,96389,5,0,0:0:0:0:
0,180,96507,1,2,0:0:0:0:
104,48,96624,1,0,1:0:0:0:
76,132,96742,1,2,0:0:0:0:
136,232,96860,2,0,B|182:275|274:254|292:187,1,180,2|0,0:0|1:0,0:0:0:0:
276,108,97213,1,0,1:0:0:0:
360,72,97330,6,0,P|371:30|410:4,2,90,0|0|0,0:0|0:0|1:0,0:0:0:0:
396,156,97683,1,0,0:0:0:0:
476,196,97801,2,0,B|505:238|476:334|407:345,1,180,2|0,0:0|1:0,0:0:0:0:
332,312,98154,2,0,L|160:232,1,180,2|0,0:0|0:0,0:0:0:0:
88,196,98507,2,0,B|27:205|-1:301|27:343,1,180,2|0,1:2|1:0,1:0:0:0:
108,384,98860,5,0,0:0:0:0:
108,292,98978,1,0,1:0:0:0:
108,292,99096,1,0,1:0:0:0:
88,196,99213,6,0,P|55:155|53:110,1,90,0|2,0:0|0:0,0:0:0:0:
92,36,99449,1,0,1:0:0:0:
180,12,99566,1,2,0:0:0:0:
264,44,99684,1,0,0:0:0:0:
300,128,99802,2,0,B|330:172|303:267|231:285,1,180,2|0,0:0|0:0,0:0:0:0:
204,360,100155,2,0,B|216:302|311:275|355:305,1,180,2|0,0:0|1:0,0:0:0:0:
420,364,100508,1,2,0:0:0:0:
488,272,100625,5,0,0:0:0:0:
384,216,100743,1,0,0:0:0:0:
484,152,100861,1,0,1:0:0:0:
484,152,100979,1,0,1:0:0:0:
388,84,101096,6,0,P|364:48|363:2,2,90,0|0|0,0:0|0:0|1:0,0:0:0:0:
324,148,101449,1,0,0:0:0:0:
268,76,101567,2,0,B|219:49|131:82|121:141,1,180,2|2,0:0|1:2,0:0:0:0:
132,228,101920,1,2,0:0:0:0:
204,172,102038,6,0,P|234:204|237:248,1,90
196,328,102273,2,0,B|158:372|66:357|37:310,2,180,2|2|2,1:2|0:0|1:2,0:0:0:0:
196,328,102861,1,0,1:0:0:0:
260,264,102979,5,2,0:0:0:0:
248,176,103097,1,2,0:0:0:0:
308,108,103215,2,0,P|316:63|350:33,1,90,0|0,1:0|0:0,0:0:0:0:
464,24,103450,1,2,0:0:0:0:
476,112,103568,1,2,0:0:0:0:
416,180,103686,2,0,P|448:210|455:253,1,90,0|0,1:0|0:0,0:0:0:0:
384,348,103921,5,2,0:0:0:0:
296,364,104038,1,2,0:0:0:0:
212,332,104156,1,0,1:0:0:0:
176,248,104274,1,0,0:0:0:0:
112,312,104391,5,2,0:0:0:0:
76,228,104509,1,2,0:0:0:0:
124,152,104627,1,0,1:0:0:0:
124,152,104744,1,0,1:0:0:0:
40,124,104862,6,0,B|51:66|135:19|195:44,1,180,0|0,0:0|1:0,0:0:0:0:
276,104,105215,1,0,1:0:0:0:
276,104,105274,1,0,1:0:0:0:
276,104,105333,1,0,0:0:0:0:
240,216,105451,1,0,0:0:0:0:
300,316,105568,2,0,B|318:356|379:370|419:348,1,135,0|0,1:0|0:0,0:0:0:0:
468,272,105804,5,0,1:0:0:0:
432,188,106039,1,0,1:0:0:0:
480,112,106274,1,0,1:0:0:0:
432,36,106510,1,0,1:0:0:0:
364,96,106745,5,2,0:1:0:0:
276,76,106863,1,0,0:0:0:0:
188,56,106980,1,0,1:0:0:0:
100,36,107098,1,0,1:0:0:0:
36,112,107216,5,2,0:1:0:0:
84,196,107333,1,0,0:0:0:0:
180,220,107451,1,0,1:0:0:0:
264,168,107569,1,0,1:0:0:0:
356,112,107687,5,2,0:1:0:0:
448,164,107804,1,0,0:0:0:0:
476,268,107922,1,0,1:0:0:0:
428,364,108040,1,0,1:0:0:0:
348,280,108157,5,2,0:1:0:0:
236,248,108275,1,0,0:0:0:0:
120,268,108393,1,0,1:0:0:0:
44,356,108510,1,0,1:0:0:0:
168,336,108628,5,2,0:1:0:0:
172,208,108746,1,0,0:0:0:0:
108,100,108863,1,0,1:0:0:0:
0,32,108981,1,0,1:0:0:0:
128,72,109099,5,2,0:1:0:0:
252,24,109216,1,0,0:0:0:0:
388,28,109334,1,0,1:0:0:0:
500,104,109452,1,0,1:0:0:0:
504,248,109569,5,2,0:1:0:0:
368,296,109687,1,0,0:0:0:0:
288,176,109805,1,0,1:0:0:0:
368,56,109923,1,0,0:0:0:0:
368,56,109981,1,0,0:0:0:0:
368,56,110040,2,0,B|311:74|236:52|201:-3,1,180,0|0,1:0|1:0,0:0:0:0:
48,92,110511,5,2,0:1:0:0:
140,84,110629,1,0,0:0:0:0:
216,128,110746,1,0,1:0:0:0:
244,216,110864,1,0,1:0:0:0:
332,168,110982,5,2,0:1:0:0:
332,268,111099,1,0,0:0:0:0:
404,336,111217,1,0,1:0:0:0:
504,336,111335,1,0,1:0:0:0:
460,228,111452,5,2,0:1:0:0:
352,216,111570,1,0,0:0:0:0:
252,256,111688,1,0,1:0:0:0:
196,348,111805,1,0,1:0:0:0:
108,272,111923,5,2,0:1:0:0:
153,162,112041,1,0,0:0:0:0:
113,51,112159,1,0,1:0:0:0:
7,1,112276,1,0,1:0:0:0:
60,116,112394,5,2,0:1:0:0:
184,96,112512,1,0,0:0:0:0:
308,76,112629,1,0,1:0:0:0:
432,56,112747,1,0,1:0:0:0:
460,328,112865,5,2,0:1:0:0:
328,308,112982,1,0,0:0:0:0:
196,288,113100,1,0,1:0:0:0:
60,268,113218,1,0,1:0:0:0:
52,128,113335,5,2,1:0:0:0:
52,128,113453,1,0,1:0:0:0:
172,48,113571,1,0,1:0:0:0:
172,48,113688,1,0,1:0:0:0:
312,88,113806,2,0,B|345:135|328:217|264:248,1,180,0|0,1:0|1:0,0:0:0:0:
271,244,114159,1,0,1:0:0:0:
432,220,114277,6,0,B|375:247|358:329|391:376,2,180,4|0|0,0:0|1:0|0:0,0:0:0:0:
504,168,114865,1,0,0:0:0:0:
492,80,114983,2,0,P|452:59|408:66,1,90,0|0,1:0|0:0,0:0:0:0:
300,108,115218,6,0,B|251:136|171:112|148:53,2,180,0|0|0,0:0|1:0|0:0,0:0:0:0:
384,144,115807,1,0,1:0:0:0:
312,196,115924,1,0,0:0:0:0:
300,284,116042,1,0,1:0:0:0:
188,320,116160,6,0,B|134:295|56:321|30:380,1,180,0|0,0:0|1:0,0:0:0:0:
4,288,116513,1,0,0:0:0:0:
56,216,116631,2,0,P|52:169|6:130,1,90
72,18,116866,2,0,P|75:62|104:96,1,90,0|0,1:0|0:0,0:0:0:0:
192,120,117101,2,0,B|249:138|328:108|348:47,2,180,0|0|0,0:0|1:0|0:0,0:0:0:0:
84,172,117690,5,0,1:0:0:0:
172,248,117807,1,0,1:0:0:0:
96,340,117925,1,0,1:0:0:0:
212,368,118043,5,0,1:0:0:0:
324,344,118160,1,0,0:0:0:0:
492,296,118278,5,0,1:0:0:0:
380,272,118395,1,0,0:0:0:0:
180,216,118513,5,0,1:0:0:0:
292,192,118630,1,0,0:0:0:0:
512,120,118749,5,0,1:0:0:0:
400,96,118866,1,0,0:0:0:0:
284,96,118984,6,0,P|249:68|235:26,1,90,0|0,1:0|0:0,0:0:0:0:
68,76,119220,2,0,L|146:122,1,90,0|0,1:0|0:0,0:0:0:0:
190,254,119455,2,0,P|149:238|106:247,2,90,0|0|0,1:0|0:0|1:0,0:0:0:0:
260,348,119808,1,0,1:0:0:0:
376,296,119926,6,0,B|440:277|467:189|437:142,1,180,0|0,1:0|0:0,0:0:0:0:
348,76,120279,1,2,3:0:0:0:
348,76,120514,1,2,3:0:0:0:
348,76,120749,1,2,3:0:0:0:
244,140,120867,5,0,0:0:0:0:
220,228,120985,1,0,0:0:0:0:
308,204,121102,1,0,1:0:0:0:
208,56,121220,5,0,1:0:0:0:
212,316,121338,1,0,1:0:0:0:
360,104,121456,1,0,1:0:0:0:
112,188,121573,1,0,1:0:0:0:
364,268,121691,1,0,1:0:0:0:
256,192,121809,6,0,B|198:208|127:168|121:103,1,180,4|8,0:0|0:0,0:0:0:0:
12,144,122162,1,0,0:0:0:0:
48,256,122279,2,0,P|38:299|4:326,1,90
112,376,122515,1,8,0:0:0:0:
196,296,122632,1,0,0:0:0:0:
312,312,122750,6,0,B|329:253|422:230|466:265,1,180,0|8,0:0|0:0,0:0:0:0:
504,152,123103,1,0,0:0:0:0:
396,104,123221,2,0,P|367:69|373:20,1,90
268,84,123456,1,8,0:0:0:0:
316,192,123574,1,0,0:0:0:0:
259,295,123692,6,0,P|288:329|286:373,1,90
140,160,123927,2,0,P|154:118|193:98,1,90,8|0,0:0|0:0,0:0:0:0:
84,332,124162,2,0,P|40:339|3:316,1,90
259,295,124398,2,0,P|288:329|286:373,1,90,8|0,0:0|0:0,0:0:0:0:
400,256,124633,6,0,B|372:206|398:119|460:94,1,180,0|8,0:0|0:0,0:0:0:0:
449,99,124986,1,0,0:0:0:0:
300,8,125104,2,0,B|327:56|301:143|250:163,1,180,0|8,0:0|0:0,0:0:0:0:
148,104,125457,1,0,0:0:0:0:
96,208,125574,6,0,P|88:251|109:290,1,90,2|0,0:1|0:0,0:0:0:0:
220,328,125810,1,8,0:0:0:0:
12,184,125928,2,0,B|-24:232|-5:320|51:355,1,180,2|2,0:1|0:1,0:0:0:0:
152,380,126281,1,8,0:0:0:0:
39,346,126398,1,2,0:1:0:0:
280,256,126516,6,0,P|328:255|362:278,1,90,2|0,0:1|0:0,0:0:0:0:
432,372,126751,1,8,0:0:0:0:
260,172,126869,2,0,B|311:142|410:172|421:217,1,180,2|2,0:1|0:1,0:0:0:0:
488,308,127222,1,8,0:0:0:0:
420,213,127340,1,2,0:1:0:0:
456,104,127457,6,0,P|466:61|500:32,1,90,2|0,0:1|0:0,0:0:0:0:
384,12,127693,1,8,0:0:0:0:
284,68,127810,2,0,B|233:98|134:68|123:23,1,180,2|2,0:1|0:1,0:0:0:0:
0,107,128164,2,0,P|45:108|80:136,1,90,8|2,0:0|0:1,0:0:0:0:
179,197,128399,5,0,0:0:0:0:
75,250,128517,1,8,0:0:0:0:
280,256,128634,5,8,0:0:0:0:
285,139,128752,1,8,0:0:0:0:
180,320,128870,5,8,0:0:0:0:
278,382,128987,2,0,B|293:326|381:304|431:338,1,180,8|8,0:0|0:0,0:0:0:0:
408,224,129340,6,0,B|384:171|437:98|498:91,1,180,4|8,0:0|0:0,0:0:0:0:
400,24,129693,1,0,0:0:0:0:
296,124,129811,2,0,B|257:153|164:128|146:65,1,180,0|8,0:0|0:0,0:0:0:0:
68,156,130164,1,0,0:0:0:0:
108,268,130282,6,0,P|64:261|25:282,2,90,0|0|8,0:0|0:0|0:0,0:0:0:0:
192,348,130635,1,0,0:0:0:0:
308,352,130753,2,0,B|370:339|394:256|364:206,1,180,0|8,0:0|0:0,0:0:0:0:
260,156,131106,1,0,0:0:0:0:
144,164,131223,6,0,B|114:114|138:31|200:18,1,180,0|8,0:0|0:0,0:0:0:0:
316,32,131576,1,0,0:0:0:0:
328,148,131694,2,0,P|279:147|240:112,1,90
440,108,131929,2,0,B|470:158|446:241|384:254,2,180,8|0|8,0:0|0:0|0:0,0:0:0:0:
328,148,132518,1,0,0:0:0:0:
216,188,132636,2,0,P|208:231|233:274,1,90
292,372,132871,1,8,0:0:0:0:
176,352,132989,1,0,0:0:0:0:
76,292,133106,6,0,B|99:232|60:153|-1:141,1,180,4|8,0:0|0:0,0:0:0:0:
76,48,133459,1,0,0:0:0:0:
184,92,133577,2,0,P|183:47|209:11,2,90,0|0|8,0:0|0:0|0:0,0:0:0:0:
264,176,133930,1,0,0:0:0:0:
236,292,134048,6,0,P|261:328|261:372,1,90,8|0,0:0|0:0,0:0:0:0:
364,316,134283,2,0,P|363:271|389:235,1,90,8|8,0:0|0:0,0:0:0:0:
384,36,134518,1,8,0:0:0:0:
500,192,134636,1,8,0:0:0:0:
324,136,134754,1,8,0:0:0:0:
492,76,134872,1,8,0:0:0:0:
420,140,134989,5,4,0:0:0:0:
420,140,135460,1,2,0:0:0:0:
420,140,135931,1,2,0:0:0:0:
420,140,136284,1,2,0:0:0:0:
420,140,136637,1,2,0:0:0:0:
332,52,136872,5,2,0:0:0:0:
208,84,137108,1,2,0:0:0:0:
88,44,137343,1,2,0:0:0:0:
20,148,137578,1,2,0:0:0:0:
96,248,137814,5,2,0:0:0:0:
96,248,138167,1,2,0:0:0:0:
96,248,138520,1,0,1:0:0:0:
180,280,138637,1,0,1:0:0:0:
180,280,138696,1,0,0:0:0:0:
180,280,138755,5,0,1:0:0:0:
180,280,138990,2,0,L|276:260,1,90,0|0,1:0|1:0,0:0:0:0:
384,236,139226,5,4,3:0:0:0:
176,296,139461,2,0,L|272:276,1,90,0|0,1:0|1:0,0:0:0:0:
380,252,139697,5,4,3:0:0:0:
172,308,139932,2,0,L|268:288,1,90,0|0,1:0|1:0,0:0:0:0:
376,264,140168,5,4,3:0:0:0:
168,320,140403,2,0,L|264:300,1,90,0|0,1:0|1:0,0:0:0:0:
372,276,140639,5,4,3:0:0:0:
468,96,140873,1,4,3:0:0:0:
288,180,141109,1,4,3:0:0:0:
488,220,141344,1,4,3:0:0:0:
344,68,141580,1,4,3:0:0:0:
221,95,141815,6,0,B|177:105|122:84|106:38,1,135,0|0,1:0|0:0,0:0:0:0:
4,44,142050,2,0,B|45:58|66:113|56:157,1,135,0|0,1:0|0:0,0:0:0:0:
20,256,142286,2,0,P|10:304|31:344,1,90,0|0,1:0|0:0,0:0:0:0:
120,380,142521,6,0,B|193:386|226:330|226:330|277:282|343:312|343:312|276:235|343:146|458:169|453:271,1,540,4|0,0:0|1:0,0:0:0:0:
292,376,144404,6,0,B|190:319|209:185|261:144|261:144|195:209|116:171|116:171|102:111|33:105,1,540,0|0,0:0|1:0,0:0:0:0:
176,104,146169,1,0,1:0:0:0:
176,104,146287,6,0,B|200:56|278:40|319:73|319:73|358:30|428:49,1,270,4|4,3:0|3:0,0:0:0:0:
492,92,147228,2,0,B|523:133|506:229|445:252,1,180,0|0,0:0|1:0,0:0:0:0:
276,208,148170,2,0,B|245:249|262:345|323:368,2,180,4|0|0,3:0|0:0|0:0,0:0:0:0:
276,208,149582,1,0,1:0:0:0:
372,112,149935,1,0,1:0:0:0:
372,112,150053,6,0,B|347:61|246:44|208:96|208:96|51:33|-35:240|85:302,1,540,4|0,0:0|1:0,0:0:0:0:
440,60,151936,6,0,B|476:104|447:160|447:160|409:182|420:235|420:235|459:269|446:330|446:330|427:388|343:411|263:352|299:262,1,540,4|0,3:0|1:0,0:0:0:0:
260,196,153583,1,0,1:0:0:0:
260,196,153701,1,0,1:0:0:0:
260,196,153819,6,0,P|222:165|171:162,1,90,2|2,0:0|0:0,0:0:0:0:
68,232,154289,2,0,P|106:263|157:266,1,90,2|2,0:0|0:0,0:0:0:0:
288,180,154760,6,0,P|239:137|163:139,1,125.999996154785,2|2,0:0|0:0,0:0:0:0:
40,252,155231,2,0,P|89:295|165:293,1,125.999996154785,2|2,0:0|0:0,0:0:0:0:
312,156,155702,6,0,P|248:109|166:109,1,144,2|2,0:0|0:0,0:0:0:0:
24,272,156172,2,0,P|88:319|170:319,1,144,2|2,0:0|0:0,0:0:0:0:
332,132,156643,6,0,P|267:86|175:82,2,161.999995056153,2|2|0,0:0|0:0|1:0,0:0:0:0:
452,320,157349,1,0,1:0:0:0:
452,320,157467,1,0,1:0:0:0:
452,320,157585,5,4,0:0:0:0:
464,344,158291,1,0,0:0:0:0:
288,312,158526,5,4,0:0:0:0:
300,336,159232,1,0,0:0:0:0:
124,304,159467,5,4,0:0:0:0:
136,328,160174,1,0,0:0:0:0:
104,152,160409,5,4,0:0:0:0:
104,152,160880,2,0,P|181:129|228:57,1,157.5,4|0,0:0|0:0,0:0:0:0:
208,28,161350,5,4,0:0:0:0:
192,52,162057,1,0,0:0:0:0:
216,44,162174,1,0,0:0:0:0:
244,36,162292,5,4,0:0:0:0:
424,100,162645,2,0,L|472:116,2,45,2|2|2,0:0|0:0|0:0,0:0:0:0:
188,204,162998,1,0,0:0:0:0:
212,196,163115,1,0,0:0:0:0:
240,188,163233,6,0,B|300:193|334:286|295:343,1,180,4|0,0:0|1:0,0:0:0:0:
220,372,163586,1,0,1:0:0:0:
148,316,163704,2,0,B|102:283|9:317|4:377,1,180,0|0,0:0|1:0,0:0:0:0:
16,288,164057,1,0,1:0:0:0:
68,216,164175,5,0,0:0:0:0:
40,132,164293,2,0,B|85:164|178:130|183:72,1,180,0|0,1:0|1:0,0:0:0:0:
236,0,164646,1,0,1:0:0:0:
316,36,164763,1,0,1:0:0:0:
276,116,164881,2,0,B|297:157|354:173|398:154,1,135
436,140,165116,6,0,B|380:161|359:244|395:306,1,180,4|0,0:0|0:0,0:0:0:0:
340,368,165469,1,0,0:0:0:0:
256,336,165587,2,0,P|237:291|189:272,1,90,0|0,1:0|0:0,0:0:0:0:
87,373,165822,2,0,P|130:380|168:357,1,90,0|0,0:0|1:0,0:0:0:0:
110,289,166058,6,0,B|94:238|135:156|201:152,1,180
140,84,166411,2,0,P|172:55|176:0,1,90,0|0,0:0|1:0,0:0:0:0:
268,8,166646,1,0,0:0:0:0:
328,76,166764,2,0,P|296:105|292:160,1,90,0|0,0:0|1:0,0:0:0:0:
348,220,166999,5,0,0:0:0:0:
436,208,167117,1,0,0:0:0:0:
480,288,167235,1,0,0:0:0:0:
416,352,167352,1,0,0:0:0:0:
336,312,167470,1,0,1:0:0:0:
250,336,167588,2,0,P|204:334|162:365,2,90,0|0|0,0:0|0:0|1:0,0:0:0:0:
336,312,167941,6,0,B|301:263|317:178|370:154,2,180,0|0|0,1:0|1:0|1:0,0:0:0:0:
336,312,168529,1,0,1:0:0:0:
252,268,168647,1,0,1:0:0:0:
168,304,168765,1,0,1:0:0:0:
120,228,168882,6,0,P|98:188|52:169,1,90,4|0,0:0|0:0,0:0:0:0:
20,88,169118,1,0,1:0:0:0:
108,92,169235,1,0,0:0:0:0:
172,156,169353,2,0,B|225:174|309:143|322:69,1,180,0|0,0:0|1:0,0:0:0:0:
396,36,169706,1,0,0:0:0:0:
464,96,169824,6,0,B|404:105|373:189|391:242,1,180,4|0,0:0|1:0,0:0:0:0:
460,300,170177,1,0,0:0:0:0:
396,364,170294,2,0,P|359:334|303:337,1,90,0|0,0:0|1:0,0:0:0:0:
240,288,170530,1,0,1:0:0:0:
240,288,170647,1,0,1:0:0:0:
164,336,170765,5,0,1:0:0:0:
56,292,170883,1,0,0:0:0:0:
160,236,171001,5,0,1:0:0:0:
118,105,171119,1,0,0:0:0:0:
236,172,171236,5,0,1:0:0:0:
270,22,171354,1,0,0:0:0:0:
336,160,171471,5,0,1:0:0:0:
449,31,171589,1,0,0:0:0:0:
420,200,171707,6,0,B|391:246|410:335|477:361,3,180,0|0|0|0,1:0|1:0|1:0|0:0,0:0:0:0:
380,328,172530,1,0,0:0:0:0:
284,260,172648,6,0,B|238:231|149:250|123:317,1,180,4|0,0:0|1:0,0:0:0:0:
4,148,173001,1,0,1:0:0:0:
208,224,173119,1,0,1:0:0:0:
76,56,173236,1,0,1:0:0:0:
20,264,173354,1,0,1:0:0:0:
180,108,173472,1,0,1:0:0:0:
108,192,173590,6,0,B|129:248|218:267|264:238,1,180,4|8,0:0|0:0,0:0:0:0:
360,176,173943,1,0,0:0:0:0:
320,68,174060,2,0,P|333:25|369:1,2,90,0|0|8,0:0|0:0|0:0,0:0:0:0:
360,176,174413,1,0,0:0:0:0:
473,206,174531,6,0,B|508:254|480:351|430:364,1,180,0|8,0:0|0:0,0:0:0:0:
434,362,174884,1,0,0:0:0:0:
200,304,175002,2,0,B|165:256|193:159|243:146,1,180,0|8,0:0|0:0,0:0:0:0:
238,147,175355,1,0,0:0:0:0:
370,21,175472,6,0,P|371:65|344:100,1,90
50,177,175708,2,0,P|88:154|132:161,1,90,8|0,0:0|0:0,0:0:0:0:
346,376,175943,2,0,P|307:355|291:314,1,90
370,21,176179,2,0,P|371:65|344:100,1,90,8|0,0:0|0:0,0:0:0:0:
193,253,176414,6,0,B|216:195|300:176|347:210,1,180,0|8,0:0|0:0,0:0:0:0:
291,314,176767,1,8,0:0:0:0:
188,368,176885,2,0,B|141:402|57:383|33:325,1,180,0|8,0:0|0:0,0:0:0:0:
72,216,177238,1,0,0:0:0:0:
156,136,177355,6,0,P|159:88|132:52,1,90,2|0,0:1|0:0,0:0:0:0:
28,8,177591,1,8,0:0:0:0:
100,248,177709,2,0,B|140:291|244:266|258:200,1,180,2|2,0:1|0:1,0:0:0:0:
328,124,178062,1,8,0:0:0:0:
276,328,178179,1,2,0:1:0:0:
408,208,178297,6,0,P|382:242|387:301,1,90,2|0,0:1|0:0,0:0:0:0:
460,376,178532,1,8,0:0:0:0:
504,144,178650,2,0,B|494:85|401:57|350:96,1,180,2|2,0:1|0:1,0:0:0:0:
268,172,179003,1,8,0:0:0:0:
280,4,179121,1,2,0:1:0:0:
336,268,179238,6,2,P|338:312|312:347,1,90,2|2,0:1|0:1,0:1:0:0:
196,376,179474,1,8,0:0:0:0:
92,324,179591,2,0,B|57:279|85:186|144:176,1,180,2|2,0:1|0:1,0:0:0:0:
300,52,179945,2,0,P|291:96|258:125,1,90,8|2,0:0|0:1,0:0:0:0:
165,56,180180,5,0,0:0:0:0:
246,241,180298,1,8,0:0:0:0:
508,104,180415,5,8,0:0:0:0:
426,288,180533,1,8,0:0:0:0:
60,184,180651,5,8,0:0:0:0:
184,340,180768,2,0,B|234:374|322:352|341:288,1,180,8|8,0:0|0:0,0:0:0:0:
356,180,181121,6,0,B|337:128|385:51|449:52,1,180,4|8,0:0|0:0,0:0:0:0:
340,8,181474,1,0,0:0:0:0:
240,68,181592,2,0,B|56:40,1,180,0|8,0:0|0:0,0:0:0:0:
4,144,181945,1,0,0:0:0:0:
80,236,182063,6,0,P|34:239|1:276,2,90,0|0|8,0:0|0:0|0:0,0:0:0:0:
188,280,182416,1,0,0:0:0:0:
296,328,182534,2,0,B|348:355|436:316|444:264,1,180,0|8,0:0|0:0,0:0:0:0:
440,148,182887,1,0,0:0:0:0:
336,204,183004,6,0,B|305:153|329:61|386:47,1,180,0|8,0:0|0:0,0:0:0:0:
268,12,183357,1,0,0:0:0:0:
236,124,183475,2,0,P|191:124|155:99,1,90
20,9,183710,2,0,P|43:47|40:92,1,90,8|0,0:0|0:0,0:0:0:0:
35,343,183946,2,0,B|6:289|40:206|96:196,1,180,0|8,0:0|0:0,0:0:0:0:
94,196,184299,1,8,0:0:0:0:
172,284,184417,2,0,P|208:311|259:306,1,90
288,196,184652,1,8,0:0:0:0:
260,80,184770,1,0,0:0:0:0:
360,20,184887,6,0,B|420:-3|499:36|509:97,1,180,4|8,0:0|0:0,0:0:0:0:
428,176,185240,1,0,0:0:0:0:
420,292,185358,2,0,P|457:320|507:317,2,90,0|0|8,0:0|0:0|0:0,0:0:0:0:
308,320,185711,1,0,0:0:0:0:
220,244,185829,6,0,L|264:48,1,180,4|8,0:0|0:0,0:0:0:0:
160,8,186182,1,0,0:0:0:0:
64,72,186299,2,0,B|23:109|44:212|106:225,1,180,0|8,0:0|0:0,0:0:0:0:
220,244,186653,1,0,0:0:0:0:
164,344,186770,6,0,P|126:322|76:328,2,90,4|0|8,0:0|0:0|0:0,0:0:0:0:
280,320,187123,1,0,0:0:0:0:
392,284,187241,2,0,P|436:287|474:265,1,90
424,160,187476,1,8,0:0:0:0:
500,72,187594,1,0,0:0:0:0:
396,20,187712,6,0,B|345:-8|261:9|232:66,1,180,4|8,0:0|0:0,0:0:0:0:
208,172,188065,1,0,0:0:0:0:
124,92,188182,2,0,P|86:64|36:72,1,90
8,180,188418,1,8,0:0:0:0:
8,180,188535,1,8,0:0:0:0:
96,256,188653,5,0,0:0:0:0:
48,364,188771,1,0,0:0:0:0:
200,208,188888,5,8,0:0:0:0:
212,325,189006,1,0,0:0:0:0:
300,128,189124,5,8,0:0:0:0:
368,223,189242,1,0,0:0:0:0:
364,8,189359,5,8,0:0:0:0:
470,56,189477,1,0,0:0:0:0:
456,356,189595,6,0,B|414:395|317:373|302:312,1,180,8|8,0:0|0:0,0:0:0:0:
328,204,189948,2,8,P|326:162|293:126,1,90
188,84,190183,1,8,0:0:0:0:
76,124,190301,1,8,0:0:0:0:
48,236,190418,1,8,0:0:0:0:
144,308,190536,5,2,0:0:0:0:
224,268,190654,1,2,0:0:0:0:
236,180,190771,1,2,0:0:0:0:
152,208,190889,5,2,0:0:0:0:
224,268,191124,1,2,0:0:0:0:
316,264,191360,1,2,0:0:0:0:
404,252,191595,1,2,0:0:0:0:
476,312,191831,1,2,0:0:0:0:
484,224,191948,6,0,P|492:210|501:203,15,22.5,0|0|0|0|0|0|0|0|0|0|0|0|0|0|0|0,0:0|0:0|0:0|0:0|0:0|0:0|0:0|1:0|0:0|0:0|0:0|1:0|0:0|0:0|0:0|0:0,0:0:0:0:
476,192,192419,6,0,B|507:141|476:54|419:41,1,180,4|0,0:0|1:0,0:0:0:0:
304,32,192772,1,0,0:0:0:0:
220,112,192890,2,0,B|189:163|220:250|277:263,1,180,0|0,0:0|1:0,0:0:0:0:
204,356,193243,1,0,0:0:0:0:
128,268,193360,6,0,P|83:270|51:300,1,90
48,180,193596,1,0,1:0:0:0:
68,156,193655,1,0,0:0:0:0:
76,128,193713,1,0,0:0:0:0:
72,96,193772,1,0,0:0:0:0:
56,68,193831,5,0,0:0:0:0:
160,12,193949,1,0,0:0:0:0:
260,72,194067,2,0,P|294:33|343:30,1,90,0|0,1:0|0:0,0:0:0:0:
440,64,194302,6,0,B|490:88|503:173|464:225,1,180,0|0,0:0|1:0,0:0:0:0:
360,172,194655,1,0,0:0:0:0:
256,224,194773,2,0,B|218:273|231:358|281:382,1,180,0|0,0:0|1:0,0:0:0:0:
168,356,195126,1,0,0:0:0:0:
68,296,195243,6,0,P|68:250|37:217,1,90
128,136,195479,1,0,1:0:0:0:
128,104,195538,1,0,0:0:0:0:
144,76,195596,5,0,1:0:0:0:
248,24,195714,2,0,B|302:0|389:27|411:78,1,180,0|0,0:0|1:0,0:0:0:0:
452,180,196067,1,0,0:0:0:0:
344,228,196185,6,0,B|312:271|344:362|404:378,1,180,0|0,0:0|1:0,0:0:0:0:
500,316,196538,1,0,0:0:0:0:
296,324,196656,2,0,B|253:292|162:324|146:384,1,180,0|0,0:0|1:0,0:0:0:0:
36,348,197009,1,0,0:0:0:0:
100,252,197126,2,0,L|84:160,1,90
200,188,197362,2,0,L|168:4,2,180,0|0|0,1:0|0:0|1:0,0:0:0:0:
316,164,197950,1,0,0:0:0:0:
428,196,198068,6,0,P|426:240|398:273,1,90
328,368,198303,1,0,1:0:0:0:
300,352,198361,1,0,0:0:0:0:
268,352,198420,1,0,0:0:0:0:
152,368,198539,1,0,0:0:0:0:
60,300,198656,1,0,0:0:0:0:
56,184,198774,1,0,1:0:0:0:
56,184,198892,1,0,1:0:0:0:
112,84,199009,5,0,0:0:0:0:
228,84,199127,2,0,P|271:78|302:46,1,90,0|0,1:0|1:0,0:0:0:0:
392,124,199362,1,0,1:0:0:0:
424,236,199480,2,0,P|454:203|497:198,2,90,0|0|0,1:0|1:0|0:0,0:0:0:0:
368,340,199833,1,0,1:0:0:0:
252,364,199951,6,0,B|195:386|118:356|101:294,1,180,4|0,0:0|1:0,0:0:0:0:
84,184,200304,1,0,0:0:0:0:
200,168,200421,2,0,B|252:143|269:62|237:9,1,180,0|0,0:0|1:0,0:0:0:0:
356,12,200775,1,0,0:0:0:0:
452,80,200892,6,0,P|426:118|432:168,1,90
480,268,201128,1,0,1:0:0:0:
490,298,201187,1,0,0:0:0:0:
489,330,201246,1,0,0:0:0:0:
474,357,201304,1,0,0:0:0:0:
450,378,201363,5,0,0:0:0:0:
332,376,201481,1,0,0:0:0:0:
264,284,201598,2,0,P|217:280|176:312,1,90,0|0,1:0|0:0,0:0:0:0:
88,372,201834,6,0,B|143:349|164:265|124:210,1,180,0|0,0:0|1:0,0:0:0:0:
184,116,202187,1,0,0:0:0:0:
292,160,202304,2,0,B|275:102|323:30|383:28,1,180,0|0,0:0|1:0,0:0:0:0:
488,84,202657,1,0,0:0:0:0:
500,200,202775,6,0,P|483:247|432:267,1,90
332,268,203011,1,0,1:0:0:0:
332,268,203070,1,0,0:0:0:0:
332,268,203129,1,0,1:0:0:0:
292,160,203246,2,0,P|258:128|215:127,1,90
108,168,203481,1,0,1:0:0:0:
132,52,203599,1,0,0:0:0:0:
32,260,203717,6,0,B|54:316|130:352|186:335,1,180,4|0,0:0|1:0,0:0:0:0:
284,284,204070,1,0,0:0:0:0:
336,180,204187,2,0,B|358:124|434:88|484:103,1,180,0|0,0:0|1:0,0:0:0:0:
400,20,204540,1,0,0:0:0:0:
292,68,204658,2,0,P|249:58|222:20,1,90
104,24,204893,2,0,B|165:44|186:120|157:184,1,180,0|0,1:0|0:0,0:0:0:0:
60,344,205247,2,0,P|55:300|80:264,1,90,0|0,0:0|1:0,0:0:0:0:
196,284,205482,1,0,0:0:0:0:
312,284,205600,6,0,P|336:247|331:203,1,90
268,104,205835,1,0,1:0:0:0:
368,44,205953,1,0,0:0:0:0:
472,92,206070,2,0,B|421:110|393:199|429:254,1,180,0|0,0:0|1:0,0:0:0:0:
480,348,206423,1,0,1:0:0:0:
364,340,206541,5,0,0:0:0:0:
308,236,206659,2,0,P|264:241|234:274,1,90,0|0,1:0|1:0,0:0:0:0:
132,220,206894,1,0,1:0:0:0:
84,112,207012,2,0,P|53:144|10:149,2,90,0|0|0,1:0|1:0|0:0,0:0:0:0:
160,24,207365,1,0,1:0:0:0:
228,152,207483,6,0,B|273:189|370:160|381:100,1,180,4|0,0:0|1:0,0:0:0:0:
460,20,207836,1,0,0:0:0:0:
504,128,207953,5,2,0:0:0:0:
388,212,208071,1,2,0:0:0:0:
500,304,208189,1,2,1:2:0:0:
372,368,208306,1,2,0:0:0:0:
264,320,208424,6,0,B|239:272|149:250|93:287,1,180,4|0,0:0|1:0,0:0:0:0:
20,200,208777,1,0,0:0:0:0:
80,100,208895,5,2,0:0:0:0:
208,160,209012,1,2,0:0:0:0:
232,16,209130,1,2,1:2:0:0:
368,64,209248,1,2,1:2:0:0:
484,64,209365,6,0,B|523:106|501:202|437:221,1,180,4|0,0:0|1:0,0:0:0:0:
336,172,209719,1,0,0:0:0:0:
384,280,209836,5,2,0:0:0:0:
248,232,209954,1,2,1:2:0:0:
332,340,210072,1,2,1:2:0:0:
192,368,210189,1,2,1:2:0:0:
92,308,210307,5,4,1:2:0:0:
268,152,210542,1,4,1:2:0:0:
56,48,210778,1,4,1:2:0:0:
56,48,211248,5,2,0:0:0:0:
180,60,211484,1,2,0:0:0:0:
216,180,211719,1,2,0:0:0:0:
108,248,211955,1,2,0:0:0:0:
12,168,212190,1,2,0:0:0:0:
116,140,212543,5,2,0:0:0:0:
116,140,212896,5,4,0:0:0:0:
