osu file format v14

[General]
AudioFilename: nameless.mp3
AudioLeadIn: 0
PreviewTime: 65968
Countdown: 0
SampleSet: Normal
StackLeniency: 0.7
Mode: 0
LetterboxInBreaks: 0
WidescreenStoryboard: 1

[Editor]
Bookmarks: 2007,17070,30251,31192,32134,47197,58495,64144,65085,66027,79207,91211,91682,105804,106745,114277,119926,120867,121809,134989,142521,156643,157114,157585,165116,172648,173590,190536,207483,210307,210542,210778,211248,212543,212896
DistanceSpacing: 1.1
BeatDivisor: 2
GridSize: 32
TimelineZoom: 2.5

[Metadata]
Title:Milk Crown on Sonnetica
TitleUnicode:ミルククラウン・オン・ソーネチカ
Artist:nameless
ArtistUnicode:nameless
Creator:Len
Version:Easy
Source:
Tags:utaite ユジー yuzy P 窓付き@ vocaloid Hatsune Miku Fast yf_bmp toybot Reol [_halloween_] byfar Evil_twilight
BeatmapID:727294
BeatmapSetID:327557

[Difficulty]
HPDrainRate:2.6
CircleSize:3
OverallDifficulty:3
ApproachRate:3.6
SliderMultiplier:0.619999999999999
SliderTickRate:2

[Events]
//Background and Video events
0,0,"23124.jpg",0,0
//Break Periods
2,82467,88431
2,142721,152451
//Storyboard Layer 0 (Background)
//Storyboard Layer 1 (Fail)
//Storyboard Layer 2 (Pass)
//Storyboard Layer 3 (Foreground)
//Storyboard Sound Samples

[TimingPoints]
2007,235.367958575239,4,1,1,70,1,0
2007,-100,4,1,1,70,0,0
9068,-100,4,1,1,70,0,0
15540,-100,4,1,1,70,0,0
17070,-100,4,1,1,70,0,1
30251,-100,4,1,1,70,0,0
30604,-100,4,1,1,70,0,0
32134,-100,4,1,1,70,0,0
57789,-100,4,1,1,30,0,0
58024,-100,4,1,1,70,0,0
58495,-100,4,1,1,70,0,0
66027,-100,4,1,1,70,0,1
79207,-100,4,1,1,70,0,0
91211,-100,4,1,1,70,0,0
91682,235.367958575239,4,1,1,70,1,0
114277,-100,4,1,1,70,0,0
121809,-100,4,1,1,70,0,1
134989,-100,4,1,1,70,0,0
142521,-100,4,1,1,70,0,0
157114,-100,4,1,1,50,0,0
157585,-100,4,1,1,70,0,0
165116,-100,4,1,1,70,0,0
172648,-100,4,1,1,40,0,0
173590,-100,4,1,1,70,0,1
190536,-100,4,1,1,70,0,0
192419,-100,4,1,1,70,0,1
210778,-100,4,1,1,70,0,0

[Colours]
Combo1 : 255,234,170
Combo2 : 179,255,179
Combo3 : 172,209,255
Combo4 : 252,194,203

[HitObjects]
81,107,2006,6,0,L|231:117,1,124
328,173,2948,2,0,P|335:228|303:308,1,124
186,339,3889,1,0,0:0:0:0:
65,275,4360,1,0,0:0:0:0:
113,147,4831,2,0,P|112:102|80:25,1,124
209,80,5772,6,0,L|347:69,1,124
388,195,6714,2,0,L|250:184,1,124
133,147,7655,1,0,0:0:0:0:
116,282,8126,1,0,0:0:0:0:
250,303,8597,2,0,B|276:241|261:183|261:183|228:120|255:47,1,248
379,18,10009,5,0,0:0:0:0:
135,140,10950,2,0,P|122:221|141:284,1,124
251,325,11892,1,0,0:0:0:0:
454,143,12833,2,0,L|316:131,1,124
194,121,13775,5,0,0:0:0:0:
38,344,14716,2,0,L|180:334,1,124
256,192,15305,12,0,17070,0:0:0:0:
440,133,18012,6,0,L|299:120,1,124
180,109,18953,1,0,0:0:0:0:
62,39,19424,1,0,0:0:0:0:
25,170,19894,2,0,P|21:238|45:310,1,124
163,339,20836,6,0,B|286:323|286:323|411:344,1,248
499,241,22248,1,0,0:0:0:0:
444,115,22719,2,0,P|402:101|313:105,1,124
213,183,23660,2,0,P|151:186|92:170,1,124
50,39,24602,5,0,0:0:0:0:
185,22,25073,1,0,0:0:0:0:
284,115,25543,2,0,P|307:168|286:255,1,124
192,317,26485,2,0,L|51:300,2,124
321,361,27897,1,0,0:0:0:0:
413,260,28368,6,0,B|453:205|436:144|436:144|418:80|356:55,1,248
228,106,29780,1,0,0:0:0:0:
284,230,30251,2,0,P|294:291|278:360,2,124
51,83,32134,6,0,L|189:76,1,124
291,148,33075,2,0,L|429:141,1,124
489,256,34017,2,0,P|486:310|448:372,1,124
326,313,34958,1,0,0:0:0:0:
199,363,35429,1,0,0:0:0:0:
114,256,35899,6,0,P|106:193|131:122,1,124
250,87,36841,2,0,B|373:73|373:73|442:95|464:186,1,248
344,237,38253,2,0,L|209:203,2,124
439,334,39665,6,0,P|469:288|470:204,1,124
389,113,40607,1,0,0:0:0:0:
268,176,41078,2,0,L|128:156,1,124
46,63,42019,1,0,0:0:0:0:
2,192,42490,2,0,P|1:236|34:313,1,124
162,345,43431,6,0,B|285:328|285:328|411:361,1,248
489,252,44843,1,0,0:0:0:0:
390,157,45314,2,0,P|386:98|417:23,1,124
281,92,46256,2,0,L|141:69,1,124
39,138,47197,5,0,0:0:0:0:
214,347,48139,2,0,L|364:337,1,124
473,328,49080,1,0,0:0:0:0:
361,78,50022,2,0,P|300:114|234:121,1,124
119,76,50963,5,0,0:0:0:0:
16,328,51905,2,0,L|161:318,1,124
250,240,52846,2,0,L|373:248,1,124
472,342,53787,1,0,0:0:0:0:
511,211,54258,1,0,0:0:0:0:
426,104,54729,6,0,L|302:112,1,124
172,70,55670,1,0,0:0:0:0:
35,306,56612,2,0,P|101:273|176:271,1,124
270,332,57553,2,0,P|331:323|385:293,1,124
417,161,58495,6,0,L|408:31,1,124
281,87,59436,2,0,L|150:63,1,124
54,152,60378,2,0,P|110:151|171:191,1,124
240,300,61319,2,0,L|369:287,1,124
478,213,62261,6,0,L|461:340,2,124
417,90,63673,1,0,0:0:0:0:
292,144,64144,1,0,0:0:0:0:
256,192,65085,12,0,66027,0:0:0:0:
41,245,66968,6,0,L|166:238,1,124
282,307,67910,2,0,B|323:265|399:281|399:281|439:224|411:145,1,248
332,56,69322,1,0,0:0:0:0:
244,160,69792,6,0,P|174:168|111:146,1,124
32,255,70734,2,0,P|92:246|152:262,1,124
246,361,71675,2,0,L|388:347,1,124
484,274,72617,1,0,0:0:0:0:
396,169,73088,1,0,0:0:0:0:
461,49,73558,6,0,L|322:35,1,124
234,126,74500,2,0,P|181:95|93:89,1,124
34,192,75441,2,0,L|47:328,1,124
169,257,76383,1,0,0:0:0:0:
269,349,76854,1,0,0:0:0:0:
396,302,77324,6,0,P|414:257|399:165,1,124
289,114,78266,2,0,L|159:120,1,124
37,72,79207,1,0,0:0:0:0:
256,192,79443,12,0,82267,0:0:0:0:
256,192,89799,12,0,91682,0:0:0:0:
392,271,92623,6,0,P|412:211|403:123,1,124
286,94,93564,2,0,B|161:106|161:106|43:49,1,248
0,180,94977,1,0,0:0:0:0:
92,279,95447,6,0,L|226:264,1,124
333,333,96389,2,0,L|467:318,1,124
506,192,97330,2,0,P|503:138|331:67,1,248
244,146,98743,1,0,0:0:0:0:
125,79,99213,6,0,L|-12:92,1,124
76,205,100155,2,0,L|51:333,1,124
178,273,101096,2,0,B|243:249|298:284|298:284|374:303|435:246,1,248
457,133,102508,1,0,0:0:0:0:
348,50,102979,6,0,L|203:63,1,124
110,136,103921,2,0,P|96:196|118:265,1,124
222,334,104862,2,0,L|353:316,1,124
472,364,105804,1,0,0:0:0:0:
508,232,106274,1,0,0:0:0:0:
388,165,106745,6,0,P|376:98|393:30,1,124
271,117,107687,2,0,L|138:100,1,124
50,197,108628,1,0,0:0:0:0:
110,319,109099,1,0,0:0:0:0:
233,260,109569,2,0,P|291:263|356:310,1,124
442,200,110511,6,0,B|453:167|453:167|441:68,1,124
312,37,111452,2,0,P|255:30|185:49,1,124
127,166,112394,2,0,L|253:186,1,124
377,138,113335,1,0,0:0:0:0:
416,268,113806,1,0,0:0:0:0:
312,356,114277,6,0,B|241:357|200:311|200:311|153:353|80:345,1,248
1,238,115689,1,0,0:0:0:0:
100,144,116160,2,0,P|116:88|102:21,2,124
205,230,117572,1,0,0:0:0:0:
323,162,118043,6,0,P|383:159|449:194,1,124
494,310,118984,2,0,P|438:336|377:333,1,124
266,253,119926,1,0,0:0:0:0:
256,192,120867,12,0,121809,0:0:0:0:
405,280,122750,6,0,L|423:147,1,124
326,59,123692,2,0,P|273:48|181:70,1,124
136,177,124633,1,0,0:0:0:0:
190,302,125104,1,0,0:0:0:0:
325,285,125574,6,0,P|344:233|327:152,1,124
203,128,126516,2,0,L|66:138,1,124
33,265,127457,2,0,L|170:275,1,124
286,229,128399,1,0,0:0:0:0:
376,330,128870,1,0,0:0:0:0:
496,265,129340,6,0,P|510:210|493:142,1,124
372,85,130282,2,0,L|241:97,1,124
122,44,131223,1,0,0:0:0:0:
63,167,131694,1,0,0:0:0:0:
179,238,132165,2,0,L|302:226,1,124
416,301,133106,6,0,P|434:182|347:97,1,248
217,130,134518,1,0,0:0:0:0:
122,228,134989,6,0,P|67:228|3:176,2,124
239,296,136401,1,0,0:0:0:0:
319,185,136872,2,0,P|331:141|309:43,1,124
184,47,137814,2,0,L|39:56,1,124
6,180,138755,5,0,0:0:0:0:
71,299,139226,1,0,0:0:0:0:
188,230,139697,2,0,P|240:228|323:257,1,124
403,346,140638,6,0,P|436:296|433:210,1,124
353,127,141580,2,0,L|229:133,1,124
103,80,142521,5,0,0:0:0:0:
256,192,153819,12,0,156643,0:0:0:0:
53,102,157585,6,0,L|189:96,1,124
305,141,158526,1,0,0:0:0:0:
436,105,158997,1,0,0:0:0:0:
499,225,159467,2,0,P|488:285|452:341,1,124
331,279,160409,2,0,B|270:263|270:263|198:286,1,124
100,360,161350,5,0,0:0:0:0:
11,255,161821,2,0,P|6:191|28:127,1,124
149,80,162763,1,0,0:0:0:0:
268,146,163233,2,0,L|400:133,1,124
455,254,164175,2,0,P|396:236|323:241,1,124
211,297,165116,6,0,P|146:305|34:169,1,248
100,61,166529,1,0,0:0:0:0:
216,131,166999,2,0,B|280:109|334:150|334:150|406:125|407:41,1,248
476,175,168411,1,0,0:0:0:0:
410,294,168882,6,0,L|150:265,1,248
34,310,170294,1,0,0:0:0:0:
3,176,170765,2,0,P|4:119|36:52,1,124
156,111,171707,2,0,L|296:94,1,124
256,192,172648,12,0,173590,0:0:0:0:
473,264,174531,6,0,L|334:251,1,124
246,342,175472,2,0,P|208:303|136:283,1,124
7,305,176414,1,0,0:0:0:0:
65,181,176885,1,0,0:0:0:0:
19,52,177355,6,0,L|167:41,1,124
255,120,178297,2,0,P|327:107|377:53,1,124
439,188,179238,2,0,L|423:326,1,124
304,245,180180,1,0,0:0:0:0:
212,346,180651,1,0,0:0:0:0:
85,295,181121,6,0,P|72:243|94:155,1,124
205,111,182063,2,0,L|342:128,1,124
454,73,183004,1,0,0:0:0:0:
484,206,183475,1,0,0:0:0:0:
397,311,183946,2,0,L|273:295,1,124
147,347,184887,6,0,P|98:339|60:160,1,248
164,100,186299,1,0,0:0:0:0:
276,176,186770,2,0,B|343:182|387:133|387:133|460:129|481:211,1,248
410,319,188182,1,0,0:0:0:0:
279,277,188653,6,0,L|143:295,1,124
116,162,189595,2,0,L|252:180,1,124
256,192,190536,12,0,192419,0:0:0:0:
50,279,193360,6,0,L|190:270,1,124
296,331,194302,2,0,P|358:323|422:269,1,124
460,162,195243,2,0,L|447:25,1,124
328,105,196185,6,0,B|264:108|212:72|212:72|143:43|73:103,1,248
29,207,197597,1,0,0:0:0:0:
102,322,198068,2,0,L|235:307,1,124
336,228,199009,2,0,L|459:241,1,124
502,112,199951,6,0,P|451:53|292:56,1,248
220,172,201363,1,0,0:0:0:0:
315,269,201834,2,0,L|447:257,2,124
213,360,203246,1,0,0:0:0:0:
95,290,203717,6,0,P|83:220|110:159,1,124
228,124,204658,2,0,L|366:138,1,124
483,99,205600,1,0,0:0:0:0:
506,233,206070,1,0,0:0:0:0:
393,309,206541,2,0,L|269:296,1,124
150,229,207483,6,0,B|82:227|39:275|39:275|-4:222|25:133,1,248
125,72,208895,1,0,0:0:0:0:
229,159,209365,2,0,P|304:178|433:63,1,248
298,38,210778,1,0,0:0:0:0:
171,88,211248,6,0,P|104:93|38:67,1,124
120,192,212190,2,0,P|120:252|93:304,2,92.9999999999999
