osu file format v14

[General]
AudioFilename: nameless.mp3
AudioLeadIn: 0
PreviewTime: 65968
Countdown: 0
SampleSet: Normal
StackLeniency: 0.7
Mode: 0
LetterboxInBreaks: 0
WidescreenStoryboard: 1

[Editor]
Bookmarks: 2007,17070,30251,31192,32134,47197,58495,64144,65085,66027,79207,91211,91682,105804,106745,114277,119926,120867,121809,134989,142521,156643,157114,157585,165116,172648,173590,190536,207483,210307,210542,210778,211248,212543,212896
DistanceSpacing: 1.2
BeatDivisor: 4
GridSize: 32
TimelineZoom: 2.6

[Metadata]
Title:Milk Crown on Sonnetica
TitleUnicode:ミルククラウン・オン・ソーネチカ
Artist:nameless
ArtistUnicode:nameless
Creator:Len
Version:Pure 101%
Source:
Tags:utaite ユジー yuzy P 窓付き@ vocaloid Hatsune Miku Fast yf_bmp toybot Reol [_halloween_] byfar Evil_twilight
BeatmapID:1087334
BeatmapSetID:327557

[Difficulty]
HPDrainRate:5.7
CircleSize:4
OverallDifficulty:8.6
ApproachRate:10
SliderMultiplier:1.65
SliderTickRate:2

[Events]
//Background and Video events
0,0,"gfhfgh.jpg",0,0
//Break Periods
2,142721,153369
//Storyboard Layer 0 (Background)
//Storyboard Layer 1 (Fail)
//Storyboard Layer 2 (Pass)
//Storyboard Layer 3 (Foreground)
//Storyboard Sound Samples

[TimingPoints]
2007,235.367958575239,4,1,1,70,1,0
2007,-200,4,1,1,70,0,0
15540,-125,4,1,1,70,0,0
17070,-100,4,1,1,70,0,1
29309,-83.3333333333333,4,1,1,70,0,1
29427,-100,4,1,1,70,0,1
30251,-100,4,1,1,70,0,0
30780,-100,4,1,1,5,0,0
30839,-76.9230769230769,4,1,1,70,0,0
31016,-100,4,1,1,5,0,0
31074,-100,4,1,1,70,0,0
32134,-111.111111111111,4,1,1,70,0,0
33075,-100,4,1,1,70,0,0
57789,-100,4,1,1,30,0,0
58024,-100,4,1,1,70,0,0
58495,-100,4,1,1,70,0,0
66027,-100,4,1,1,70,0,1
79207,-111.111111111111,4,1,1,70,0,0
85091,-100,4,1,1,70,0,0
85327,-111.111111111111,4,1,1,70,0,0
91211,-200,4,1,1,70,0,0
91682,235.367958575239,4,1,1,70,1,0
114277,-100,4,1,1,70,0,0
121809,-100,4,1,1,70,0,1
134989,-111.111111111111,4,1,1,70,0,0
135225,-100,4,1,1,70,0,0
157114,-166.666666666667,4,1,1,50,0,0
157585,-100,4,1,1,70,0,0
165116,-100,4,1,1,70,0,0
172648,-100,4,1,1,40,0,0
173590,-100,4,1,1,70,0,1
190536,-100,4,1,1,70,0,0
192419,-100,4,1,1,70,0,1
206541,-76.9230769230769,4,1,1,70,0,1
206776,-100,4,1,1,70,0,1
210778,-100,4,1,1,70,0,0
211248,-111.111111111111,4,1,1,70,0,0

[Colours]
Combo1 : 255,234,170
Combo2 : 179,255,179
Combo3 : 172,209,255
Combo4 : 252,194,203

[HitObjects]
192,255,2007,6,0,P|151:229|107:230,1,82.5
40,263,2360,1,0,0:0:0:0:
298,195,2595,1,0,0:0:0:0:
192,255,2830,6,0,L|178:336,2,82.5
47,178,3419,2,0,L|38:137,1,41.25
40,263,3654,2,0,L|-1:288,1,41.25
133,146,3889,5,0,0:0:0:0:
133,146,4007,2,0,L|230:168,1,82.5
370,96,4360,2,0,L|426:85,1,41.25
288,114,4713,5,0,0:0:0:0:
462,15,4949,1,0,0:0:0:0:
288,114,5184,1,0,0:0:0:0:
371,181,5302,2,0,L|382:268,1,82.5
381,262,5772,6,0,P|419:265|452:223,1,82.5
512,297,6125,2,0,L|501:384,2,82.5
222,216,6832,1,0,0:0:0:0:
442,191,7067,5,0,0:0:0:0:
381,262,7185,2,0,L|376:303,1,41.25
372,137,7420,2,0,L|367:95,1,41.25
305,208,7655,6,0,L|211:218,1,82.5
145,166,8008,2,0,L|105:77,1,82.5
110,325,8479,6,0,L|150:236,2,82.5
69,204,9068,1,0,0:0:0:0:
303,283,9303,1,0,0:0:0:0:
110,325,9538,5,0,0:0:0:0:
69,204,10009,5,0,0:0:0:0:
110,325,10480,5,0,0:0:0:0:
69,204,10950,5,0,0:0:0:0:
194,228,11186,1,0,0:0:0:0:
302,65,11421,5,0,0:0:0:0:
150,128,11892,5,0,0:0:0:0:
302,65,12363,5,0,0:0:0:0:
150,128,12833,5,0,0:0:0:0:
337,159,13069,1,0,0:0:0:0:
121,29,13304,5,0,0:0:0:0:
82,242,13775,5,0,0:0:0:0:
121,29,14246,5,0,0:0:0:0:
82,242,14716,5,0,0:0:0:0:
249,175,14952,1,0,0:0:0:0:
447,336,15187,5,0,0:0:0:0:
174,320,15422,1,0,0:0:0:0:
174,320,15540,2,0,L|155:171,1,132
441,93,16011,6,0,P|382:88|339:18,2,132
506,30,16599,1,0,0:0:0:0:
98,150,16835,5,0,0:0:0:0:
161,292,16952,1,0,0:0:0:0:
98,150,17070,6,0,L|83:246,1,82.5
187,369,17305,2,0,P|179:322|154:284,1,82.5
67,324,17541,5,0,0:0:0:0:
314,242,17658,1,0,0:0:0:0:
314,242,17776,2,0,L|301:160,1,82.5
412,54,18012,6,0,P|404:101|379:139,1,82.5
246,88,18247,1,0,0:0:0:0:
484,125,18365,1,0,0:0:0:0:
246,88,18482,2,0,L|159:73,1,82.5
314,242,18718,2,0,L|227:257,1,82.5
474,43,18953,6,0,P|465:124|455:224,2,165
375,118,19541,1,0,0:0:0:0:
277,16,19659,1,0,0:0:0:0:
115,220,19777,1,0,0:0:0:0:
2,48,19894,6,0,P|83:60|165:74,1,165
277,16,20248,1,0,0:0:0:0:
115,220,20365,6,0,P|85:177|91:126,1,82.5
277,16,20601,2,0,P|271:56|245:87,1,82.5
115,220,20836,6,0,P|104:310|94:394,2,165
15,294,21424,1,0,0:0:0:0:
290,313,21542,2,0,P|241:283|184:288,1,82.5
42,161,21777,6,0,P|120:177|214:131,1,165
283,76,22130,1,0,0:0:0:0:
217,280,22248,2,0,L|319:302,1,82.5
180,23,22484,2,0,L|201:173,1,123.75
197,145,22719,6,0,P|148:115|91:120,1,82.5
42,161,22954,1,0,0:0:0:0:
283,76,23072,1,0,0:0:0:0:
283,76,23190,2,0,P|345:93|375:99,1,82.5
461,26,23425,2,0,P|476:73|488:113,1,82.5
348,357,23660,5,0,0:0:0:0:
422,169,23778,1,0,0:0:0:0:
385,263,23896,5,0,0:0:0:0:
234,71,24013,1,0,0:0:0:0:
494,232,24131,5,0,0:0:0:0:
146,311,24249,1,0,0:0:0:0:
271,154,24366,5,0,0:0:0:0:
250,235,24484,1,0,0:0:0:0:
234,71,24602,6,0,L|250:235,1,165
139,33,24955,1,0,0:0:0:0:
87,176,25073,2,0,P|143:147|163:113,1,82.5
365,54,25308,2,0,P|336:24|298:10,1,82.5
404,310,25543,6,0,L|420:146,2,165
291,101,26132,1,0,0:0:0:0:
492,113,26249,2,0,P|460:138|420:145,1,82.5
164,191,26485,6,0,P|230:175|341:231,1,165
115,276,26838,1,0,0:0:0:0:
115,276,26956,2,0,L|107:373,1,82.5
306,33,27191,2,0,L|314:130,1,82.5
21,231,27426,6,0,P|101:241|164:191,1,165
498,277,27779,1,0,0:0:0:0:
455,182,27897,5,0,0:0:0:0:
434,354,28015,1,0,0:0:0:0:
455,182,28132,2,0,L|443:98,1,82.5
298,358,28368,5,0,0:0:0:0:
395,262,28485,1,0,0:0:0:0:
234,189,28603,1,0,0:0:0:0:
298,358,28721,6,0,L|390:342,1,82.5
470,324,28956,1,0,0:0:0:0:
222,281,29074,2,0,L|130:265,1,82.5
348,53,29309,6,0,L|365:151,1,98.9999969787599
365,151,29545,2,0,P|402:131|442:130,1,82.5
256,19,29780,5,0,0:0:0:0:
426,220,29898,1,0,0:0:0:0:
463,11,30015,5,0,0:0:0:0:
311,265,30133,1,0,0:0:0:0:
119,109,30251,5,0,0:0:0:0:
366,151,30368,1,0,0:0:0:0:
40,163,30604,6,0,B|27:122|27:122|11:226,1,123.75
58,272,30839,2,0,L|234:253,1,160.874992635727
254,249,31074,5,0,0:0:0:0:
21,352,31192,1,0,0:0:0:0:
401,67,32134,6,0,P|392:106|386:146,1,74.2499977340699
384,260,32369,2,0,P|354:232|323:207,1,74.2499977340699
467,197,32604,1,0,0:0:0:0:
294,123,32722,1,0,0:0:0:0:
294,123,32840,2,0,P|260:136|225:148,1,74.2499977340699
133,216,33075,5,0,0:0:0:0:
147,51,33193,2,0,P|140:133|133:216,1,165
245,318,33546,2,0,P|241:280|219:232,1,82.5
60,94,33781,2,0,P|42:129|43:171,1,82.5
75,326,34017,6,0,P|139:303|176:295,2,82.5
5,256,34370,1,0,0:0:0:0:
263,207,34487,2,0,P|193:197|130:126,1,165
131,130,34840,6,0,L|121:229,1,82.5
401,14,35076,1,0,0:0:0:0:
355,107,35193,2,0,P|362:189|372:275,1,165
300,340,35546,5,0,0:0:0:0:
463,249,35664,1,0,0:0:0:0:
263,207,35782,1,0,0:0:0:0:
463,249,35899,6,0,P|466:202|470:147,1,82.5
436,339,36135,2,0,P|475:365|520:396,1,82.5
371,271,36370,1,0,0:0:0:0:
371,271,36488,1,0,0:0:0:0:
208,311,36606,2,0,P|248:320|288:328,1,82.5
339,177,36841,6,0,P|296:187|266:223,1,82.5
83,294,37076,2,0,P|119:318|135:362,1,82.5
160,220,37312,2,0,P|151:171|149:115,1,82.5
342,268,37547,1,0,0:0:0:0:
342,268,37665,1,0,0:0:0:0:
375,127,37782,5,0,0:0:0:0:
239,174,37900,2,0,P|318:183|375:127,1,165
305,18,38253,2,0,P|293:57|287:98,2,82.5
511,173,38606,6,0,P|454:117|375:126,1,165
239,174,38959,2,0,P|160:183|103:127,1,165
85,37,39312,5,0,0:0:0:0:
32,204,39430,1,0,0:0:0:0:
191,103,39548,1,0,0:0:0:0:
32,204,39665,6,0,P|25:266|20:298,1,82.5
116,361,39901,2,0,P|173:336|203:324,1,82.5
210,210,40136,2,0,P|159:172|134:152,1,82.5
119,258,40372,1,0,0:0:0:0:
284,282,40489,1,0,0:0:0:0:
284,282,40607,6,0,P|339:276|383:271,1,82.5
338,147,40842,1,0,0:0:0:0:
477,190,40960,2,0,P|398:201|339:149,1,165
189,233,41313,2,0,P|148:237|106:242,1,82.5
255,64,41548,6,0,P|245:104|239:145,1,82.5
19,89,41784,1,0,0:0:0:0:
89,161,41901,1,0,0:0:0:0:
89,161,42019,2,0,P|98:201|105:241,1,82.5
157,94,42254,1,0,0:0:0:0:
29,272,42372,6,0,L|191:244,1,165
482,167,42725,2,0,L|320:140,1,165
283,320,43078,6,0,P|294:253|285:202,1,82.5
225,88,43314,1,0,0:0:0:0:
283,320,43431,6,0,P|371:332|445:347,1,165
191,243,43784,1,0,0:0:0:0:
372,213,43902,2,0,P|381:150|390:104,1,82.5
175,149,44137,2,0,P|166:86|157:40,1,82.5
283,103,44373,6,0,P|292:40|301:-6,1,82.5
65,117,44608,2,0,P|46:56|35:10,1,82.5
191,243,44843,1,0,0:0:0:0:
175,149,44961,1,0,0:0:0:0:
59,309,45079,2,0,P|75:253|89:196,1,82.5
337,118,45314,6,0,P|255:133|175:149,1,165
65,117,45667,1,0,0:0:0:0:
81,229,45785,2,0,P|70:269|59:309,2,82.5
150,27,46138,6,0,L|174:149,1,123.75
186,184,46373,2,0,P|217:151|265:131,1,82.5
65,117,46609,1,0,0:0:0:0:
347,158,46726,1,0,0:0:0:0:
347,158,46962,6,0,L|359:107,3,41.25
390,90,47197,6,0,L|373:6,1,82.5
478,188,47433,2,0,L|494:107,1,82.5
405,338,47668,2,0,L|388:257,1,82.5
159,293,47903,1,0,0:0:0:0:
310,323,48021,6,0,P|229:332|158:292,1,165
39,177,48374,2,0,P|57:226|71:347,1,165
253,178,48727,1,0,0:0:0:0:
154,189,48845,2,0,P|167:138|183:101,1,82.5
61,21,49080,6,0,P|76:59|86:100,2,82.5
39,177,49433,1,0,0:0:0:0:
178,110,49551,2,0,P|259:120|364:133,1,165
474,220,49904,6,0,P|447:142|446:33,1,165
352,309,50257,2,0,P|366:262|372:202,1,82.5
464,340,50492,1,0,0:0:0:0:
243,291,50610,1,0,0:0:0:0:
243,291,50728,2,0,P|249:331|261:371,1,82.5
341,151,50963,6,0,P|285:178|259:195,1,82.5
98,183,51198,2,0,P|133:204|171:220,1,82.5
201,39,51434,2,0,P|195:79|192:121,1,82.5
243,291,51669,1,0,0:0:0:0:
431,166,51787,6,0,P|349:177|267:188,1,165
75,101,52140,2,0,P|60:40|53:1,1,82.5
171,220,52375,2,0,P|162:260|152:300,1,82.5
62,205,52611,1,0,0:0:0:0:
62,205,52728,1,0,0:0:0:0:
186,109,52846,6,0,P|237:75|277:49,1,82.5
152,300,53081,2,0,P|191:311|231:323,1,82.5
419,117,53317,2,0,P|378:124|338:133,1,82.5
305,253,53552,1,0,0:0:0:0:
450,315,53670,6,0,P|385:265|305:253,1,165
152,300,54023,2,0,P|112:311|72:323,1,82.5
195,187,54258,5,0,0:0:0:0:
7,170,54376,1,0,0:0:0:0:
235,92,54494,1,0,0:0:0:0:
85,111,54611,1,0,0:0:0:0:
277,0,54729,6,0,L|299:198,1,165
304,253,55082,1,0,0:0:0:0:
380,83,55200,1,0,0:0:0:0:
440,309,55317,1,0,0:0:0:0:
440,309,55553,6,0,P|384:251|304:253,1,165
238,327,55906,1,0,0:0:0:0:
155,156,56023,1,0,0:0:0:0:
64,215,56141,2,0,P|141:193|209:234,1,165
238,327,56494,5,0,0:0:0:0:
238,327,56612,2,0,P|154:340|140:344,1,82.5
9,73,56847,2,0,P|91:87|107:90,1,82.5
155,156,57083,2,0,P|177:115|179:56,1,82.5
37,275,57318,2,0,P|44:315|61:352,1,82.5
344,265,57553,5,0,0:0:0:0:
238,327,57671,1,0,0:0:0:0:
344,265,57789,2,0,P|354:210|366:159,1,82.5
411,369,58024,5,0,0:0:0:0:
416,368,58082,1,0,0:0:0:0:
421,367,58141,1,0,0:0:0:0:
426,366,58200,1,0,0:0:0:0:
431,365,58259,1,0,0:0:0:0:
436,364,58318,1,0,0:0:0:0:
441,364,58377,1,0,0:0:0:0:
446,363,58435,1,0,0:0:0:0:
452,362,58495,6,0,B|498:306|483:235|483:235|454:277,1,165
250,303,58848,1,0,0:0:0:0:
319,229,58966,2,0,P|398:214|466:259,1,165
221,210,59319,1,0,0:0:0:0:
285,133,59436,6,0,P|293:93|302:53,1,82.5
250,303,59672,2,0,P|242:343|235:386,1,82.5
119,184,59907,2,0,P|128:224|136:265,1,82.5
374,110,60142,1,0,0:0:0:0:
356,210,60260,1,0,0:0:0:0:
302,52,60378,5,0,0:0:0:0:
445,38,60495,2,0,P|377:79|302:52,1,165
198,165,60848,2,0,P|263:149|314:144,1,82.5
508,221,61084,1,0,0:0:0:0:
400,256,61202,1,0,0:0:0:0:
470,133,61319,6,0,P|481:74|491:38,1,82.5
278,146,61555,2,0,P|297:236|314:320,1,165
243,380,61908,1,0,0:0:0:0:
186,220,62025,1,0,0:0:0:0:
400,256,62143,1,0,0:0:0:0:
126,293,62261,6,0,P|85:303|44:314,1,82.5
278,146,62496,2,0,P|237:136|196:125,1,82.5
195,379,62731,6,0,P|219:346|221:306,1,82.5
85,30,62967,2,0,P|86:70|110:103,1,82.5
334,79,63202,5,0,0:0:0:0:
133,189,63320,1,0,0:0:0:0:
384,252,63438,5,0,0:0:0:0:
198,125,63555,1,0,0:0:0:0:
170,270,63673,5,0,0:0:0:0:
414,126,63791,1,0,0:0:0:0:
175,39,63908,5,0,0:0:0:0:
337,345,64026,1,0,0:0:0:0:
256,192,64144,5,0,0:0:0:0:
76,57,65085,6,0,L|69:101,3,41.25
6,159,65320,2,0,L|13:203,3,41.25
79,270,65556,5,0,0:0:0:0:
78,275,65614,1,0,0:0:0:0:
77,280,65673,1,0,0:0:0:0:
76,285,65732,1,0,0:0:0:0:
75,290,65791,1,0,0:0:0:0:
74,295,65850,1,0,0:0:0:0:
74,300,65909,1,0,0:0:0:0:
73,305,65967,1,0,0:0:0:0:
71,311,66027,6,0,P|30:307|-5:267,1,82.5
177,274,66262,1,0,0:0:0:0:
177,274,66380,1,0,0:0:0:0:
75,109,66497,2,0,P|84:189|86:217,1,82.5
270,375,66733,2,0,L|279:293,1,82.5
290,200,66968,5,0,0:0:0:0:
479,291,67086,1,0,0:0:0:0:
505,191,67203,1,0,0:0:0:0:
365,328,67321,1,0,0:0:0:0:
295,110,67439,1,0,0:0:0:0:
415,235,67556,1,0,0:0:0:0:
266,368,67674,2,0,P|221:356|179:347,1,82.5
390,143,67910,6,0,P|435:131|477:122,1,82.5
147,67,68145,2,0,P|214:113|295:110,1,165
366,42,68498,1,0,0:0:0:0:
221,238,68616,1,0,0:0:0:0:
302,192,68733,1,0,0:0:0:0:
140,283,68851,6,0,P|136:324|132:365,1,82.5
302,192,69086,2,0,P|299:151|295:110,1,82.5
232,337,69322,1,0,0:0:0:0:
373,263,69439,1,0,0:0:0:0:
373,263,69498,1,0,0:0:0:0:
373,263,69557,1,0,0:0:0:0:
202,159,69675,1,0,0:0:0:0:
114,228,69792,6,0,P|62:233|19:238,2,82.5
251,75,70146,2,0,P|340:68|425:125,1,165
164,142,70499,2,0,P|153:89|136:35,1,82.5
239,306,70734,5,0,0:0:0:0:
283,158,70852,1,0,0:0:0:0:
337,361,70969,1,0,0:0:0:0:
512,188,71087,2,0,P|423:181|338:238,1,165
49,343,71440,2,0,P|95:354|140:363,1,82.5
396,294,71675,5,0,0:0:0:0:
251,338,71793,1,0,0:0:0:0:
283,158,71911,1,0,0:0:0:0:
251,338,72028,2,0,P|235:291|212:240,1,82.5
372,68,72264,1,0,0:0:0:0:
126,247,72382,2,0,P|148:204|165:149,1,82.5
268,15,72617,5,0,0:0:0:0:
99,95,72735,1,0,0:0:0:0:
336,155,72852,5,0,0:0:0:0:
84,95,72970,1,0,0:0:0:0:
377,33,73088,5,0,0:0:0:0:
68,96,73205,1,0,0:0:0:0:
410,218,73323,5,0,0:0:0:0:
420,219,73381,1,0,0:0:0:0:
430,221,73440,1,0,0:0:0:0:
440,222,73499,1,0,0:0:0:0:
450,224,73558,6,0,P|435:178|430:126,1,82.5
280,3,73794,2,0,P|273:43|259:82,1,82.5
152,141,74029,2,0,P|105:147|52:153,1,82.5
368,342,74264,2,0,P|415:336|468:330,1,82.5
176,265,74500,5,0,0:0:0:0:
255,186,74618,1,0,0:0:0:0:
176,265,74735,2,0,P|129:259|76:253,1,82.5
350,166,74971,1,0,0:0:0:0:
181,120,75088,1,0,0:0:0:0:
350,166,75206,2,0,P|361:224|368:257,1,82.5
248,47,75441,6,0,B|203:29|203:29|54:55,1,165
1,68,75794,1,0,0:0:0:0:
181,120,75912,2,0,L|195:201,1,82.5
91,338,76147,2,0,P|97:302|105:256,1,82.5
276,148,76383,5,0,0:0:0:0:
88,49,76500,1,0,0:0:0:0:
195,201,76618,1,0,0:0:0:0:
333,72,76736,1,0,0:0:0:0:
333,72,76854,2,0,P|380:63|423:55,1,82.5
195,201,77089,2,0,P|117:188|46:177,1,123.75
30,173,77324,6,0,P|16:121|0:80,1,82.5
111,280,77560,1,0,0:0:0:0:
223,109,77677,1,0,0:0:0:0:
273,343,77795,2,0,P|326:357|364:367,1,82.5
195,201,78030,2,0,P|157:244|39:236,1,165
283,254,78383,5,0,0:0:0:0:
223,109,78501,1,0,0:0:0:0:
184,327,78619,1,0,0:0:0:0:
391,252,78736,1,0,0:0:0:0:
195,201,78854,1,0,0:0:0:0:
195,201,78913,1,0,0:0:0:0:
195,201,78972,1,0,0:0:0:0:
361,346,79090,1,0,0:0:0:0:
459,64,79207,5,0,0:0:0:0:
459,64,79443,2,0,P|447:115|450:151,1,74.2499977340699
493,220,79678,1,0,0:0:0:0:
282,86,79796,1,0,0:0:0:0:
282,86,79913,6,0,P|345:91|388:95,1,74.2499977340699
173,218,80149,1,0,0:0:0:0:
340,182,80266,1,0,0:0:0:0:
173,218,80384,2,0,P|158:167|145:136,1,74.2499977340699
252,368,80619,2,0,P|264:314|281:261,1,111.374996601105
281,261,80855,6,0,P|332:273|366:277,1,74.2499977340699
179,327,81090,2,0,P|142:365|121:392,1,74.2499977340699
67,209,81326,2,0,P|80:243|89:279,1,74.2499977340699
220,54,81561,5,0,0:0:0:0:
173,218,81679,1,0,0:0:0:0:
173,218,81737,1,0,0:0:0:0:
173,218,81796,1,0,0:0:0:0:
59,80,81914,1,0,0:0:0:0:
264,162,82032,1,0,0:0:0:0:
89,279,82149,1,0,0:0:0:0:
264,162,82267,6,0,B|348:154|315:212|427:195,1,148.49999546814
473,144,82620,1,0,0:0:0:0:
274,249,82738,2,0,P|265:291|252:328,1,74.2499977340699
391,111,82973,6,0,P|380:76|373:40,1,74.2499977340699
485,234,83208,1,0,0:0:0:0:
331,179,83326,1,0,0:0:0:0:
434,328,83444,5,0,0:0:0:0:
246,155,83561,1,0,0:0:0:0:
271,376,83679,2,0,P|321:322|333:291,1,74.2499977340699
157,132,83915,6,0,B|102:154|26:148|26:148|52:117,1,148.49999546814
185,6,84268,1,0,0:0:0:0:
233,81,84385,2,0,P|239:118|246:155,1,74.2499977340699
102,288,84621,6,0,P|103:237|120:202,1,74.2499977340699
445,306,84856,2,0,P|456:341|454:378,1,74.2499977340699
192,260,85091,2,0,P|239:222|299:230,1,123.75
323,247,85327,1,0,0:0:0:0:
423,200,85444,5,0,0:0:0:0:
370,348,85562,1,0,0:0:0:0:
277,147,85680,1,0,0:0:0:0:
323,247,85797,1,0,0:0:0:0:
413,100,85915,1,0,0:0:0:0:
223,294,86033,6,0,P|177:307|121:323,1,74.2499977340699
423,200,86268,2,0,P|469:213|525:229,1,74.2499977340699
188,114,86504,2,0,P|142:101|86:85,1,74.2499977340699
10,228,86739,6,0,P|83:220|157:213,1,148.49999546814
255,200,87092,1,0,0:0:0:0:
151,314,87210,1,0,0:0:0:0:
188,114,87327,1,0,0:0:0:0:
285,358,87445,6,0,P|302:321|303:283,1,74.2499977340699
255,200,87680,1,0,0:0:0:0:
397,262,87798,1,0,0:0:0:0:
193,369,87915,1,0,0:0:0:0:
136,140,88033,1,0,0:0:0:0:
350,191,88151,6,0,P|409:180|445:175,1,74.2499977340699
80,53,88387,1,0,0:0:0:0:
192,227,88504,1,0,0:0:0:0:
49,196,88622,1,0,0:0:0:0:
223,84,88740,1,0,0:0:0:0:
70,300,88857,5,0,0:0:0:0:
279,171,88975,1,0,0:0:0:0:
136,140,89093,1,0,0:0:0:0:
322,309,89210,1,0,0:0:0:0:
49,196,89328,5,0,0:0:0:0:
398,88,89446,1,0,0:0:0:0:
230,334,89563,1,0,0:0:0:0:
279,171,89681,1,0,0:0:0:0:
412,284,89799,5,0,0:0:0:0:
162,232,89916,1,0,0:0:0:0:
421,304,90034,5,0,0:0:0:0:
145,213,90152,2,0,P|120:169|139:97,1,111.374996601105
144,8,90387,2,0,P|154:62|129:111,1,111.374996601105
47,136,90623,5,0,0:0:0:0:
439,79,90740,1,0,0:0:0:0:
466,96,91211,6,0,P|411:88|421:24,1,123.75
466,96,91682,6,0,L|449:240,1,123.75
476,297,91917,2,0,P|463:258|451:218,1,82.5
296,163,92152,2,0,P|242:172|147:193,1,123.75
94,166,92388,2,0,P|134:175|174:186,1,82.5
270,340,92623,6,0,P|330:327|391:316,1,123.75
476,297,92858,2,0,P|463:258|451:218,1,82.5
310,40,93094,2,0,L|296:163,1,123.75
279,247,93329,2,0,P|239:236|198:227,1,82.5
50,86,93564,6,0,P|99:128|184:113,1,123.75
226,81,93800,2,0,L|239:-7,1,82.5
77,251,94035,2,0,L|89:332,2,82.5
297,154,94388,6,0,P|232:107|155:128,1,165
223,346,94741,2,0,P|277:331|368:314,1,123.75
416,355,94977,2,0,P|380:334|343:317,1,82.5
215,197,95212,1,0,0:0:0:0:
215,197,95330,1,0,0:0:0:0:
413,111,95447,6,0,P|423:176|438:253,1,123.75
512,221,95683,2,0,L|500:140,1,82.5
331,45,95918,2,0,L|314:142,1,82.5
215,197,96153,2,0,L|137:225,1,82.5
6,114,96389,6,0,L|160:144,1,123.75
179,65,96624,2,0,L|88:46,1,82.5
51,248,96860,2,0,L|30:348,1,82.5
215,197,97095,2,0,P|227:306|230:342,1,123.75
305,348,97330,6,0,P|267:331|228:320,1,82.5
430,270,97566,2,0,P|467:253|507:241,1,82.5
304,163,97801,2,0,P|298:101|290:39,1,123.75
289,27,98036,1,0,0:0:0:0:
335,258,98154,6,0,P|293:191|215:197,1,165
110,364,98507,2,0,P|190:353|278:342,1,165
131,248,98860,1,0,0:0:0:0:
194,79,98978,2,0,P|249:100|296:107,1,82.5
49,211,99213,6,0,L|19:62,1,123.75
91,26,99449,2,0,L|110:129,1,82.5
292,185,99684,2,0,P|240:161|167:178,1,123.75
131,248,99919,2,0,L|112:351,1,82.5
362,377,100155,6,0,L|345:248,1,123.75
386,171,100390,2,0,P|432:184|483:197,1,82.5
253,89,100625,2,0,P|207:102|156:115,1,82.5
368,20,100861,1,0,0:0:0:0:
368,20,100979,1,0,0:0:0:0:
279,192,101096,6,0,L|295:314,1,123.75
375,349,101332,2,0,P|430:331|471:316,1,82.5
178,239,101567,2,0,P|122:230|45:331,1,165
173,110,101920,6,0,P|224:171|303:169,1,165
474,177,102273,2,0,P|460:106|451:40,1,123.75
450,34,102508,1,0,0:0:0:0:
303,169,102626,1,0,0:0:0:0:
265,86,102744,2,0,L|254:2,1,82.5
99,230,102979,6,0,P|156:208|215:188,1,123.75
303,169,103215,2,0,L|292:250,1,82.5
136,54,103450,2,0,L|125:135,1,82.5
397,19,103685,2,0,L|386:100,1,82.5
497,314,103921,6,0,P|439:292|380:272,1,123.75
292,250,104156,2,0,L|281:331,1,82.5
480,125,104391,2,0,L|469:206,1,82.5
99,71,104627,2,0,L|88:152,1,82.5
359,102,104862,6,0,B|285:80|295:151|203:131,1,165
197,130,105156,1,0,0:0:0:0:
190,128,105215,1,0,0:0:0:0:
184,126,105274,1,0,0:0:0:0:
177,123,105333,6,0,P|184:77|215:47,1,82.5
342,183,105568,2,0,L|362:341,1,123.75
361,327,105804,5,0,0:0:0:0:
331,89,105921,5,0,0:0:0:0:
227,223,106039,1,0,0:0:0:0:
465,193,106157,1,0,0:0:0:0:
248,130,106274,5,0,0:0:0:0:
206,316,106392,1,0,0:0:0:0:
423,114,106510,5,0,0:0:0:0:
424,105,106568,1,0,0:0:0:0:
426,97,106627,1,0,0:0:0:0:
427,89,106686,1,0,0:0:0:0:
429,81,106745,6,0,P|443:122|435:168,1,82.5
511,246,106980,2,0,P|482:278|438:294,1,82.5
37,286,107216,2,0,P|86:295|148:307,1,82.5
29,187,107451,2,0,P|78:196|140:208,1,82.5
365,345,107687,6,0,P|351:304|359:258,1,82.5
373,103,107922,2,0,P|336:119|310:151,1,82.5
102,103,108157,2,0,P|61:95|21:88,1,82.5
110,202,108392,2,0,P|69:194|29:187,1,82.5
500,209,108628,6,0,P|461:191|394:200,1,82.5
440,21,108863,2,0,P|443:63|485:117,1,82.5
37,286,109099,2,0,P|77:293|118:301,1,82.5
29,187,109334,2,0,P|69:194|110:202,1,82.5
512,174,109569,5,0,0:0:0:0:
338,260,109687,1,0,0:0:0:0:
384,171,109805,2,0,P|380:128|338:74,1,82.5
328,75,109981,1,0,0:0:0:0:
328,75,110040,5,0,0:0:0:0:
93,71,110276,5,0,0:0:0:0:
83,278,110393,1,0,0:0:0:0:
172,178,110511,6,0,L|256:173,1,82.5
474,162,110746,1,0,0:0:0:0:
460,162,110804,1,0,0:0:0:0:
446,160,110863,1,0,0:0:0:0:
433,156,110922,1,0,0:0:0:0:
421,150,110982,2,0,P|386:106|384:61,1,82.5
338,260,111217,2,0,P|328:322|321:370,1,82.5
322,366,111394,1,0,0:0:0:0:
322,366,111452,5,0,0:0:0:0:
238,250,111570,1,0,0:0:0:0:
422,318,111688,5,0,0:0:0:0:
228,379,111805,1,0,0:0:0:0:
422,318,111923,6,0,P|435:268|448:224,1,82.5
180,68,112159,2,0,P|191:108|202:148,1,82.5
209,170,112335,1,0,0:0:0:0:
209,170,112394,5,0,0:0:0:0:
87,43,112512,1,0,0:0:0:0:
280,102,112630,5,0,0:0:0:0:
113,217,112747,1,0,0:0:0:0:
280,102,112865,6,0,P|334:89|372:80,1,82.5
55,301,113100,1,0,0:0:0:0:
43,139,113218,1,0,0:0:0:0:
236,275,113335,6,0,P|174:230|114:245,1,123.75
55,301,113571,2,0,L|47:383,1,82.5
470,149,113806,2,0,L|462:67,1,82.5
309,10,114041,1,0,0:0:0:0:
306,40,114099,1,0,0:0:0:0:
303,71,114158,1,0,0:0:0:0:
300,102,114217,1,0,0:0:0:0:
297,133,114277,6,0,B|257:154|257:154|126:131,2,165
204,57,114865,1,0,0:0:0:0:
245,246,114983,1,0,0:0:0:0:
58,149,115101,1,0,0:0:0:0:
58,149,115218,6,0,P|98:140|139:133,1,82.5
190,324,115454,2,0,P|230:333|270:340,1,82.5
475,170,115689,2,0,P|402:153|338:222,1,165
364,306,116042,1,0,0:0:0:0:
190,324,116160,6,0,P|179:269|151:150,2,165
16,373,116748,2,0,P|66:358|105:349,1,82.5
288,295,116984,1,0,0:0:0:0:
278,127,117101,6,0,P|269:167|260:207,1,82.5
391,312,117337,2,0,P|382:272|374:232,1,82.5
154,162,117572,2,0,P|109:147|9:202,1,165
184,64,117925,1,0,0:0:0:0:
201,261,118043,6,0,P|248:251|312:236,1,82.5
184,64,118278,2,0,P|137:54|73:39,1,82.5
446,203,118513,6,0,P|406:212|366:221,1,82.5
22,63,118749,2,0,P|62:55|103:46,1,82.5
425,298,118984,5,0,0:0:0:0:
170,212,119102,1,0,0:0:0:0:
395,121,119220,5,0,0:0:0:0:
126,297,119337,1,0,0:0:0:0:
184,64,119455,5,0,0:0:0:0:
314,351,119573,1,0,0:0:0:0:
449,230,119690,5,0,0:0:0:0:
63,154,119808,1,0,0:0:0:0:
256,192,119926,5,0,0:0:0:0:
51,18,120867,6,0,P|62:111|68:153,1,123.75
142,192,121102,2,0,P|147:151|154:111,1,82.5
455,338,121338,5,0,0:0:0:0:
440,337,121396,1,0,0:0:0:0:
425,335,121455,1,0,0:0:0:0:
409,333,121514,1,0,0:0:0:0:
394,332,121573,1,0,0:0:0:0:
379,330,121632,1,0,0:0:0:0:
363,328,121691,1,0,0:0:0:0:
348,326,121749,1,0,0:0:0:0:
333,324,121809,6,0,P|338:275|382:247,1,82.5
500,188,122044,2,0,P|446:178|386:164,1,82.5
134,105,122279,2,0,P|148:50|157:9,1,82.5
46,58,122515,1,0,0:0:0:0:
207,184,122632,1,0,0:0:0:0:
207,184,122750,6,0,P|216:224|226:264,1,82.5
283,116,122985,1,0,0:0:0:0:
114,228,123103,1,0,0:0:0:0:
328,293,123221,1,0,0:0:0:0:
134,105,123338,1,0,0:0:0:0:
206,344,123456,2,0,P|216:304|226:264,1,82.5
421,102,123692,6,0,P|382:90|352:63,1,82.5
174,188,123927,2,0,P|212:172|253:174,1,82.5
445,316,124162,1,0,0:0:0:0:
353,160,124280,1,0,0:0:0:0:
294,359,124398,1,0,0:0:0:0:
494,243,124515,1,0,0:0:0:0:
327,39,124633,6,0,P|338:99|353:160,1,123.75
366,244,124868,2,0,P|317:229|275:218,1,82.5
432,80,125104,2,0,P|481:65|523:54,1,82.5
205,248,125339,2,0,P|165:261|131:284,1,82.5
201,339,125574,5,0,0:0:0:0:
22,178,125692,1,0,0:0:0:0:
80,360,125810,1,0,0:0:0:0:
276,152,125928,2,0,B|232:145|232:145|198:129|198:129|163:136|163:136|99:127,1,165
348,217,126281,2,0,P|359:178|377:141,1,82.5
265,53,126516,5,0,0:0:0:0:
186,224,126633,1,0,0:0:0:0:
153,42,126751,1,0,0:0:0:0:
467,207,126869,2,0,P|406:199|348:217,1,123.75
287,277,127104,2,0,P|274:331|267:380,2,82.5
237,140,127457,5,0,0:0:0:0:
396,299,127575,1,0,0:0:0:0:
186,224,127693,1,0,0:0:0:0:
408,126,127810,2,0,P|416:79|423:36,1,82.5
287,277,128046,1,0,0:0:0:0:
457,215,128163,1,0,0:0:0:0:
319,78,128281,1,0,0:0:0:0:
396,299,128399,6,0,P|451:313|501:331,1,82.5
138,142,128634,2,0,P|83:156|33:174,1,82.5
297,40,128870,1,0,0:0:0:0:
294,55,128928,1,0,0:0:0:0:
291,70,128987,1,0,0:0:0:0:
288,85,129046,1,0,0:0:0:0:
285,100,129105,1,0,0:0:0:0:
283,116,129164,1,0,0:0:0:0:
280,131,129223,1,0,0:0:0:0:
276,146,129281,1,0,0:0:0:0:
273,161,129340,6,0,P|239:124|241:83,1,82.5
412,25,129576,1,0,0:0:0:0:
356,210,129693,1,0,0:0:0:0:
155,88,129811,1,0,0:0:0:0:
427,127,129929,1,0,0:0:0:0:
427,127,130046,2,0,P|437:173|450:231,1,82.5
61,329,130282,6,0,P|69:288|78:248,1,82.5
39,143,130517,1,0,0:0:0:0:
210,241,130635,1,0,0:0:0:0:
43,341,130753,5,0,0:0:0:0:
228,237,130870,1,0,0:0:0:0:
28,134,130988,2,0,P|23:80|19:36,1,82.5
325,109,131223,6,0,P|276:78|194:84,1,123.75
144,122,131459,2,0,P|140:163|136:204,1,82.5
350,357,131694,2,0,P|407:342|483:324,1,123.75
494,321,131929,1,0,0:0:0:0:
311,192,132047,1,0,0:0:0:0:
162,357,132165,6,0,P|105:342|54:329,1,82.5
210,157,132400,2,0,P|225:228|234:265,1,82.5
47,162,132636,2,0,P|58:86|69:8,1,123.75
70,11,132871,1,0,0:0:0:0:
280,97,132989,1,0,0:0:0:0:
17,277,133106,6,0,P|44:255|105:251,1,82.5
318,356,133342,2,0,P|283:349|241:305,1,82.5
192,62,133577,1,0,0:0:0:0:
227,237,133695,1,0,0:0:0:0:
47,162,133812,1,0,0:0:0:0:
280,97,133930,1,0,0:0:0:0:
166,291,134048,5,0,0:0:0:0:
304,262,134165,1,0,0:0:0:0:
210,157,134283,1,0,0:0:0:0:
247,342,134401,1,0,0:0:0:0:
375,46,134518,2,0,P|366:109|357:164,1,82.5
97,119,134754,2,0,P|106:182|115:237,1,82.5
458,223,134989,6,0,L|440:348,1,111.374996601105
444,363,135225,2,0,P|399:336|353:332,1,82.5
268,246,135460,2,0,P|277:200|288:146,1,82.5
172,373,135695,2,0,P|212:363|250:338,1,82.5
458,223,135931,6,0,B|462:162|437:91|437:91|425:135,1,165
347,246,136284,2,0,P|299:237|178:218,1,165
330,134,136637,1,0,0:0:0:0:
38,88,136872,6,0,P|99:81|217:62,1,165
376,45,137225,1,0,0:0:0:0:
238,142,137343,2,0,P|284:77|259:2,1,165
201,64,137696,1,0,0:0:0:0:
367,146,137814,5,0,0:0:0:0:
56,61,138049,1,0,0:0:0:0:
127,125,138167,2,0,P|139:193|156:305,1,165
60,227,138520,6,0,P|28:222|1:218,2,55
243,242,138755,1,0,0:0:0:0:
56,61,138990,6,0,L|40:142,1,82.5
154,308,139226,1,0,0:0:0:0:
397,225,139461,6,0,P|357:207|305:200,1,82.5
74,347,139697,2,0,B|34:298|46:211|46:211|60:227,1,165
154,308,140050,2,0,P|213:303|353:289,1,165
155,204,140403,2,0,P|141:153|130:109,1,82.5
411,276,140638,6,0,P|400:315|389:355,1,82.5
228,149,140873,2,0,P|292:154|338:160,1,82.5
491,60,141109,2,0,P|427:65|381:71,1,82.5
497,229,141344,2,0,P|484:175|473:124,1,82.5
253,41,141580,6,0,L|143:52,1,82.5
75,184,141815,2,0,P|65:143|56:103,1,82.5
312,311,142050,5,0,0:0:0:0:
312,112,142168,1,0,0:0:0:0:
194,272,142285,1,0,0:0:0:0:
384,211,142403,1,0,0:0:0:0:
194,149,142521,5,0,0:0:0:0:
256,192,153819,12,0,156643,0:0:0:0:
175,132,157114,6,0,P|175:82|135:51,1,98.9999969787599
139,52,157585,6,0,L|120:233,1,165
56,343,157938,1,0,0:0:0:0:
219,248,158055,1,0,0:0:0:0:
25,137,158173,1,0,0:0:0:0:
219,248,158291,2,0,P|230:316|240:357,1,82.5
25,137,158526,6,0,P|107:153|185:78,2,165
210,30,159114,1,0,0:0:0:0:
379,118,159232,2,0,P|336:111|280:102,1,82.5
163,260,159467,6,0,P|232:235|291:220,1,123.75
322,212,159703,2,0,P|314:268|312:300,1,82.5
185,44,159938,2,0,P|193:100|195:132,1,82.5
379,372,160174,1,0,0:0:0:0:
226,328,160291,1,0,0:0:0:0:
446,210,160409,6,0,B|466:173|457:131|457:131|421:97|357:102,2,165
346,303,160997,1,0,0:0:0:0:
199,171,161115,2,0,P|239:178|280:188,1,82.5
463,316,161350,6,0,P|406:293|346:303,1,123.75
285,362,161586,2,0,P|237:368|193:380,1,82.5
15,220,161821,2,0,P|30:271|40:322,1,82.5
177,77,162057,1,0,0:0:0:0:
122,242,162174,1,0,0:0:0:0:
107,29,162292,6,0,P|118:88|136:170,1,123.75
212,171,162527,2,0,P|172:159|132:150,1,82.5
442,78,162763,2,0,P|370:89|287:29,1,165
27,117,163116,1,0,0:0:0:0:
235,292,163233,6,0,P|222:231|212:170,1,123.75
208,151,163469,1,0,0:0:0:0:
319,206,163586,1,0,0:0:0:0:
122,257,163704,2,0,P|70:244|23:237,1,82.5
301,113,163939,1,0,0:0:0:0:
235,292,164057,1,0,0:0:0:0:
70,29,164175,5,0,0:0:0:0:
208,151,164293,1,0,0:0:0:0:
21,151,164411,1,0,0:0:0:0:
235,47,164528,1,0,0:0:0:0:
99,48,164646,5,0,0:0:0:0:
101,68,164704,1,0,0:0:0:0:
104,88,164763,1,0,0:0:0:0:
107,109,164822,1,0,0:0:0:0:
110,129,164881,1,0,0:0:0:0:
113,150,164940,1,0,0:0:0:0:
117,170,164999,1,0,0:0:0:0:
120,190,165057,1,0,0:0:0:0:
123,211,165116,6,0,P|174:186|297:184,1,165
504,294,165469,2,0,P|440:280|394:259,2,82.5
332,332,165822,1,0,0:0:0:0:
420,161,165940,1,0,0:0:0:0:
186,90,166058,6,0,P|197:171|208:253,1,165
495,82,166411,2,0,P|426:45|320:41,1,165
22,185,166764,2,0,P|75:192|125:196,1,82.5
325,130,166999,5,0,0:0:0:0:
201,239,167117,1,0,0:0:0:0:
353,308,167235,1,0,0:0:0:0:
187,130,167352,2,0,P|172:74|165:37,1,82.5
459,130,167588,1,0,0:0:0:0:
311,239,167705,1,0,0:0:0:0:
477,346,167823,1,0,0:0:0:0:
325,130,167941,6,0,P|334:70|353:17,1,82.5
187,130,168176,2,0,P|172:74|165:37,1,82.5
406,289,168411,2,0,P|330:262|230:264,1,165
95,331,168765,1,0,0:0:0:0:
95,331,168823,1,0,0:0:0:0:
95,331,168882,5,0,0:0:0:0:
149,197,169000,1,0,0:0:0:0:
241,357,169118,1,0,0:0:0:0:
61,246,169235,1,0,0:0:0:0:
300,144,169353,5,0,0:0:0:0:
176,283,169471,1,0,0:0:0:0:
199,68,169588,1,0,0:0:0:0:
390,202,169706,1,0,0:0:0:0:
116,120,169824,5,0,0:0:0:0:
399,41,169941,1,0,0:0:0:0:
260,271,170059,1,0,0:0:0:0:
296,7,170177,1,0,0:0:0:0:
181,205,170294,5,0,0:0:0:0:
447,124,170412,1,0,0:0:0:0:
190,15,170530,1,0,0:0:0:0:
260,271,170647,1,0,0:0:0:0:
260,271,170706,1,0,0:0:0:0:
260,271,170765,5,0,0:0:0:0:
305,131,170883,1,0,0:0:0:0:
141,189,171001,1,0,0:0:0:0:
374,207,171118,1,0,0:0:0:0:
171,57,171236,5,0,0:0:0:0:
220,346,171354,1,0,0:0:0:0:
455,158,171471,1,0,0:0:0:0:
70,112,171589,1,0,0:0:0:0:
475,256,171707,6,0,P|465:296|457:336,1,82.5
20,206,171942,6,0,P|29:246|37:286,1,82.5
478,23,172177,6,0,P|469:63|461:104,1,82.5
37,17,172413,5,0,0:0:0:0:
162,363,172530,1,0,0:0:0:0:
162,363,172589,1,0,0:0:0:0:
162,363,172648,6,0,L|180:300,7,41.25
81,276,173119,5,0,0:0:0:0:
77,251,173179,1,0,0:0:0:0:
73,225,173237,1,0,0:0:0:0:
69,200,173296,1,0,0:0:0:0:
65,174,173355,1,0,0:0:0:0:
61,149,173414,1,0,0:0:0:0:
57,123,173473,1,0,0:0:0:0:
53,98,173532,1,0,0:0:0:0:
50,73,173590,6,0,B|112:34|187:57|187:57|146:78,1,165
167,67,173943,1,0,0:0:0:0:
253,264,174060,2,0,P|266:200|289:127,1,123.75
350,86,174296,2,0,P|339:34|330:-10,1,82.5
383,277,174531,5,0,0:0:0:0:
184,175,174649,1,0,0:0:0:0:
438,115,174766,1,0,0:0:0:0:
306,341,174884,1,0,0:0:0:0:
341,189,175002,1,0,0:0:0:0:
464,301,175119,1,0,0:0:0:0:
258,233,175237,1,0,0:0:0:0:
378,46,175355,1,0,0:0:0:0:
499,216,175472,6,0,P|437:205|376:196,1,123.75
248,140,175708,2,0,P|288:130|328:120,1,82.5
424,292,175943,1,0,0:0:0:0:
479,78,176061,1,0,0:0:0:0:
293,231,176179,2,0,P|283:287|276:342,1,82.5
52,35,176414,6,0,P|131:22|196:71,1,165
10,208,176767,1,0,0:0:0:0:
108,117,176885,1,0,0:0:0:0:
108,117,176944,1,0,0:0:0:0:
108,117,177002,1,0,0:0:0:0:
154,283,177120,2,0,P|141:343|137:374,1,82.5
99,201,177355,5,0,0:0:0:0:
258,254,177473,1,0,0:0:0:0:
41,289,177591,1,0,0:0:0:0:
324,326,177708,2,0,P|311:261|292:161,1,165
388,20,178062,2,0,P|380:72|369:117,1,82.5
210,241,178297,6,0,P|164:227|119:216,1,82.5
421,188,178532,1,0,0:0:0:0:
179,8,178650,2,0,P|193:84|205:144,1,123.75
207,154,178885,1,0,0:0:0:0:
45,278,179003,1,0,0:0:0:0:
90,101,179121,1,0,0:0:0:0:
210,241,179238,6,0,P|249:251|289:263,1,82.5
90,101,179474,2,0,P|50:111|10:123,1,82.5
297,62,179709,1,0,0:0:0:0:
119,186,179827,1,0,0:0:0:0:
344,158,179944,1,0,0:0:0:0:
179,8,180062,1,0,0:0:0:0:
366,171,180180,5,0,0:0:0:0:
90,101,180298,1,0,0:0:0:0:
414,40,180415,1,0,0:0:0:0:
394,337,180533,1,0,0:0:0:0:
222,226,180651,5,0,0:0:0:0:
223,210,180710,1,0,0:0:0:0:
225,195,180768,1,0,0:0:0:0:
226,179,180827,1,0,0:0:0:0:
228,164,180886,1,0,0:0:0:0:
230,149,180945,1,0,0:0:0:0:
231,133,181004,1,0,0:0:0:0:
233,118,181063,1,0,0:0:0:0:
234,102,181121,6,0,P|262:144|265:188,1,82.5
481,76,181357,2,0,P|428:60|393:48,1,82.5
235,316,181592,1,0,0:0:0:0:
425,263,181710,1,0,0:0:0:0:
215,300,181827,2,0,P|205:340|198:380,1,82.5
417,158,182063,6,0,P|336:163|272:114,1,165
328,253,182416,1,0,0:0:0:0:
370,54,182534,1,0,0:0:0:0:
441,269,182651,1,0,0:0:0:0:
272,114,182769,2,0,P|265:74|256:33,1,82.5
25,170,183004,6,0,P|105:164|169:213,1,165
198,313,183357,1,0,0:0:0:0:
25,170,183475,2,0,P|14:228|5:268,1,82.5
169,67,183710,1,0,0:0:0:0:
22,20,183828,1,0,0:0:0:0:
237,153,183946,6,0,P|305:137|373:126,1,123.75
448,115,184181,2,0,P|437:173|428:213,1,82.5
266,348,184416,2,0,P|340:351|408:272,1,165
111,250,184770,1,0,0:0:0:0:
111,250,184828,1,0,0:0:0:0:
111,250,184887,6,0,P|105:297|101:343,1,82.5
196,91,185123,2,0,P|201:138|206:184,1,82.5
106,37,185358,1,0,0:0:0:0:
303,100,185476,1,0,0:0:0:0:
225,259,185593,1,0,0:0:0:0:
303,100,185711,1,0,0:0:0:0:
304,314,185829,6,0,P|234:354|158:330,1,165
104,225,186182,1,0,0:0:0:0:
303,100,186299,2,0,P|383:110|454:120,1,123.75
461,120,186535,1,0,0:0:0:0:
393,12,186652,1,0,0:0:0:0:
359,202,186770,6,0,P|371:258|382:296,1,82.5
229,19,187006,2,0,P|217:75|194:171,1,123.75
194,169,187241,1,0,0:0:0:0:
303,100,187359,1,0,0:0:0:0:
115,36,187476,1,0,0:0:0:0:
303,100,187594,1,0,0:0:0:0:
101,197,187712,6,0,P|94:243|86:307,1,82.5
428,232,187947,2,0,P|354:243|274:172,1,165
229,19,188300,1,0,0:0:0:0:
375,141,188418,1,0,0:0:0:0:
187,189,188535,1,0,0:0:0:0:
370,51,188653,6,0,P|421:68|461:80,1,82.5
148,278,188888,2,0,P|97:295|30:312,1,123.75
11,298,189124,2,0,P|3:353|-1:386,1,82.5
159,52,189359,2,0,P|167:107|171:140,1,82.5
351,363,189595,5,0,0:0:0:0:
351,163,189712,1,0,0:0:0:0:
468,325,189829,1,0,0:0:0:0:
278,263,189947,1,0,0:0:0:0:
468,201,190065,2,0,P|473:160|479:119,1,82.5
278,263,190301,2,0,P|208:277|131:293,1,123.75
102,302,190536,5,0,0:0:0:0:
228,182,190654,1,0,0:0:0:0:
37,144,190771,1,0,0:0:0:0:
238,359,190889,1,0,0:0:0:0:
141,33,191124,5,0,0:0:0:0:
102,302,191360,5,0,0:0:0:0:
371,33,191595,5,0,0:0:0:0:
410,302,191831,5,0,0:0:0:0:
292,165,191948,2,0,B|259:141|259:141|157:152,1,123.75
93,224,192184,5,0,0:0:0:0:
123,228,192242,1,0,0:0:0:0:
154,232,192301,1,0,0:0:0:0:
185,236,192360,1,0,0:0:0:0:
216,239,192419,6,0,P|226:309|230:355,1,82.5
359,114,192654,2,0,P|363:73|370:32,1,82.5
104,126,192890,2,0,P|154:138|248:82,1,165
155,33,193243,1,0,0:0:0:0:
304,204,193360,6,0,P|352:213|413:227,1,82.5
480,197,193596,1,0,0:0:0:0:
330,301,193714,1,0,0:0:0:0:
330,301,193831,2,0,P|342:355|348:387,1,82.5
412,129,194067,2,0,P|420:89|430:49,1,82.5
195,15,194302,6,0,P|208:66|228:149,1,123.75
229,160,194537,2,0,P|191:138|150:136,1,82.5
25,288,194773,2,0,P|105:288|167:235,1,165
250,350,195126,1,0,0:0:0:0:
250,350,195185,1,0,0:0:0:0:
250,350,195243,6,0,P|306:337|339:333,1,82.5
448,198,195479,2,0,P|469:249|491:287,1,82.5
293,125,195714,1,0,0:0:0:0:
423,58,195832,1,0,0:0:0:0:
293,125,195950,2,0,P|279:188|270:222,1,82.5
58,56,196185,6,0,P|105:68|188:80,1,123.75
253,35,196420,2,0,P|314:25|363:18,1,82.5
508,255,196656,2,0,P|420:249|360:178,2,165
469,155,197244,5,0,0:0:0:0:
314,280,197362,1,0,0:0:0:0:
479,351,197479,1,0,0:0:0:0:
314,280,197597,2,0,P|257:286|226:292,1,82.5
13,212,197832,2,0,P|69:227|161:242,1,123.75
155,229,198068,6,0,P|138:269|134:319,1,82.5
92,118,198303,1,0,0:0:0:0:
92,118,198421,1,0,0:0:0:0:
232,290,198539,2,0,P|272:283|314:280,1,82.5
180,105,198774,2,0,P|133:37|33:51,2,165
155,229,199362,5,0,0:0:0:0:
305,149,199480,1,0,0:0:0:0:
307,133,199538,1,0,0:0:0:0:
309,118,199597,1,0,0:0:0:0:
312,103,199656,1,0,0:0:0:0:
314,87,199715,1,0,0:0:0:0:
317,72,199774,1,0,0:0:0:0:
319,57,199833,1,0,0:0:0:0:
321,42,199891,1,0,0:0:0:0:
324,26,199951,6,0,P|376:18|426:11,1,82.5
510,244,200186,2,0,P|450:253|397:223,1,123.75
379,204,200421,2,0,P|380:257|385:297,1,82.5
309,118,200657,1,0,0:0:0:0:
467,151,200775,1,0,0:0:0:0:
291,240,200892,6,0,B|233:280|154:261|154:261|175:241,1,165
216,163,201245,1,0,0:0:0:0:
224,350,201363,2,0,P|272:355|318:368,1,82.5
66,323,201598,2,0,P|54:262|41:201,1,123.75
66,188,201834,6,0,P|75:149|87:99,1,82.5
35,20,202069,1,0,0:0:0:0:
181,127,202187,1,0,0:0:0:0:
181,127,202304,2,0,P|227:115|289:102,1,82.5
505,123,202540,6,0,P|428:114|381:53,1,123.75
379,62,202775,2,0,P|367:120|352:168,1,82.5
244,326,203011,1,0,0:0:0:0:
401,362,203128,1,0,0:0:0:0:
230,307,203246,2,0,P|181:318|134:326,1,82.5
24,182,203481,1,0,0:0:0:0:
180,86,203599,1,0,0:0:0:0:
180,86,203717,6,0,P|162:163|148:246,1,123.75
171,230,203952,2,0,P|211:222|251:213,1,82.5
79,106,204187,2,0,P|70:53|64:15,1,82.5
360,188,204423,2,0,P|353:228|346:269,1,82.5
307,62,204658,6,0,P|355:100|470:80,2,165
496,173,205247,1,0,0:0:0:0:
367,244,205364,2,0,P|361:282|353:353,1,82.5
237,167,205600,6,0,P|225:100|206:9,1,123.75
207,16,205835,1,0,0:0:0:0:
101,142,205953,1,0,0:0:0:0:
307,62,206070,2,0,P|362:76|403:85,1,82.5
164,219,206306,2,0,P|109:233|68:242,1,82.5
475,357,206541,6,0,P|441:325|368:329,1,107.249995090485
352,342,206718,1,0,0:0:0:0:
352,342,206776,2,0,P|338:295|316:244,1,82.5
466,44,207012,5,0,0:0:0:0:
424,197,207129,1,0,0:0:0:0:
272,20,207247,1,0,0:0:0:0:
333,182,207365,1,0,0:0:0:0:
466,44,207483,6,0,P|400:66|321:89,1,123.75
272,122,207718,2,0,P|224:109|185:100,1,82.5
26,252,207953,5,0,0:0:0:0:
188,211,208071,1,0,0:0:0:0:
26,252,208189,1,0,0:0:0:0:
188,211,208306,1,0,0:0:0:0:
79,147,208424,6,0,P|109:239|125:294,1,123.75
147,339,208659,2,0,P|90:358|62:369,1,82.5
279,183,208895,5,0,0:0:0:0:
329,337,209012,1,0,0:0:0:0:
279,183,209130,1,0,0:0:0:0:
329,337,209248,1,0,0:0:0:0:
208,138,209365,6,0,P|250:105|342:125,1,123.75
368,175,209601,2,0,P|357:233|350:272,1,82.5
268,23,209836,5,0,0:0:0:0:
434,66,209954,1,0,0:0:0:0:
268,23,210072,1,0,0:0:0:0:
434,66,210189,1,0,0:0:0:0:
183,101,210307,5,0,0:0:0:0:
505,20,210542,5,0,0:0:0:0:
481,358,210778,5,0,0:0:0:0:
481,358,211248,6,0,B|417:393|358:362|358:362|339:322,2,148.49999546814
164,259,211955,2,0,B|228:224|287:255|287:255|306:295,1,148.49999546814
28,32,212543,6,0,P|42:91|56:185,1,148.49999546814
25,298,212896,1,0,0:0:0:0:
