osu file format v14

[General]
AudioFilename: nameless.mp3
AudioLeadIn: 0
PreviewTime: 65968
Countdown: 0
SampleSet: Normal
StackLeniency: 0.7
Mode: 0
LetterboxInBreaks: 0
WidescreenStoryboard: 1

[Editor]
Bookmarks: 2007,17070,30251,31192,32134,47197,58495,64144,65085,66027,79207,91211,91682,105804,106745,114277,119926,120867,121809,134989,142521,156643,157114,157585,165116,172648,173590,190536,207483,210307,210542,210778,211248,212543,212896
DistanceSpacing: 0.4
BeatDivisor: 4
GridSize: 4
TimelineZoom: 3

[Metadata]
Title:Milk Crown on Sonnetica
TitleUnicode:ミルククラウン・オン・ソーネチカ
Artist:nameless
ArtistUnicode:nameless
Creator:Len
Version:MiLk ShAke 9*
Source:
Tags:utaite ユジー yuzy P 窓付き@ vocaloid Hatsune Miku Fast yf_bmp toybot Reol [_halloween_] byfar Evil_twilight
BeatmapID:1199955
BeatmapSetID:327557

[Difficulty]
HPDrainRate:6
CircleSize:4.3
OverallDifficulty:8.9
ApproachRate:10
SliderMultiplier:1.9
SliderTickRate:1

[Events]
//Background and Video events
0,0,"23124.jpg",0,0
//Break Periods
2,142721,153369
//Storyboard Layer 0 (Background)
//Storyboard Layer 1 (Fail)
//Storyboard Layer 2 (Pass)
//Storyboard Layer 3 (Foreground)
//Storyboard Sound Samples

[TimingPoints]
2007,235.367958575239,4,1,1,70,1,0
2007,-200,4,1,1,70,0,0
9068,-166.666666666667,4,1,1,70,0,0
15540,-133.333333333333,4,1,1,70,0,0
17070,-100,4,1,1,70,0,1
30251,-66.6666666666667,4,1,1,70,0,0
30604,-100,4,1,1,70,0,0
32134,-133.333333333333,4,1,1,70,0,0
57789,-133.333333333333,4,1,1,30,0,0
58024,-133.333333333333,4,1,1,70,0,0
58495,-117.647058823529,4,1,1,70,0,0
66027,-100,4,1,1,70,0,1
79207,-100,4,1,1,70,0,0
91211,-181.818181818182,4,1,1,70,0,0
91682,235.367958575239,4,1,1,70,1,0
91682,-133.333333333333,4,1,1,70,0,0
112276,-111.111111111111,4,1,1,70,0,0
113335,-133.333333333333,4,1,1,70,0,0
113924,-111.111111111111,4,1,1,70,0,0
114277,-117.647058823529,4,1,1,70,0,0
121809,-100,4,1,1,70,0,1
134989,-100,4,1,1,70,0,0
142521,-117.647058823529,4,1,1,70,0,0
157114,-200,4,1,1,50,0,0
157585,-133.333333333333,4,1,1,70,0,0
165116,-100,4,1,1,70,0,0
168882,-50,4,1,1,70,0,0
172648,-133.333333333333,4,1,1,40,0,0
173590,-100,4,1,1,70,0,1
190536,-100,4,1,1,70,0,0
192419,-100,4,1,1,70,0,1
207483,-50,4,1,1,70,0,1
210778,-200,4,1,1,70,0,0

[Colours]
Combo1 : 255,234,170
Combo2 : 179,255,179
Combo3 : 172,209,255
Combo4 : 252,194,203

[HitObjects]
388,144,2006,5,0,0:0:0:0:
388,144,2242,1,0,0:0:0:0:
215,215,2360,2,0,P|152:212|117:192,1,95
69,115,2830,5,0,0:0:0:0:
35,270,3066,1,0,0:0:0:0:
77,110,3301,5,0,0:0:0:0:
27,275,3419,2,0,L|87:268,1,47.5
182,190,3654,2,0,L|230:196,1,47.5
361,276,3889,5,0,0:0:0:0:
422,101,4007,2,0,P|422:47|402:0,1,95
490,185,4360,1,0,0:0:0:0:
321,126,4478,2,0,L|207:138,1,95
135,189,4949,5,0,0:0:0:0:
279,36,5184,1,0,0:0:0:0:
121,191,5302,5,0,0:0:0:0:
232,243,5419,1,0,0:0:0:0:
347,199,5537,1,0,0:0:0:0:
433,288,5655,1,0,0:0:0:0:
342,99,5772,5,0,0:0:0:0:
244,231,5890,2,0,P|237:276|249:340,1,95
454,260,6243,1,0,0:0:0:0:
399,151,6361,2,0,P|392:106|404:42,1,95
487,178,6832,5,0,0:0:0:0:
268,233,7067,1,0,0:0:0:0:
462,270,7185,5,0,0:0:0:0:
396,137,7302,1,0,0:0:0:0:
332,311,7420,1,0,0:0:0:0:
332,311,7538,1,0,0:0:0:0:
232,203,7655,5,0,0:0:0:0:
471,268,7773,2,0,P|488:225|487:178,1,95
407,45,8126,2,0,L|350:50,1,47.5
209,60,8479,5,0,0:0:0:0:
396,137,8714,1,0,0:0:0:0:
197,73,8950,5,0,0:0:0:0:
246,235,9068,2,0,B|266:270|263:308|252:325|234:343|234:343|262:347|282:312,1,170.999994781494
177,283,9538,5,0,0:0:0:0:
177,283,10009,1,0,0:0:0:0:
177,283,10480,1,0,0:0:0:0:
177,283,10951,1,0,0:0:0:0:
177,283,11421,1,0,0:0:0:0:
177,283,11892,1,0,0:0:0:0:
177,283,12363,1,0,0:0:0:0:
177,283,12834,1,0,0:0:0:0:
317,346,13069,1,0,0:0:0:0:
495,226,13304,5,0,0:0:0:0:
495,226,13775,1,0,0:0:0:0:
495,226,14246,1,0,0:0:0:0:
495,226,14716,1,0,0:0:0:0:
317,346,14952,1,0,0:0:0:0:
229,114,15187,1,0,0:0:0:0:
229,114,15422,1,0,0:0:0:0:
148,191,15540,2,0,P|61:187|15:130,1,142.500005435944
70,315,16011,5,0,0:0:0:0:
231,275,16246,1,0,0:0:0:0:
110,109,16482,1,0,0:0:0:0:
162,337,16599,5,0,0:0:0:0:
321,269,16717,1,0,0:0:0:0:
152,230,16835,1,0,0:0:0:0:
266,361,16953,1,0,0:0:0:0:
251,188,17070,6,0,B|231:144|247:103|247:103|272:44|252:-3,2,190
354,265,17658,2,0,L|471:251,1,95
152,230,17894,1,0,0:0:0:0:
266,361,18012,6,0,P|281:294|274:248,1,95
162,124,18247,1,0,0:0:0:0:
162,124,18365,1,0,0:0:0:0:
10,247,18482,2,0,L|152:230,1,142.5
251,188,18718,2,0,P|268:133|260:75,1,95
182,21,18894,1,0,0:0:0:0:
182,21,18953,1,0,0:0:0:0:
168,31,19188,6,0,L|280:21,1,95
398,141,19424,1,0,0:0:0:0:
510,41,19541,1,0,0:0:0:0:
317,94,19659,2,0,P|308:151|329:213,1,95
485,274,19894,6,0,L|381:263,1,95
138,355,20130,2,0,L|242:344,1,95
53,288,20365,1,0,0:0:0:0:
208,219,20483,2,0,P|218:162|205:93,1,95
92,27,20718,1,0,0:0:0:0:
289,258,20836,6,0,P|305:165|286:73,1,190
286,73,21130,1,0,0:0:0:0:
286,73,21189,1,0,0:0:0:0:
113,229,21307,2,0,L|208:219,1,95
397,152,21542,1,0,0:0:0:0:
360,311,21660,1,0,0:0:0:0:
225,199,21777,5,0,0:0:0:0:
458,335,21895,2,0,P|457:288|441:244,1,95
207,332,22130,1,0,0:0:0:0:
37,199,22248,2,0,P|22:131|52:28,1,142.5
140,27,22484,2,0,L|252:37,1,95
475,178,22719,6,0,L|310:192,1,142.5
225,199,22954,1,0,0:0:0:0:
225,199,23072,1,0,0:0:0:0:
377,273,23190,2,0,P|416:233|425:179,1,95
311,26,23425,2,0,L|298:145,1,95
121,221,23660,6,0,L|111:127,1,95
274,343,23896,1,0,0:0:0:0:
316,171,24013,1,0,0:0:0:0:
183,289,24131,1,0,0:0:0:0:
383,251,24249,1,0,0:0:0:0:
235,56,24366,2,0,L|225:199,1,142.5
183,289,24602,6,0,L|413:271,1,190
114,126,24955,1,0,0:0:0:0:
114,126,25014,1,0,0:0:0:0:
114,126,25073,2,0,L|121:227,1,95
309,116,25308,2,0,P|255:147|205:148,1,95
28,54,25543,5,0,0:0:0:0:
120,220,25661,1,0,0:0:0:0:
120,220,25779,2,0,P|196:243|243:237,1,95
114,126,26014,1,0,0:0:0:0:
66,308,26132,1,0,0:0:0:0:
310,265,26249,2,0,P|303:211|276:164,1,95
114,126,26485,5,0,0:0:0:0:
188,319,26602,1,0,0:0:0:0:
21,208,26720,1,0,0:0:0:0:
226,223,26838,1,0,0:0:0:0:
55,318,26956,5,0,0:0:0:0:
127,141,27073,1,0,0:0:0:0:
270,310,27191,2,0,P|217:319|132:254,1,142.5
127,141,27426,6,0,L|136:17,1,95
353,130,27662,1,0,0:0:0:0:
342,143,27720,1,0,0:0:0:0:
329,152,27779,1,0,0:0:0:0:
313,157,27838,1,0,0:0:0:0:
296,161,27897,2,0,P|261:156|224:141,3,47.5
123,234,28132,2,0,P|157:229|194:214,3,47.5
283,323,28368,6,0,P|217:308|156:319,1,95
39,369,28603,1,0,0:0:0:0:
221,224,28721,2,0,P|150:210|105:181,1,95
35,66,28956,1,0,0:0:0:0:
301,169,29074,2,0,P|266:123|253:59,1,95
165,297,29309,6,0,P|233:307|288:352,1,95
481,289,29545,2,0,P|413:279|358:234,1,95
292,159,29780,1,0,0:0:0:0:
293,149,29838,1,0,0:0:0:0:
294,140,29897,1,0,0:0:0:0:
295,130,29956,1,0,0:0:0:0:
296,121,30015,1,0,0:0:0:0:
297,111,30074,1,0,0:0:0:0:
298,102,30133,1,0,0:0:0:0:
299,92,30191,1,0,0:0:0:0:
300,83,30251,6,0,B|316:139|316:139|306:185|306:185|321:253,1,142.500005435944
338,255,30604,2,0,P|273:215|211:236,1,142.5
142,325,30839,2,0,P|208:343|266:304,1,142.5
266,303,31074,5,0,0:0:0:0:
44,240,31192,1,0,0:0:0:0:
44,240,32134,6,0,L|125:234,1,71.2500027179719
266,303,32369,2,0,L|256:377,1,71.2500027179719
207,182,32604,1,0,0:0:0:0:
205,171,32722,1,0,0:0:0:0:
203,160,32840,2,0,L|212:78,1,71.2500027179719
381,168,33075,6,0,P|313:165|286:151,1,71.2500027179719
139,222,33310,2,0,P|174:225|209:218,1,71.2500027179719
371,295,33546,2,0,P|316:316|291:341,1,71.2500027179719
467,212,33781,2,0,P|476:153|467:119,1,71.2500027179719
335,38,34017,5,0,0:0:0:0:
245,70,34134,1,0,0:0:0:0:
151,25,34252,1,0,0:0:0:0:
61,57,34369,1,0,0:0:0:0:
73,227,34487,2,0,P|127:185|129:115,1,142.500005435944
56,149,34840,5,0,0:0:0:0:
56,149,35193,2,0,L|223:142,1,142.500005435944
368,173,35546,2,0,L|357:74,1,71.2500027179719
296,251,35782,1,0,0:0:0:0:
454,222,35899,6,0,L|465:123,1,71.2500027179719
261,35,36135,2,0,L|268:105,1,71.2500027179719
296,251,36370,1,0,0:0:0:0:
368,173,36488,1,0,0:0:0:0:
339,322,36606,2,0,P|301:330|244:316,1,71.2500027179719
144,200,36841,6,0,L|136:270,1,71.2500027179719
232,116,37076,1,0,0:0:0:0:
128,70,37194,1,0,0:0:0:0:
235,199,37312,2,0,P|284:182|308:150,1,71.2500027179719
128,70,37547,2,0,L|135:140,1,71.2500027179719
160,274,37782,5,0,0:0:0:0:
296,168,37900,2,0,P|336:164|411:233,1,142.500005435944
308,329,38253,2,0,L|231:326,2,71.2500027179719
422,248,38606,6,0,B|429:202|429:202|413:163|413:163|423:93,1,142.500005435944
485,342,38959,1,0,0:0:0:0:
485,342,39195,2,0,L|412:329,1,71.2500027179719
224,247,39430,2,0,L|295:235,1,71.2500027179719
484,125,39665,5,0,0:0:0:0:
484,125,39783,1,0,0:0:0:0:
362,18,39901,2,0,P|364:54|378:87,1,71.2500027179719
488,225,40136,2,0,P|435:208|393:208,1,71.2500027179719
246,262,40371,1,0,0:0:0:0:
285,164,40489,1,0,0:0:0:0:
151,237,40607,6,0,P|135:176|157:90,1,142.500005435944
262,37,40960,1,0,0:0:0:0:
355,172,41078,2,0,L|259:161,1,71.2500027179719
93,121,41313,2,0,L|164:113,1,71.2500027179719
341,79,41548,5,0,0:0:0:0:
266,238,41666,1,0,0:0:0:0:
180,125,41784,2,0,P|178:78|190:43,1,71.2500027179719
73,229,42019,2,0,L|172:216,1,71.2500027179719
273,154,42254,1,0,0:0:0:0:
342,307,42372,6,0,P|299:274|198:278,1,142.500005435944
113,372,42725,2,0,L|267:358,1,142.500005435944
441,255,43078,1,0,0:0:0:0:
441,255,43196,1,0,0:0:0:0:
428,366,43314,1,0,0:0:0:0:
342,307,43431,6,0,P|350:234|310:146,1,142.500005435944
231,99,43784,1,0,0:0:0:0:
224,93,43902,2,0,L|308:83,1,71.2500027179719
423,250,44137,2,0,P|421:215|411:181,1,71.2500027179719
185,184,44373,6,0,L|327:169,1,142.500005435944
117,106,44726,1,0,0:0:0:0:
74,221,44843,2,0,L|87:302,1,71.2500027179719
276,286,45079,2,0,P|235:262|185:259,1,71.2500027179719
352,356,45314,6,0,P|421:348|501:307,1,142.500005435944
348,246,45667,1,0,0:0:0:0:
453,148,45785,2,0,P|453:95|427:-1,1,142.500005435944
221,74,46138,6,0,P|271:86|371:71,2,142.500005435944
125,18,46726,1,0,0:0:0:0:
125,18,46844,1,0,0:0:0:0:
40,117,46962,2,0,L|45:164,1,35.625001358986
127,196,47079,2,0,L|122:243,1,35.625001358986
45,303,47197,6,0,L|59:383,1,71.2500027179719
215,281,47433,2,0,P|212:230|198:195,1,71.2500027179719
127,111,47668,1,0,0:0:0:0:
103,220,47786,1,0,0:0:0:0:
225,121,47903,1,0,0:0:0:0:
295,322,48021,6,0,P|317:254|312:184,1,142.500005435944
195,11,48374,2,0,P|189:81|211:149,1,142.500005435944
380,213,48727,2,0,L|471:198,2,71.2500027179719
228,302,49080,6,0,L|137:287,1,71.2500027179719
370,371,49315,2,0,P|377:336|376:301,1,71.2500027179719
225,130,49551,1,0,0:0:0:0:
189,227,49669,1,0,0:0:0:0:
342,169,49786,1,0,0:0:0:0:
228,302,49904,6,0,P|165:307|103:233,1,142.500005435944
183,52,50257,2,0,P|252:49|301:97,1,142.500005435944
189,227,50610,1,0,0:0:0:0:
225,130,50728,1,0,0:0:0:0:
278,289,50845,1,0,0:0:0:0:
94,199,50963,6,0,P|86:153|94:98,1,71.2500027179719
56,317,51198,2,0,P|32:276|21:222,1,71.2500027179719
189,227,51434,1,0,0:0:0:0:
278,289,51551,1,0,0:0:0:0:
225,130,51669,1,0,0:0:0:0:
74,324,51787,6,0,L|197:330,1,106.875004076958
278,289,52022,2,0,P|293:239|286:191,1,71.2500027179719
225,130,52258,1,0,0:0:0:0:
47,239,52375,2,0,L|189:227,1,142.500005435944
364,151,52728,1,0,0:0:0:0:
278,289,52846,6,0,P|263:239|270:191,1,71.2500027179719
366,70,53081,2,0,P|381:120|374:168,1,71.2500027179719
170,109,53317,2,0,L|241:112,1,71.2500027179719
423,234,53552,1,0,0:0:0:0:
278,289,53670,6,0,P|220:263|208:172,2,142.500005435944
400,189,54258,1,0,0:0:0:0:
398,174,54316,1,0,0:0:0:0:
397,160,54375,1,0,0:0:0:0:
396,146,54434,1,0,0:0:0:0:
395,132,54493,1,0,0:0:0:0:
393,118,54552,1,0,0:0:0:0:
392,103,54611,1,0,0:0:0:0:
391,89,54669,1,0,0:0:0:0:
390,75,54729,6,0,L|396:3,1,71.2500027179719
300,164,54964,2,0,L|306:236,1,71.2500027179719
389,346,55200,1,0,0:0:0:0:
150,284,55317,1,0,0:0:0:0:
150,284,55553,6,0,L|5:300,1,142.500005435944
263,245,55906,2,0,L|256:341,1,71.2500027179719
124,156,56141,2,0,P|115:87|141:6,1,142.500005435944
134,17,56435,1,0,0:0:0:0:
134,17,56494,1,0,0:0:0:0:
316,100,56612,6,0,L|414:86,1,71.2500027179719
200,66,56847,2,0,P|196:114|205:149,1,71.2500027179719
335,208,57083,1,0,0:0:0:0:
458,159,57200,1,0,0:0:0:0:
403,297,57318,1,0,0:0:0:0:
247,217,57435,1,0,0:0:0:0:
149,371,57553,6,0,P|181:328|187:278,1,71.2500027179719
158,124,57789,2,0,L|151:96,7,17.812500679493
186,149,58024,1,0,0:0:0:0:
203,149,58082,1,0,0:0:0:0:
221,147,58141,1,0,0:0:0:0:
237,141,58200,1,0,0:0:0:0:
252,131,58259,1,0,0:0:0:0:
265,118,58318,1,0,0:0:0:0:
275,104,58377,1,0,0:0:0:0:
281,87,58435,1,0,0:0:0:0:
284,69,58495,6,0,L|298:254,1,161.500003080368
228,347,58848,1,0,0:0:0:0:
382,248,58966,2,0,P|455:263|506:343,1,161.500003080368
503,330,59319,1,0,0:0:0:0:
296,283,59436,6,0,L|308:121,1,161.500003080368
308,121,59907,2,0,L|319:217,1,80.750001540184
140,145,60142,2,0,L|228:189,1,80.750001540184
10,87,60378,5,0,0:0:0:0:
213,50,60495,2,0,P|138:68|61:16,1,161.500003080368
9,204,60848,2,0,P|84:186|161:238,1,161.500003080368
104,350,61202,1,0,0:0:0:0:
273,277,61319,6,0,P|278:212|259:111,1,161.500003080368
261,117,61790,2,0,P|260:164|238:210,1,80.750001540184
407,106,62025,2,0,P|382:145|340:174,1,80.750001540184
506,190,62261,5,0,0:0:0:0:
315,259,62378,2,0,P|371:265|426:289,1,80.750001540184
494,359,62614,1,0,0:0:0:0:
407,186,62731,2,0,P|402:146|407:106,1,80.750001540184
211,118,62967,2,0,P|257:136|301:187,1,80.750001540184
71,181,63202,5,0,0:0:0:0:
276,58,63320,2,0,P|226:48|189:26,1,80.750001540184
16,97,63555,1,0,0:0:0:0:
102,262,63673,2,0,P|101:322|84:359,1,80.750001540184
229,202,63908,2,0,P|165:187|139:164,1,80.750001540184
72,38,64144,5,0,0:0:0:0:
65,47,65085,6,0,L|71:101,3,40.375000770092
138,156,65320,2,0,L|132:210,3,40.375000770092
40,276,65556,5,0,0:0:0:0:
59,272,65614,1,0,0:0:0:0:
80,273,65673,1,0,0:0:0:0:
99,278,65732,1,0,0:0:0:0:
117,287,65791,1,0,0:0:0:0:
133,299,65850,1,0,0:0:0:0:
146,315,65909,1,0,0:0:0:0:
155,332,65967,1,0,0:0:0:0:
161,352,66027,6,0,P|253:369|346:313,1,190
390,155,66380,1,0,0:0:0:0:
493,306,66497,2,0,P|441:293|403:259,1,95
322,88,66733,1,0,0:0:0:0:
322,88,66850,1,0,0:0:0:0:
201,283,66968,6,0,P|253:274|298:248,1,95
53,218,67203,2,0,L|42:329,1,95
184,50,67439,1,0,0:0:0:0:
219,188,67556,1,0,0:0:0:0:
81,103,67674,1,0,0:0:0:0:
303,231,67792,1,0,0:0:0:0:
303,231,67851,1,0,0:0:0:0:
303,231,67910,6,0,P|309:184|299:137,1,95
72,231,68145,2,0,L|187:223,1,95
386,128,68380,1,0,0:0:0:0:
459,297,68498,1,0,0:0:0:0:
459,297,68557,1,0,0:0:0:0:
459,297,68616,1,0,0:0:0:0:
284,226,68733,1,0,0:0:0:0:
478,72,68851,6,0,L|468:219,1,142.5
459,297,69086,1,0,0:0:0:0:
302,147,69204,1,0,0:0:0:0:
107,318,69322,2,0,L|250:308,1,142.5
335,301,69557,1,0,0:0:0:0:
138,213,69675,1,0,0:0:0:0:
138,213,69734,1,0,0:0:0:0:
138,213,69792,6,0,P|79:241|32:246,1,95
203,115,70028,1,0,0:0:0:0:
305,333,70146,2,0,P|318:266|300:141,1,190
301,146,70440,1,0,0:0:0:0:
301,146,70499,1,0,0:0:0:0:
201,283,70616,1,0,0:0:0:0:
417,213,70734,6,0,L|528:229,1,95
276,55,70969,1,0,0:0:0:0:
49,185,71087,2,0,P|143:192|233:126,1,190
221,142,71381,1,0,0:0:0:0:
221,142,71440,1,0,0:0:0:0:
66,288,71558,1,0,0:0:0:0:
255,344,71675,6,0,P|200:350|155:368,1,95
352,269,71911,2,0,P|273:248|243:225,1,95
154,76,72146,1,0,0:0:0:0:
31,210,72264,1,0,0:0:0:0:
31,210,72382,2,0,P|104:212|143:235,1,95
255,344,72617,5,0,0:0:0:0:
331,168,72735,1,0,0:0:0:0:
331,168,72793,1,0,0:0:0:0:
331,168,72852,1,0,0:0:0:0:
416,361,72970,1,0,0:0:0:0:
234,251,73088,1,0,0:0:0:0:
206,243,73146,1,0,0:0:0:0:
178,240,73205,1,0,0:0:0:0:
150,243,73264,1,0,0:0:0:0:
122,251,73323,1,0,0:0:0:0:
97,265,73382,1,0,0:0:0:0:
75,282,73441,1,0,0:0:0:0:
57,304,73499,1,0,0:0:0:0:
43,329,73558,6,0,P|63:238|15:133,1,190
228,36,73911,1,0,0:0:0:0:
420,196,74029,2,0,P|358:171|297:169,1,95
111,263,74264,1,0,0:0:0:0:
246,128,74382,1,0,0:0:0:0:
246,128,74500,6,0,P|230:83|228:36,1,95
204,290,74735,2,0,P|219:334|222:382,1,95
10,194,74971,1,0,0:0:0:0:
239,143,75088,1,0,0:0:0:0:
81,295,75206,1,0,0:0:0:0:
138,73,75324,1,0,0:0:0:0:
138,73,75382,1,0,0:0:0:0:
138,73,75441,6,0,P|217:82|326:28,1,190
212,227,75794,1,0,0:0:0:0:
490,203,75912,2,0,P|405:161|312:167,1,190
145,335,76265,1,0,0:0:0:0:
341,252,76383,6,0,P|383:279|440:293,1,95
239,143,76618,1,0,0:0:0:0:
204,290,76736,1,0,0:0:0:0:
138,73,76854,2,0,P|133:140|49:247,1,190
261,148,77207,1,0,0:0:0:0:
261,148,77265,1,0,0:0:0:0:
261,148,77324,5,0,0:0:0:0:
335,336,77442,1,0,0:0:0:0:
186,268,77560,1,0,0:0:0:0:
427,197,77677,2,0,L|424:294,1,95
353,96,77913,1,0,0:0:0:0:
284,251,78030,1,0,0:0:0:0:
477,123,78148,1,0,0:0:0:0:
270,20,78266,6,0,L|94:38,1,142.5
40,48,78501,1,0,0:0:0:0:
218,111,78619,1,0,0:0:0:0:
28,250,78736,2,0,P|9:197|15:134,1,95
210,194,78972,2,0,L|195:360,1,142.5
218,111,79207,5,0,0:0:0:0:
256,192,79266,12,0,82032,0:0:0:0:
455,175,82267,6,0,P|385:186|320:160,1,142.5
263,68,82502,1,0,0:0:0:0:
263,68,82620,2,0,L|249:-10,2,47.5
201,278,82855,1,0,0:0:0:0:
22,208,82973,6,0,P|93:149|186:156,2,190
201,278,83561,1,0,0:0:0:0:
201,278,83620,1,0,0:0:0:0:
201,278,83679,1,0,0:0:0:0:
263,68,83797,1,0,0:0:0:0:
263,68,83915,6,0,L|98:74,1,142.5
28,79,84150,1,0,0:0:0:0:
140,202,84268,2,0,L|242:197,1,95
39,100,84503,1,0,0:0:0:0:
9,251,84621,6,0,B|-10:301|-10:301|62:261|137:310,2,190
124,131,85209,1,0,0:0:0:0:
122,112,85267,1,0,0:0:0:0:
120,93,85327,6,0,B|106:48|122:3|122:3|190:17|199:79,1,190
177,201,85680,2,0,P|111:215|50:194,1,95
261,129,85915,1,0,0:0:0:0:
136,294,86033,6,0,P|221:275|338:334,1,190
67,360,86386,1,0,0:0:0:0:
62,198,86504,2,0,P|-6:260|15:318,1,142.5
67,360,86739,6,0,L|260:342,1,190
421,275,87092,1,0,0:0:0:0:
306,173,87210,2,0,L|297:280,1,95
400,38,87445,6,0,L|415:201,1,142.5
421,275,87680,1,0,0:0:0:0:
421,275,87798,2,0,L|412:349,2,47.5
496,128,88033,1,0,0:0:0:0:
306,173,88151,6,0,P|365:183|434:158,1,95
160,26,88387,2,0,L|169:121,1,95
116,340,88622,1,0,0:0:0:0:
184,202,88740,1,0,0:0:0:0:
337,258,88857,6,0,P|381:220|342:89,1,190
160,26,89210,1,0,0:0:0:0:
42,218,89328,1,0,0:0:0:0:
231,120,89446,1,0,0:0:0:0:
231,120,89505,1,0,0:0:0:0:
231,120,89563,1,0,0:0:0:0:
28,87,89681,1,0,0:0:0:0:
196,285,89799,5,0,0:0:0:0:
10,178,89917,1,0,0:0:0:0:
230,34,90034,1,0,0:0:0:0:
298,349,90152,1,0,0:0:0:0:
298,349,90387,5,0,0:0:0:0:
298,349,90623,5,0,0:0:0:0:
386,64,90740,1,0,0:0:0:0:
386,64,91211,6,0,B|404:111|404:111|366:119|336:100|329:60|350:31,1,156.750004783631
488,108,91682,6,0,L|481:178,1,71.2500027179719
412,301,91917,2,0,P|447:313|486:348,1,71.2500027179719
329,243,92152,2,0,L|243:251,1,71.2500027179719
427,163,92388,2,0,P|407:121|409:77,1,71.2500027179719
224,40,92623,6,0,L|315:33,1,71.2500027179719
128,108,92858,2,0,P|97:75|68:61,1,71.2500027179719
135,213,93094,1,0,0:0:0:0:
135,213,93211,1,0,0:0:0:0:
230,110,93329,2,0,P|230:74|223:39,1,71.2500027179719
135,213,93564,6,0,L|148:365,1,142.500005435944
234,215,93917,1,0,0:0:0:0:
70,310,94035,2,0,L|0:304,2,71.2500027179719
234,215,94388,6,0,P|304:216|365:252,1,142.500005435944
468,153,94741,2,0,P|461:201|474:305,1,142.500005435944
367,374,95094,2,0,P|382:324|381:278,1,71.2500027179719
323,144,95330,1,0,0:0:0:0:
228,242,95447,6,0,L|401:232,1,142.500005435944
158,162,95800,1,0,0:0:0:0:
97,270,95918,2,0,L|107:358,1,71.2500027179719
168,145,96153,2,0,P|178:110|176:74,1,71.2500027179719
18,188,96389,6,0,L|91:193,1,71.2500027179719
317,118,96624,2,0,L|244:123,1,71.2500027179719
75,48,96860,2,0,L|148:53,1,71.2500027179719
200,206,97095,2,0,P|178:178|168:145,1,71.2500027179719
324,33,97330,6,0,L|318:113,1,71.2500027179719
380,248,97566,1,0,0:0:0:0:
426,147,97683,1,0,0:0:0:0:
298,252,97801,2,0,P|333:312|401:325,1,142.500005435944
343,161,98154,6,0,L|192:174,1,142.500005435944
42,128,98507,1,0,0:0:0:0:
11,249,98625,1,0,0:0:0:0:
137,254,98743,2,0,L|127:164,1,71.2500027179719
49,57,98978,2,0,L|41:127,1,71.2500027179719
70,301,99213,6,0,P|111:331|206:298,1,142.500005435944
250,176,99566,1,0,0:0:0:0:
242,167,99684,2,0,L|146:179,1,71.2500027179719
303,242,99919,2,0,P|340:227|399:230,1,71.2500027179719
294,336,100155,5,0,0:0:0:0:
452,295,100272,2,0,P|471:248|474:197,1,71.2500027179719
418,97,100508,1,0,0:0:0:0:
311,193,100625,2,0,L|390:182,1,71.2500027179719
211,62,100861,2,0,P|224:108|223:144,1,71.2500027179719
135,297,101096,5,0,0:0:0:0:
214,220,101214,1,0,0:0:0:0:
82,180,101332,2,0,L|12:197,1,71.2500027179719
187,102,101567,2,0,P|117:106|59:66,1,142.500005435944
284,48,101920,6,0,P|269:115|285:198,1,142.500005435944
396,265,102273,2,0,L|494:250,1,71.2500027179719
261,325,102508,2,0,L|359:340,1,71.2500027179719
121,258,102744,1,0,0:0:0:0:
226,238,102861,1,0,0:0:0:0:
104,340,102979,6,0,P|50:305|46:217,1,142.500005435944
226,238,103332,1,0,0:0:0:0:
136,122,103450,2,0,B|138:172|138:172|115:208|115:208|120:257,1,142.500005435944
261,325,103803,1,0,0:0:0:0:
329,195,103921,6,0,P|326:139|286:58,1,142.500005435944
136,122,104274,1,0,0:0:0:0:
131,133,104391,2,0,L|235:123,1,71.2500027179719
336,204,104627,2,0,L|440:194,1,71.2500027179719
494,48,104862,5,0,0:0:0:0:
357,83,104980,1,0,0:0:0:0:
457,258,105097,1,0,0:0:0:0:
466,247,105155,1,0,0:0:0:0:
473,235,105214,1,0,0:0:0:0:
479,222,105273,1,0,0:0:0:0:
482,208,105333,2,0,L|476:125,1,71.2500027179719
362,11,105568,2,0,L|357:83,1,71.2500027179719
329,288,105804,5,0,0:0:0:0:
276,163,105921,1,0,0:0:0:0:
136,267,106039,1,0,0:0:0:0:
245,248,106157,1,0,0:0:0:0:
67,86,106274,1,0,0:0:0:0:
64,105,106332,1,0,0:0:0:0:
62,126,106391,1,0,0:0:0:0:
59,148,106450,1,0,0:0:0:0:
57,167,106509,1,0,0:0:0:0:
55,189,106568,1,0,0:0:0:0:
54,210,106627,1,0,0:0:0:0:
51,231,106685,1,0,0:0:0:0:
49,251,106744,5,0,0:0:0:0:
171,342,106863,2,0,P|211:303|219:274,1,71.2500027179719
147,129,107098,1,0,0:0:0:0:
30,274,107216,2,0,L|110:259,1,71.2500027179719
320,184,107451,2,0,L|240:169,1,71.2500027179719
64,105,107687,5,0,0:0:0:0:
230,64,107804,1,0,0:0:0:0:
120,188,107922,1,0,0:0:0:0:
157,18,108040,1,0,0:0:0:0:
249,170,108157,2,0,P|243:223|226:260,1,71.2500027179719
64,105,108393,1,0,0:0:0:0:
230,64,108510,1,0,0:0:0:0:
326,210,108628,6,0,P|316:276|277:347,1,142.500005435944
120,188,108981,1,0,0:0:0:0:
230,64,109099,2,0,L|329:78,1,71.2500027179719
478,162,109334,1,0,0:0:0:0:
452,36,109452,1,0,0:0:0:0:
279,163,109569,5,0,0:0:0:0:
408,108,109687,1,0,0:0:0:0:
391,258,109805,1,0,0:0:0:0:
378,270,109863,1,0,0:0:0:0:
364,280,109922,1,0,0:0:0:0:
347,287,109981,1,0,0:0:0:0:
330,290,110040,2,0,P|271:269|207:273,1,106.875004076958
175,330,110276,2,0,L|140:333,1,35.625001358986
14,269,110393,1,0,0:0:0:0:
14,269,110511,6,0,P|5:219|14:174,1,71.2500027179719
111,70,110746,1,0,0:0:0:0:
144,57,110804,1,0,0:0:0:0:
179,61,110863,1,0,0:0:0:0:
209,79,110922,1,0,0:0:0:0:
228,109,110981,1,0,0:0:0:0:
132,217,111099,1,0,0:0:0:0:
135,200,111158,1,0,0:0:0:0:
139,182,111217,1,0,0:0:0:0:
240,227,111335,1,0,0:0:0:0:
243,244,111394,1,0,0:0:0:0:
246,261,111452,6,0,L|229:347,1,71.2500027179719
405,223,111688,1,0,0:0:0:0:
370,229,111746,1,0,0:0:0:0:
336,218,111805,1,0,0:0:0:0:
311,194,111864,1,0,0:0:0:0:
301,160,111923,1,0,0:0:0:0:
350,42,112041,1,0,0:0:0:0:
433,172,112159,1,0,0:0:0:0:
433,172,112217,1,0,0:0:0:0:
433,172,112276,2,0,L|424:239,1,42.7499986953736
491,290,112394,5,0,0:0:0:0:
336,183,112512,1,0,0:0:0:0:
466,75,112629,1,0,0:0:0:0:
470,101,112687,1,0,0:0:0:0:
474,127,112746,1,0,0:0:0:0:
478,154,112805,1,0,0:0:0:0:
482,180,112864,1,0,0:0:0:0:
377,288,112982,1,0,0:0:0:0:
262,148,113100,1,0,0:0:0:0:
282,118,113158,1,0,0:0:0:0:
312,101,113217,1,0,0:0:0:0:
347,99,113276,1,0,0:0:0:0:
380,113,113335,6,0,L|392:184,1,71.2500027179719
257,327,113571,2,0,L|269:256,1,71.2500027179719
177,128,113806,1,0,0:0:0:0:
177,128,113865,1,0,0:0:0:0:
177,128,113924,2,0,L|187:192,1,42.7499986953736
71,160,114041,1,0,0:0:0:0:
57,127,114100,1,0,0:0:0:0:
59,91,114159,1,0,0:0:0:0:
76,59,114218,1,0,0:0:0:0:
104,39,114277,6,0,L|299:50,1,161.500003080368
321,204,114630,2,0,P|317:164|302:127,1,80.750001540184
131,293,114865,1,0,0:0:0:0:
21,197,114983,2,0,L|179:183,1,121.125002310276
210,260,115218,6,0,P|166:216|53:258,1,161.500003080368
25,365,115571,1,0,0:0:0:0:
25,365,115630,1,0,0:0:0:0:
25,365,115689,2,0,L|138:357,1,80.750001540184
288,343,115924,1,0,0:0:0:0:
133,234,116042,1,0,0:0:0:0:
133,234,116101,1,0,0:0:0:0:
133,234,116160,6,0,P|128:170|161:67,1,161.500003080368
331,25,116513,1,0,0:0:0:0:
416,186,116631,2,0,P|431:131|431:75,1,80.750001540184
221,182,116866,2,0,P|225:222|237:260,1,80.750001540184
441,349,117101,6,0,P|396:339|311:356,1,121.125002310276
377,264,117337,2,0,P|440:268|504:209,1,121.125002310276
462,114,117572,1,0,0:0:0:0:
462,114,117690,1,0,0:0:0:0:
296,208,117807,2,0,P|252:204|227:204,1,40.375000770092
233,100,117925,2,0,P|213:98|193:97,1,40.375000770092
114,163,118043,6,0,P|61:153|14:48,1,161.500003080368
11,65,118396,1,0,0:0:0:0:
15,271,118513,2,0,P|68:245|118:243,1,80.750001540184
256,335,118749,2,0,P|196:323|165:300,1,80.750001540184
129,149,118984,5,0,0:0:0:0:
129,149,119102,1,0,0:0:0:0:
342,213,119220,1,0,0:0:0:0:
223,78,119337,1,0,0:0:0:0:
164,287,119455,1,0,0:0:0:0:
326,123,119573,1,0,0:0:0:0:
130,75,119690,1,0,0:0:0:0:
258,289,119808,1,0,0:0:0:0:
334,8,119926,5,0,0:0:0:0:
338,25,120867,5,0,0:0:0:0:
338,25,120926,1,0,0:0:0:0:
338,25,120985,2,0,L|320:95,1,40.375000770092
208,108,121102,1,0,0:0:0:0:
208,108,121161,1,0,0:0:0:0:
208,108,121220,2,0,L|226:178,1,40.375000770092
296,249,121337,5,0,0:0:0:0:
297,280,121396,1,0,0:0:0:0:
288,310,121456,1,0,0:0:0:0:
272,337,121514,1,0,0:0:0:0:
248,357,121572,1,0,0:0:0:0:
219,369,121631,1,0,0:0:0:0:
188,372,121690,1,0,0:0:0:0:
157,366,121749,1,0,0:0:0:0:
130,352,121809,6,0,B|90:318|100:270|100:270|144:219|121:149,1,190
49,23,122162,1,0,0:0:0:0:
39,200,122279,2,0,P|86:200|127:179,1,95
235,21,122515,1,0,0:0:0:0:
310,203,122632,1,0,0:0:0:0:
449,120,122750,6,0,P|402:128|357:114,1,95
127,179,122985,2,0,L|267:198,1,95
467,270,123221,1,0,0:0:0:0:
256,325,123338,1,0,0:0:0:0:
383,161,123456,1,0,0:0:0:0:
429,344,123574,1,0,0:0:0:0:
429,344,123633,1,0,0:0:0:0:
429,344,123692,6,0,L|321:335,1,95
121,313,123927,2,0,P|113:262|124:215,1,95
308,140,124162,1,0,0:0:0:0:
256,325,124280,1,0,0:0:0:0:
256,325,124339,1,0,0:0:0:0:
256,325,124398,1,0,0:0:0:0:
121,220,124515,1,0,0:0:0:0:
383,161,124633,6,0,L|241:148,1,142.5
154,138,124868,1,0,0:0:0:0:
321,236,124986,1,0,0:0:0:0:
421,61,125104,2,0,P|372:81|283:62,1,142.5
222,9,125339,1,0,0:0:0:0:
76,188,125457,1,0,0:0:0:0:
76,188,125516,1,0,0:0:0:0:
76,188,125574,6,0,P|65:142|75:82,1,95
188,256,125810,1,0,0:0:0:0:
2,300,125928,2,0,P|56:288|181:378,1,190
168,350,126222,1,0,0:0:0:0:
168,350,126281,1,0,0:0:0:0:
76,188,126398,1,0,0:0:0:0:
262,264,126516,6,0,P|271:318|259:369,1,95
162,129,126751,1,0,0:0:0:0:
388,177,126869,2,0,P|394:271|357:357,1,190
357,357,127163,1,0,0:0:0:0:
357,357,127222,1,0,0:0:0:0:
487,229,127340,1,0,0:0:0:0:
328,85,127457,6,0,P|278:61|228:62,1,95
83,118,127693,1,0,0:0:0:0:
83,118,127810,1,0,0:0:0:0:
306,246,127928,2,0,P|302:191|283:146,1,95
16,219,128164,2,0,P|70:210|128:218,1,95
242,361,128399,5,0,0:0:0:0:
184,158,128517,1,0,0:0:0:0:
184,158,128575,1,0,0:0:0:0:
184,158,128634,1,0,0:0:0:0:
67,301,128752,1,0,0:0:0:0:
285,204,128870,1,0,0:0:0:0:
314,200,128928,1,0,0:0:0:0:
342,198,128987,1,0,0:0:0:0:
370,201,129046,1,0,0:0:0:0:
398,207,129105,1,0,0:0:0:0:
425,217,129164,1,0,0:0:0:0:
450,230,129223,1,0,0:0:0:0:
473,246,129281,1,0,0:0:0:0:
494,266,129340,6,0,L|470:53,1,190
472,77,129693,1,0,0:0:0:0:
370,201,129811,2,0,P|381:259|409:297,1,95
266,86,130046,1,0,0:0:0:0:
266,86,130164,1,0,0:0:0:0:
93,198,130282,6,0,P|158:205|200:232,1,95
438,151,130517,2,0,P|373:144|331:117,1,95
186,21,130753,1,0,0:0:0:0:
300,223,130870,1,0,0:0:0:0:
103,111,130988,1,0,0:0:0:0:
345,37,131106,1,0,0:0:0:0:
345,37,131164,1,0,0:0:0:0:
345,37,131223,6,0,P|353:100|339:151,1,95
203,189,131459,1,0,0:0:0:0:
394,228,131576,1,0,0:0:0:0:
235,311,131694,2,0,B|281:292|324:320|324:320|341:340|341:340|376:333|376:333|415:372,1,190
157,370,132047,1,0,0:0:0:0:
60,206,132165,6,0,P|51:143|66:89,1,95
174,239,132400,1,0,0:0:0:0:
12,319,132518,1,0,0:0:0:0:
148,159,132636,2,0,P|235:178|253:267,1,190
110,356,132989,1,0,0:0:0:0:
110,356,133047,1,0,0:0:0:0:
110,356,133106,5,0,0:0:0:0:
84,198,133224,1,0,0:0:0:0:
240,293,133342,1,0,0:0:0:0:
23,253,133459,2,0,P|4:209|10:163,1,95
172,39,133695,1,0,0:0:0:0:
198,223,133812,1,0,0:0:0:0:
74,88,133930,1,0,0:0:0:0:
284,152,134048,6,0,P|361:156|445:117,1,142.5
481,76,134283,1,0,0:0:0:0:
356,271,134401,1,0,0:0:0:0:
220,103,134518,2,0,P|220:48|231:8,1,95
118,224,134754,2,0,L|280:216,1,142.5
33,231,134989,5,0,0:0:0:0:
256,192,135048,12,0,138520,0:0:0:0:
384,127,138755,5,0,0:0:0:0:
255,193,138990,2,0,L|147:183,1,95
384,127,139226,5,0,0:0:0:0:
248,199,139461,2,0,L|140:189,1,95
384,127,139697,5,0,0:0:0:0:
192,258,139932,2,0,P|167:206|175:158,1,95
258,49,140167,5,0,0:0:0:0:
286,268,140403,2,0,L|192:258,1,95
420,207,140638,5,0,0:0:0:0:
309,365,140873,1,0,0:0:0:0:
96,220,141109,5,0,0:0:0:0:
405,103,141344,1,0,0:0:0:0:
204,349,141580,5,0,0:0:0:0:
116,41,141815,1,0,0:0:0:0:
468,128,142050,5,0,0:0:0:0:
316,264,142168,1,0,0:0:0:0:
272,72,142286,1,0,0:0:0:0:
396,316,142403,1,0,0:0:0:0:
468,0,142521,5,0,0:0:0:0:
464,304,153819,5,0,0:0:0:0:
224,240,154054,1,0,0:0:0:0:
492,192,154289,1,0,0:0:0:0:
280,344,154525,1,0,0:0:0:0:
388,104,154760,5,0,0:0:0:0:
116,296,154995,1,0,0:0:0:0:
296,52,155231,1,0,0:0:0:0:
400,324,155466,5,0,0:0:0:0:
72,200,155584,1,0,0:0:0:0:
72,200,155642,1,0,0:0:0:0:
72,200,155701,1,0,0:0:0:0:
388,68,155937,1,0,0:0:0:0:
56,24,156172,1,0,0:0:0:0:
444,172,156408,1,0,0:0:0:0:
36,316,156643,5,0,0:0:0:0:
464,128,157114,2,0,L|480:124,15,11.875
384,60,157585,5,0,0:0:0:0:
56,36,158291,1,0,0:0:0:0:
88,120,158408,1,0,0:0:0:0:
148,0,158526,5,0,0:0:0:0:
12,280,159232,1,0,0:0:0:0:
136,264,159350,1,0,0:0:0:0:
256,240,159467,5,0,0:0:0:0:
12,280,159938,1,0,0:0:0:0:
212,328,160173,1,0,0:0:0:0:
136,264,160291,1,0,0:0:0:0:
292,204,160409,5,0,0:0:0:0:
136,264,160880,1,0,0:0:0:0:
384,320,161115,1,0,0:0:0:0:
412,200,161233,1,0,0:0:0:0:
444,80,161351,5,0,0:0:0:0:
196,260,162056,1,0,0:0:0:0:
100,192,162174,1,0,0:0:0:0:
276,152,162292,5,0,0:0:0:0:
100,320,162762,1,0,0:0:0:0:
12,112,162998,1,0,0:0:0:0:
100,192,163115,1,0,0:0:0:0:
80,50,163233,5,0,0:0:0:0:
80,50,163468,2,0,L|177:63,1,71.2500027179719
357,83,163704,5,0,0:0:0:0:
366,91,163939,2,0,L|269:104,1,71.2500027179719
128,163,164175,6,0,L|225:176,1,71.2500027179719
329,250,164410,2,0,L|232:263,1,71.2500027179719
88,327,164645,5,0,0:0:0:0:
112,330,164704,1,0,0:0:0:0:
137,334,164763,1,0,0:0:0:0:
162,337,164822,1,0,0:0:0:0:
186,341,164881,1,0,0:0:0:0:
211,344,164939,1,0,0:0:0:0:
236,348,164998,1,0,0:0:0:0:
260,351,165057,1,0,0:0:0:0:
285,355,165116,6,0,P|358:355|437:253,1,190
298,155,165469,2,0,L|193:146,1,95
399,94,165704,1,0,0:0:0:0:
329,250,165822,1,0,0:0:0:0:
473,178,165940,1,0,0:0:0:0:
300,51,166057,5,0,0:0:0:0:
294,43,166293,2,0,L|283:143,1,95
260,309,166528,1,0,0:0:0:0:
361,189,166646,1,0,0:0:0:0:
188,233,166764,1,0,0:0:0:0:
379,303,166881,1,0,0:0:0:0:
117,293,166999,6,0,P|96:225|186:141,1,190
361,189,167352,1,0,0:0:0:0:
188,233,167470,1,0,0:0:0:0:
379,303,167587,1,0,0:0:0:0:
247,144,167705,1,0,0:0:0:0:
231,355,167823,1,0,0:0:0:0:
456,348,167940,6,0,P|466:297|442:233,1,95
264,166,168176,1,0,0:0:0:0:
231,355,168293,1,0,0:0:0:0:
117,293,168411,1,0,0:0:0:0:
307,276,168529,1,0,0:0:0:0:
144,128,168647,1,0,0:0:0:0:
144,128,168706,1,0,0:0:0:0:
144,128,168765,2,0,L|152:184,1,47.5
96,284,168882,5,0,0:0:0:0:
236,88,169000,1,0,0:0:0:0:
280,332,169118,1,0,0:0:0:0:
40,192,169235,1,0,0:0:0:0:
328,116,169353,5,0,0:0:0:0:
76,40,169471,1,0,0:0:0:0:
316,280,169588,1,0,0:0:0:0:
224,24,169706,1,0,0:0:0:0:
148,320,169824,5,0,0:0:0:0:
316,88,169941,1,0,0:0:0:0:
472,340,170059,1,0,0:0:0:0:
184,188,170177,1,0,0:0:0:0:
460,88,170294,5,0,0:0:0:0:
148,20,170412,1,0,0:0:0:0:
264,316,170530,1,0,0:0:0:0:
364,16,170647,1,0,0:0:0:0:
92,272,170765,5,0,0:0:0:0:
476,160,170883,1,0,0:0:0:0:
36,80,171000,1,0,0:0:0:0:
384,308,171118,1,0,0:0:0:0:
448,12,171236,5,0,0:0:0:0:
296,348,171353,1,0,0:0:0:0:
80,44,171471,1,0,0:0:0:0:
500,156,171589,1,0,0:0:0:0:
128,264,171707,5,0,0:0:0:0:
444,312,171824,1,0,0:0:0:0:
80,104,171942,1,0,0:0:0:0:
492,16,172060,1,0,0:0:0:0:
68,332,172177,5,0,0:0:0:0:
456,132,172295,1,0,0:0:0:0:
52,16,172413,1,0,0:0:0:0:
448,296,172530,1,0,0:0:0:0:
256,56,172648,6,0,L|264:8,3,35.625001358986
160,128,172883,2,0,L|168:176,3,35.625001358986
80,40,173119,6,0,L|88:-8,3,35.625001358986
252,228,173354,2,0,L|260:276,3,35.625001358986
485,221,173590,6,0,P|490:163|442:30,1,190
231,36,173943,1,0,0:0:0:0:
196,228,174060,1,0,0:0:0:0:
322,124,174178,1,0,0:0:0:0:
111,153,174296,1,0,0:0:0:0:
232,327,174413,1,0,0:0:0:0:
401,170,174531,6,0,P|409:117|396:67,1,95
125,54,174766,1,0,0:0:0:0:
322,124,174884,1,0,0:0:0:0:
89,216,175002,1,0,0:0:0:0:
231,36,175119,1,0,0:0:0:0:
278,298,175237,1,0,0:0:0:0:
129,144,175355,1,0,0:0:0:0:
385,52,175472,6,0,P|331:53|286:40,1,95
104,226,175708,1,0,0:0:0:0:
326,154,175826,1,0,0:0:0:0:
74,94,175943,1,0,0:0:0:0:
278,298,176061,1,0,0:0:0:0:
278,298,176120,1,0,0:0:0:0:
278,298,176179,1,0,0:0:0:0:
341,136,176296,1,0,0:0:0:0:
429,335,176414,5,0,0:0:0:0:
211,186,176532,1,0,0:0:0:0:
206,162,176590,1,0,0:0:0:0:
201,139,176649,1,0,0:0:0:0:
160,310,176767,1,0,0:0:0:0:
308,151,176885,1,0,0:0:0:0:
369,361,177002,1,0,0:0:0:0:
369,361,177061,1,0,0:0:0:0:
369,361,177120,1,0,0:0:0:0:
492,203,177238,1,0,0:0:0:0:
310,269,177355,6,0,L|194:260,1,95
492,203,177591,1,0,0:0:0:0:
308,151,177708,2,0,B|266:88|303:28|303:28|385:48,1,190
360,41,178003,1,0,0:0:0:0:
360,41,178062,1,0,0:0:0:0:
407,211,178179,1,0,0:0:0:0:
194,216,178297,6,0,P|193:169|209:125,1,95
337,298,178532,1,0,0:0:0:0:
114,272,178650,2,0,P|97:197|128:78,1,190
122,88,178944,1,0,0:0:0:0:
122,88,179003,1,0,0:0:0:0:
310,154,179121,1,0,0:0:0:0:
147,360,179238,6,0,P|123:363|51:340,1,95
286,290,179474,1,0,0:0:0:0:
97,179,179591,1,0,0:0:0:0:
97,179,179709,2,0,P|99:226|114:272,1,95
357,249,179944,2,0,P|319:220|273:210,1,95
416,358,180180,5,0,0:0:0:0:
463,152,180298,1,0,0:0:0:0:
463,152,180356,1,0,0:0:0:0:
463,152,180415,1,0,0:0:0:0:
286,290,180533,1,0,0:0:0:0:
486,241,180651,1,0,0:0:0:0:
457,242,180709,1,0,0:0:0:0:
430,235,180768,1,0,0:0:0:0:
406,220,180827,1,0,0:0:0:0:
387,198,180886,1,0,0:0:0:0:
376,172,180945,1,0,0:0:0:0:
373,144,181004,1,0,0:0:0:0:
379,116,181062,1,0,0:0:0:0:
393,91,181121,6,0,L|510:105,1,95
212,41,181357,2,0,L|328:27,1,95
50,167,181592,1,0,0:0:0:0:
81,19,181710,1,0,0:0:0:0:
232,208,181827,2,0,P|246:163|243:116,1,95
54,283,182063,6,0,L|271:293,1,190
446,210,182416,1,0,0:0:0:0:
344,347,182534,1,0,0:0:0:0:
309,169,182651,1,0,0:0:0:0:
508,272,182769,2,0,P|468:295|421:298,1,95
232,208,183004,6,0,B|211:161|240:110|240:110|232:66|232:66|246:14,1,190
309,169,183357,1,0,0:0:0:0:
69,94,183475,2,0,L|173:89,1,95
308,255,183710,2,0,P|262:243|232:208,1,95
435,60,183946,6,0,L|430:169,1,95
157,357,184181,2,0,L|152:262,1,95
152,262,184358,1,0,0:0:0:0:
152,262,184416,1,0,0:0:0:0:
317,353,184534,1,0,0:0:0:0:
353,160,184652,2,0,P|292:139|226:148,1,95
9,250,184887,6,0,L|152:262,1,142.5
241,271,185123,1,0,0:0:0:0:
92,168,185240,1,0,0:0:0:0:
157,357,185358,2,0,L|271:349,1,95
421,221,185593,2,0,P|439:167|432:107,1,95
236,43,185829,5,0,0:0:0:0:
292,219,185946,1,0,0:0:0:0:
367,55,186064,1,0,0:0:0:0:
165,158,186182,1,0,0:0:0:0:
370,297,186299,2,0,P|436:311|508:196,1,190
367,55,186652,1,0,0:0:0:0:
292,219,186770,6,0,L|401:207,1,95
137,68,187006,1,0,0:0:0:0:
115,255,187123,1,0,0:0:0:0:
252,113,187241,1,0,0:0:0:0:
26,128,187359,1,0,0:0:0:0:
183,328,187476,2,0,P|204:293|209:231,1,95
94,28,187712,6,0,L|107:188,1,142.5
115,255,187947,1,0,0:0:0:0:
191,105,188065,1,0,0:0:0:0:
25,289,188182,2,0,P|94:349|183:328,1,190
183,327,188477,1,0,0:0:0:0:
183,327,188535,1,0,0:0:0:0:
274,212,188653,6,0,L|266:105,1,95
367,358,188888,2,0,L|375:251,1,95
391,43,189124,1,0,0:0:0:0:
464,230,189242,1,0,0:0:0:0:
296,91,189359,1,0,0:0:0:0:
485,142,189477,1,0,0:0:0:0:
308,292,189595,6,0,P|243:291|194:177,1,190
296,91,189948,1,0,0:0:0:0:
393,270,190065,2,0,P|390:317|367:358,1,95
98,262,190301,2,0,L|221:253,1,95
192,255,190477,1,0,0:0:0:0:
192,255,190536,5,0,0:0:0:0:
20,168,190654,1,0,0:0:0:0:
296,64,190771,1,0,0:0:0:0:
8,8,190889,5,0,0:0:0:0:
484,80,191124,1,0,0:0:0:0:
20,168,191360,5,0,0:0:0:0:
392,256,191595,1,0,0:0:0:0:
4,176,191831,5,0,0:0:0:0:
496,60,191948,1,0,0:0:0:0:
390,282,192184,6,0,P|442:286|500:197,1,142.5
435,144,192419,6,0,L|228:172,1,190
247,170,192772,1,0,0:0:0:0:
25,115,192890,2,0,P|95:130|141:237,1,190
72,330,193243,1,0,0:0:0:0:
239,264,193360,6,0,L|247:170,1,95
357,322,193596,2,0,L|349:227,1,95
153,75,193831,2,0,L|160:169,1,95
343,29,194067,2,0,L|335:123,1,95
321,302,194302,6,0,P|269:345|155:297,1,190
160,169,194655,1,0,0:0:0:0:
49,257,194773,2,0,L|239:264,1,190
153,75,195126,1,0,0:0:0:0:
243,139,195243,6,0,P|290:131|327:102,1,95
70,33,195479,2,0,L|81:140,1,95
47,317,195714,1,0,0:0:0:0:
168,210,195832,1,0,0:0:0:0:
168,210,195891,1,0,0:0:0:0:
168,210,195950,1,0,0:0:0:0:
17,203,196067,1,0,0:0:0:0:
182,335,196185,6,0,B|224:368|278:349|278:349|318:361|318:361|375:342,1,190
454,214,196538,1,0,0:0:0:0:
316,270,196656,2,0,P|298:214|315:78,1,190
424,38,197009,1,0,0:0:0:0:
202,70,197126,6,0,P|203:118|219:162,1,95
400,225,197362,2,0,P|358:202|311:193,1,95
167,318,197597,2,0,P|207:293|237:257,1,95
93,133,197832,2,0,L|105:249,1,95
85,360,198068,6,0,P|157:333|299:360,1,190
400,225,198421,1,0,0:0:0:0:
400,225,198480,1,0,0:0:0:0:
400,225,198539,2,0,P|309:253|239:184,2,190
479,113,199127,6,0,L|471:5,1,95
330,163,199362,1,0,0:0:0:0:
200,43,199480,1,0,0:0:0:0:
213,37,199538,1,0,0:0:0:0:
226,33,199597,1,0,0:0:0:0:
240,30,199656,1,0,0:0:0:0:
254,30,199715,2,0,P|282:32|315:43,1,47.5
376,155,199833,2,0,P|353:161|330:163,1,47.5
206,118,199951,6,0,P|139:77|12:88,1,190
9,243,200304,1,0,0:0:0:0:
150,188,200421,2,0,B|200:191|232:228|232:228|290:238|334:184,1,190
240,30,200775,1,0,0:0:0:0:
240,30,200833,1,0,0:0:0:0:
240,30,200892,6,0,L|231:151,1,95
395,228,201128,2,0,P|396:181|374:140,1,95
175,291,201363,2,0,L|306:278,1,95
481,240,201598,1,0,0:0:0:0:
391,377,201716,2,0,L|395:314,1,47.5
319,199,201834,6,0,B|278:149|306:98|306:98|335:55|326:10,1,190
108,93,202187,1,0,0:0:0:0:
108,93,202246,1,0,0:0:0:0:
108,93,202304,2,0,P|177:100|224:78,1,95
77,212,202540,2,0,P|53:172|16:143,1,95
20,359,202775,5,0,0:0:0:0:
218,312,202893,1,0,0:0:0:0:
218,312,202952,1,0,0:0:0:0:
218,312,203011,2,0,P|148:302|114:280,1,95
333,228,203246,1,0,0:0:0:0:
307,381,203364,1,0,0:0:0:0:
190,225,203481,2,0,L|205:115,1,95
202,130,203658,1,0,0:0:0:0:
202,130,203717,5,0,0:0:0:0:
313,322,203834,1,0,0:0:0:0:
361,126,203952,1,0,0:0:0:0:
442,277,204070,1,0,0:0:0:0:
284,196,204187,1,0,0:0:0:0:
390,362,204305,1,0,0:0:0:0:
208,263,204423,2,0,P|184:205|223:107,1,142.5
300,93,204658,6,0,L|496:113,1,190
221,43,205011,1,0,0:0:0:0:
341,243,205129,2,0,P|365:194|366:140,1,95
108,140,205364,2,0,L|202:129,1,95
28,273,205600,6,0,B|17:233|17:233|36:190|36:190|5:145|37:83,1,190
221,43,205953,1,0,0:0:0:0:
152,220,206070,2,0,P|120:186|108:140,1,95
302,85,206306,1,0,0:0:0:0:
266,261,206423,1,0,0:0:0:0:
266,261,206482,1,0,0:0:0:0:
266,261,206541,5,0,0:0:0:0:
200,144,206659,1,0,0:0:0:0:
378,217,206776,1,0,0:0:0:0:
302,85,206894,1,0,0:0:0:0:
185,284,207012,2,0,P|186:343|210:381,1,95
468,228,207247,2,0,L|327:211,1,142.5
76,152,207483,5,0,0:1:0:0:
288,100,207600,1,0,0:1:0:0:
32,248,207718,1,0,0:1:0:0:
288,304,207836,1,0,0:1:0:0:
188,60,207953,5,0,0:1:0:0:
132,312,208071,1,0,0:1:0:0:
288,100,208189,1,0,0:1:0:0:
376,336,208306,1,0,0:0:0:0:
76,140,208424,5,0,0:0:0:0:
316,88,208542,1,0,0:0:0:0:
32,248,208659,1,0,0:0:0:0:
348,312,208777,1,0,0:0:0:0:
172,44,208895,5,0,0:0:0:0:
112,332,209012,1,0,0:0:0:0:
316,88,209130,1,0,0:0:0:0:
404,356,209248,1,0,0:0:0:0:
440,68,209365,5,0,0:0:0:0:
80,28,209483,1,0,0:0:0:0:
492,176,209601,5,0,0:0:0:0:
32,240,209719,1,0,0:0:0:0:
484,56,209836,5,0,0:0:0:0:
28,8,209954,1,0,0:0:0:0:
504,208,210072,5,0,0:0:0:0:
4,268,210189,1,0,0:0:0:0:
476,336,210307,5,0,0:0:0:0:
144,268,210542,5,0,0:0:0:0:
376,184,210778,5,0,0:0:0:0:
188,128,211248,6,0,P|140:129|98:150,2,95
328,152,211955,2,0,P|375:150|417:129,1,95
164,356,212543,2,0,L|151:227,1,118.75
136,32,212896,5,0,0:0:0:0:
