osu file format v14

[General]
AudioFilename: nameless - Milk Crown on Sonnetica.mp3
AudioLeadIn: 0
PreviewTime: 66010
Countdown: 0
SampleSet: None
StackLeniency: 0.7
Mode: 3
LetterboxInBreaks: 0
SpecialStyle: 0
WidescreenStoryboard: 0

[Editor]
Bookmarks: 2010,17068,32127,47186,66010,79186,91654,106713,114242,121772,134948,142507,157566,165095,173566,190507,192389,213095
DistanceSpacing: 1.5
BeatDivisor: 4
GridSize: 8
TimelineZoom: 3.100005

[Metadata]
Title:Milk Crown on Sonnetica
TitleUnicode:ミルククラウン・オン・ソーネチカ
Artist:nameless
ArtistUnicode:nameless
Creator:Applequestria
Version:For Kawawa
Source:
Tags:utaite ユジー yuzy vocaloid hatsune miku
BeatmapID:4536952
BeatmapSetID:747695

[Difficulty]
HPDrainRate:8
CircleSize:7
OverallDifficulty:8
ApproachRate:5
SliderMultiplier:1.4
SliderTickRate:1

[Events]
//Background and Video events
0,0,"nameless - Milk Crown on Sonnetica.jpg",0,0
//Break Periods
//Storyboard Layer 0 (Background)
//Storyboard Layer 1 (Fail)
//Storyboard Layer 2 (Pass)
//Storyboard Layer 3 (Foreground)
//Storyboard Layer 4 (Overlay)
//Storyboard Sound Samples

[TimingPoints]
2010,235.294117647059,4,2,0,10,1,0
66010,-100,4,2,0,10,0,1
79186,235.294117647059,3,2,0,10,1,0
79891,235.294117647059,4,2,0,10,1,0
80832,235.294117647059,3,2,0,10,1,0
82949,235.294117647059,4,2,0,10,1,0
83890,235.294117647059,3,2,0,10,1,0
88831,235.294117647059,4,2,0,10,1,0
121772,-100,4,2,0,10,0,1
134948,-100,4,2,0,10,0,0
134978,235.294117647059,4,2,0,10,1,0
173566,-100,4,2,0,10,0,1
190508,-100,4,2,0,10,0,0
192390,-100,4,2,0,10,0,1
211213,-100,4,2,0,10,0,0

[HitObjects]
182,192,2010,5,0,0:0:0:0:
329,192,2010,1,0,0:0:0:0:
475,192,2010,1,0,0:0:0:0:
36,192,2010,1,0,0:0:0:0:
36,192,2245,1,0,0:0:0:0:
329,192,2245,1,0,0:0:0:0:
475,192,2245,1,0,0:0:0:0:
329,192,2362,1,0,0:0:0:0:
475,192,2362,1,0,0:0:0:0:
182,192,2480,1,0,0:0:0:0:
256,192,2598,1,0,0:0:0:0:
402,192,2598,1,0,0:0:0:0:
36,192,2715,1,0,0:0:0:0:
182,192,2833,1,0,0:0:0:0:
329,192,2833,1,0,0:0:0:0:
475,192,2833,1,0,0:0:0:0:
182,192,3068,1,0,0:0:0:0:
256,192,3068,1,0,0:0:0:0:
402,192,3068,1,0,0:0:0:0:
36,192,3186,1,0,0:0:0:0:
475,192,3304,1,0,0:0:0:0:
329,192,3304,1,0,0:0:0:0:
182,192,3421,1,0,0:0:0:0:
402,192,3421,1,0,0:0:0:0:
256,192,3421,1,0,0:0:0:0:
475,192,3539,1,0,0:0:0:0:
329,192,3539,1,0,0:0:0:0:
36,192,3657,1,0,0:0:0:0:
402,192,3657,1,0,0:0:0:0:
256,192,3657,1,0,0:0:0:0:
475,192,3774,1,0,0:0:0:0:
329,192,3774,1,0,0:0:0:0:
182,192,3892,1,0,0:0:0:0:
329,192,3892,1,0,0:0:0:0:
475,192,3892,1,0,0:0:0:0:
402,192,4010,1,0,0:0:0:0:
256,192,4010,1,0,0:0:0:0:
36,192,4127,1,0,0:0:0:0:
329,192,4127,1,0,0:0:0:0:
475,192,4127,1,0,0:0:0:0:
329,192,4245,1,0,0:0:0:0:
475,192,4245,1,0,0:0:0:0:
182,192,4362,1,0,0:0:0:0:
256,192,4480,1,0,0:0:0:0:
402,192,4480,1,0,0:0:0:0:
36,192,4598,1,0,0:0:0:0:
182,192,4715,1,0,0:0:0:0:
329,192,4715,1,0,0:0:0:0:
475,192,4715,1,0,0:0:0:0:
182,192,4951,1,0,0:0:0:0:
329,192,4951,1,0,0:0:0:0:
475,192,4951,1,0,0:0:0:0:
36,192,5068,1,0,0:0:0:0:
256,192,5186,1,0,0:0:0:0:
402,192,5186,1,0,0:0:0:0:
182,192,5304,1,0,0:0:0:0:
329,192,5304,1,0,0:0:0:0:
475,192,5304,1,0,0:0:0:0:
36,192,5539,1,0,0:0:0:0:
256,192,5539,1,0,0:0:0:0:
402,192,5539,1,0,0:0:0:0:
329,192,5774,5,0,0:0:0:0:
36,192,5774,1,0,0:0:0:0:
182,192,5774,1,0,0:0:0:0:
109,192,5892,1,0,0:0:0:0:
256,192,5892,1,0,0:0:0:0:
475,192,6010,1,0,0:0:0:0:
182,192,6010,1,0,0:0:0:0:
36,192,6010,1,0,0:0:0:0:
182,192,6127,1,0,0:0:0:0:
36,192,6127,1,0,0:0:0:0:
329,192,6245,1,0,0:0:0:0:
256,192,6362,1,0,0:0:0:0:
109,192,6362,1,0,0:0:0:0:
475,192,6480,1,0,0:0:0:0:
329,192,6598,1,0,0:0:0:0:
182,192,6598,1,0,0:0:0:0:
36,192,6598,1,0,0:0:0:0:
329,192,6833,1,0,0:0:0:0:
256,192,6833,1,0,0:0:0:0:
109,192,6833,1,0,0:0:0:0:
475,192,6951,1,0,0:0:0:0:
36,192,7068,1,0,0:0:0:0:
182,192,7068,1,0,0:0:0:0:
329,192,7186,1,0,0:0:0:0:
109,192,7186,1,0,0:0:0:0:
256,192,7186,1,0,0:0:0:0:
36,192,7304,1,0,0:0:0:0:
182,192,7304,1,0,0:0:0:0:
475,192,7421,1,0,0:0:0:0:
256,192,7421,1,0,0:0:0:0:
109,192,7421,1,0,0:0:0:0:
182,192,7539,1,0,0:0:0:0:
36,192,7539,1,0,0:0:0:0:
329,192,7657,1,0,0:0:0:0:
182,192,7657,1,0,0:0:0:0:
36,192,7657,1,0,0:0:0:0:
109,192,7774,1,0,0:0:0:0:
256,192,7774,1,0,0:0:0:0:
475,192,7892,1,0,0:0:0:0:
182,192,7892,1,0,0:0:0:0:
36,192,7892,1,0,0:0:0:0:
182,192,8010,1,0,0:0:0:0:
36,192,8010,1,0,0:0:0:0:
329,192,8127,1,0,0:0:0:0:
256,192,8245,1,0,0:0:0:0:
109,192,8245,1,0,0:0:0:0:
475,192,8362,1,0,0:0:0:0:
329,192,8480,1,0,0:0:0:0:
182,192,8480,1,0,0:0:0:0:
36,192,8480,1,0,0:0:0:0:
329,192,8715,1,0,0:0:0:0:
182,192,8715,1,0,0:0:0:0:
36,192,8715,1,0,0:0:0:0:
475,192,8833,1,0,0:0:0:0:
256,192,8951,1,0,0:0:0:0:
109,192,8951,1,0,0:0:0:0:
329,192,9068,1,0,0:0:0:0:
182,192,9068,1,0,0:0:0:0:
36,192,9068,1,0,0:0:0:0:
475,192,9304,1,0,0:0:0:0:
256,192,9304,1,0,0:0:0:0:
109,192,9304,1,0,0:0:0:0:
36,192,9539,1,0,0:0:0:0:
109,192,9539,1,0,0:0:0:0:
475,192,9539,1,0,0:0:0:0:
256,192,9539,1,0,0:0:0:0:
329,192,9539,1,0,0:0:0:0:
402,192,9657,1,0,0:0:0:0:
182,192,9657,1,0,0:0:0:0:
329,192,9774,1,0,0:0:0:0:
109,192,9774,1,0,0:0:0:0:
256,192,9892,1,0,0:0:0:0:
36,192,9892,1,0,0:0:0:0:
182,192,10010,1,0,0:0:0:0:
475,192,10010,1,0,0:0:0:0:
402,192,10010,1,0,0:0:0:0:
109,192,10127,1,0,0:0:0:0:
329,192,10127,1,0,0:0:0:0:
36,192,10245,1,0,0:0:0:0:
256,192,10245,1,0,0:0:0:0:
182,192,10362,1,0,0:0:0:0:
475,192,10362,1,0,0:0:0:0:
402,192,10362,1,0,0:0:0:0:
36,192,10480,1,0,0:0:0:0:
109,192,10480,1,0,0:0:0:0:
475,192,10598,1,0,0:0:0:0:
402,192,10598,1,0,0:0:0:0:
182,192,10598,1,0,0:0:0:0:
182,192,10833,1,0,0:0:0:0:
475,192,10833,1,0,0:0:0:0:
402,192,10833,1,0,0:0:0:0:
36,192,10951,1,0,0:0:0:0:
109,192,10951,1,0,0:0:0:0:
329,192,10951,1,0,0:0:0:0:
182,192,11068,1,0,0:0:0:0:
402,192,11068,1,0,0:0:0:0:
256,192,11186,1,0,0:0:0:0:
36,192,11186,1,0,0:0:0:0:
475,192,11186,1,0,0:0:0:0:
109,192,11304,1,0,0:0:0:0:
329,192,11304,1,0,0:0:0:0:
36,192,11421,1,0,0:0:0:0:
475,192,11421,1,0,0:0:0:0:
402,192,11421,1,0,0:0:0:0:
182,192,11421,1,0,0:0:0:0:
256,192,11421,1,0,0:0:0:0:
329,192,11539,1,0,0:0:0:0:
109,192,11539,1,0,0:0:0:0:
402,192,11657,1,0,0:0:0:0:
182,192,11657,1,0,0:0:0:0:
475,192,11774,1,0,0:0:0:0:
256,192,11774,1,0,0:0:0:0:
109,192,11892,1,0,0:0:0:0:
36,192,11892,1,0,0:0:0:0:
329,192,11892,1,0,0:0:0:0:
182,192,12010,1,0,0:0:0:0:
402,192,12010,1,0,0:0:0:0:
256,192,12127,1,0,0:0:0:0:
475,192,12127,1,0,0:0:0:0:
109,192,12245,1,0,0:0:0:0:
36,192,12245,1,0,0:0:0:0:
329,192,12245,1,0,0:0:0:0:
402,192,12362,1,0,0:0:0:0:
475,192,12362,1,0,0:0:0:0:
329,192,12480,1,0,0:0:0:0:
109,192,12480,1,0,0:0:0:0:
36,192,12480,1,0,0:0:0:0:
36,192,12715,1,0,0:0:0:0:
109,192,12715,1,0,0:0:0:0:
329,192,12715,1,0,0:0:0:0:
182,192,12833,1,0,0:0:0:0:
256,192,12833,1,0,0:0:0:0:
402,192,12833,1,0,0:0:0:0:
475,192,12833,1,0,0:0:0:0:
36,192,13068,1,0,0:0:0:0:
109,192,13068,1,0,0:0:0:0:
329,192,13068,1,0,0:0:0:0:
256,192,13304,1,0,0:0:0:0:
402,192,13304,1,0,0:0:0:0:
182,192,13304,1,0,0:0:0:0:
36,192,13304,1,0,0:0:0:0:
475,192,13304,1,0,0:0:0:0:
109,192,13421,1,0,0:0:0:0:
329,192,13421,1,0,0:0:0:0:
182,192,13539,1,0,0:0:0:0:
402,192,13539,1,0,0:0:0:0:
256,192,13657,1,0,0:0:0:0:
475,192,13657,1,0,0:0:0:0:
329,192,13774,1,0,0:0:0:0:
36,192,13774,1,0,0:0:0:0:
109,192,13774,1,0,0:0:0:0:
402,192,13892,1,0,0:0:0:0:
182,192,13892,1,0,0:0:0:0:
475,192,14010,1,0,0:0:0:0:
256,192,14010,1,0,0:0:0:0:
329,192,14127,1,0,0:0:0:0:
36,192,14127,1,0,0:0:0:0:
109,192,14127,1,0,0:0:0:0:
475,192,14245,1,0,0:0:0:0:
402,192,14245,1,0,0:0:0:0:
109,192,14362,1,0,0:0:0:0:
182,192,14362,1,0,0:0:0:0:
329,192,14362,1,0,0:0:0:0:
329,192,14598,1,0,0:0:0:0:
109,192,14598,1,0,0:0:0:0:
36,192,14598,1,0,0:0:0:0:
475,192,14715,1,0,0:0:0:0:
402,192,14715,1,0,0:0:0:0:
182,192,14715,1,0,0:0:0:0:
109,192,14833,1,0,0:0:0:0:
329,192,14833,1,0,0:0:0:0:
36,192,14951,1,0,0:0:0:0:
256,192,14951,1,0,0:0:0:0:
475,192,14951,1,0,0:0:0:0:
182,192,15068,1,0,0:0:0:0:
402,192,15068,1,0,0:0:0:0:
36,192,15186,1,0,0:0:0:0:
109,192,15186,1,0,0:0:0:0:
329,192,15186,1,0,0:0:0:0:
475,192,15186,1,0,0:0:0:0:
182,192,15304,1,0,0:0:0:0:
256,192,15304,1,0,0:0:0:0:
402,192,15304,1,0,0:0:0:0:
36,192,15421,1,0,0:0:0:0:
109,192,15421,1,0,0:0:0:0:
475,192,15421,1,0,0:0:0:0:
329,192,15421,1,0,0:0:0:0:
182,192,15539,1,0,0:0:0:0:
256,192,15539,1,0,0:0:0:0:
402,192,15539,1,0,0:0:0:0:
109,192,15774,1,0,0:0:0:0:
329,192,15774,1,0,0:0:0:0:
475,192,15774,1,0,0:0:0:0:
182,192,15774,1,0,0:0:0:0:
36,192,16010,1,0,0:0:0:0:
256,192,16010,1,0,0:0:0:0:
402,192,16010,1,0,0:0:0:0:
109,192,16010,1,0,0:0:0:0:
109,192,16245,1,0,0:0:0:0:
329,192,16245,1,0,0:0:0:0:
475,192,16245,1,0,0:0:0:0:
182,192,16245,1,0,0:0:0:0:
256,192,16480,1,0,0:0:0:0:
182,192,16480,1,0,0:0:0:0:
402,192,16480,1,0,0:0:0:0:
475,192,16598,1,0,0:0:0:0:
329,192,16598,1,0,0:0:0:0:
36,192,16598,1,0,0:0:0:0:
109,192,16598,1,0,0:0:0:0:
475,192,16833,1,0,0:0:0:0:
36,192,16833,1,0,0:0:0:0:
182,192,16833,1,0,0:0:0:0:
402,192,16833,1,0,0:0:0:0:
256,192,16951,1,0,0:0:0:0:
109,192,16951,1,0,0:0:0:0:
329,192,16951,1,0,0:0:0:0:
475,192,17068,1,0,0:0:0:0:
402,192,17068,1,0,0:0:0:0:
182,192,17068,1,0,0:0:0:0:
36,192,17068,1,0,0:0:0:0:
329,192,17186,1,0,0:0:0:0:
109,192,17186,1,0,0:0:0:0:
256,192,17304,1,0,0:0:0:0:
36,192,17304,1,0,0:0:0:0:
475,192,17304,1,0,0:0:0:0:
402,192,17421,1,0,0:0:0:0:
182,192,17421,1,0,0:0:0:0:
36,192,17539,1,0,0:0:0:0:
475,192,17539,1,0,0:0:0:0:
109,192,17539,1,0,0:0:0:0:
329,192,17539,1,0,0:0:0:0:
402,192,17657,1,0,0:0:0:0:
256,192,17657,1,0,0:0:0:0:
36,192,17774,1,0,0:0:0:0:
329,192,17774,1,0,0:0:0:0:
182,192,17774,1,0,0:0:0:0:
402,192,17892,1,0,0:0:0:0:
256,192,17892,1,0,0:0:0:0:
109,192,18010,1,0,0:0:0:0:
36,192,18010,1,0,0:0:0:0:
475,192,18010,1,0,0:0:0:0:
329,192,18010,1,0,0:0:0:0:
182,192,18127,1,0,0:0:0:0:
402,192,18127,1,0,0:0:0:0:
256,192,18245,1,0,0:0:0:0:
475,192,18245,1,0,0:0:0:0:
36,192,18245,1,0,0:0:0:0:
109,192,18362,1,0,0:0:0:0:
329,192,18362,1,0,0:0:0:0:
475,192,18480,1,0,0:0:0:0:
36,192,18480,1,0,0:0:0:0:
402,192,18480,1,0,0:0:0:0:
182,192,18480,1,0,0:0:0:0:
109,192,18598,1,0,0:0:0:0:
256,192,18598,1,0,0:0:0:0:
475,192,18715,1,0,0:0:0:0:
182,192,18715,1,0,0:0:0:0:
329,192,18715,1,0,0:0:0:0:
109,192,18833,1,0,0:0:0:0:
256,192,18833,1,0,0:0:0:0:
36,192,18951,1,0,0:0:0:0:
182,192,18951,1,0,0:0:0:0:
475,192,18951,1,0,0:0:0:0:
402,192,18951,1,0,0:0:0:0:
109,192,19068,1,0,0:0:0:0:
329,192,19068,1,0,0:0:0:0:
36,192,19186,1,0,0:0:0:0:
182,192,19186,1,0,0:0:0:0:
256,192,19186,1,0,0:0:0:0:
475,192,19186,1,0,0:0:0:0:
109,192,19304,1,0,0:0:0:0:
402,192,19304,1,0,0:0:0:0:
36,192,19421,1,0,0:0:0:0:
182,192,19421,1,0,0:0:0:0:
329,192,19421,1,0,0:0:0:0:
256,192,19421,1,0,0:0:0:0:
109,192,19539,1,0,0:0:0:0:
475,192,19539,1,0,0:0:0:0:
36,192,19657,1,0,0:0:0:0:
182,192,19657,1,0,0:0:0:0:
256,192,19657,1,0,0:0:0:0:
329,192,19657,1,0,0:0:0:0:
109,192,19774,1,0,0:0:0:0:
402,192,19774,1,0,0:0:0:0:
329,192,19892,1,0,0:0:0:0:
475,192,19892,1,0,0:0:0:0:
182,192,19892,1,0,0:0:0:0:
256,192,19892,1,0,0:0:0:0:
402,192,20010,1,0,0:0:0:0:
109,192,20010,1,0,0:0:0:0:
475,192,20127,1,0,0:0:0:0:
329,192,20127,1,0,0:0:0:0:
256,192,20127,1,0,0:0:0:0:
36,192,20127,1,0,0:0:0:0:
402,192,20245,1,0,0:0:0:0:
182,192,20245,1,0,0:0:0:0:
109,192,20245,1,0,0:0:0:0:
475,192,20362,1,0,0:0:0:0:
329,192,20362,1,0,0:0:0:0:
256,192,20362,1,0,0:0:0:0:
36,192,20362,1,0,0:0:0:0:
402,192,20480,1,0,0:0:0:0:
182,192,20480,1,0,0:0:0:0:
329,192,20598,1,0,0:0:0:0:
475,192,20598,1,0,0:0:0:0:
36,192,20598,1,0,0:0:0:0:
109,192,20598,1,0,0:0:0:0:
402,192,20715,1,0,0:0:0:0:
182,192,20715,1,0,0:0:0:0:
475,192,20833,1,0,0:0:0:0:
329,192,20833,1,0,0:0:0:0:
36,192,20833,1,0,0:0:0:0:
256,192,20833,1,0,0:0:0:0:
109,192,20951,1,0,0:0:0:0:
182,192,20951,1,0,0:0:0:0:
402,192,20951,1,0,0:0:0:0:
36,192,21068,1,0,0:0:0:0:
329,192,21068,1,0,0:0:0:0:
256,192,21068,1,0,0:0:0:0:
475,192,21068,1,0,0:0:0:0:
109,192,21186,1,0,0:0:0:0:
182,192,21186,1,0,0:0:0:0:
402,192,21186,1,0,0:0:0:0:
36,192,21304,1,0,0:0:0:0:
256,192,21304,1,0,0:0:0:0:
329,192,21304,1,0,0:0:0:0:
475,192,21304,1,0,0:0:0:0:
402,192,21421,1,0,0:0:0:0:
109,192,21421,1,0,0:0:0:0:
256,192,21539,1,0,0:0:0:0:
182,192,21539,1,0,0:0:0:0:
329,192,21539,1,0,0:0:0:0:
109,192,21657,1,0,0:0:0:0:
402,192,21657,1,0,0:0:0:0:
256,192,21774,1,0,0:0:0:0:
182,192,21774,1,0,0:0:0:0:
36,192,21774,1,0,0:0:0:0:
475,192,21774,1,0,0:0:0:0:
109,192,21892,1,0,0:0:0:0:
329,192,21892,1,0,0:0:0:0:
402,192,21892,1,0,0:0:0:0:
36,192,22010,1,0,0:0:0:0:
182,192,22010,1,0,0:0:0:0:
256,192,22010,1,0,0:0:0:0:
475,192,22010,1,0,0:0:0:0:
402,192,22127,1,0,0:0:0:0:
329,192,22127,1,0,0:0:0:0:
109,192,22127,1,0,0:0:0:0:
36,192,22245,1,0,0:0:0:0:
182,192,22245,1,0,0:0:0:0:
256,192,22245,1,0,0:0:0:0:
475,192,22245,1,0,0:0:0:0:
109,192,22362,1,0,0:0:0:0:
402,192,22362,1,0,0:0:0:0:
182,192,22480,1,0,0:0:0:0:
256,192,22480,1,0,0:0:0:0:
329,192,22480,1,0,0:0:0:0:
109,192,22598,1,0,0:0:0:0:
402,192,22598,1,0,0:0:0:0:
36,192,22715,1,0,0:0:0:0:
182,192,22715,1,0,0:0:0:0:
256,192,22715,1,0,0:0:0:0:
475,192,22715,1,0,0:0:0:0:
109,192,22833,1,0,0:0:0:0:
329,192,22833,1,0,0:0:0:0:
182,192,22951,1,0,0:0:0:0:
475,192,22951,1,0,0:0:0:0:
402,192,22951,1,0,0:0:0:0:
36,192,23068,1,0,0:0:0:0:
256,192,23068,1,0,0:0:0:0:
109,192,23186,1,0,0:0:0:0:
329,192,23186,1,0,0:0:0:0:
475,192,23186,1,0,0:0:0:0:
182,192,23304,1,0,0:0:0:0:
402,192,23304,1,0,0:0:0:0:
36,192,23421,1,0,0:0:0:0:
256,192,23421,1,0,0:0:0:0:
475,192,23421,1,0,0:0:0:0:
109,192,23539,1,0,0:0:0:0:
329,192,23539,1,0,0:0:0:0:
182,192,23657,1,0,0:0:0:0:
402,192,23657,1,0,0:0:0:0:
475,192,23657,1,0,0:0:0:0:
36,192,23657,1,0,0:0:0:0:
256,192,23774,1,0,0:0:0:0:
329,192,23774,1,0,0:0:0:0:
109,192,23892,1,0,0:0:0:0:
36,192,23892,1,0,0:0:0:0:
475,192,23892,1,0,0:0:0:0:
402,192,23892,1,0,0:0:0:0:
182,192,24010,1,0,0:0:0:0:
256,192,24010,1,0,0:0:0:0:
36,192,24127,1,0,0:0:0:0:
109,192,24127,1,0,0:0:0:0:
402,192,24127,1,0,0:0:0:0:
475,192,24127,1,0,0:0:0:0:
256,192,24245,1,0,0:0:0:0:
329,192,24245,1,0,0:0:0:0:
109,192,24362,1,0,0:0:0:0:
36,192,24362,1,0,0:0:0:0:
475,192,24362,1,0,0:0:0:0:
402,192,24362,1,0,0:0:0:0:
182,192,24480,1,0,0:0:0:0:
256,192,24480,1,0,0:0:0:0:
36,192,24598,1,0,0:0:0:0:
109,192,24598,1,0,0:0:0:0:
475,192,24598,1,0,0:0:0:0:
329,192,24598,1,0,0:0:0:0:
182,192,24715,1,0,0:0:0:0:
402,192,24715,1,0,0:0:0:0:
36,192,24833,1,0,0:0:0:0:
256,192,24833,1,0,0:0:0:0:
475,192,24833,1,0,0:0:0:0:
109,192,24951,1,0,0:0:0:0:
329,192,24951,1,0,0:0:0:0:
36,192,25068,1,0,0:0:0:0:
182,192,25068,1,0,0:0:0:0:
256,192,25068,1,0,0:0:0:0:
402,192,25068,1,0,0:0:0:0:
475,192,25068,1,0,0:0:0:0:
109,192,25186,1,0,0:0:0:0:
329,192,25186,1,0,0:0:0:0:
36,192,25304,1,0,0:0:0:0:
256,192,25304,1,0,0:0:0:0:
475,192,25304,1,0,0:0:0:0:
182,192,25421,1,0,0:0:0:0:
402,192,25421,1,0,0:0:0:0:
36,192,25539,1,0,0:0:0:0:
109,192,25539,1,0,0:0:0:0:
256,192,25539,1,0,0:0:0:0:
475,192,25539,1,0,0:0:0:0:
329,192,25617,1,0,0:0:0:0:
182,192,25617,1,0,0:0:0:0:
402,192,25696,1,0,0:0:0:0:
109,192,25696,1,0,0:0:0:0:
36,192,25774,1,0,0:0:0:0:
256,192,25774,1,0,0:0:0:0:
475,192,25774,1,0,0:0:0:0:
329,192,25892,1,0,0:0:0:0:
182,192,25892,1,0,0:0:0:0:
36,192,26010,1,0,0:0:0:0:
475,192,26010,1,0,0:0:0:0:
109,192,26010,1,0,0:0:0:0:
402,192,26010,1,0,0:0:0:0:
182,192,26127,1,0,0:0:0:0:
329,192,26127,1,0,0:0:0:0:
256,192,26245,1,0,0:0:0:0:
36,192,26245,1,0,0:0:0:0:
475,192,26245,1,0,0:0:0:0:
109,192,26362,1,0,0:0:0:0:
402,192,26362,1,0,0:0:0:0:
36,192,26480,1,0,0:0:0:0:
182,192,26480,1,0,0:0:0:0:
256,192,26480,1,0,0:0:0:0:
475,192,26480,1,0,0:0:0:0:
329,192,26480,1,0,0:0:0:0:
109,192,26598,1,0,0:0:0:0:
402,192,26598,1,0,0:0:0:0:
36,192,26715,1,0,0:0:0:0:
256,192,26715,1,0,0:0:0:0:
475,192,26715,1,0,0:0:0:0:
182,192,26833,1,0,0:0:0:0:
402,192,26833,1,0,0:0:0:0:
109,192,26951,1,0,0:0:0:0:
36,192,26951,1,0,0:0:0:0:
256,192,26951,1,0,0:0:0:0:
475,192,26951,1,0,0:0:0:0:
329,192,26951,1,0,0:0:0:0:
182,192,27068,1,0,0:0:0:0:
402,192,27068,1,0,0:0:0:0:
36,192,27186,1,0,0:0:0:0:
256,192,27186,1,0,0:0:0:0:
475,192,27186,1,0,0:0:0:0:
109,192,27304,1,0,0:0:0:0:
329,192,27304,1,0,0:0:0:0:
36,192,27421,1,0,0:0:0:0:
475,192,27421,1,0,0:0:0:0:
402,192,27421,1,0,0:0:0:0:
182,192,27421,1,0,0:0:0:0:
329,192,27539,1,0,0:0:0:0:
109,192,27539,1,0,0:0:0:0:
475,192,27657,1,0,0:0:0:0:
36,192,27657,1,0,0:0:0:0:
402,192,27657,1,0,0:0:0:0:
256,192,27657,1,0,0:0:0:0:
329,192,27774,1,0,0:0:0:0:
182,192,27774,1,0,0:0:0:0:
109,192,27774,1,0,0:0:0:0:
36,192,27892,1,0,0:0:0:0:
256,192,27892,1,0,0:0:0:0:
402,192,27892,1,0,0:0:0:0:
475,192,27892,1,0,0:0:0:0:
182,192,28010,1,0,0:0:0:0:
329,192,28010,1,0,0:0:0:0:
256,192,28127,1,0,0:0:0:0:
36,192,28127,1,0,0:0:0:0:
475,192,28127,1,0,0:0:0:0:
109,192,28245,1,0,0:0:0:0:
402,192,28245,1,0,0:0:0:0:
36,192,28362,1,0,0:0:0:0:
182,192,28362,1,0,0:0:0:0:
475,192,28362,1,0,0:0:0:0:
256,192,28362,1,0,0:0:0:0:
109,192,28480,1,0,0:0:0:0:
329,192,28480,1,0,0:0:0:0:
182,192,28598,1,0,0:0:0:0:
402,192,28598,1,0,0:0:0:0:
475,192,28598,1,0,0:0:0:0:
36,192,28715,1,0,0:0:0:0:
256,192,28715,1,0,0:0:0:0:
109,192,28833,1,0,0:0:0:0:
329,192,28833,1,0,0:0:0:0:
475,192,28833,1,0,0:0:0:0:
182,192,28951,1,0,0:0:0:0:
402,192,28951,1,0,0:0:0:0:
36,192,29068,1,0,0:0:0:0:
256,192,29068,1,0,0:0:0:0:
475,192,29068,1,0,0:0:0:0:
109,192,29186,1,0,0:0:0:0:
329,192,29186,1,0,0:0:0:0:
36,192,29304,1,0,0:0:0:0:
182,192,29304,1,0,0:0:0:0:
402,192,29304,1,0,0:0:0:0:
109,192,29421,1,0,0:0:0:0:
256,192,29421,1,0,0:0:0:0:
475,192,29421,1,0,0:0:0:0:
36,192,29539,1,0,0:0:0:0:
182,192,29539,1,0,0:0:0:0:
329,192,29539,1,0,0:0:0:0:
109,192,29657,1,0,0:0:0:0:
256,192,29657,1,0,0:0:0:0:
475,192,29657,1,0,0:0:0:0:
36,192,29774,1,0,0:0:0:0:
182,192,29774,1,0,0:0:0:0:
402,192,29774,1,0,0:0:0:0:
109,192,29892,1,0,0:0:0:0:
329,192,29892,1,0,0:0:0:0:
475,192,29892,1,0,0:0:0:0:
36,192,30010,1,0,0:0:0:0:
402,192,30010,1,0,0:0:0:0:
256,192,30010,1,0,0:0:0:0:
182,192,30127,1,0,0:0:0:0:
329,192,30127,1,0,0:0:0:0:
475,192,30127,1,0,0:0:0:0:
36,192,30245,1,0,0:0:0:0:
109,192,30245,1,0,0:0:0:0:
256,192,30245,1,0,0:0:0:0:
402,192,30245,1,0,0:0:0:0:
36,192,30362,1,0,0:0:0:0:
36,192,30598,1,0,0:0:0:0:
36,192,30833,1,0,0:0:0:0:
36,192,31068,1,0,0:0:0:0:
182,192,31068,1,0,0:0:0:0:
36,192,31186,1,0,0:0:0:0:
109,192,31186,1,0,0:0:0:0:
256,192,31186,1,0,0:0:0:0:
475,192,31186,1,0,0:0:0:0:
402,192,31186,1,0,0:0:0:0:
182,192,31774,1,0,0:0:0:0:
329,192,31774,1,0,0:0:0:0:
182,192,32010,1,0,0:0:0:0:
329,192,32010,1,0,0:0:0:0:
36,192,32127,1,0,0:0:0:0:
109,192,32127,1,0,0:0:0:0:
256,192,32127,1,0,0:0:0:0:
475,192,32127,1,0,0:0:0:0:
402,192,32127,1,0,0:0:0:0:
182,192,32245,1,0,0:0:0:0:
329,192,32245,1,0,0:0:0:0:
36,192,32362,1,0,0:0:0:0:
256,192,32362,1,0,0:0:0:0:
402,192,32362,1,0,0:0:0:0:
475,192,32362,1,0,0:0:0:0:
109,192,32480,1,0,0:0:0:0:
329,192,32480,1,0,0:0:0:0:
36,192,32598,1,0,0:0:0:0:
182,192,32598,1,0,0:0:0:0:
475,192,32598,1,0,0:0:0:0:
402,192,32598,1,0,0:0:0:0:
329,192,32715,1,0,0:0:0:0:
256,192,32715,1,0,0:0:0:0:
36,192,32833,1,0,0:0:0:0:
109,192,32833,1,0,0:0:0:0:
182,192,32833,1,0,0:0:0:0:
475,192,32833,1,0,0:0:0:0:
329,192,32951,1,0,0:0:0:0:
402,192,32951,1,0,0:0:0:0:
36,192,33068,1,0,0:0:0:0:
109,192,33068,1,0,0:0:0:0:
256,192,33068,1,0,0:0:0:0:
475,192,33068,1,0,0:0:0:0:
182,192,33186,1,0,0:0:0:0:
329,192,33186,1,0,0:0:0:0:
36,192,33304,1,0,0:0:0:0:
109,192,33304,1,0,0:0:0:0:
475,192,33304,1,0,0:0:0:0:
256,192,33304,1,0,0:0:0:0:
182,192,33421,1,0,0:0:0:0:
402,192,33421,1,0,0:0:0:0:
36,192,33539,1,0,0:0:0:0:
109,192,33539,1,0,0:0:0:0:
329,192,33539,1,0,0:0:0:0:
475,192,33539,1,0,0:0:0:0:
182,192,33657,1,0,0:0:0:0:
256,192,33657,1,0,0:0:0:0:
329,192,33774,1,0,0:0:0:0:
475,192,33774,1,0,0:0:0:0:
402,192,33774,1,0,0:0:0:0:
36,192,33774,1,0,0:0:0:0:
109,192,33892,1,0,0:0:0:0:
182,192,33892,1,0,0:0:0:0:
36,192,34010,1,0,0:0:0:0:
256,192,34010,1,0,0:0:0:0:
475,192,34010,1,0,0:0:0:0:
402,192,34010,1,0,0:0:0:0:
109,192,34127,1,0,0:0:0:0:
329,192,34127,1,0,0:0:0:0:
402,192,34245,1,0,0:0:0:0:
475,192,34245,1,0,0:0:0:0:
36,192,34245,1,0,0:0:0:0:
182,192,34245,1,0,0:0:0:0:
256,192,34362,1,0,0:0:0:0:
109,192,34362,1,0,0:0:0:0:
402,192,34480,1,0,0:0:0:0:
475,192,34480,1,0,0:0:0:0:
36,192,34480,1,0,0:0:0:0:
182,192,34480,1,0,0:0:0:0:
329,192,34480,1,0,0:0:0:0:
109,192,34598,1,0,0:0:0:0:
36,192,34715,1,0,0:0:0:0:
475,192,34715,1,0,0:0:0:0:
402,192,34715,1,0,0:0:0:0:
256,192,34715,1,0,0:0:0:0:
182,192,34833,1,0,0:0:0:0:
329,192,34833,1,0,0:0:0:0:
36,192,34951,1,0,0:0:0:0:
256,192,34951,1,0,0:0:0:0:
475,192,34951,1,0,0:0:0:0:
109,192,34951,1,0,0:0:0:0:
329,192,35068,1,0,0:0:0:0:
182,192,35068,1,0,0:0:0:0:
256,192,35186,1,0,0:0:0:0:
402,192,35186,1,0,0:0:0:0:
475,192,35186,1,0,0:0:0:0:
36,192,35186,1,0,0:0:0:0:
182,192,35304,1,0,0:0:0:0:
109,192,35421,1,0,0:0:0:0:
329,192,35421,1,0,0:0:0:0:
475,192,35421,1,0,0:0:0:0:
36,192,35421,1,0,0:0:0:0:
256,192,35539,1,0,0:0:0:0:
182,192,35539,1,0,0:0:0:0:
36,192,35657,1,0,0:0:0:0:
475,192,35657,1,0,0:0:0:0:
402,192,35657,1,0,0:0:0:0:
109,192,35657,1,0,0:0:0:0:
256,192,35774,1,0,0:0:0:0:
329,192,35774,1,0,0:0:0:0:
36,192,35892,1,0,0:0:0:0:
402,192,35892,1,0,0:0:0:0:
475,192,35892,1,0,0:0:0:0:
182,192,35892,1,0,0:0:0:0:
109,192,36010,1,0,0:0:0:0:
329,192,36010,1,0,0:0:0:0:
475,192,36127,1,0,0:0:0:0:
256,192,36127,1,0,0:0:0:0:
36,192,36127,1,0,0:0:0:0:
402,192,36127,1,0,0:0:0:0:
329,192,36245,1,0,0:0:0:0:
182,192,36245,1,0,0:0:0:0:
475,192,36362,1,0,0:0:0:0:
402,192,36362,1,0,0:0:0:0:
256,192,36362,1,0,0:0:0:0:
36,192,36362,1,0,0:0:0:0:
109,192,36480,1,0,0:0:0:0:
182,192,36480,1,0,0:0:0:0:
36,192,36598,1,0,0:0:0:0:
475,192,36598,1,0,0:0:0:0:
402,192,36598,1,0,0:0:0:0:
329,192,36598,1,0,0:0:0:0:
182,192,36715,1,0,0:0:0:0:
256,192,36715,1,0,0:0:0:0:
36,192,36833,1,0,0:0:0:0:
475,192,36833,1,0,0:0:0:0:
109,192,36833,1,0,0:0:0:0:
329,192,36833,1,0,0:0:0:0:
182,192,36951,1,0,0:0:0:0:
402,192,36951,1,0,0:0:0:0:
475,192,37068,1,0,0:0:0:0:
109,192,37068,1,0,0:0:0:0:
36,192,37068,1,0,0:0:0:0:
256,192,37068,1,0,0:0:0:0:
329,192,37186,1,0,0:0:0:0:
182,192,37186,1,0,0:0:0:0:
256,192,37304,1,0,0:0:0:0:
475,192,37304,1,0,0:0:0:0:
36,192,37304,1,0,0:0:0:0:
109,192,37304,1,0,0:0:0:0:
329,192,37421,1,0,0:0:0:0:
402,192,37421,1,0,0:0:0:0:
109,192,37539,1,0,0:0:0:0:
182,192,37539,1,0,0:0:0:0:
475,192,37539,1,0,0:0:0:0:
36,192,37539,1,0,0:0:0:0:
256,192,37657,1,0,0:0:0:0:
329,192,37657,1,0,0:0:0:0:
402,192,37774,1,0,0:0:0:0:
182,192,37774,1,0,0:0:0:0:
475,192,37774,1,0,0:0:0:0:
36,192,37774,1,0,0:0:0:0:
329,192,37892,1,0,0:0:0:0:
256,192,37892,1,0,0:0:0:0:
36,192,38010,1,0,0:0:0:0:
182,192,38010,1,0,0:0:0:0:
402,192,38010,1,0,0:0:0:0:
475,192,38010,1,0,0:0:0:0:
109,192,38127,1,0,0:0:0:0:
256,192,38127,1,0,0:0:0:0:
182,192,38245,1,0,0:0:0:0:
329,192,38245,1,0,0:0:0:0:
36,192,38245,1,0,0:0:0:0:
402,192,38245,1,0,0:0:0:0:
475,192,38245,1,0,0:0:0:0:
109,192,38362,1,0,0:0:0:0:
402,192,38480,1,0,0:0:0:0:
256,192,38480,1,0,0:0:0:0:
36,192,38480,1,0,0:0:0:0:
475,192,38480,1,0,0:0:0:0:
329,192,38598,1,0,0:0:0:0:
182,192,38598,1,0,0:0:0:0:
475,192,38715,1,0,0:0:0:0:
109,192,38715,1,0,0:0:0:0:
36,192,38715,1,0,0:0:0:0:
256,192,38715,1,0,0:0:0:0:
182,192,38833,1,0,0:0:0:0:
329,192,38833,1,0,0:0:0:0:
475,192,38951,1,0,0:0:0:0:
36,192,38951,1,0,0:0:0:0:
256,192,38951,1,0,0:0:0:0:
402,192,38951,1,0,0:0:0:0:
182,192,39068,1,0,0:0:0:0:
475,192,39186,1,0,0:0:0:0:
36,192,39186,1,0,0:0:0:0:
109,192,39186,1,0,0:0:0:0:
329,192,39186,1,0,0:0:0:0:
182,192,39304,1,0,0:0:0:0:
256,192,39304,1,0,0:0:0:0:
109,192,39421,1,0,0:0:0:0:
36,192,39421,1,0,0:0:0:0:
475,192,39421,1,0,0:0:0:0:
402,192,39421,1,0,0:0:0:0:
256,192,39539,1,0,0:0:0:0:
329,192,39539,1,0,0:0:0:0:
36,192,39657,1,0,0:0:0:0:
109,192,39657,1,0,0:0:0:0:
402,192,39657,1,0,0:0:0:0:
475,192,39657,1,0,0:0:0:0:
329,192,39774,1,0,0:0:0:0:
182,192,39774,1,0,0:0:0:0:
402,192,39892,1,0,0:0:0:0:
475,192,39892,1,0,0:0:0:0:
36,192,39892,1,0,0:0:0:0:
256,192,39892,1,0,0:0:0:0:
329,192,40010,1,0,0:0:0:0:
109,192,40010,1,0,0:0:0:0:
475,192,40127,1,0,0:0:0:0:
402,192,40127,1,0,0:0:0:0:
36,192,40127,1,0,0:0:0:0:
182,192,40127,1,0,0:0:0:0:
256,192,40245,1,0,0:0:0:0:
329,192,40245,1,0,0:0:0:0:
182,192,40362,1,0,0:0:0:0:
475,192,40362,1,0,0:0:0:0:
36,192,40362,1,0,0:0:0:0:
109,192,40362,1,0,0:0:0:0:
402,192,40480,1,0,0:0:0:0:
329,192,40480,1,0,0:0:0:0:
256,192,40598,1,0,0:0:0:0:
475,192,40598,1,0,0:0:0:0:
36,192,40598,1,0,0:0:0:0:
109,192,40598,1,0,0:0:0:0:
329,192,40715,1,0,0:0:0:0:
182,192,40715,1,0,0:0:0:0:
475,192,40833,1,0,0:0:0:0:
256,192,40833,1,0,0:0:0:0:
36,192,40833,1,0,0:0:0:0:
109,192,40833,1,0,0:0:0:0:
402,192,40951,1,0,0:0:0:0:
182,192,40951,1,0,0:0:0:0:
329,192,41068,1,0,0:0:0:0:
475,192,41068,1,0,0:0:0:0:
36,192,41068,1,0,0:0:0:0:
109,192,41068,1,0,0:0:0:0:
256,192,41186,1,0,0:0:0:0:
182,192,41186,1,0,0:0:0:0:
402,192,41304,1,0,0:0:0:0:
36,192,41304,1,0,0:0:0:0:
329,192,41304,1,0,0:0:0:0:
475,192,41304,1,0,0:0:0:0:
182,192,41421,1,0,0:0:0:0:
109,192,41421,1,0,0:0:0:0:
475,192,41539,1,0,0:0:0:0:
402,192,41539,1,0,0:0:0:0:
36,192,41539,1,0,0:0:0:0:
256,192,41539,1,0,0:0:0:0:
329,192,41657,1,0,0:0:0:0:
109,192,41657,1,0,0:0:0:0:
36,192,41774,1,0,0:0:0:0:
182,192,41774,1,0,0:0:0:0:
402,192,41774,1,0,0:0:0:0:
475,192,41774,1,0,0:0:0:0:
109,192,41892,1,0,0:0:0:0:
256,192,41892,1,0,0:0:0:0:
182,192,42010,1,0,0:0:0:0:
329,192,42010,1,0,0:0:0:0:
36,192,42010,1,0,0:0:0:0:
402,192,42010,1,0,0:0:0:0:
475,192,42010,1,0,0:0:0:0:
109,192,42127,1,0,0:0:0:0:
402,192,42245,1,0,0:0:0:0:
256,192,42245,1,0,0:0:0:0:
36,192,42245,1,0,0:0:0:0:
475,192,42245,1,0,0:0:0:0:
329,192,42362,1,0,0:0:0:0:
182,192,42362,1,0,0:0:0:0:
475,192,42480,1,0,0:0:0:0:
109,192,42480,1,0,0:0:0:0:
36,192,42480,1,0,0:0:0:0:
256,192,42480,1,0,0:0:0:0:
182,192,42598,1,0,0:0:0:0:
329,192,42598,1,0,0:0:0:0:
475,192,42715,1,0,0:0:0:0:
36,192,42715,1,0,0:0:0:0:
256,192,42715,1,0,0:0:0:0:
402,192,42715,1,0,0:0:0:0:
109,192,42833,1,0,0:0:0:0:
475,192,42951,1,0,0:0:0:0:
329,192,42951,1,0,0:0:0:0:
182,192,42951,1,0,0:0:0:0:
402,192,42951,1,0,0:0:0:0:
36,192,43068,1,0,0:0:0:0:
109,192,43068,1,0,0:0:0:0:
182,192,43186,1,0,0:0:0:0:
329,192,43186,1,0,0:0:0:0:
256,192,43186,1,0,0:0:0:0:
475,192,43304,1,0,0:0:0:0:
402,192,43304,1,0,0:0:0:0:
36,192,43421,1,0,0:0:0:0:
109,192,43421,1,0,0:0:0:0:
182,192,43421,1,0,0:0:0:0:
329,192,43421,1,0,0:0:0:0:
256,192,43539,1,0,0:0:0:0:
402,192,43539,1,0,0:0:0:0:
36,192,43657,1,0,0:0:0:0:
475,192,43657,1,0,0:0:0:0:
329,192,43657,1,0,0:0:0:0:
109,192,43657,1,0,0:0:0:0:
182,192,43774,1,0,0:0:0:0:
402,192,43774,1,0,0:0:0:0:
475,192,43892,1,0,0:0:0:0:
256,192,43892,1,0,0:0:0:0:
36,192,43892,1,0,0:0:0:0:
109,192,43892,1,0,0:0:0:0:
329,192,44010,1,0,0:0:0:0:
402,192,44010,1,0,0:0:0:0:
109,192,44127,1,0,0:0:0:0:
36,192,44127,1,0,0:0:0:0:
475,192,44127,1,0,0:0:0:0:
182,192,44127,1,0,0:0:0:0:
256,192,44245,1,0,0:0:0:0:
329,192,44245,1,0,0:0:0:0:
36,192,44362,1,0,0:0:0:0:
402,192,44362,1,0,0:0:0:0:
475,192,44362,1,0,0:0:0:0:
182,192,44362,1,0,0:0:0:0:
109,192,44480,1,0,0:0:0:0:
256,192,44480,1,0,0:0:0:0:
182,192,44598,1,0,0:0:0:0:
402,192,44598,1,0,0:0:0:0:
475,192,44598,1,0,0:0:0:0:
36,192,44598,1,0,0:0:0:0:
109,192,44715,1,0,0:0:0:0:
329,192,44715,1,0,0:0:0:0:
475,192,44833,1,0,0:0:0:0:
402,192,44833,1,0,0:0:0:0:
36,192,44833,1,0,0:0:0:0:
256,192,44833,1,0,0:0:0:0:
182,192,44833,1,0,0:0:0:0:
109,192,44951,1,0,0:0:0:0:
36,192,45068,1,0,0:0:0:0:
329,192,45068,1,0,0:0:0:0:
402,192,45068,1,0,0:0:0:0:
475,192,45068,1,0,0:0:0:0:
182,192,45186,1,0,0:0:0:0:
256,192,45186,1,0,0:0:0:0:
36,192,45304,1,0,0:0:0:0:
329,192,45304,1,0,0:0:0:0:
475,192,45304,1,0,0:0:0:0:
109,192,45304,1,0,0:0:0:0:
182,192,45421,1,0,0:0:0:0:
36,192,45539,1,0,0:0:0:0:
256,192,45539,1,0,0:0:0:0:
475,192,45539,1,0,0:0:0:0:
182,192,45657,1,0,0:0:0:0:
402,192,45657,1,0,0:0:0:0:
36,192,45774,1,0,0:0:0:0:
475,192,45774,1,0,0:0:0:0:
109,192,45774,1,0,0:0:0:0:
329,192,45774,1,0,0:0:0:0:
182,192,45892,1,0,0:0:0:0:
402,192,46010,1,0,0:0:0:0:
256,192,46010,1,0,0:0:0:0:
36,192,46010,1,0,0:0:0:0:
109,192,46127,1,0,0:0:0:0:
182,192,46127,1,0,0:0:0:0:
329,192,46127,1,0,0:0:0:0:
475,192,46127,1,0,0:0:0:0:
182,192,46362,1,0,0:0:0:0:
256,192,46362,1,0,0:0:0:0:
402,192,46362,1,0,0:0:0:0:
36,192,46362,1,0,0:0:0:0:
475,192,46598,1,0,0:0:0:0:
109,192,46598,1,0,0:0:0:0:
256,192,46598,1,0,0:0:0:0:
36,192,46715,1,0,0:0:0:0:
402,192,46715,1,0,0:0:0:0:
182,192,46715,1,0,0:0:0:0:
329,192,46715,1,0,0:0:0:0:
36,192,46951,1,0,0:0:0:0:
109,192,46951,1,0,0:0:0:0:
402,192,46951,1,0,0:0:0:0:
475,192,46951,1,0,0:0:0:0:
329,192,47068,1,0,0:0:0:0:
182,192,47068,1,0,0:0:0:0:
36,192,47186,1,0,0:0:0:0:
256,192,47186,1,0,0:0:0:0:
402,192,47186,1,0,0:0:0:0:
475,192,47186,1,0,0:0:0:0:
109,192,47186,1,0,0:0:0:0:
182,192,47304,1,0,0:0:0:0:
329,192,47304,1,0,0:0:0:0:
109,192,47421,1,0,0:0:0:0:
36,192,47421,1,0,0:0:0:0:
256,192,47421,1,0,0:0:0:0:
475,192,47421,1,0,0:0:0:0:
402,192,47539,1,0,0:0:0:0:
36,192,47657,1,0,0:0:0:0:
182,192,47657,1,0,0:0:0:0:
329,192,47657,1,0,0:0:0:0:
256,192,47657,1,0,0:0:0:0:
109,192,47774,1,0,0:0:0:0:
475,192,47774,1,0,0:0:0:0:
36,192,47892,1,0,0:0:0:0:
182,192,47892,1,0,0:0:0:0:
402,192,47892,1,0,0:0:0:0:
256,192,47892,1,0,0:0:0:0:
329,192,48010,1,0,0:0:0:0:
109,192,48010,1,0,0:0:0:0:
36,192,48127,1,0,0:0:0:0:
256,192,48127,1,0,0:0:0:0:
475,192,48127,1,0,0:0:0:0:
109,192,48245,1,0,0:0:0:0:
329,192,48245,1,0,0:0:0:0:
182,192,48362,1,0,0:0:0:0:
402,192,48362,1,0,0:0:0:0:
475,192,48362,1,0,0:0:0:0:
36,192,48362,1,0,0:0:0:0:
256,192,48480,1,0,0:0:0:0:
329,192,48598,1,0,0:0:0:0:
402,192,48598,1,0,0:0:0:0:
109,192,48598,1,0,0:0:0:0:
36,192,48598,1,0,0:0:0:0:
182,192,48715,1,0,0:0:0:0:
36,192,48833,1,0,0:0:0:0:
329,192,48833,1,0,0:0:0:0:
256,192,48833,1,0,0:0:0:0:
475,192,48833,1,0,0:0:0:0:
182,192,48951,1,0,0:0:0:0:
475,192,49068,1,0,0:0:0:0:
36,192,49068,1,0,0:0:0:0:
109,192,49068,1,0,0:0:0:0:
329,192,49068,1,0,0:0:0:0:
256,192,49068,1,0,0:0:0:0:
182,192,49186,1,0,0:0:0:0:
402,192,49186,1,0,0:0:0:0:
109,192,49304,1,0,0:0:0:0:
36,192,49304,1,0,0:0:0:0:
256,192,49304,1,0,0:0:0:0:
475,192,49304,1,0,0:0:0:0:
329,192,49421,1,0,0:0:0:0:
36,192,49539,1,0,0:0:0:0:
182,192,49539,1,0,0:0:0:0:
402,192,49539,1,0,0:0:0:0:
475,192,49539,1,0,0:0:0:0:
109,192,49657,1,0,0:0:0:0:
256,192,49657,1,0,0:0:0:0:
36,192,49774,1,0,0:0:0:0:
182,192,49774,1,0,0:0:0:0:
329,192,49774,1,0,0:0:0:0:
475,192,49774,1,0,0:0:0:0:
402,192,49892,1,0,0:0:0:0:
109,192,49892,1,0,0:0:0:0:
36,192,50010,1,0,0:0:0:0:
475,192,50010,1,0,0:0:0:0:
256,192,50010,1,0,0:0:0:0:
109,192,50127,1,0,0:0:0:0:
329,192,50127,1,0,0:0:0:0:
182,192,50245,1,0,0:0:0:0:
402,192,50245,1,0,0:0:0:0:
475,192,50245,1,0,0:0:0:0:
36,192,50245,1,0,0:0:0:0:
256,192,50362,1,0,0:0:0:0:
329,192,50480,1,0,0:0:0:0:
402,192,50480,1,0,0:0:0:0:
109,192,50480,1,0,0:0:0:0:
36,192,50480,1,0,0:0:0:0:
182,192,50598,1,0,0:0:0:0:
256,192,50715,1,0,0:0:0:0:
36,192,50715,1,0,0:0:0:0:
475,192,50715,1,0,0:0:0:0:
329,192,50715,1,0,0:0:0:0:
182,192,50833,1,0,0:0:0:0:
109,192,50951,1,0,0:0:0:0:
36,192,50951,1,0,0:0:0:0:
256,192,50951,1,0,0:0:0:0:
475,192,50951,1,0,0:0:0:0:
329,192,50951,1,0,0:0:0:0:
182,192,51068,1,0,0:0:0:0:
402,192,51068,1,0,0:0:0:0:
109,192,51186,1,0,0:0:0:0:
36,192,51186,1,0,0:0:0:0:
256,192,51186,1,0,0:0:0:0:
329,192,51186,1,0,0:0:0:0:
475,192,51304,1,0,0:0:0:0:
36,192,51421,1,0,0:0:0:0:
182,192,51421,1,0,0:0:0:0:
402,192,51421,1,0,0:0:0:0:
256,192,51421,1,0,0:0:0:0:
109,192,51539,1,0,0:0:0:0:
329,192,51539,1,0,0:0:0:0:
36,192,51657,1,0,0:0:0:0:
182,192,51657,1,0,0:0:0:0:
256,192,51657,1,0,0:0:0:0:
475,192,51657,1,0,0:0:0:0:
402,192,51774,1,0,0:0:0:0:
109,192,51774,1,0,0:0:0:0:
36,192,51892,1,0,0:0:0:0:
256,192,51892,1,0,0:0:0:0:
329,192,51892,1,0,0:0:0:0:
475,192,51892,1,0,0:0:0:0:
182,192,52010,1,0,0:0:0:0:
36,192,52127,1,0,0:0:0:0:
109,192,52127,1,0,0:0:0:0:
329,192,52127,1,0,0:0:0:0:
475,192,52127,1,0,0:0:0:0:
256,192,52245,1,0,0:0:0:0:
36,192,52362,1,0,0:0:0:0:
182,192,52362,1,0,0:0:0:0:
402,192,52362,1,0,0:0:0:0:
475,192,52362,1,0,0:0:0:0:
256,192,52480,1,0,0:0:0:0:
329,192,52598,1,0,0:0:0:0:
475,192,52598,1,0,0:0:0:0:
36,192,52598,1,0,0:0:0:0:
109,192,52598,1,0,0:0:0:0:
182,192,52715,1,0,0:0:0:0:
402,192,52715,1,0,0:0:0:0:
36,192,52833,1,0,0:0:0:0:
256,192,52833,1,0,0:0:0:0:
475,192,52833,1,0,0:0:0:0:
109,192,52951,1,0,0:0:0:0:
329,192,52951,1,0,0:0:0:0:
402,192,52951,1,0,0:0:0:0:
182,192,53068,1,0,0:0:0:0:
256,192,53068,1,0,0:0:0:0:
475,192,53068,1,0,0:0:0:0:
36,192,53186,1,0,0:0:0:0:
109,192,53186,1,0,0:0:0:0:
329,192,53186,1,0,0:0:0:0:
402,192,53304,1,0,0:0:0:0:
475,192,53304,1,0,0:0:0:0:
182,192,53304,1,0,0:0:0:0:
256,192,53421,1,0,0:0:0:0:
329,192,53421,1,0,0:0:0:0:
36,192,53421,1,0,0:0:0:0:
109,192,53539,1,0,0:0:0:0:
182,192,53539,1,0,0:0:0:0:
475,192,53539,1,0,0:0:0:0:
36,192,53657,1,0,0:0:0:0:
329,192,53657,1,0,0:0:0:0:
256,192,53657,1,0,0:0:0:0:
402,192,53657,1,0,0:0:0:0:
182,192,53774,1,0,0:0:0:0:
36,192,53892,1,0,0:0:0:0:
109,192,53892,1,0,0:0:0:0:
329,192,53892,1,0,0:0:0:0:
182,192,54010,1,0,0:0:0:0:
256,192,54010,1,0,0:0:0:0:
475,192,54010,1,0,0:0:0:0:
329,192,54127,1,0,0:0:0:0:
402,192,54127,1,0,0:0:0:0:
109,192,54127,1,0,0:0:0:0:
475,192,54245,1,0,0:0:0:0:
36,192,54245,1,0,0:0:0:0:
256,192,54245,1,0,0:0:0:0:
182,192,54362,1,0,0:0:0:0:
329,192,54362,1,0,0:0:0:0:
475,192,54480,1,0,0:0:0:0:
36,192,54480,1,0,0:0:0:0:
109,192,54480,1,0,0:0:0:0:
402,192,54480,1,0,0:0:0:0:
182,192,54598,1,0,0:0:0:0:
329,192,54598,1,0,0:0:0:0:
109,192,54715,1,0,0:0:0:0:
36,192,54715,1,0,0:0:0:0:
256,192,54715,1,0,0:0:0:0:
475,192,54715,1,0,0:0:0:0:
402,192,54715,1,0,0:0:0:0:
329,192,54833,1,0,0:0:0:0:
182,192,54833,1,0,0:0:0:0:
256,192,54951,1,0,0:0:0:0:
475,192,54951,1,0,0:0:0:0:
109,192,54951,1,0,0:0:0:0:
36,192,54951,1,0,0:0:0:0:
402,192,55068,1,0,0:0:0:0:
329,192,55186,1,0,0:0:0:0:
256,192,55186,1,0,0:0:0:0:
36,192,55186,1,0,0:0:0:0:
182,192,55186,1,0,0:0:0:0:
475,192,55304,1,0,0:0:0:0:
109,192,55304,1,0,0:0:0:0:
402,192,55421,1,0,0:0:0:0:
256,192,55421,1,0,0:0:0:0:
36,192,55421,1,0,0:0:0:0:
182,192,55421,1,0,0:0:0:0:
109,192,55539,1,0,0:0:0:0:
329,192,55539,1,0,0:0:0:0:
475,192,55657,1,0,0:0:0:0:
256,192,55657,1,0,0:0:0:0:
36,192,55657,1,0,0:0:0:0:
329,192,55774,1,0,0:0:0:0:
109,192,55774,1,0,0:0:0:0:
475,192,55892,1,0,0:0:0:0:
36,192,55892,1,0,0:0:0:0:
182,192,55892,1,0,0:0:0:0:
402,192,55892,1,0,0:0:0:0:
256,192,56010,1,0,0:0:0:0:
109,192,56127,1,0,0:0:0:0:
36,192,56127,1,0,0:0:0:0:
329,192,56127,1,0,0:0:0:0:
402,192,56127,1,0,0:0:0:0:
109,192,56362,1,0,0:0:0:0:
329,192,56362,1,0,0:0:0:0:
256,192,56362,1,0,0:0:0:0:
475,192,56362,1,0,0:0:0:0:
182,192,56480,1,0,0:0:0:0:
402,192,56480,1,0,0:0:0:0:
329,192,56598,1,0,0:0:0:0:
256,192,56598,1,0,0:0:0:0:
109,192,56598,1,0,0:0:0:0:
475,192,56598,1,0,0:0:0:0:
36,192,56598,1,0,0:0:0:0:
402,192,56715,1,0,0:0:0:0:
182,192,56715,1,0,0:0:0:0:
256,192,56833,1,0,0:0:0:0:
475,192,56833,1,0,0:0:0:0:
109,192,56833,1,0,0:0:0:0:
36,192,56833,1,0,0:0:0:0:
329,192,56951,1,0,0:0:0:0:
402,192,57068,1,0,0:0:0:0:
475,192,57068,1,0,0:0:0:0:
36,192,57068,1,0,0:0:0:0:
182,192,57068,1,0,0:0:0:0:
256,192,57186,1,0,0:0:0:0:
109,192,57186,1,0,0:0:0:0:
329,192,57304,1,0,0:0:0:0:
475,192,57304,1,0,0:0:0:0:
36,192,57304,1,0,0:0:0:0:
182,192,57304,1,0,0:0:0:0:
109,192,57421,1,0,0:0:0:0:
402,192,57421,1,0,0:0:0:0:
256,192,57539,1,0,0:0:0:0:
475,192,57539,1,0,0:0:0:0:
36,192,57539,1,0,0:0:0:0:
329,192,57657,1,0,0:0:0:0:
109,192,57657,1,0,0:0:0:0:
475,192,57774,1,0,0:0:0:0:
36,192,57774,1,0,0:0:0:0:
182,192,57774,1,0,0:0:0:0:
402,192,57774,1,0,0:0:0:0:
109,192,57892,1,0,0:0:0:0:
329,192,57892,1,0,0:0:0:0:
36,192,58010,1,0,0:0:0:0:
256,192,58010,1,0,0:0:0:0:
475,192,58010,1,0,0:0:0:0:
402,192,58127,1,0,0:0:0:0:
182,192,58127,1,0,0:0:0:0:
109,192,58245,1,0,0:0:0:0:
329,192,58245,1,0,0:0:0:0:
36,192,58245,1,0,0:0:0:0:
256,192,58362,1,0,0:0:0:0:
182,192,58362,1,0,0:0:0:0:
402,192,58362,1,0,0:0:0:0:
36,192,58480,1,0,0:0:0:0:
475,192,58480,1,0,0:0:0:0:
329,192,58480,1,0,0:0:0:0:
109,192,58480,1,0,0:0:0:0:
182,192,58598,1,0,0:0:0:0:
256,192,58598,1,0,0:0:0:0:
36,192,58715,1,0,0:0:0:0:
109,192,58715,1,0,0:0:0:0:
402,192,58715,1,0,0:0:0:0:
475,192,58715,1,0,0:0:0:0:
329,192,58833,1,0,0:0:0:0:
36,192,58951,1,0,0:0:0:0:
182,192,58951,1,0,0:0:0:0:
256,192,58951,1,0,0:0:0:0:
475,192,58951,1,0,0:0:0:0:
109,192,59068,1,0,0:0:0:0:
402,192,59068,1,0,0:0:0:0:
36,192,59186,1,0,0:0:0:0:
182,192,59186,1,0,0:0:0:0:
329,192,59186,1,0,0:0:0:0:
256,192,59186,1,0,0:0:0:0:
402,192,59304,1,0,0:0:0:0:
256,192,59421,1,0,0:0:0:0:
182,192,59421,1,0,0:0:0:0:
109,192,59421,1,0,0:0:0:0:
475,192,59421,1,0,0:0:0:0:
36,192,59539,1,0,0:0:0:0:
329,192,59539,1,0,0:0:0:0:
109,192,59657,1,0,0:0:0:0:
182,192,59657,1,0,0:0:0:0:
402,192,59657,1,0,0:0:0:0:
475,192,59657,1,0,0:0:0:0:
256,192,59774,1,0,0:0:0:0:
475,192,59892,1,0,0:0:0:0:
36,192,59892,1,0,0:0:0:0:
182,192,59892,1,0,0:0:0:0:
329,192,59892,1,0,0:0:0:0:
109,192,60010,1,0,0:0:0:0:
402,192,60010,1,0,0:0:0:0:
475,192,60127,1,0,0:0:0:0:
36,192,60127,1,0,0:0:0:0:
182,192,60127,1,0,0:0:0:0:
256,192,60127,1,0,0:0:0:0:
402,192,60245,1,0,0:0:0:0:
36,192,60362,1,0,0:0:0:0:
109,192,60362,1,0,0:0:0:0:
329,192,60362,1,0,0:0:0:0:
256,192,60362,1,0,0:0:0:0:
182,192,60480,1,0,0:0:0:0:
475,192,60480,1,0,0:0:0:0:
109,192,60598,1,0,0:0:0:0:
36,192,60598,1,0,0:0:0:0:
256,192,60598,1,0,0:0:0:0:
402,192,60598,1,0,0:0:0:0:
329,192,60715,1,0,0:0:0:0:
36,192,60833,1,0,0:0:0:0:
256,192,60833,1,0,0:0:0:0:
182,192,60833,1,0,0:0:0:0:
475,192,60833,1,0,0:0:0:0:
109,192,60951,1,0,0:0:0:0:
402,192,60951,1,0,0:0:0:0:
256,192,61068,1,0,0:0:0:0:
36,192,61068,1,0,0:0:0:0:
182,192,61068,1,0,0:0:0:0:
329,192,61068,1,0,0:0:0:0:
402,192,61186,1,0,0:0:0:0:
256,192,61304,1,0,0:0:0:0:
109,192,61304,1,0,0:0:0:0:
182,192,61304,1,0,0:0:0:0:
475,192,61304,1,0,0:0:0:0:
36,192,61421,1,0,0:0:0:0:
329,192,61421,1,0,0:0:0:0:
402,192,61539,1,0,0:0:0:0:
109,192,61539,1,0,0:0:0:0:
182,192,61539,1,0,0:0:0:0:
475,192,61539,1,0,0:0:0:0:
256,192,61657,1,0,0:0:0:0:
36,192,61774,1,0,0:0:0:0:
182,192,61774,1,0,0:0:0:0:
329,192,61774,1,0,0:0:0:0:
475,192,61774,1,0,0:0:0:0:
109,192,61892,1,0,0:0:0:0:
402,192,61892,1,0,0:0:0:0:
36,192,62010,1,0,0:0:0:0:
182,192,62010,1,0,0:0:0:0:
256,192,62010,1,0,0:0:0:0:
475,192,62010,1,0,0:0:0:0:
329,192,62127,1,0,0:0:0:0:
402,192,62245,1,0,0:0:0:0:
475,192,62245,1,0,0:0:0:0:
36,192,62245,1,0,0:0:0:0:
109,192,62245,1,0,0:0:0:0:
182,192,62245,1,0,0:0:0:0:
256,192,62362,1,0,0:0:0:0:
329,192,62480,1,0,0:0:0:0:
402,192,62480,1,0,0:0:0:0:
475,192,62480,1,0,0:0:0:0:
36,192,62480,1,0,0:0:0:0:
109,192,62480,1,0,0:0:0:0:
182,192,62598,1,0,0:0:0:0:
256,192,62715,1,0,0:0:0:0:
329,192,62715,1,0,0:0:0:0:
402,192,62715,1,0,0:0:0:0:
475,192,62715,1,0,0:0:0:0:
36,192,62715,1,0,0:0:0:0:
182,192,62833,1,0,0:0:0:0:
36,192,62951,1,0,0:0:0:0:
109,192,62951,1,0,0:0:0:0:
402,192,62951,1,0,0:0:0:0:
475,192,62951,1,0,0:0:0:0:
329,192,62951,1,0,0:0:0:0:
256,192,63068,1,0,0:0:0:0:
182,192,63186,1,0,0:0:0:0:
109,192,63186,1,0,0:0:0:0:
36,192,63186,1,0,0:0:0:0:
402,192,63186,1,0,0:0:0:0:
475,192,63186,1,0,0:0:0:0:
256,192,63304,1,0,0:0:0:0:
36,192,63421,1,0,0:0:0:0:
475,192,63421,1,0,0:0:0:0:
109,192,63421,1,0,0:0:0:0:
182,192,63421,1,0,0:0:0:0:
402,192,63421,1,0,0:0:0:0:
329,192,63539,1,0,0:0:0:0:
182,192,63657,1,0,0:0:0:0:
109,192,63657,1,0,0:0:0:0:
36,192,63657,1,0,0:0:0:0:
256,192,63657,1,0,0:0:0:0:
475,192,63657,1,0,0:0:0:0:
329,192,63774,1,0,0:0:0:0:
402,192,63892,1,0,0:0:0:0:
475,192,63892,1,0,0:0:0:0:
36,192,63892,1,0,0:0:0:0:
109,192,63892,1,0,0:0:0:0:
182,192,63892,1,0,0:0:0:0:
256,192,64010,1,0,0:0:0:0:
36,192,64127,1,0,0:0:0:0:
329,192,64127,1,0,0:0:0:0:
402,192,64127,1,0,0:0:0:0:
475,192,64127,1,0,0:0:0:0:
109,192,64127,1,0,0:0:0:0:
36,192,64245,1,0,0:0:0:0:
182,192,64362,1,0,0:0:0:0:
329,192,64362,1,0,0:0:0:0:
36,192,64480,1,0,0:0:0:0:
182,192,64480,1,0,0:0:0:0:
329,192,64480,1,0,0:0:0:0:
256,192,64598,1,0,0:0:0:0:
402,192,64598,1,0,0:0:0:0:
36,192,64715,1,0,0:0:0:0:
329,192,64715,1,0,0:0:0:0:
475,192,64715,1,0,0:0:0:0:
182,192,64951,1,0,0:0:0:0:
329,192,64951,1,0,0:0:0:0:
36,192,64951,1,0,0:0:0:0:
36,192,65068,1,0,0:0:0:0:
109,192,65068,1,0,0:0:0:0:
256,192,65068,1,0,0:0:0:0:
475,192,65068,1,0,0:0:0:0:
402,192,65068,1,0,0:0:0:0:
182,192,65186,1,0,0:0:0:0:
329,192,65186,1,0,0:0:0:0:
109,192,65304,1,0,0:0:0:0:
36,192,65304,1,0,0:0:0:0:
402,192,65304,1,0,0:0:0:0:
475,192,65304,1,0,0:0:0:0:
182,192,65421,1,0,0:0:0:0:
329,192,65421,1,0,0:0:0:0:
256,192,65539,1,0,0:0:0:0:
36,192,65539,1,0,0:0:0:0:
475,192,65539,1,0,0:0:0:0:
109,192,65657,1,0,0:0:0:0:
402,192,65657,1,0,0:0:0:0:
182,192,65774,1,0,0:0:0:0:
256,192,65774,1,0,0:0:0:0:
329,192,65774,1,0,0:0:0:0:
109,192,65892,1,0,0:0:0:0:
402,192,65892,1,0,0:0:0:0:
36,192,66010,1,0,0:0:0:0:
475,192,66010,1,0,0:0:0:0:
329,192,66010,1,0,0:0:0:0:
256,192,66010,1,0,0:0:0:0:
182,192,66010,1,0,0:0:0:0:
402,192,66127,1,0,0:0:0:0:
109,192,66127,1,0,0:0:0:0:
475,192,66245,1,0,0:0:0:0:
256,192,66245,1,0,0:0:0:0:
36,192,66245,1,0,0:0:0:0:
182,192,66362,1,0,0:0:0:0:
402,192,66362,1,0,0:0:0:0:
109,192,66480,1,0,0:0:0:0:
36,192,66480,1,0,0:0:0:0:
329,192,66480,1,0,0:0:0:0:
475,192,66480,1,0,0:0:0:0:
182,192,66598,1,0,0:0:0:0:
256,192,66598,1,0,0:0:0:0:
402,192,66598,1,0,0:0:0:0:
475,192,66715,1,0,0:0:0:0:
36,192,66715,1,0,0:0:0:0:
329,192,66715,1,0,0:0:0:0:
109,192,66833,1,0,0:0:0:0:
182,192,66833,1,0,0:0:0:0:
402,192,66833,1,0,0:0:0:0:
256,192,66951,1,0,0:0:0:0:
329,192,66951,1,0,0:0:0:0:
36,192,66951,1,0,0:0:0:0:
475,192,66951,1,0,0:0:0:0:
109,192,67068,1,0,0:0:0:0:
182,192,67068,1,0,0:0:0:0:
36,192,67186,1,0,0:0:0:0:
329,192,67186,1,0,0:0:0:0:
402,192,67186,1,0,0:0:0:0:
475,192,67186,1,0,0:0:0:0:
182,192,67304,1,0,0:0:0:0:
256,192,67304,1,0,0:0:0:0:
36,192,67421,1,0,0:0:0:0:
109,192,67421,1,0,0:0:0:0:
402,192,67421,1,0,0:0:0:0:
475,192,67421,1,0,0:0:0:0:
256,192,67539,1,0,0:0:0:0:
329,192,67539,1,0,0:0:0:0:
36,192,67657,1,0,0:0:0:0:
109,192,67657,1,0,0:0:0:0:
182,192,67657,1,0,0:0:0:0:
475,192,67657,1,0,0:0:0:0:
402,192,67774,1,0,0:0:0:0:
329,192,67774,1,0,0:0:0:0:
36,192,67892,1,0,0:0:0:0:
109,192,67892,1,0,0:0:0:0:
475,192,67892,1,0,0:0:0:0:
256,192,67892,1,0,0:0:0:0:
182,192,67892,1,0,0:0:0:0:
329,192,68010,1,0,0:0:0:0:
402,192,68010,1,0,0:0:0:0:
475,192,68127,1,0,0:0:0:0:
182,192,68127,1,0,0:0:0:0:
109,192,68127,1,0,0:0:0:0:
36,192,68127,1,0,0:0:0:0:
256,192,68245,1,0,0:0:0:0:
329,192,68245,1,0,0:0:0:0:
36,192,68362,1,0,0:0:0:0:
402,192,68362,1,0,0:0:0:0:
475,192,68362,1,0,0:0:0:0:
109,192,68362,1,0,0:0:0:0:
182,192,68480,1,0,0:0:0:0:
256,192,68480,1,0,0:0:0:0:
329,192,68598,1,0,0:0:0:0:
402,192,68598,1,0,0:0:0:0:
475,192,68598,1,0,0:0:0:0:
36,192,68598,1,0,0:0:0:0:
109,192,68715,1,0,0:0:0:0:
182,192,68715,1,0,0:0:0:0:
36,192,68833,1,0,0:0:0:0:
256,192,68833,1,0,0:0:0:0:
329,192,68833,1,0,0:0:0:0:
475,192,68833,1,0,0:0:0:0:
182,192,68951,1,0,0:0:0:0:
402,192,68951,1,0,0:0:0:0:
36,192,69068,1,0,0:0:0:0:
109,192,69068,1,0,0:0:0:0:
329,192,69068,1,0,0:0:0:0:
182,192,69186,1,0,0:0:0:0:
256,192,69186,1,0,0:0:0:0:
402,192,69186,1,0,0:0:0:0:
36,192,69304,1,0,0:0:0:0:
329,192,69304,1,0,0:0:0:0:
109,192,69304,1,0,0:0:0:0:
475,192,69304,1,0,0:0:0:0:
182,192,69421,1,0,0:0:0:0:
402,192,69421,1,0,0:0:0:0:
256,192,69539,1,0,0:0:0:0:
36,192,69539,1,0,0:0:0:0:
475,192,69539,1,0,0:0:0:0:
109,192,69657,1,0,0:0:0:0:
402,192,69657,1,0,0:0:0:0:
36,192,69774,1,0,0:0:0:0:
182,192,69774,1,0,0:0:0:0:
475,192,69774,1,0,0:0:0:0:
329,192,69774,1,0,0:0:0:0:
109,192,69892,1,0,0:0:0:0:
256,192,69892,1,0,0:0:0:0:
36,192,70010,1,0,0:0:0:0:
182,192,70010,1,0,0:0:0:0:
402,192,70010,1,0,0:0:0:0:
475,192,70010,1,0,0:0:0:0:
109,192,70127,1,0,0:0:0:0:
256,192,70127,1,0,0:0:0:0:
329,192,70127,1,0,0:0:0:0:
36,192,70245,1,0,0:0:0:0:
475,192,70245,1,0,0:0:0:0:
182,192,70362,1,0,0:0:0:0:
256,192,70362,1,0,0:0:0:0:
402,192,70362,1,0,0:0:0:0:
329,192,70480,1,0,0:0:0:0:
475,192,70480,1,0,0:0:0:0:
36,192,70480,1,0,0:0:0:0:
109,192,70480,1,0,0:0:0:0:
402,192,70598,1,0,0:0:0:0:
182,192,70598,1,0,0:0:0:0:
109,192,70715,1,0,0:0:0:0:
36,192,70715,1,0,0:0:0:0:
256,192,70715,1,0,0:0:0:0:
475,192,70715,1,0,0:0:0:0:
182,192,70833,1,0,0:0:0:0:
402,192,70833,1,0,0:0:0:0:
36,192,70951,1,0,0:0:0:0:
109,192,70951,1,0,0:0:0:0:
329,192,70951,1,0,0:0:0:0:
475,192,70951,1,0,0:0:0:0:
402,192,71068,1,0,0:0:0:0:
182,192,71068,1,0,0:0:0:0:
256,192,71068,1,0,0:0:0:0:
475,192,71186,1,0,0:0:0:0:
36,192,71186,1,0,0:0:0:0:
329,192,71304,1,0,0:0:0:0:
256,192,71304,1,0,0:0:0:0:
109,192,71304,1,0,0:0:0:0:
36,192,71421,1,0,0:0:0:0:
402,192,71421,1,0,0:0:0:0:
182,192,71421,1,0,0:0:0:0:
475,192,71421,1,0,0:0:0:0:
109,192,71539,1,0,0:0:0:0:
329,192,71539,1,0,0:0:0:0:
36,192,71657,1,0,0:0:0:0:
475,192,71657,1,0,0:0:0:0:
256,192,71657,1,0,0:0:0:0:
182,192,71657,1,0,0:0:0:0:
109,192,71774,1,0,0:0:0:0:
329,192,71774,1,0,0:0:0:0:
182,192,71892,1,0,0:0:0:0:
402,192,71892,1,0,0:0:0:0:
36,192,71892,1,0,0:0:0:0:
475,192,71892,1,0,0:0:0:0:
109,192,72010,1,0,0:0:0:0:
256,192,72010,1,0,0:0:0:0:
36,192,72127,1,0,0:0:0:0:
182,192,72127,1,0,0:0:0:0:
329,192,72127,1,0,0:0:0:0:
475,192,72127,1,0,0:0:0:0:
402,192,72245,1,0,0:0:0:0:
256,192,72245,1,0,0:0:0:0:
36,192,72362,1,0,0:0:0:0:
475,192,72362,1,0,0:0:0:0:
329,192,72362,1,0,0:0:0:0:
109,192,72362,1,0,0:0:0:0:
402,192,72480,1,0,0:0:0:0:
182,192,72480,1,0,0:0:0:0:
36,192,72598,1,0,0:0:0:0:
475,192,72598,1,0,0:0:0:0:
109,192,72598,1,0,0:0:0:0:
256,192,72598,1,0,0:0:0:0:
182,192,72715,1,0,0:0:0:0:
329,192,72715,1,0,0:0:0:0:
36,192,72833,1,0,0:0:0:0:
109,192,72833,1,0,0:0:0:0:
402,192,72833,1,0,0:0:0:0:
475,192,72833,1,0,0:0:0:0:
182,192,72951,1,0,0:0:0:0:
329,192,72951,1,0,0:0:0:0:
36,192,73068,1,0,0:0:0:0:
256,192,73068,1,0,0:0:0:0:
475,192,73068,1,0,0:0:0:0:
109,192,73186,1,0,0:0:0:0:
402,192,73186,1,0,0:0:0:0:
329,192,73304,1,0,0:0:0:0:
182,192,73304,1,0,0:0:0:0:
256,192,73304,1,0,0:0:0:0:
109,192,73421,1,0,0:0:0:0:
402,192,73421,1,0,0:0:0:0:
329,192,73539,1,0,0:0:0:0:
256,192,73539,1,0,0:0:0:0:
36,192,73539,1,0,0:0:0:0:
475,192,73539,1,0,0:0:0:0:
109,192,73657,1,0,0:0:0:0:
182,192,73657,1,0,0:0:0:0:
36,192,73774,1,0,0:0:0:0:
475,192,73774,1,0,0:0:0:0:
329,192,73774,1,0,0:0:0:0:
402,192,73774,1,0,0:0:0:0:
256,192,73892,1,0,0:0:0:0:
182,192,73892,1,0,0:0:0:0:
402,192,74010,1,0,0:0:0:0:
109,192,74010,1,0,0:0:0:0:
36,192,74010,1,0,0:0:0:0:
475,192,74010,1,0,0:0:0:0:
329,192,74127,1,0,0:0:0:0:
256,192,74127,1,0,0:0:0:0:
36,192,74245,1,0,0:0:0:0:
109,192,74245,1,0,0:0:0:0:
182,192,74245,1,0,0:0:0:0:
475,192,74245,1,0,0:0:0:0:
402,192,74362,1,0,0:0:0:0:
329,192,74362,1,0,0:0:0:0:
36,192,74480,1,0,0:0:0:0:
109,192,74480,1,0,0:0:0:0:
475,192,74480,1,0,0:0:0:0:
256,192,74480,1,0,0:0:0:0:
182,192,74598,1,0,0:0:0:0:
402,192,74598,1,0,0:0:0:0:
36,192,74715,1,0,0:0:0:0:
109,192,74715,1,0,0:0:0:0:
329,192,74715,1,0,0:0:0:0:
475,192,74715,1,0,0:0:0:0:
182,192,74833,1,0,0:0:0:0:
256,192,74833,1,0,0:0:0:0:
402,192,74833,1,0,0:0:0:0:
36,192,74951,1,0,0:0:0:0:
109,192,74951,1,0,0:0:0:0:
329,192,74951,1,0,0:0:0:0:
256,192,75068,1,0,0:0:0:0:
475,192,75068,1,0,0:0:0:0:
36,192,75186,1,0,0:0:0:0:
402,192,75186,1,0,0:0:0:0:
182,192,75186,1,0,0:0:0:0:
109,192,75186,1,0,0:0:0:0:
329,192,75304,1,0,0:0:0:0:
256,192,75304,1,0,0:0:0:0:
402,192,75421,1,0,0:0:0:0:
475,192,75421,1,0,0:0:0:0:
36,192,75421,1,0,0:0:0:0:
182,192,75421,1,0,0:0:0:0:
329,192,75539,1,0,0:0:0:0:
109,192,75539,1,0,0:0:0:0:
475,192,75657,1,0,0:0:0:0:
402,192,75657,1,0,0:0:0:0:
182,192,75657,1,0,0:0:0:0:
36,192,75657,1,0,0:0:0:0:
329,192,75774,1,0,0:0:0:0:
256,192,75774,1,0,0:0:0:0:
109,192,75774,1,0,0:0:0:0:
475,192,75892,1,0,0:0:0:0:
402,192,75892,1,0,0:0:0:0:
182,192,75892,1,0,0:0:0:0:
256,192,76010,1,0,0:0:0:0:
36,192,76010,1,0,0:0:0:0:
475,192,76127,1,0,0:0:0:0:
109,192,76127,1,0,0:0:0:0:
329,192,76127,1,0,0:0:0:0:
402,192,76127,1,0,0:0:0:0:
182,192,76245,1,0,0:0:0:0:
256,192,76245,1,0,0:0:0:0:
109,192,76362,1,0,0:0:0:0:
36,192,76362,1,0,0:0:0:0:
475,192,76362,1,0,0:0:0:0:
329,192,76362,1,0,0:0:0:0:
182,192,76480,1,0,0:0:0:0:
402,192,76480,1,0,0:0:0:0:
36,192,76598,1,0,0:0:0:0:
256,192,76598,1,0,0:0:0:0:
475,192,76598,1,0,0:0:0:0:
109,192,76715,1,0,0:0:0:0:
329,192,76715,1,0,0:0:0:0:
182,192,76833,1,0,0:0:0:0:
402,192,76833,1,0,0:0:0:0:
475,192,76833,1,0,0:0:0:0:
36,192,76833,1,0,0:0:0:0:
109,192,76951,1,0,0:0:0:0:
329,192,76951,1,0,0:0:0:0:
36,192,77068,1,0,0:0:0:0:
256,192,77068,1,0,0:0:0:0:
475,192,77068,1,0,0:0:0:0:
402,192,77068,1,0,0:0:0:0:
182,192,77186,1,0,0:0:0:0:
329,192,77186,1,0,0:0:0:0:
36,192,77304,1,0,0:0:0:0:
475,192,77304,1,0,0:0:0:0:
109,192,77304,1,0,0:0:0:0:
256,192,77304,1,0,0:0:0:0:
182,192,77421,1,0,0:0:0:0:
402,192,77421,1,0,0:0:0:0:
36,192,77539,1,0,0:0:0:0:
109,192,77539,1,0,0:0:0:0:
329,192,77539,1,0,0:0:0:0:
475,192,77539,1,0,0:0:0:0:
182,192,77657,1,0,0:0:0:0:
256,192,77657,1,0,0:0:0:0:
402,192,77657,1,0,0:0:0:0:
36,192,77774,1,0,0:0:0:0:
475,192,77774,1,0,0:0:0:0:
329,192,77774,1,0,0:0:0:0:
109,192,77774,1,0,0:0:0:0:
182,192,77892,1,0,0:0:0:0:
402,192,77892,1,0,0:0:0:0:
256,192,78010,1,0,0:0:0:0:
475,192,78010,1,0,0:0:0:0:
36,192,78010,1,0,0:0:0:0:
109,192,78010,1,0,0:0:0:0:
329,192,78127,1,0,0:0:0:0:
182,192,78127,1,0,0:0:0:0:
36,192,78245,1,0,0:0:0:0:
402,192,78245,1,0,0:0:0:0:
256,192,78245,1,0,0:0:0:0:
475,192,78245,1,0,0:0:0:0:
109,192,78362,1,0,0:0:0:0:
182,192,78362,1,0,0:0:0:0:
329,192,78362,1,0,0:0:0:0:
36,192,78480,1,0,0:0:0:0:
256,192,78480,1,0,0:0:0:0:
402,192,78480,1,0,0:0:0:0:
475,192,78480,1,0,0:0:0:0:
109,192,78598,1,0,0:0:0:0:
329,192,78598,1,0,0:0:0:0:
182,192,78715,1,0,0:0:0:0:
36,192,78715,1,0,0:0:0:0:
475,192,78715,1,0,0:0:0:0:
402,192,78715,1,0,0:0:0:0:
109,192,78833,1,0,0:0:0:0:
256,192,78833,1,0,0:0:0:0:
36,192,78951,1,0,0:0:0:0:
182,192,78951,1,0,0:0:0:0:
329,192,78951,1,0,0:0:0:0:
109,192,79068,1,0,0:0:0:0:
256,192,79068,1,0,0:0:0:0:
402,192,79068,1,0,0:0:0:0:
36,192,79186,1,0,0:0:0:0:
475,192,79186,1,0,0:0:0:0:
182,192,79186,1,0,0:0:0:0:
329,192,79186,1,0,0:0:0:0:
256,192,79421,1,0,0:0:0:0:
475,192,79421,1,0,0:0:0:0:
36,192,79421,1,0,0:0:0:0:
109,192,79421,1,0,0:0:0:0:
182,192,79538,1,0,0:0:0:0:
402,192,79538,1,0,0:0:0:0:
329,192,79656,1,0,0:0:0:0:
109,192,79656,1,0,0:0:0:0:
36,192,79656,1,0,0:0:0:0:
256,192,79774,1,0,0:0:0:0:
182,192,79774,1,0,0:0:0:0:
36,192,79891,1,0,0:0:0:0:
329,192,79891,1,0,0:0:0:0:
475,192,79891,1,0,0:0:0:0:
402,192,79891,1,0,0:0:0:0:
109,192,80008,1,0,0:0:0:0:
182,192,80008,1,0,0:0:0:0:
36,192,80126,1,0,0:0:0:0:
256,192,80126,1,0,0:0:0:0:
475,192,80126,1,0,0:0:0:0:
109,192,80243,1,0,0:0:0:0:
329,192,80243,1,0,0:0:0:0:
182,192,80361,1,0,0:0:0:0:
475,192,80361,1,0,0:0:0:0:
402,192,80361,1,0,0:0:0:0:
256,192,80479,1,0,0:0:0:0:
329,192,80479,1,0,0:0:0:0:
36,192,80596,1,0,0:0:0:0:
182,192,80596,1,0,0:0:0:0:
475,192,80596,1,0,0:0:0:0:
109,192,80596,1,0,0:0:0:0:
329,192,80714,1,0,0:0:0:0:
256,192,80832,1,0,0:0:0:0:
475,192,80832,1,0,0:0:0:0:
109,192,80832,1,0,0:0:0:0:
36,192,80832,1,0,0:0:0:0:
182,192,80949,1,0,0:0:0:0:
402,192,80949,1,0,0:0:0:0:
475,192,81067,1,0,0:0:0:0:
109,192,81067,1,0,0:0:0:0:
329,192,81067,1,0,0:0:0:0:
36,192,81184,1,0,0:0:0:0:
256,192,81184,1,0,0:0:0:0:
475,192,81302,1,0,0:0:0:0:
182,192,81302,1,0,0:0:0:0:
402,192,81302,1,0,0:0:0:0:
109,192,81420,1,0,0:0:0:0:
329,192,81420,1,0,0:0:0:0:
36,192,81537,1,0,0:0:0:0:
256,192,81537,1,0,0:0:0:0:
402,192,81537,1,0,0:0:0:0:
475,192,81537,1,0,0:0:0:0:
182,192,81655,1,0,0:0:0:0:
109,192,81773,1,0,0:0:0:0:
329,192,81773,1,0,0:0:0:0:
402,192,81773,1,0,0:0:0:0:
36,192,81773,1,0,0:0:0:0:
256,192,81890,1,0,0:0:0:0:
182,192,82008,1,0,0:0:0:0:
109,192,82008,1,0,0:0:0:0:
402,192,82008,1,0,0:0:0:0:
475,192,82008,1,0,0:0:0:0:
329,192,82126,1,0,0:0:0:0:
36,192,82243,1,0,0:0:0:0:
256,192,82243,1,0,0:0:0:0:
402,192,82243,1,0,0:0:0:0:
475,192,82243,1,0,0:0:0:0:
109,192,82243,1,0,0:0:0:0:
256,192,82479,1,0,0:0:0:0:
475,192,82479,1,0,0:0:0:0:
36,192,82479,1,0,0:0:0:0:
109,192,82479,1,0,0:0:0:0:
182,192,82596,1,0,0:0:0:0:
402,192,82596,1,0,0:0:0:0:
329,192,82714,1,0,0:0:0:0:
109,192,82714,1,0,0:0:0:0:
36,192,82714,1,0,0:0:0:0:
256,192,82832,1,0,0:0:0:0:
182,192,82832,1,0,0:0:0:0:
36,192,82949,1,0,0:0:0:0:
329,192,82949,1,0,0:0:0:0:
475,192,82949,1,0,0:0:0:0:
402,192,82949,1,0,0:0:0:0:
109,192,83066,1,0,0:0:0:0:
182,192,83066,1,0,0:0:0:0:
36,192,83184,1,0,0:0:0:0:
256,192,83184,1,0,0:0:0:0:
475,192,83184,1,0,0:0:0:0:
109,192,83301,1,0,0:0:0:0:
329,192,83301,1,0,0:0:0:0:
182,192,83419,1,0,0:0:0:0:
475,192,83419,1,0,0:0:0:0:
402,192,83419,1,0,0:0:0:0:
256,192,83537,1,0,0:0:0:0:
329,192,83537,1,0,0:0:0:0:
36,192,83654,1,0,0:0:0:0:
182,192,83654,1,0,0:0:0:0:
475,192,83654,1,0,0:0:0:0:
109,192,83654,1,0,0:0:0:0:
329,192,83772,1,0,0:0:0:0:
256,192,83890,1,0,0:0:0:0:
475,192,83890,1,0,0:0:0:0:
109,192,83890,1,0,0:0:0:0:
36,192,83890,1,0,0:0:0:0:
182,192,84007,1,0,0:0:0:0:
402,192,84007,1,0,0:0:0:0:
475,192,84125,1,0,0:0:0:0:
109,192,84125,1,0,0:0:0:0:
329,192,84125,1,0,0:0:0:0:
36,192,84242,1,0,0:0:0:0:
256,192,84242,1,0,0:0:0:0:
475,192,84360,1,0,0:0:0:0:
182,192,84360,1,0,0:0:0:0:
402,192,84360,1,0,0:0:0:0:
109,192,84478,1,0,0:0:0:0:
329,192,84478,1,0,0:0:0:0:
36,192,84595,1,0,0:0:0:0:
402,192,84595,1,0,0:0:0:0:
475,192,84595,1,0,0:0:0:0:
256,192,84595,1,0,0:0:0:0:
182,192,84713,1,0,0:0:0:0:
329,192,84831,1,0,0:0:0:0:
475,192,84831,1,0,0:0:0:0:
109,192,84831,1,0,0:0:0:0:
36,192,84831,1,0,0:0:0:0:
256,192,84948,1,0,0:0:0:0:
402,192,85066,1,0,0:0:0:0:
36,192,85066,1,0,0:0:0:0:
182,192,85066,1,0,0:0:0:0:
475,192,85066,1,0,0:0:0:0:
329,192,85184,1,0,0:0:0:0:
402,192,85301,1,0,0:0:0:0:
475,192,85301,1,0,0:0:0:0:
36,192,85301,1,0,0:0:0:0:
109,192,85301,1,0,0:0:0:0:
256,192,85301,1,0,0:0:0:0:
182,192,85537,1,0,0:0:0:0:
36,192,85537,1,0,0:0:0:0:
402,192,85537,1,0,0:0:0:0:
475,192,85537,1,0,0:0:0:0:
109,192,85654,1,0,0:0:0:0:
329,192,85654,1,0,0:0:0:0:
36,192,85772,1,0,0:0:0:0:
256,192,85772,1,0,0:0:0:0:
475,192,85772,1,0,0:0:0:0:
182,192,85890,1,0,0:0:0:0:
402,192,85890,1,0,0:0:0:0:
36,192,86007,1,0,0:0:0:0:
109,192,86007,1,0,0:0:0:0:
329,192,86007,1,0,0:0:0:0:
475,192,86007,1,0,0:0:0:0:
256,192,86125,1,0,0:0:0:0:
109,192,86242,1,0,0:0:0:0:
182,192,86242,1,0,0:0:0:0:
402,192,86242,1,0,0:0:0:0:
475,192,86242,1,0,0:0:0:0:
329,192,86360,1,0,0:0:0:0:
182,192,86478,1,0,0:0:0:0:
256,192,86478,1,0,0:0:0:0:
475,192,86478,1,0,0:0:0:0:
36,192,86478,1,0,0:0:0:0:
402,192,86595,1,0,0:0:0:0:
329,192,86713,1,0,0:0:0:0:
475,192,86713,1,0,0:0:0:0:
109,192,86713,1,0,0:0:0:0:
36,192,86713,1,0,0:0:0:0:
329,192,86948,1,0,0:0:0:0:
475,192,86948,1,0,0:0:0:0:
109,192,86948,1,0,0:0:0:0:
36,192,86948,1,0,0:0:0:0:
402,192,87066,1,0,0:0:0:0:
182,192,87066,1,0,0:0:0:0:
475,192,87184,1,0,0:0:0:0:
256,192,87184,1,0,0:0:0:0:
36,192,87184,1,0,0:0:0:0:
329,192,87301,1,0,0:0:0:0:
109,192,87301,1,0,0:0:0:0:
475,192,87419,1,0,0:0:0:0:
402,192,87419,1,0,0:0:0:0:
182,192,87419,1,0,0:0:0:0:
36,192,87419,1,0,0:0:0:0:
256,192,87537,1,0,0:0:0:0:
402,192,87654,1,0,0:0:0:0:
329,192,87654,1,0,0:0:0:0:
109,192,87654,1,0,0:0:0:0:
36,192,87654,1,0,0:0:0:0:
182,192,87772,1,0,0:0:0:0:
329,192,87890,1,0,0:0:0:0:
256,192,87890,1,0,0:0:0:0:
36,192,87890,1,0,0:0:0:0:
475,192,87890,1,0,0:0:0:0:
109,192,88007,1,0,0:0:0:0:
182,192,88125,1,0,0:0:0:0:
36,192,88125,1,0,0:0:0:0:
402,192,88125,1,0,0:0:0:0:
475,192,88125,1,0,0:0:0:0:
109,192,88242,1,0,0:0:0:0:
329,192,88242,1,0,0:0:0:0:
475,192,88360,1,0,0:0:0:0:
256,192,88360,1,0,0:0:0:0:
36,192,88360,1,0,0:0:0:0:
182,192,88478,1,0,0:0:0:0:
402,192,88478,1,0,0:0:0:0:
36,192,88595,1,0,0:0:0:0:
109,192,88595,1,0,0:0:0:0:
329,192,88595,1,0,0:0:0:0:
182,192,88713,1,0,0:0:0:0:
256,192,88713,1,0,0:0:0:0:
475,192,88831,1,0,0:0:0:0:
36,192,88831,1,0,0:0:0:0:
109,192,88831,1,0,0:0:0:0:
329,192,88831,1,0,0:0:0:0:
402,192,88948,1,0,0:0:0:0:
182,192,88948,1,0,0:0:0:0:
36,192,89066,1,0,0:0:0:0:
256,192,89066,1,0,0:0:0:0:
475,192,89066,1,0,0:0:0:0:
329,192,89183,1,0,0:0:0:0:
109,192,89183,1,0,0:0:0:0:
475,192,89301,1,0,0:0:0:0:
402,192,89301,1,0,0:0:0:0:
182,192,89301,1,0,0:0:0:0:
329,192,89419,1,0,0:0:0:0:
256,192,89419,1,0,0:0:0:0:
36,192,89536,1,0,0:0:0:0:
475,192,89536,1,0,0:0:0:0:
402,192,89536,1,0,0:0:0:0:
182,192,89536,1,0,0:0:0:0:
329,192,89654,1,0,0:0:0:0:
109,192,89654,1,0,0:0:0:0:
36,192,89772,1,0,0:0:0:0:
475,192,89772,1,0,0:0:0:0:
182,192,89772,1,0,0:0:0:0:
256,192,89772,1,0,0:0:0:0:
109,192,89889,1,0,0:0:0:0:
329,192,89889,1,0,0:0:0:0:
402,192,89889,1,0,0:0:0:0:
36,192,90007,1,0,0:0:0:0:
182,192,90007,1,0,0:0:0:0:
256,192,90007,1,0,0:0:0:0:
475,192,90007,1,0,0:0:0:0:
109,192,90125,1,0,0:0:0:0:
402,192,90125,1,0,0:0:0:0:
329,192,90125,1,0,0:0:0:0:
182,192,90360,1,0,0:0:0:0:
256,192,90360,1,0,0:0:0:0:
475,192,90360,1,0,0:0:0:0:
36,192,90360,1,0,0:0:0:0:
109,192,90595,1,0,0:0:0:0:
182,192,90595,1,0,0:0:0:0:
402,192,90595,1,0,0:0:0:0:
256,192,90713,1,0,0:0:0:0:
475,192,90713,1,0,0:0:0:0:
36,192,90713,1,0,0:0:0:0:
329,192,90713,1,0,0:0:0:0:
402,192,90948,1,0,0:0:0:0:
256,192,90948,1,0,0:0:0:0:
329,192,91183,1,0,0:0:0:0:
182,192,91183,1,0,0:0:0:0:
36,192,91183,1,0,0:0:0:0:
475,192,91183,1,0,0:0:0:0:
256,192,91419,1,0,0:0:0:0:
109,192,91419,1,0,0:0:0:0:
182,192,91536,1,0,0:0:0:0:
329,192,91536,1,0,0:0:0:0:
36,192,91654,1,0,0:0:0:0:
109,192,91654,1,0,0:0:0:0:
256,192,91654,1,0,0:0:0:0:
402,192,91654,1,0,0:0:0:0:
475,192,91654,1,0,0:0:0:0:
182,192,91772,1,0,0:0:0:0:
329,192,91772,1,0,0:0:0:0:
36,192,91889,1,0,0:0:0:0:
256,192,91889,1,0,0:0:0:0:
402,192,91889,1,0,0:0:0:0:
475,192,91889,1,0,0:0:0:0:
109,192,92007,1,0,0:0:0:0:
329,192,92007,1,0,0:0:0:0:
36,192,92125,1,0,0:0:0:0:
182,192,92125,1,0,0:0:0:0:
475,192,92125,1,0,0:0:0:0:
402,192,92125,1,0,0:0:0:0:
329,192,92242,1,0,0:0:0:0:
256,192,92242,1,0,0:0:0:0:
36,192,92360,1,0,0:0:0:0:
109,192,92360,1,0,0:0:0:0:
182,192,92360,1,0,0:0:0:0:
475,192,92360,1,0,0:0:0:0:
329,192,92478,1,0,0:0:0:0:
402,192,92478,1,0,0:0:0:0:
36,192,92595,1,0,0:0:0:0:
109,192,92595,1,0,0:0:0:0:
256,192,92595,1,0,0:0:0:0:
475,192,92595,1,0,0:0:0:0:
182,192,92713,1,0,0:0:0:0:
329,192,92713,1,0,0:0:0:0:
36,192,92831,1,0,0:0:0:0:
109,192,92831,1,0,0:0:0:0:
475,192,92831,1,0,0:0:0:0:
256,192,92831,1,0,0:0:0:0:
182,192,92948,1,0,0:0:0:0:
402,192,92948,1,0,0:0:0:0:
36,192,93066,1,0,0:0:0:0:
109,192,93066,1,0,0:0:0:0:
329,192,93066,1,0,0:0:0:0:
475,192,93066,1,0,0:0:0:0:
182,192,93183,1,0,0:0:0:0:
256,192,93183,1,0,0:0:0:0:
329,192,93301,1,0,0:0:0:0:
475,192,93301,1,0,0:0:0:0:
402,192,93301,1,0,0:0:0:0:
36,192,93301,1,0,0:0:0:0:
109,192,93419,1,0,0:0:0:0:
182,192,93419,1,0,0:0:0:0:
36,192,93536,1,0,0:0:0:0:
256,192,93536,1,0,0:0:0:0:
475,192,93536,1,0,0:0:0:0:
402,192,93536,1,0,0:0:0:0:
109,192,93654,1,0,0:0:0:0:
329,192,93654,1,0,0:0:0:0:
402,192,93772,1,0,0:0:0:0:
475,192,93772,1,0,0:0:0:0:
36,192,93772,1,0,0:0:0:0:
182,192,93772,1,0,0:0:0:0:
256,192,93889,1,0,0:0:0:0:
109,192,93889,1,0,0:0:0:0:
402,192,94007,1,0,0:0:0:0:
475,192,94007,1,0,0:0:0:0:
36,192,94007,1,0,0:0:0:0:
182,192,94007,1,0,0:0:0:0:
329,192,94007,1,0,0:0:0:0:
109,192,94125,1,0,0:0:0:0:
36,192,94242,1,0,0:0:0:0:
475,192,94242,1,0,0:0:0:0:
402,192,94242,1,0,0:0:0:0:
256,192,94242,1,0,0:0:0:0:
182,192,94360,1,0,0:0:0:0:
329,192,94360,1,0,0:0:0:0:
36,192,94478,1,0,0:0:0:0:
256,192,94478,1,0,0:0:0:0:
475,192,94478,1,0,0:0:0:0:
109,192,94478,1,0,0:0:0:0:
329,192,94595,1,0,0:0:0:0:
182,192,94595,1,0,0:0:0:0:
256,192,94713,1,0,0:0:0:0:
402,192,94713,1,0,0:0:0:0:
475,192,94713,1,0,0:0:0:0:
36,192,94713,1,0,0:0:0:0:
182,192,94831,1,0,0:0:0:0:
109,192,94948,1,0,0:0:0:0:
329,192,94948,1,0,0:0:0:0:
475,192,94948,1,0,0:0:0:0:
36,192,94948,1,0,0:0:0:0:
256,192,95066,1,0,0:0:0:0:
182,192,95066,1,0,0:0:0:0:
36,192,95183,1,0,0:0:0:0:
475,192,95183,1,0,0:0:0:0:
402,192,95183,1,0,0:0:0:0:
109,192,95183,1,0,0:0:0:0:
256,192,95301,1,0,0:0:0:0:
329,192,95301,1,0,0:0:0:0:
36,192,95419,1,0,0:0:0:0:
402,192,95419,1,0,0:0:0:0:
475,192,95419,1,0,0:0:0:0:
182,192,95419,1,0,0:0:0:0:
109,192,95536,1,0,0:0:0:0:
329,192,95536,1,0,0:0:0:0:
475,192,95654,1,0,0:0:0:0:
256,192,95654,1,0,0:0:0:0:
36,192,95654,1,0,0:0:0:0:
402,192,95654,1,0,0:0:0:0:
329,192,95772,1,0,0:0:0:0:
182,192,95772,1,0,0:0:0:0:
475,192,95889,1,0,0:0:0:0:
402,192,95889,1,0,0:0:0:0:
256,192,95889,1,0,0:0:0:0:
36,192,95889,1,0,0:0:0:0:
109,192,96007,1,0,0:0:0:0:
182,192,96007,1,0,0:0:0:0:
36,192,96125,1,0,0:0:0:0:
475,192,96125,1,0,0:0:0:0:
402,192,96125,1,0,0:0:0:0:
329,192,96125,1,0,0:0:0:0:
182,192,96242,1,0,0:0:0:0:
256,192,96242,1,0,0:0:0:0:
36,192,96360,1,0,0:0:0:0:
475,192,96360,1,0,0:0:0:0:
109,192,96360,1,0,0:0:0:0:
329,192,96360,1,0,0:0:0:0:
182,192,96478,1,0,0:0:0:0:
402,192,96478,1,0,0:0:0:0:
475,192,96595,1,0,0:0:0:0:
109,192,96595,1,0,0:0:0:0:
36,192,96595,1,0,0:0:0:0:
256,192,96595,1,0,0:0:0:0:
329,192,96713,1,0,0:0:0:0:
182,192,96713,1,0,0:0:0:0:
256,192,96831,1,0,0:0:0:0:
475,192,96831,1,0,0:0:0:0:
36,192,96831,1,0,0:0:0:0:
109,192,96831,1,0,0:0:0:0:
329,192,96948,1,0,0:0:0:0:
402,192,96948,1,0,0:0:0:0:
109,192,97066,1,0,0:0:0:0:
182,192,97066,1,0,0:0:0:0:
475,192,97066,1,0,0:0:0:0:
36,192,97066,1,0,0:0:0:0:
256,192,97183,1,0,0:0:0:0:
329,192,97183,1,0,0:0:0:0:
402,192,97301,1,0,0:0:0:0:
182,192,97301,1,0,0:0:0:0:
475,192,97301,1,0,0:0:0:0:
36,192,97301,1,0,0:0:0:0:
329,192,97419,1,0,0:0:0:0:
256,192,97419,1,0,0:0:0:0:
36,192,97536,1,0,0:0:0:0:
182,192,97536,1,0,0:0:0:0:
402,192,97536,1,0,0:0:0:0:
475,192,97536,1,0,0:0:0:0:
109,192,97654,1,0,0:0:0:0:
256,192,97654,1,0,0:0:0:0:
182,192,97772,1,0,0:0:0:0:
329,192,97772,1,0,0:0:0:0:
36,192,97772,1,0,0:0:0:0:
402,192,97772,1,0,0:0:0:0:
475,192,97772,1,0,0:0:0:0:
109,192,97889,1,0,0:0:0:0:
402,192,98007,1,0,0:0:0:0:
256,192,98007,1,0,0:0:0:0:
36,192,98007,1,0,0:0:0:0:
475,192,98007,1,0,0:0:0:0:
329,192,98125,1,0,0:0:0:0:
182,192,98125,1,0,0:0:0:0:
475,192,98242,1,0,0:0:0:0:
109,192,98242,1,0,0:0:0:0:
36,192,98242,1,0,0:0:0:0:
256,192,98242,1,0,0:0:0:0:
182,192,98360,1,0,0:0:0:0:
329,192,98360,1,0,0:0:0:0:
475,192,98478,1,0,0:0:0:0:
36,192,98478,1,0,0:0:0:0:
256,192,98478,1,0,0:0:0:0:
402,192,98478,1,0,0:0:0:0:
182,192,98595,1,0,0:0:0:0:
475,192,98713,1,0,0:0:0:0:
36,192,98713,1,0,0:0:0:0:
109,192,98713,1,0,0:0:0:0:
329,192,98713,1,0,0:0:0:0:
182,192,98831,1,0,0:0:0:0:
256,192,98831,1,0,0:0:0:0:
109,192,98948,1,0,0:0:0:0:
36,192,98948,1,0,0:0:0:0:
475,192,98948,1,0,0:0:0:0:
402,192,98948,1,0,0:0:0:0:
256,192,99066,1,0,0:0:0:0:
329,192,99066,1,0,0:0:0:0:
36,192,99183,1,0,0:0:0:0:
109,192,99183,1,0,0:0:0:0:
402,192,99183,1,0,0:0:0:0:
475,192,99183,1,0,0:0:0:0:
329,192,99301,1,0,0:0:0:0:
182,192,99301,1,0,0:0:0:0:
402,192,99419,1,0,0:0:0:0:
475,192,99419,1,0,0:0:0:0:
36,192,99419,1,0,0:0:0:0:
256,192,99419,1,0,0:0:0:0:
329,192,99536,1,0,0:0:0:0:
109,192,99536,1,0,0:0:0:0:
475,192,99654,1,0,0:0:0:0:
402,192,99654,1,0,0:0:0:0:
36,192,99654,1,0,0:0:0:0:
182,192,99654,1,0,0:0:0:0:
256,192,99772,1,0,0:0:0:0:
329,192,99772,1,0,0:0:0:0:
182,192,99889,1,0,0:0:0:0:
475,192,99889,1,0,0:0:0:0:
36,192,99889,1,0,0:0:0:0:
109,192,99889,1,0,0:0:0:0:
402,192,100007,1,0,0:0:0:0:
329,192,100007,1,0,0:0:0:0:
256,192,100125,1,0,0:0:0:0:
475,192,100125,1,0,0:0:0:0:
36,192,100125,1,0,0:0:0:0:
109,192,100125,1,0,0:0:0:0:
329,192,100242,1,0,0:0:0:0:
182,192,100242,1,0,0:0:0:0:
475,192,100360,1,0,0:0:0:0:
256,192,100360,1,0,0:0:0:0:
36,192,100360,1,0,0:0:0:0:
109,192,100360,1,0,0:0:0:0:
402,192,100478,1,0,0:0:0:0:
182,192,100478,1,0,0:0:0:0:
329,192,100595,1,0,0:0:0:0:
475,192,100595,1,0,0:0:0:0:
36,192,100595,1,0,0:0:0:0:
109,192,100595,1,0,0:0:0:0:
256,192,100713,1,0,0:0:0:0:
182,192,100713,1,0,0:0:0:0:
402,192,100831,1,0,0:0:0:0:
36,192,100831,1,0,0:0:0:0:
329,192,100831,1,0,0:0:0:0:
475,192,100831,1,0,0:0:0:0:
182,192,100948,1,0,0:0:0:0:
109,192,100948,1,0,0:0:0:0:
475,192,101066,1,0,0:0:0:0:
402,192,101066,1,0,0:0:0:0:
36,192,101066,1,0,0:0:0:0:
256,192,101066,1,0,0:0:0:0:
329,192,101183,1,0,0:0:0:0:
109,192,101183,1,0,0:0:0:0:
36,192,101301,1,0,0:0:0:0:
182,192,101301,1,0,0:0:0:0:
402,192,101301,1,0,0:0:0:0:
475,192,101301,1,0,0:0:0:0:
109,192,101419,1,0,0:0:0:0:
256,192,101419,1,0,0:0:0:0:
182,192,101536,1,0,0:0:0:0:
329,192,101536,1,0,0:0:0:0:
36,192,101536,1,0,0:0:0:0:
402,192,101536,1,0,0:0:0:0:
475,192,101536,1,0,0:0:0:0:
109,192,101654,1,0,0:0:0:0:
402,192,101772,1,0,0:0:0:0:
256,192,101772,1,0,0:0:0:0:
36,192,101772,1,0,0:0:0:0:
475,192,101772,1,0,0:0:0:0:
329,192,101889,1,0,0:0:0:0:
182,192,101889,1,0,0:0:0:0:
475,192,102007,1,0,0:0:0:0:
109,192,102007,1,0,0:0:0:0:
36,192,102007,1,0,0:0:0:0:
256,192,102007,1,0,0:0:0:0:
182,192,102125,1,0,0:0:0:0:
329,192,102125,1,0,0:0:0:0:
475,192,102242,1,0,0:0:0:0:
36,192,102242,1,0,0:0:0:0:
256,192,102242,1,0,0:0:0:0:
402,192,102242,1,0,0:0:0:0:
109,192,102360,1,0,0:0:0:0:
475,192,102478,1,0,0:0:0:0:
329,192,102478,1,0,0:0:0:0:
182,192,102478,1,0,0:0:0:0:
402,192,102478,1,0,0:0:0:0:
36,192,102595,1,0,0:0:0:0:
109,192,102595,1,0,0:0:0:0:
182,192,102713,1,0,0:0:0:0:
329,192,102713,1,0,0:0:0:0:
256,192,102713,1,0,0:0:0:0:
475,192,102831,1,0,0:0:0:0:
402,192,102831,1,0,0:0:0:0:
36,192,102948,1,0,0:0:0:0:
109,192,102948,1,0,0:0:0:0:
182,192,102948,1,0,0:0:0:0:
329,192,102948,1,0,0:0:0:0:
256,192,103066,1,0,0:0:0:0:
402,192,103066,1,0,0:0:0:0:
36,192,103183,1,0,0:0:0:0:
475,192,103183,1,0,0:0:0:0:
329,192,103183,1,0,0:0:0:0:
109,192,103183,1,0,0:0:0:0:
182,192,103301,1,0,0:0:0:0:
402,192,103301,1,0,0:0:0:0:
475,192,103419,1,0,0:0:0:0:
256,192,103419,1,0,0:0:0:0:
36,192,103419,1,0,0:0:0:0:
109,192,103419,1,0,0:0:0:0:
329,192,103536,1,0,0:0:0:0:
402,192,103536,1,0,0:0:0:0:
109,192,103654,1,0,0:0:0:0:
36,192,103654,1,0,0:0:0:0:
475,192,103654,1,0,0:0:0:0:
182,192,103654,1,0,0:0:0:0:
256,192,103772,1,0,0:0:0:0:
329,192,103772,1,0,0:0:0:0:
36,192,103889,1,0,0:0:0:0:
402,192,103889,1,0,0:0:0:0:
475,192,103889,1,0,0:0:0:0:
182,192,103889,1,0,0:0:0:0:
109,192,104007,1,0,0:0:0:0:
256,192,104007,1,0,0:0:0:0:
182,192,104125,1,0,0:0:0:0:
402,192,104125,1,0,0:0:0:0:
475,192,104125,1,0,0:0:0:0:
36,192,104125,1,0,0:0:0:0:
109,192,104242,1,0,0:0:0:0:
329,192,104242,1,0,0:0:0:0:
475,192,104360,1,0,0:0:0:0:
402,192,104360,1,0,0:0:0:0:
36,192,104360,1,0,0:0:0:0:
256,192,104360,1,0,0:0:0:0:
182,192,104360,1,0,0:0:0:0:
109,192,104478,1,0,0:0:0:0:
36,192,104595,1,0,0:0:0:0:
329,192,104595,1,0,0:0:0:0:
402,192,104595,1,0,0:0:0:0:
475,192,104595,1,0,0:0:0:0:
182,192,104713,1,0,0:0:0:0:
256,192,104713,1,0,0:0:0:0:
36,192,104831,1,0,0:0:0:0:
329,192,104831,1,0,0:0:0:0:
475,192,104831,1,0,0:0:0:0:
109,192,104831,1,0,0:0:0:0:
182,192,104948,1,0,0:0:0:0:
36,192,105066,1,0,0:0:0:0:
256,192,105066,1,0,0:0:0:0:
475,192,105066,1,0,0:0:0:0:
182,192,105183,1,0,0:0:0:0:
402,192,105183,1,0,0:0:0:0:
329,192,105301,1,0,0:0:0:0:
109,192,105301,1,0,0:0:0:0:
36,192,105301,1,0,0:0:0:0:
182,192,105419,1,0,0:0:0:0:
256,192,105419,1,0,0:0:0:0:
402,192,105419,1,0,0:0:0:0:
36,192,105536,1,0,0:0:0:0:
109,192,105536,1,0,0:0:0:0:
329,192,105536,1,0,0:0:0:0:
475,192,105536,1,0,0:0:0:0:
109,192,105772,1,0,0:0:0:0:
182,192,105772,1,0,0:0:0:0:
329,192,105772,1,0,0:0:0:0:
475,192,105772,1,0,0:0:0:0:
109,192,106007,1,0,0:0:0:0:
256,192,106007,1,0,0:0:0:0:
402,192,106007,1,0,0:0:0:0:
36,192,106007,1,0,0:0:0:0:
329,192,106125,1,0,0:0:0:0:
182,192,106125,1,0,0:0:0:0:
475,192,106125,1,0,0:0:0:0:
36,192,106242,1,0,0:0:0:0:
402,192,106242,1,0,0:0:0:0:
109,192,106242,1,0,0:0:0:0:
256,192,106242,1,0,0:0:0:0:
329,192,106360,1,0,0:0:0:0:
182,192,106360,1,0,0:0:0:0:
36,192,106478,1,0,0:0:0:0:
475,192,106478,1,0,0:0:0:0:
256,192,106478,1,0,0:0:0:0:
182,192,106595,1,0,0:0:0:0:
329,192,106595,1,0,0:0:0:0:
36,192,106713,1,0,0:0:0:0:
109,192,106713,1,0,0:0:0:0:
256,192,106713,1,0,0:0:0:0:
475,192,106713,1,0,0:0:0:0:
402,192,106713,1,0,0:0:0:0:
182,192,106831,1,0,0:0:0:0:
329,192,106831,1,0,0:0:0:0:
475,192,106948,1,0,0:0:0:0:
402,192,106948,1,0,0:0:0:0:
256,192,106948,1,0,0:0:0:0:
329,192,107066,1,0,0:0:0:0:
36,192,107066,1,0,0:0:0:0:
109,192,107066,1,0,0:0:0:0:
182,192,107183,1,0,0:0:0:0:
402,192,107183,1,0,0:0:0:0:
256,192,107301,1,0,0:0:0:0:
109,192,107301,1,0,0:0:0:0:
36,192,107301,1,0,0:0:0:0:
182,192,107419,1,0,0:0:0:0:
402,192,107419,1,0,0:0:0:0:
475,192,107419,1,0,0:0:0:0:
109,192,107536,1,0,0:0:0:0:
329,192,107536,1,0,0:0:0:0:
36,192,107654,1,0,0:0:0:0:
256,192,107654,1,0,0:0:0:0:
475,192,107654,1,0,0:0:0:0:
402,192,107654,1,0,0:0:0:0:
329,192,107772,1,0,0:0:0:0:
182,192,107772,1,0,0:0:0:0:
36,192,107889,1,0,0:0:0:0:
109,192,107889,1,0,0:0:0:0:
256,192,107889,1,0,0:0:0:0:
182,192,108007,1,0,0:0:0:0:
475,192,108007,1,0,0:0:0:0:
402,192,108007,1,0,0:0:0:0:
329,192,108125,1,0,0:0:0:0:
109,192,108125,1,0,0:0:0:0:
256,192,108242,1,0,0:0:0:0:
402,192,108242,1,0,0:0:0:0:
475,192,108242,1,0,0:0:0:0:
329,192,108360,1,0,0:0:0:0:
109,192,108360,1,0,0:0:0:0:
36,192,108360,1,0,0:0:0:0:
402,192,108478,1,0,0:0:0:0:
182,192,108478,1,0,0:0:0:0:
475,192,108595,1,0,0:0:0:0:
256,192,108595,1,0,0:0:0:0:
36,192,108595,1,0,0:0:0:0:
109,192,108595,1,0,0:0:0:0:
329,192,108713,1,0,0:0:0:0:
182,192,108713,1,0,0:0:0:0:
256,192,108831,1,0,0:0:0:0:
402,192,108831,1,0,0:0:0:0:
475,192,108831,1,0,0:0:0:0:
109,192,108948,1,0,0:0:0:0:
36,192,108948,1,0,0:0:0:0:
329,192,108948,1,0,0:0:0:0:
402,192,109066,1,0,0:0:0:0:
182,192,109066,1,0,0:0:0:0:
36,192,109183,1,0,0:0:0:0:
109,192,109183,1,0,0:0:0:0:
256,192,109183,1,0,0:0:0:0:
475,192,109301,1,0,0:0:0:0:
402,192,109301,1,0,0:0:0:0:
182,192,109301,1,0,0:0:0:0:
256,192,109419,1,0,0:0:0:0:
109,192,109419,1,0,0:0:0:0:
329,192,109536,1,0,0:0:0:0:
182,192,109536,1,0,0:0:0:0:
36,192,109536,1,0,0:0:0:0:
109,192,109654,1,0,0:0:0:0:
475,192,109654,1,0,0:0:0:0:
256,192,109654,1,0,0:0:0:0:
182,192,109772,1,0,0:0:0:0:
36,192,109772,1,0,0:0:0:0:
402,192,109772,1,0,0:0:0:0:
109,192,109889,1,0,0:0:0:0:
475,192,109889,1,0,0:0:0:0:
329,192,109889,1,0,0:0:0:0:
402,192,110007,1,0,0:0:0:0:
36,192,110007,1,0,0:0:0:0:
182,192,110007,1,0,0:0:0:0:
256,192,110007,1,0,0:0:0:0:
109,192,110242,1,0,0:0:0:0:
256,192,110242,1,0,0:0:0:0:
329,192,110242,1,0,0:0:0:0:
475,192,110242,1,0,0:0:0:0:
36,192,110478,1,0,0:0:0:0:
256,192,110478,1,0,0:0:0:0:
475,192,110478,1,0,0:0:0:0:
109,192,110478,1,0,0:0:0:0:
402,192,110478,1,0,0:0:0:0:
182,192,110595,1,0,0:0:0:0:
329,192,110595,1,0,0:0:0:0:
475,192,110713,1,0,0:0:0:0:
402,192,110713,1,0,0:0:0:0:
256,192,110713,1,0,0:0:0:0:
329,192,110831,1,0,0:0:0:0:
36,192,110831,1,0,0:0:0:0:
109,192,110831,1,0,0:0:0:0:
182,192,110948,1,0,0:0:0:0:
402,192,110948,1,0,0:0:0:0:
256,192,111066,1,0,0:0:0:0:
109,192,111066,1,0,0:0:0:0:
36,192,111066,1,0,0:0:0:0:
182,192,111183,1,0,0:0:0:0:
402,192,111183,1,0,0:0:0:0:
475,192,111183,1,0,0:0:0:0:
109,192,111301,1,0,0:0:0:0:
329,192,111301,1,0,0:0:0:0:
36,192,111419,1,0,0:0:0:0:
256,192,111419,1,0,0:0:0:0:
475,192,111419,1,0,0:0:0:0:
402,192,111419,1,0,0:0:0:0:
329,192,111536,1,0,0:0:0:0:
182,192,111536,1,0,0:0:0:0:
36,192,111654,1,0,0:0:0:0:
109,192,111654,1,0,0:0:0:0:
256,192,111654,1,0,0:0:0:0:
182,192,111772,1,0,0:0:0:0:
475,192,111772,1,0,0:0:0:0:
402,192,111772,1,0,0:0:0:0:
329,192,111889,1,0,0:0:0:0:
109,192,111889,1,0,0:0:0:0:
256,192,112007,1,0,0:0:0:0:
402,192,112007,1,0,0:0:0:0:
475,192,112007,1,0,0:0:0:0:
329,192,112125,1,0,0:0:0:0:
109,192,112125,1,0,0:0:0:0:
36,192,112125,1,0,0:0:0:0:
402,192,112242,1,0,0:0:0:0:
182,192,112242,1,0,0:0:0:0:
475,192,112360,1,0,0:0:0:0:
256,192,112360,1,0,0:0:0:0:
36,192,112360,1,0,0:0:0:0:
109,192,112360,1,0,0:0:0:0:
329,192,112478,1,0,0:0:0:0:
182,192,112478,1,0,0:0:0:0:
256,192,112595,1,0,0:0:0:0:
402,192,112595,1,0,0:0:0:0:
475,192,112595,1,0,0:0:0:0:
109,192,112713,1,0,0:0:0:0:
36,192,112713,1,0,0:0:0:0:
329,192,112713,1,0,0:0:0:0:
402,192,112831,1,0,0:0:0:0:
182,192,112831,1,0,0:0:0:0:
36,192,112948,1,0,0:0:0:0:
109,192,112948,1,0,0:0:0:0:
256,192,112948,1,0,0:0:0:0:
475,192,113066,1,0,0:0:0:0:
402,192,113066,1,0,0:0:0:0:
182,192,113066,1,0,0:0:0:0:
329,192,113183,1,0,0:0:0:0:
109,192,113183,1,0,0:0:0:0:
475,192,113301,1,0,0:0:0:0:
36,192,113301,1,0,0:0:0:0:
256,192,113301,1,0,0:0:0:0:
402,192,113301,1,0,0:0:0:0:
182,192,113536,1,0,0:0:0:0:
475,192,113536,1,0,0:0:0:0:
329,192,113536,1,0,0:0:0:0:
109,192,113536,1,0,0:0:0:0:
182,192,113772,1,0,0:0:0:0:
256,192,113772,1,0,0:0:0:0:
36,192,113772,1,0,0:0:0:0:
402,192,113772,1,0,0:0:0:0:
36,192,114007,1,0,0:0:0:0:
475,192,114007,1,0,0:0:0:0:
109,192,114066,1,0,0:0:0:0:
402,192,114066,1,0,0:0:0:0:
182,192,114125,1,0,0:0:0:0:
329,192,114125,1,0,0:0:0:0:
109,192,114183,1,0,0:0:0:0:
402,192,114183,1,0,0:0:0:0:
36,192,114242,1,0,0:0:0:0:
256,192,114242,1,0,0:0:0:0:
475,192,114242,1,0,0:0:0:0:
256,192,114478,1,0,0:0:0:0:
475,192,114478,1,0,0:0:0:0:
109,192,114478,1,0,0:0:0:0:
182,192,114595,1,0,0:0:0:0:
402,192,114595,1,0,0:0:0:0:
36,192,114713,1,0,0:0:0:0:
109,192,114713,1,0,0:0:0:0:
329,192,114713,1,0,0:0:0:0:
475,192,114713,1,0,0:0:0:0:
182,192,114948,1,0,0:0:0:0:
402,192,114948,1,0,0:0:0:0:
36,192,114948,1,0,0:0:0:0:
109,192,115066,1,0,0:0:0:0:
329,192,115066,1,0,0:0:0:0:
36,192,115183,1,0,0:0:0:0:
256,192,115183,1,0,0:0:0:0:
475,192,115183,1,0,0:0:0:0:
402,192,115183,1,0,0:0:0:0:
256,192,115419,1,0,0:0:0:0:
36,192,115419,1,0,0:0:0:0:
402,192,115419,1,0,0:0:0:0:
329,192,115536,1,0,0:0:0:0:
109,192,115536,1,0,0:0:0:0:
475,192,115654,1,0,0:0:0:0:
402,192,115654,1,0,0:0:0:0:
182,192,115654,1,0,0:0:0:0:
36,192,115654,1,0,0:0:0:0:
329,192,115889,1,0,0:0:0:0:
109,192,115889,1,0,0:0:0:0:
475,192,115889,1,0,0:0:0:0:
402,192,116007,1,0,0:0:0:0:
182,192,116007,1,0,0:0:0:0:
475,192,116125,1,0,0:0:0:0:
256,192,116125,1,0,0:0:0:0:
36,192,116125,1,0,0:0:0:0:
109,192,116125,1,0,0:0:0:0:
329,192,116360,1,0,0:0:0:0:
475,192,116360,1,0,0:0:0:0:
109,192,116360,1,0,0:0:0:0:
256,192,116478,1,0,0:0:0:0:
402,192,116478,1,0,0:0:0:0:
36,192,116595,1,0,0:0:0:0:
182,192,116595,1,0,0:0:0:0:
329,192,116595,1,0,0:0:0:0:
475,192,116595,1,0,0:0:0:0:
256,192,116831,1,0,0:0:0:0:
402,192,116831,1,0,0:0:0:0:
36,192,116831,1,0,0:0:0:0:
329,192,116948,1,0,0:0:0:0:
182,192,116948,1,0,0:0:0:0:
36,192,117066,1,0,0:0:0:0:
256,192,117066,1,0,0:0:0:0:
475,192,117066,1,0,0:0:0:0:
109,192,117066,1,0,0:0:0:0:
182,192,117301,1,0,0:0:0:0:
36,192,117301,1,0,0:0:0:0:
402,192,117301,1,0,0:0:0:0:
256,192,117419,1,0,0:0:0:0:
109,192,117419,1,0,0:0:0:0:
475,192,117536,1,0,0:0:0:0:
329,192,117536,1,0,0:0:0:0:
182,192,117536,1,0,0:0:0:0:
36,192,117536,1,0,0:0:0:0:
256,192,117772,1,0,0:0:0:0:
109,192,117772,1,0,0:0:0:0:
475,192,117772,1,0,0:0:0:0:
182,192,117889,1,0,0:0:0:0:
329,192,117889,1,0,0:0:0:0:
475,192,118007,1,0,0:0:0:0:
256,192,118007,1,0,0:0:0:0:
36,192,118007,1,0,0:0:0:0:
402,192,118007,1,0,0:0:0:0:
109,192,118125,1,0,0:0:0:0:
329,192,118125,1,0,0:0:0:0:
402,192,118242,1,0,0:0:0:0:
475,192,118242,1,0,0:0:0:0:
182,192,118242,1,0,0:0:0:0:
256,192,118360,1,0,0:0:0:0:
36,192,118360,1,0,0:0:0:0:
329,192,118360,1,0,0:0:0:0:
182,192,118478,1,0,0:0:0:0:
109,192,118478,1,0,0:0:0:0:
402,192,118478,1,0,0:0:0:0:
256,192,118595,1,0,0:0:0:0:
475,192,118595,1,0,0:0:0:0:
36,192,118595,1,0,0:0:0:0:
109,192,118713,1,0,0:0:0:0:
329,192,118713,1,0,0:0:0:0:
402,192,118713,1,0,0:0:0:0:
182,192,118831,1,0,0:0:0:0:
256,192,118831,1,0,0:0:0:0:
475,192,118831,1,0,0:0:0:0:
36,192,118948,1,0,0:0:0:0:
109,192,118948,1,0,0:0:0:0:
329,192,118948,1,0,0:0:0:0:
402,192,118948,1,0,0:0:0:0:
182,192,119066,1,0,0:0:0:0:
256,192,119183,1,0,0:0:0:0:
329,192,119183,1,0,0:0:0:0:
475,192,119183,1,0,0:0:0:0:
36,192,119183,1,0,0:0:0:0:
109,192,119301,1,0,0:0:0:0:
182,192,119419,1,0,0:0:0:0:
256,192,119419,1,0,0:0:0:0:
402,192,119419,1,0,0:0:0:0:
475,192,119419,1,0,0:0:0:0:
109,192,119536,1,0,0:0:0:0:
36,192,119654,1,0,0:0:0:0:
256,192,119654,1,0,0:0:0:0:
475,192,119654,1,0,0:0:0:0:
402,192,119654,1,0,0:0:0:0:
182,192,119772,1,0,0:0:0:0:
329,192,119772,1,0,0:0:0:0:
109,192,119889,1,0,0:0:0:0:
36,192,119889,1,0,0:0:0:0:
402,192,119889,1,0,0:0:0:0:
475,192,119889,1,0,0:0:0:0:
256,192,119889,1,0,0:0:0:0:
36,192,120007,1,0,0:0:0:0:
329,192,120125,1,0,0:0:0:0:
182,192,120125,1,0,0:0:0:0:
36,192,120242,1,0,0:0:0:0:
329,192,120242,1,0,0:0:0:0:
182,192,120242,1,0,0:0:0:0:
36,192,120478,1,0,0:0:0:0:
329,192,120478,1,0,0:0:0:0:
182,192,120478,1,0,0:0:0:0:
36,192,120713,1,0,0:0:0:0:
256,192,120713,1,0,0:0:0:0:
402,192,120713,1,0,0:0:0:0:
475,192,120831,1,0,0:0:0:0:
36,192,120831,1,0,0:0:0:0:
109,192,120831,1,0,0:0:0:0:
329,192,120831,1,0,0:0:0:0:
182,192,120948,1,0,0:0:0:0:
402,192,120948,1,0,0:0:0:0:
36,192,121066,1,0,0:0:0:0:
475,192,121066,1,0,0:0:0:0:
109,192,121066,1,0,0:0:0:0:
256,192,121066,1,0,0:0:0:0:
182,192,121183,1,0,0:0:0:0:
329,192,121183,1,0,0:0:0:0:
36,192,121301,1,0,0:0:0:0:
109,192,121301,1,0,0:0:0:0:
402,192,121301,1,0,0:0:0:0:
475,192,121301,1,0,0:0:0:0:
329,192,121419,1,0,0:0:0:0:
182,192,121419,1,0,0:0:0:0:
36,192,121536,1,0,0:0:0:0:
256,192,121536,1,0,0:0:0:0:
475,192,121536,1,0,0:0:0:0:
109,192,121654,1,0,0:0:0:0:
402,192,121654,1,0,0:0:0:0:
36,192,121772,1,0,0:0:0:0:
182,192,121772,1,0,0:0:0:0:
256,192,121772,1,0,0:0:0:0:
329,192,121772,1,0,0:0:0:0:
475,192,121772,1,0,0:0:0:0:
402,192,121889,1,0,0:0:0:0:
109,192,121889,1,0,0:0:0:0:
475,192,122007,1,0,0:0:0:0:
256,192,122007,1,0,0:0:0:0:
36,192,122007,1,0,0:0:0:0:
182,192,122125,1,0,0:0:0:0:
402,192,122125,1,0,0:0:0:0:
109,192,122242,1,0,0:0:0:0:
36,192,122242,1,0,0:0:0:0:
329,192,122242,1,0,0:0:0:0:
475,192,122242,1,0,0:0:0:0:
182,192,122360,1,0,0:0:0:0:
256,192,122360,1,0,0:0:0:0:
402,192,122360,1,0,0:0:0:0:
475,192,122478,1,0,0:0:0:0:
36,192,122478,1,0,0:0:0:0:
329,192,122478,1,0,0:0:0:0:
109,192,122595,1,0,0:0:0:0:
182,192,122595,1,0,0:0:0:0:
402,192,122595,1,0,0:0:0:0:
256,192,122713,1,0,0:0:0:0:
329,192,122713,1,0,0:0:0:0:
36,192,122713,1,0,0:0:0:0:
475,192,122713,1,0,0:0:0:0:
109,192,122831,1,0,0:0:0:0:
182,192,122831,1,0,0:0:0:0:
36,192,122948,1,0,0:0:0:0:
329,192,122948,1,0,0:0:0:0:
402,192,122948,1,0,0:0:0:0:
475,192,122948,1,0,0:0:0:0:
182,192,123066,1,0,0:0:0:0:
256,192,123066,1,0,0:0:0:0:
36,192,123183,1,0,0:0:0:0:
109,192,123183,1,0,0:0:0:0:
402,192,123183,1,0,0:0:0:0:
475,192,123183,1,0,0:0:0:0:
329,192,123301,1,0,0:0:0:0:
182,192,123301,1,0,0:0:0:0:
36,192,123419,1,0,0:0:0:0:
109,192,123419,1,0,0:0:0:0:
475,192,123419,1,0,0:0:0:0:
256,192,123419,1,0,0:0:0:0:
402,192,123536,1,0,0:0:0:0:
329,192,123536,1,0,0:0:0:0:
36,192,123654,1,0,0:0:0:0:
109,192,123654,1,0,0:0:0:0:
475,192,123654,1,0,0:0:0:0:
256,192,123654,1,0,0:0:0:0:
182,192,123654,1,0,0:0:0:0:
329,192,123772,1,0,0:0:0:0:
402,192,123772,1,0,0:0:0:0:
475,192,123889,1,0,0:0:0:0:
182,192,123889,1,0,0:0:0:0:
109,192,123889,1,0,0:0:0:0:
36,192,123889,1,0,0:0:0:0:
256,192,124007,1,0,0:0:0:0:
329,192,124007,1,0,0:0:0:0:
36,192,124125,1,0,0:0:0:0:
402,192,124125,1,0,0:0:0:0:
475,192,124125,1,0,0:0:0:0:
109,192,124125,1,0,0:0:0:0:
182,192,124242,1,0,0:0:0:0:
256,192,124242,1,0,0:0:0:0:
329,192,124360,1,0,0:0:0:0:
402,192,124360,1,0,0:0:0:0:
475,192,124360,1,0,0:0:0:0:
36,192,124360,1,0,0:0:0:0:
109,192,124478,1,0,0:0:0:0:
182,192,124478,1,0,0:0:0:0:
36,192,124595,1,0,0:0:0:0:
256,192,124595,1,0,0:0:0:0:
329,192,124595,1,0,0:0:0:0:
475,192,124595,1,0,0:0:0:0:
182,192,124713,1,0,0:0:0:0:
402,192,124713,1,0,0:0:0:0:
36,192,124831,1,0,0:0:0:0:
109,192,124831,1,0,0:0:0:0:
329,192,124831,1,0,0:0:0:0:
182,192,124948,1,0,0:0:0:0:
256,192,124948,1,0,0:0:0:0:
402,192,124948,1,0,0:0:0:0:
36,192,125066,1,0,0:0:0:0:
329,192,125066,1,0,0:0:0:0:
109,192,125066,1,0,0:0:0:0:
475,192,125066,1,0,0:0:0:0:
182,192,125183,1,0,0:0:0:0:
402,192,125183,1,0,0:0:0:0:
256,192,125301,1,0,0:0:0:0:
36,192,125301,1,0,0:0:0:0:
475,192,125301,1,0,0:0:0:0:
109,192,125419,1,0,0:0:0:0:
402,192,125419,1,0,0:0:0:0:
36,192,125536,1,0,0:0:0:0:
182,192,125536,1,0,0:0:0:0:
475,192,125536,1,0,0:0:0:0:
329,192,125536,1,0,0:0:0:0:
109,192,125654,1,0,0:0:0:0:
256,192,125654,1,0,0:0:0:0:
36,192,125772,1,0,0:0:0:0:
182,192,125772,1,0,0:0:0:0:
402,192,125772,1,0,0:0:0:0:
475,192,125772,1,0,0:0:0:0:
109,192,125889,1,0,0:0:0:0:
256,192,125889,1,0,0:0:0:0:
329,192,125889,1,0,0:0:0:0:
36,192,126007,1,0,0:0:0:0:
475,192,126007,1,0,0:0:0:0:
182,192,126125,1,0,0:0:0:0:
256,192,126125,1,0,0:0:0:0:
402,192,126125,1,0,0:0:0:0:
329,192,126242,1,0,0:0:0:0:
475,192,126242,1,0,0:0:0:0:
36,192,126242,1,0,0:0:0:0:
109,192,126242,1,0,0:0:0:0:
402,192,126360,1,0,0:0:0:0:
182,192,126360,1,0,0:0:0:0:
109,192,126478,1,0,0:0:0:0:
36,192,126478,1,0,0:0:0:0:
256,192,126478,1,0,0:0:0:0:
475,192,126478,1,0,0:0:0:0:
182,192,126595,1,0,0:0:0:0:
402,192,126595,1,0,0:0:0:0:
36,192,126713,1,0,0:0:0:0:
109,192,126713,1,0,0:0:0:0:
329,192,126713,1,0,0:0:0:0:
475,192,126713,1,0,0:0:0:0:
402,192,126831,1,0,0:0:0:0:
182,192,126831,1,0,0:0:0:0:
256,192,126831,1,0,0:0:0:0:
475,192,126948,1,0,0:0:0:0:
36,192,126948,1,0,0:0:0:0:
329,192,127066,1,0,0:0:0:0:
256,192,127066,1,0,0:0:0:0:
109,192,127066,1,0,0:0:0:0:
36,192,127183,1,0,0:0:0:0:
402,192,127183,1,0,0:0:0:0:
182,192,127183,1,0,0:0:0:0:
475,192,127183,1,0,0:0:0:0:
109,192,127301,1,0,0:0:0:0:
329,192,127301,1,0,0:0:0:0:
36,192,127419,1,0,0:0:0:0:
475,192,127419,1,0,0:0:0:0:
256,192,127419,1,0,0:0:0:0:
182,192,127419,1,0,0:0:0:0:
109,192,127536,1,0,0:0:0:0:
329,192,127536,1,0,0:0:0:0:
182,192,127654,1,0,0:0:0:0:
402,192,127654,1,0,0:0:0:0:
36,192,127654,1,0,0:0:0:0:
475,192,127654,1,0,0:0:0:0:
109,192,127772,1,0,0:0:0:0:
256,192,127772,1,0,0:0:0:0:
36,192,127889,1,0,0:0:0:0:
182,192,127889,1,0,0:0:0:0:
329,192,127889,1,0,0:0:0:0:
475,192,127889,1,0,0:0:0:0:
402,192,128007,1,0,0:0:0:0:
256,192,128007,1,0,0:0:0:0:
36,192,128125,1,0,0:0:0:0:
475,192,128125,1,0,0:0:0:0:
329,192,128125,1,0,0:0:0:0:
109,192,128125,1,0,0:0:0:0:
402,192,128242,1,0,0:0:0:0:
182,192,128242,1,0,0:0:0:0:
36,192,128360,1,0,0:0:0:0:
475,192,128360,1,0,0:0:0:0:
109,192,128360,1,0,0:0:0:0:
256,192,128360,1,0,0:0:0:0:
182,192,128478,1,0,0:0:0:0:
329,192,128478,1,0,0:0:0:0:
36,192,128595,1,0,0:0:0:0:
109,192,128595,1,0,0:0:0:0:
402,192,128595,1,0,0:0:0:0:
475,192,128595,1,0,0:0:0:0:
182,192,128713,1,0,0:0:0:0:
329,192,128713,1,0,0:0:0:0:
36,192,128831,1,0,0:0:0:0:
256,192,128831,1,0,0:0:0:0:
475,192,128831,1,0,0:0:0:0:
109,192,128948,1,0,0:0:0:0:
402,192,128948,1,0,0:0:0:0:
329,192,129066,1,0,0:0:0:0:
182,192,129066,1,0,0:0:0:0:
256,192,129066,1,0,0:0:0:0:
109,192,129183,1,0,0:0:0:0:
402,192,129183,1,0,0:0:0:0:
329,192,129301,1,0,0:0:0:0:
256,192,129301,1,0,0:0:0:0:
36,192,129301,1,0,0:0:0:0:
475,192,129301,1,0,0:0:0:0:
109,192,129419,1,0,0:0:0:0:
182,192,129419,1,0,0:0:0:0:
36,192,129536,1,0,0:0:0:0:
475,192,129536,1,0,0:0:0:0:
329,192,129536,1,0,0:0:0:0:
402,192,129536,1,0,0:0:0:0:
256,192,129654,1,0,0:0:0:0:
109,192,129654,1,0,0:0:0:0:
402,192,129772,1,0,0:0:0:0:
36,192,129772,1,0,0:0:0:0:
475,192,129772,1,0,0:0:0:0:
182,192,129772,1,0,0:0:0:0:
329,192,129889,1,0,0:0:0:0:
256,192,129889,1,0,0:0:0:0:
36,192,130007,1,0,0:0:0:0:
109,192,130007,1,0,0:0:0:0:
182,192,130007,1,0,0:0:0:0:
475,192,130007,1,0,0:0:0:0:
402,192,130125,1,0,0:0:0:0:
329,192,130125,1,0,0:0:0:0:
256,192,130242,1,0,0:0:0:0:
36,192,130242,1,0,0:0:0:0:
109,192,130242,1,0,0:0:0:0:
475,192,130242,1,0,0:0:0:0:
182,192,130360,1,0,0:0:0:0:
402,192,130360,1,0,0:0:0:0:
36,192,130478,1,0,0:0:0:0:
109,192,130478,1,0,0:0:0:0:
329,192,130478,1,0,0:0:0:0:
475,192,130478,1,0,0:0:0:0:
182,192,130595,1,0,0:0:0:0:
256,192,130595,1,0,0:0:0:0:
402,192,130595,1,0,0:0:0:0:
36,192,130713,1,0,0:0:0:0:
109,192,130713,1,0,0:0:0:0:
329,192,130713,1,0,0:0:0:0:
256,192,130831,1,0,0:0:0:0:
475,192,130831,1,0,0:0:0:0:
36,192,130948,1,0,0:0:0:0:
402,192,130948,1,0,0:0:0:0:
182,192,130948,1,0,0:0:0:0:
109,192,130948,1,0,0:0:0:0:
329,192,131066,1,0,0:0:0:0:
256,192,131066,1,0,0:0:0:0:
402,192,131183,1,0,0:0:0:0:
475,192,131183,1,0,0:0:0:0:
36,192,131183,1,0,0:0:0:0:
182,192,131183,1,0,0:0:0:0:
329,192,131301,1,0,0:0:0:0:
109,192,131301,1,0,0:0:0:0:
475,192,131419,1,0,0:0:0:0:
402,192,131419,1,0,0:0:0:0:
182,192,131419,1,0,0:0:0:0:
36,192,131419,1,0,0:0:0:0:
329,192,131536,1,0,0:0:0:0:
256,192,131536,1,0,0:0:0:0:
109,192,131536,1,0,0:0:0:0:
475,192,131654,1,0,0:0:0:0:
402,192,131654,1,0,0:0:0:0:
182,192,131654,1,0,0:0:0:0:
256,192,131772,1,0,0:0:0:0:
36,192,131772,1,0,0:0:0:0:
475,192,131889,1,0,0:0:0:0:
109,192,131889,1,0,0:0:0:0:
329,192,131889,1,0,0:0:0:0:
402,192,131889,1,0,0:0:0:0:
182,192,132007,1,0,0:0:0:0:
256,192,132007,1,0,0:0:0:0:
109,192,132125,1,0,0:0:0:0:
36,192,132125,1,0,0:0:0:0:
475,192,132125,1,0,0:0:0:0:
329,192,132125,1,0,0:0:0:0:
182,192,132242,1,0,0:0:0:0:
402,192,132242,1,0,0:0:0:0:
36,192,132360,1,0,0:0:0:0:
256,192,132360,1,0,0:0:0:0:
475,192,132360,1,0,0:0:0:0:
109,192,132478,1,0,0:0:0:0:
329,192,132478,1,0,0:0:0:0:
182,192,132595,1,0,0:0:0:0:
402,192,132595,1,0,0:0:0:0:
475,192,132595,1,0,0:0:0:0:
36,192,132595,1,0,0:0:0:0:
109,192,132713,1,0,0:0:0:0:
329,192,132713,1,0,0:0:0:0:
36,192,132831,1,0,0:0:0:0:
256,192,132831,1,0,0:0:0:0:
475,192,132831,1,0,0:0:0:0:
402,192,132831,1,0,0:0:0:0:
182,192,132948,1,0,0:0:0:0:
329,192,132948,1,0,0:0:0:0:
36,192,133066,1,0,0:0:0:0:
475,192,133066,1,0,0:0:0:0:
109,192,133066,1,0,0:0:0:0:
256,192,133066,1,0,0:0:0:0:
182,192,133183,1,0,0:0:0:0:
402,192,133183,1,0,0:0:0:0:
36,192,133301,1,0,0:0:0:0:
109,192,133301,1,0,0:0:0:0:
329,192,133301,1,0,0:0:0:0:
475,192,133301,1,0,0:0:0:0:
182,192,133419,1,0,0:0:0:0:
256,192,133419,1,0,0:0:0:0:
402,192,133419,1,0,0:0:0:0:
36,192,133536,1,0,0:0:0:0:
475,192,133536,1,0,0:0:0:0:
329,192,133536,1,0,0:0:0:0:
109,192,133536,1,0,0:0:0:0:
182,192,133654,1,0,0:0:0:0:
402,192,133654,1,0,0:0:0:0:
256,192,133772,1,0,0:0:0:0:
475,192,133772,1,0,0:0:0:0:
36,192,133772,1,0,0:0:0:0:
109,192,133772,1,0,0:0:0:0:
329,192,133889,1,0,0:0:0:0:
182,192,133889,1,0,0:0:0:0:
36,192,134007,1,0,0:0:0:0:
402,192,134007,1,0,0:0:0:0:
256,192,134007,1,0,0:0:0:0:
475,192,134007,1,0,0:0:0:0:
109,192,134125,1,0,0:0:0:0:
182,192,134125,1,0,0:0:0:0:
329,192,134125,1,0,0:0:0:0:
36,192,134242,1,0,0:0:0:0:
256,192,134242,1,0,0:0:0:0:
402,192,134242,1,0,0:0:0:0:
475,192,134242,1,0,0:0:0:0:
109,192,134360,1,0,0:0:0:0:
329,192,134360,1,0,0:0:0:0:
182,192,134478,1,0,0:0:0:0:
36,192,134478,1,0,0:0:0:0:
475,192,134478,1,0,0:0:0:0:
402,192,134478,1,0,0:0:0:0:
109,192,134595,1,0,0:0:0:0:
256,192,134595,1,0,0:0:0:0:
36,192,134713,1,0,0:0:0:0:
182,192,134713,1,0,0:0:0:0:
329,192,134713,1,0,0:0:0:0:
109,192,134831,1,0,0:0:0:0:
256,192,134831,1,0,0:0:0:0:
402,192,134831,1,0,0:0:0:0:
36,192,134948,1,0,0:0:0:0:
475,192,134948,1,0,0:0:0:0:
182,192,134948,1,0,0:0:0:0:
329,192,134948,1,0,0:0:0:0:
36,192,135448,1,0,0:0:0:0:
329,192,135448,1,0,0:0:0:0:
402,192,135448,1,0,0:0:0:0:
182,192,135448,1,0,0:0:0:0:
36,192,135919,1,0,0:0:0:0:
402,192,135919,1,0,0:0:0:0:
475,192,135919,1,0,0:0:0:0:
182,192,135919,1,0,0:0:0:0:
256,192,136272,1,0,0:0:0:0:
475,192,136272,1,0,0:0:0:0:
36,192,136389,1,0,0:0:0:0:
182,192,136389,1,0,0:0:0:0:
256,192,136625,1,0,0:0:0:0:
475,192,136625,1,0,0:0:0:0:
36,192,136860,1,0,0:0:0:0:
256,192,136860,1,0,0:0:0:0:
329,192,136860,1,0,0:0:0:0:
182,192,136860,1,0,0:0:0:0:
256,192,137095,1,0,0:0:0:0:
329,192,137095,1,0,0:0:0:0:
36,192,137330,1,0,0:0:0:0:
402,192,137330,1,0,0:0:0:0:
329,192,137330,1,0,0:0:0:0:
182,192,137330,1,0,0:0:0:0:
329,192,137566,1,0,0:0:0:0:
402,192,137566,1,0,0:0:0:0:
36,192,137801,1,0,0:0:0:0:
475,192,137801,1,0,0:0:0:0:
402,192,137801,1,0,0:0:0:0:
182,192,137801,1,0,0:0:0:0:
256,192,138154,1,0,0:0:0:0:
475,192,138154,1,0,0:0:0:0:
36,192,138272,1,0,0:0:0:0:
182,192,138272,1,0,0:0:0:0:
256,192,138389,1,0,0:0:0:0:
475,192,138389,1,0,0:0:0:0:
36,192,138507,1,0,0:0:0:0:
182,192,138585,1,0,0:0:0:0:
475,192,138664,1,0,0:0:0:0:
36,192,138742,1,0,0:0:0:0:
256,192,138742,1,0,0:0:0:0:
329,192,138742,1,0,0:0:0:0:
182,192,138742,1,0,0:0:0:0:
182,192,138978,1,0,0:0:0:0:
109,192,139095,1,0,0:0:0:0:
36,192,139213,1,0,0:0:0:0:
329,192,139213,1,0,0:0:0:0:
402,192,139213,1,0,0:0:0:0:
182,192,139213,1,0,0:0:0:0:
36,192,139448,1,0,0:0:0:0:
109,192,139566,1,0,0:0:0:0:
182,192,139683,1,0,0:0:0:0:
475,192,139683,1,0,0:0:0:0:
402,192,139683,1,0,0:0:0:0:
36,192,139683,1,0,0:0:0:0:
182,192,139919,1,0,0:0:0:0:
109,192,140036,1,0,0:0:0:0:
256,192,140036,1,0,0:0:0:0:
475,192,140036,1,0,0:0:0:0:
36,192,140154,1,0,0:0:0:0:
182,192,140154,1,0,0:0:0:0:
36,192,140389,1,0,0:0:0:0:
475,192,140389,1,0,0:0:0:0:
256,192,140389,1,0,0:0:0:0:
109,192,140507,1,0,0:0:0:0:
182,192,140625,1,0,0:0:0:0:
329,192,140625,1,0,0:0:0:0:
475,192,140625,1,0,0:0:0:0:
36,192,140625,1,0,0:0:0:0:
182,192,140860,1,0,0:0:0:0:
109,192,140860,1,0,0:0:0:0:
475,192,140860,1,0,0:0:0:0:
329,192,140860,1,0,0:0:0:0:
256,192,141095,1,0,0:0:0:0:
182,192,141095,1,0,0:0:0:0:
36,192,141095,1,0,0:0:0:0:
402,192,141095,1,0,0:0:0:0:
329,192,141330,1,0,0:0:0:0:
256,192,141330,1,0,0:0:0:0:
109,192,141330,1,0,0:0:0:0:
475,192,141330,1,0,0:0:0:0:
402,192,141566,1,0,0:0:0:0:
329,192,141566,1,0,0:0:0:0:
182,192,141566,1,0,0:0:0:0:
36,192,141566,1,0,0:0:0:0:
475,192,141801,1,0,0:0:0:0:
256,192,141801,1,0,0:0:0:0:
329,192,141801,1,0,0:0:0:0:
109,192,141801,1,0,0:0:0:0:
36,192,142036,1,0,0:0:0:0:
182,192,142036,1,0,0:0:0:0:
256,192,142036,1,0,0:0:0:0:
402,192,142036,1,0,0:0:0:0:
109,192,142272,1,0,0:0:0:0:
182,192,142272,1,0,0:0:0:0:
329,192,142272,1,0,0:0:0:0:
475,192,142272,1,0,0:0:0:0:
36,192,142507,1,0,0:0:0:0:
475,192,142507,1,0,0:0:0:0:
109,192,142507,1,0,0:0:0:0:
402,192,142507,1,0,0:0:0:0:
329,192,142507,1,0,0:0:0:0:
256,192,142625,1,0,0:0:0:0:
182,192,142742,1,0,0:0:0:0:
402,192,142742,1,0,0:0:0:0:
36,192,142742,1,0,0:0:0:0:
329,192,142860,1,0,0:0:0:0:
109,192,142860,1,0,0:0:0:0:
256,192,142978,1,0,0:0:0:0:
36,192,142978,1,0,0:0:0:0:
475,192,142978,1,0,0:0:0:0:
182,192,143095,1,0,0:0:0:0:
329,192,143213,1,0,0:0:0:0:
475,192,143213,1,0,0:0:0:0:
109,192,143213,1,0,0:0:0:0:
36,192,143213,1,0,0:0:0:0:
256,192,143330,1,0,0:0:0:0:
182,192,143448,1,0,0:0:0:0:
36,192,143448,1,0,0:0:0:0:
402,192,143448,1,0,0:0:0:0:
475,192,143448,1,0,0:0:0:0:
329,192,143566,1,0,0:0:0:0:
256,192,143683,1,0,0:0:0:0:
36,192,143683,1,0,0:0:0:0:
475,192,143683,1,0,0:0:0:0:
402,192,143801,1,0,0:0:0:0:
329,192,143919,1,0,0:0:0:0:
182,192,143919,1,0,0:0:0:0:
36,192,143919,1,0,0:0:0:0:
475,192,143919,1,0,0:0:0:0:
256,192,143919,1,0,0:0:0:0:
109,192,144036,1,0,0:0:0:0:
36,192,144154,1,0,0:0:0:0:
256,192,144154,1,0,0:0:0:0:
475,192,144154,1,0,0:0:0:0:
329,192,144272,1,0,0:0:0:0:
109,192,144389,1,0,0:0:0:0:
36,192,144389,1,0,0:0:0:0:
475,192,144389,1,0,0:0:0:0:
402,192,144389,1,0,0:0:0:0:
182,192,144389,1,0,0:0:0:0:
256,192,144507,1,0,0:0:0:0:
475,192,144625,1,0,0:0:0:0:
109,192,144625,1,0,0:0:0:0:
329,192,144625,1,0,0:0:0:0:
402,192,144742,1,0,0:0:0:0:
182,192,144742,1,0,0:0:0:0:
36,192,144860,1,0,0:0:0:0:
475,192,144860,1,0,0:0:0:0:
256,192,144860,1,0,0:0:0:0:
329,192,144978,1,0,0:0:0:0:
402,192,145095,1,0,0:0:0:0:
36,192,145095,1,0,0:0:0:0:
182,192,145095,1,0,0:0:0:0:
475,192,145095,1,0,0:0:0:0:
256,192,145213,1,0,0:0:0:0:
109,192,145330,1,0,0:0:0:0:
36,192,145330,1,0,0:0:0:0:
329,192,145330,1,0,0:0:0:0:
475,192,145330,1,0,0:0:0:0:
182,192,145448,1,0,0:0:0:0:
36,192,145566,1,0,0:0:0:0:
475,192,145566,1,0,0:0:0:0:
256,192,145566,1,0,0:0:0:0:
109,192,145683,1,0,0:0:0:0:
475,192,145801,1,0,0:0:0:0:
36,192,145801,1,0,0:0:0:0:
182,192,145801,1,0,0:0:0:0:
329,192,145801,1,0,0:0:0:0:
256,192,145801,1,0,0:0:0:0:
402,192,145919,1,0,0:0:0:0:
36,192,146036,1,0,0:0:0:0:
256,192,146036,1,0,0:0:0:0:
475,192,146036,1,0,0:0:0:0:
182,192,146154,1,0,0:0:0:0:
36,192,146272,1,0,0:0:0:0:
109,192,146272,1,0,0:0:0:0:
402,192,146272,1,0,0:0:0:0:
475,192,146272,1,0,0:0:0:0:
329,192,146272,1,0,0:0:0:0:
256,192,146389,1,0,0:0:0:0:
182,192,146507,1,0,0:0:0:0:
402,192,146507,1,0,0:0:0:0:
36,192,146507,1,0,0:0:0:0:
329,192,146625,1,0,0:0:0:0:
109,192,146625,1,0,0:0:0:0:
36,192,146742,1,0,0:0:0:0:
475,192,146742,1,0,0:0:0:0:
256,192,146742,1,0,0:0:0:0:
402,192,146860,1,0,0:0:0:0:
329,192,146978,1,0,0:0:0:0:
36,192,146978,1,0,0:0:0:0:
109,192,146978,1,0,0:0:0:0:
182,192,146978,1,0,0:0:0:0:
402,192,147095,1,0,0:0:0:0:
475,192,147213,1,0,0:0:0:0:
36,192,147213,1,0,0:0:0:0:
182,192,147213,1,0,0:0:0:0:
329,192,147213,1,0,0:0:0:0:
109,192,147213,1,0,0:0:0:0:
256,192,147330,1,0,0:0:0:0:
329,192,147448,1,0,0:0:0:0:
109,192,147448,1,0,0:0:0:0:
475,192,147448,1,0,0:0:0:0:
182,192,147566,1,0,0:0:0:0:
402,192,147566,1,0,0:0:0:0:
475,192,147683,1,0,0:0:0:0:
36,192,147683,1,0,0:0:0:0:
256,192,147683,1,0,0:0:0:0:
329,192,147683,1,0,0:0:0:0:
109,192,147801,1,0,0:0:0:0:
182,192,147919,1,0,0:0:0:0:
475,192,147919,1,0,0:0:0:0:
329,192,147919,1,0,0:0:0:0:
109,192,148036,1,0,0:0:0:0:
36,192,148154,1,0,0:0:0:0:
475,192,148154,1,0,0:0:0:0:
402,192,148154,1,0,0:0:0:0:
256,192,148154,1,0,0:0:0:0:
329,192,148154,1,0,0:0:0:0:
182,192,148272,1,0,0:0:0:0:
109,192,148389,1,0,0:0:0:0:
329,192,148389,1,0,0:0:0:0:
475,192,148389,1,0,0:0:0:0:
256,192,148507,1,0,0:0:0:0:
36,192,148507,1,0,0:0:0:0:
182,192,148625,1,0,0:0:0:0:
402,192,148625,1,0,0:0:0:0:
475,192,148625,1,0,0:0:0:0:
329,192,148742,1,0,0:0:0:0:
256,192,148860,1,0,0:0:0:0:
475,192,148860,1,0,0:0:0:0:
36,192,148860,1,0,0:0:0:0:
109,192,148860,1,0,0:0:0:0:
402,192,148978,1,0,0:0:0:0:
329,192,149095,1,0,0:0:0:0:
36,192,149095,1,0,0:0:0:0:
256,192,149095,1,0,0:0:0:0:
475,192,149095,1,0,0:0:0:0:
182,192,149095,1,0,0:0:0:0:
402,192,149213,1,0,0:0:0:0:
109,192,149213,1,0,0:0:0:0:
182,192,149330,1,0,0:0:0:0:
256,192,149330,1,0,0:0:0:0:
475,192,149330,1,0,0:0:0:0:
109,192,149409,1,0,0:0:0:0:
329,192,149448,1,0,0:0:0:0:
36,192,149487,1,0,0:0:0:0:
182,192,149566,1,0,0:0:0:0:
402,192,149566,1,0,0:0:0:0:
475,192,149566,1,0,0:0:0:0:
109,192,149644,1,0,0:0:0:0:
256,192,149683,1,0,0:0:0:0:
36,192,149723,1,0,0:0:0:0:
182,192,149801,1,0,0:0:0:0:
329,192,149801,1,0,0:0:0:0:
475,192,149801,1,0,0:0:0:0:
109,192,149879,1,0,0:0:0:0:
402,192,149919,1,0,0:0:0:0:
36,192,149958,1,0,0:0:0:0:
475,192,150036,1,0,0:0:0:0:
182,192,150036,1,0,0:0:0:0:
329,192,150036,1,0,0:0:0:0:
256,192,150154,1,0,0:0:0:0:
182,192,150272,1,0,0:0:0:0:
402,192,150272,1,0,0:0:0:0:
36,192,150272,1,0,0:0:0:0:
329,192,150389,1,0,0:0:0:0:
109,192,150389,1,0,0:0:0:0:
256,192,150507,1,0,0:0:0:0:
36,192,150507,1,0,0:0:0:0:
475,192,150507,1,0,0:0:0:0:
182,192,150625,1,0,0:0:0:0:
402,192,150625,1,0,0:0:0:0:
329,192,150742,1,0,0:0:0:0:
475,192,150742,1,0,0:0:0:0:
109,192,150742,1,0,0:0:0:0:
36,192,150742,1,0,0:0:0:0:
256,192,150860,1,0,0:0:0:0:
182,192,150860,1,0,0:0:0:0:
36,192,150978,1,0,0:0:0:0:
402,192,150978,1,0,0:0:0:0:
475,192,150978,1,0,0:0:0:0:
109,192,150978,1,0,0:0:0:0:
329,192,151095,1,0,0:0:0:0:
256,192,151213,1,0,0:0:0:0:
36,192,151213,1,0,0:0:0:0:
475,192,151213,1,0,0:0:0:0:
109,192,151213,1,0,0:0:0:0:
402,192,151330,1,0,0:0:0:0:
329,192,151448,1,0,0:0:0:0:
182,192,151448,1,0,0:0:0:0:
36,192,151448,1,0,0:0:0:0:
475,192,151448,1,0,0:0:0:0:
256,192,151448,1,0,0:0:0:0:
109,192,151566,1,0,0:0:0:0:
36,192,151683,1,0,0:0:0:0:
256,192,151683,1,0,0:0:0:0:
475,192,151683,1,0,0:0:0:0:
402,192,151683,1,0,0:0:0:0:
329,192,151801,1,0,0:0:0:0:
109,192,151919,1,0,0:0:0:0:
36,192,151919,1,0,0:0:0:0:
475,192,151919,1,0,0:0:0:0:
402,192,151919,1,0,0:0:0:0:
182,192,151919,1,0,0:0:0:0:
256,192,152036,1,0,0:0:0:0:
109,192,152154,1,0,0:0:0:0:
329,192,152154,1,0,0:0:0:0:
475,192,152154,1,0,0:0:0:0:
182,192,152272,1,0,0:0:0:0:
402,192,152272,1,0,0:0:0:0:
36,192,152389,1,0,0:0:0:0:
256,192,152389,1,0,0:0:0:0:
475,192,152389,1,0,0:0:0:0:
109,192,152507,1,0,0:0:0:0:
329,192,152507,1,0,0:0:0:0:
36,192,152625,1,0,0:0:0:0:
182,192,152625,1,0,0:0:0:0:
475,192,152625,1,0,0:0:0:0:
402,192,152625,1,0,0:0:0:0:
256,192,152742,1,0,0:0:0:0:
109,192,152860,1,0,0:0:0:0:
36,192,152860,1,0,0:0:0:0:
329,192,152860,1,0,0:0:0:0:
475,192,152860,1,0,0:0:0:0:
182,192,152978,1,0,0:0:0:0:
36,192,153095,1,0,0:0:0:0:
475,192,153095,1,0,0:0:0:0:
256,192,153095,1,0,0:0:0:0:
402,192,153095,1,0,0:0:0:0:
109,192,153213,1,0,0:0:0:0:
475,192,153330,1,0,0:0:0:0:
36,192,153330,1,0,0:0:0:0:
182,192,153330,1,0,0:0:0:0:
256,192,153330,1,0,0:0:0:0:
329,192,153330,1,0,0:0:0:0:
402,192,153448,1,0,0:0:0:0:
36,192,153566,1,0,0:0:0:0:
475,192,153566,1,0,0:0:0:0:
109,192,153566,1,0,0:0:0:0:
329,192,153566,1,0,0:0:0:0:
182,192,153683,1,0,0:0:0:0:
256,192,153683,1,0,0:0:0:0:
36,192,153801,1,0,0:0:0:0:
109,192,153801,1,0,0:0:0:0:
402,192,153801,1,0,0:0:0:0:
475,192,153801,1,0,0:0:0:0:
329,192,153801,1,0,0:0:0:0:
256,192,153919,1,0,0:0:0:0:
182,192,154036,1,0,0:0:0:0:
402,192,154036,1,0,0:0:0:0:
36,192,154036,1,0,0:0:0:0:
329,192,154154,1,0,0:0:0:0:
109,192,154154,1,0,0:0:0:0:
36,192,154272,1,0,0:0:0:0:
475,192,154272,1,0,0:0:0:0:
256,192,154272,1,0,0:0:0:0:
182,192,154272,1,0,0:0:0:0:
402,192,154389,1,0,0:0:0:0:
329,192,154507,1,0,0:0:0:0:
36,192,154507,1,0,0:0:0:0:
182,192,154507,1,0,0:0:0:0:
402,192,154625,1,0,0:0:0:0:
475,192,154742,1,0,0:0:0:0:
36,192,154742,1,0,0:0:0:0:
182,192,154742,1,0,0:0:0:0:
329,192,154742,1,0,0:0:0:0:
109,192,154742,1,0,0:0:0:0:
256,192,154860,1,0,0:0:0:0:
329,192,154978,1,0,0:0:0:0:
109,192,154978,1,0,0:0:0:0:
475,192,154978,1,0,0:0:0:0:
182,192,155095,1,0,0:0:0:0:
402,192,155095,1,0,0:0:0:0:
475,192,155213,1,0,0:0:0:0:
36,192,155213,1,0,0:0:0:0:
256,192,155213,1,0,0:0:0:0:
329,192,155213,1,0,0:0:0:0:
109,192,155330,1,0,0:0:0:0:
182,192,155448,1,0,0:0:0:0:
475,192,155448,1,0,0:0:0:0:
329,192,155448,1,0,0:0:0:0:
402,192,155448,1,0,0:0:0:0:
109,192,155566,1,0,0:0:0:0:
36,192,155683,1,0,0:0:0:0:
475,192,155683,1,0,0:0:0:0:
402,192,155683,1,0,0:0:0:0:
256,192,155683,1,0,0:0:0:0:
329,192,155683,1,0,0:0:0:0:
182,192,155801,1,0,0:0:0:0:
109,192,155919,1,0,0:0:0:0:
329,192,155919,1,0,0:0:0:0:
475,192,155919,1,0,0:0:0:0:
256,192,156036,1,0,0:0:0:0:
36,192,156036,1,0,0:0:0:0:
182,192,156154,1,0,0:0:0:0:
402,192,156154,1,0,0:0:0:0:
475,192,156154,1,0,0:0:0:0:
329,192,156272,1,0,0:0:0:0:
256,192,156389,1,0,0:0:0:0:
475,192,156389,1,0,0:0:0:0:
36,192,156389,1,0,0:0:0:0:
109,192,156389,1,0,0:0:0:0:
402,192,156507,1,0,0:0:0:0:
329,192,156625,1,0,0:0:0:0:
36,192,156625,1,0,0:0:0:0:
475,192,156625,1,0,0:0:0:0:
109,192,156625,1,0,0:0:0:0:
182,192,156742,1,0,0:0:0:0:
256,192,156860,1,0,0:0:0:0:
329,192,156978,1,0,0:0:0:0:
402,192,157095,1,0,0:0:0:0:
475,192,157095,1,0,0:0:0:0:
36,192,157095,1,0,0:0:0:0:
182,192,157095,1,0,0:0:0:0:
109,192,157095,1,0,0:0:0:0:
256,192,157213,1,0,0:0:0:0:
329,192,157213,1,0,0:0:0:0:
475,192,157330,1,0,0:0:0:0:
182,192,157330,1,0,0:0:0:0:
109,192,157330,1,0,0:0:0:0:
36,192,157330,1,0,0:0:0:0:
329,192,157448,1,0,0:0:0:0:
402,192,157448,1,0,0:0:0:0:
475,192,157566,1,0,0:0:0:0:
256,192,157566,1,0,0:0:0:0:
109,192,157566,1,0,0:0:0:0:
36,192,157566,1,0,0:0:0:0:
182,192,157683,1,0,0:0:0:0:
402,192,157683,1,0,0:0:0:0:
36,192,157801,1,0,0:0:0:0:
329,192,157801,1,0,0:0:0:0:
256,192,157801,1,0,0:0:0:0:
182,192,157919,1,0,0:0:0:0:
475,192,157919,1,0,0:0:0:0:
36,192,158036,1,0,0:0:0:0:
402,192,158036,1,0,0:0:0:0:
256,192,158036,1,0,0:0:0:0:
182,192,158154,1,0,0:0:0:0:
36,192,158272,1,0,0:0:0:0:
329,192,158272,1,0,0:0:0:0:
402,192,158272,1,0,0:0:0:0:
475,192,158272,1,0,0:0:0:0:
256,192,158272,1,0,0:0:0:0:
182,192,158389,1,0,0:0:0:0:
475,192,158507,1,0,0:0:0:0:
402,192,158507,1,0,0:0:0:0:
36,192,158507,1,0,0:0:0:0:
109,192,158507,1,0,0:0:0:0:
256,192,158507,1,0,0:0:0:0:
329,192,158625,1,0,0:0:0:0:
475,192,158742,1,0,0:0:0:0:
182,192,158742,1,0,0:0:0:0:
256,192,158742,1,0,0:0:0:0:
329,192,158860,1,0,0:0:0:0:
475,192,158978,1,0,0:0:0:0:
109,192,158978,1,0,0:0:0:0:
36,192,158978,1,0,0:0:0:0:
329,192,159095,1,0,0:0:0:0:
475,192,159213,1,0,0:0:0:0:
36,192,159213,1,0,0:0:0:0:
109,192,159213,1,0,0:0:0:0:
182,192,159213,1,0,0:0:0:0:
329,192,159330,1,0,0:0:0:0:
182,192,159330,1,0,0:0:0:0:
256,192,159330,1,0,0:0:0:0:
36,192,159448,1,0,0:0:0:0:
109,192,159448,1,0,0:0:0:0:
402,192,159448,1,0,0:0:0:0:
475,192,159448,1,0,0:0:0:0:
329,192,159448,1,0,0:0:0:0:
182,192,159566,1,0,0:0:0:0:
36,192,159683,1,0,0:0:0:0:
475,192,159683,1,0,0:0:0:0:
329,192,159683,1,0,0:0:0:0:
182,192,159801,1,0,0:0:0:0:
36,192,159919,1,0,0:0:0:0:
402,192,159919,1,0,0:0:0:0:
256,192,159919,1,0,0:0:0:0:
182,192,160036,1,0,0:0:0:0:
36,192,160154,1,0,0:0:0:0:
329,192,160154,1,0,0:0:0:0:
402,192,160154,1,0,0:0:0:0:
475,192,160154,1,0,0:0:0:0:
182,192,160272,1,0,0:0:0:0:
329,192,160272,1,0,0:0:0:0:
256,192,160272,1,0,0:0:0:0:
475,192,160389,1,0,0:0:0:0:
402,192,160389,1,0,0:0:0:0:
36,192,160389,1,0,0:0:0:0:
109,192,160389,1,0,0:0:0:0:
182,192,160389,1,0,0:0:0:0:
329,192,160507,1,0,0:0:0:0:
475,192,160625,1,0,0:0:0:0:
256,192,160625,1,0,0:0:0:0:
109,192,160625,1,0,0:0:0:0:
329,192,160742,1,0,0:0:0:0:
475,192,160860,1,0,0:0:0:0:
36,192,160860,128,0,161213:0:0:0:0:
182,192,160860,128,0,161213:0:0:0:0:
109,192,160860,1,0,0:0:0:0:
256,192,160860,1,0,0:0:0:0:
329,192,160978,1,0,0:0:0:0:
475,192,161095,1,0,0:0:0:0:
329,192,161213,1,0,0:0:0:0:
475,192,161330,1,0,0:0:0:0:
36,192,161330,1,0,0:0:0:0:
109,192,161330,1,0,0:0:0:0:
256,192,161330,1,0,0:0:0:0:
402,192,161330,1,0,0:0:0:0:
182,192,161448,1,0,0:0:0:0:
329,192,161448,1,0,0:0:0:0:
36,192,161566,1,0,0:0:0:0:
256,192,161566,1,0,0:0:0:0:
475,192,161566,1,0,0:0:0:0:
182,192,161683,1,0,0:0:0:0:
402,192,161683,1,0,0:0:0:0:
36,192,161801,1,0,0:0:0:0:
329,192,161801,1,0,0:0:0:0:
256,192,161801,1,0,0:0:0:0:
182,192,161919,1,0,0:0:0:0:
36,192,162036,1,0,0:0:0:0:
402,192,162036,1,0,0:0:0:0:
475,192,162036,1,0,0:0:0:0:
329,192,162036,1,0,0:0:0:0:
256,192,162036,1,0,0:0:0:0:
182,192,162154,1,0,0:0:0:0:
475,192,162272,1,0,0:0:0:0:
256,192,162272,1,0,0:0:0:0:
402,192,162272,1,0,0:0:0:0:
109,192,162272,1,0,0:0:0:0:
36,192,162272,1,0,0:0:0:0:
329,192,162389,1,0,0:0:0:0:
475,192,162507,1,0,0:0:0:0:
109,192,162507,1,0,0:0:0:0:
256,192,162507,1,0,0:0:0:0:
329,192,162625,1,0,0:0:0:0:
475,192,162742,1,0,0:0:0:0:
36,192,162742,1,0,0:0:0:0:
182,192,162742,1,0,0:0:0:0:
329,192,162860,1,0,0:0:0:0:
475,192,162978,1,0,0:0:0:0:
36,192,162978,1,0,0:0:0:0:
182,192,162978,1,0,0:0:0:0:
256,192,162978,1,0,0:0:0:0:
329,192,163095,1,0,0:0:0:0:
109,192,163095,1,0,0:0:0:0:
256,192,163095,1,0,0:0:0:0:
475,192,163213,1,0,0:0:0:0:
329,192,163213,1,0,0:0:0:0:
402,192,163213,1,0,0:0:0:0:
182,192,163213,1,0,0:0:0:0:
36,192,163213,1,0,0:0:0:0:
475,192,163448,1,0,0:0:0:0:
256,192,163448,1,0,0:0:0:0:
36,192,163448,1,0,0:0:0:0:
182,192,163566,1,0,0:0:0:0:
402,192,163566,1,0,0:0:0:0:
36,192,163683,1,0,0:0:0:0:
256,192,163683,1,0,0:0:0:0:
475,192,163683,1,0,0:0:0:0:
109,192,163683,1,0,0:0:0:0:
329,192,163683,1,0,0:0:0:0:
256,192,163919,1,0,0:0:0:0:
475,192,163919,1,0,0:0:0:0:
36,192,163919,1,0,0:0:0:0:
109,192,164036,1,0,0:0:0:0:
329,192,164036,1,0,0:0:0:0:
36,192,164154,1,0,0:0:0:0:
402,192,164154,1,0,0:0:0:0:
475,192,164154,1,0,0:0:0:0:
182,192,164154,1,0,0:0:0:0:
256,192,164154,1,0,0:0:0:0:
109,192,164272,1,0,0:0:0:0:
329,192,164272,1,0,0:0:0:0:
182,192,164389,1,0,0:0:0:0:
402,192,164389,1,0,0:0:0:0:
475,192,164389,1,0,0:0:0:0:
36,192,164507,1,0,0:0:0:0:
256,192,164507,1,0,0:0:0:0:
109,192,164625,1,0,0:0:0:0:
329,192,164625,1,0,0:0:0:0:
475,192,164625,1,0,0:0:0:0:
182,192,164742,1,0,0:0:0:0:
256,192,164860,1,0,0:0:0:0:
475,192,164860,1,0,0:0:0:0:
36,192,164860,1,0,0:0:0:0:
109,192,164978,1,0,0:0:0:0:
402,192,164978,1,0,0:0:0:0:
36,192,165095,1,0,0:0:0:0:
182,192,165095,1,0,0:0:0:0:
329,192,165095,1,0,0:0:0:0:
256,192,165095,1,0,0:0:0:0:
475,192,165095,1,0,0:0:0:0:
256,192,165330,1,0,0:0:0:0:
475,192,165330,1,0,0:0:0:0:
402,192,165448,1,0,0:0:0:0:
329,192,165448,1,0,0:0:0:0:
36,192,165448,1,0,0:0:0:0:
109,192,165448,1,0,0:0:0:0:
182,192,165566,1,0,0:0:0:0:
36,192,165683,1,0,0:0:0:0:
109,192,165683,1,0,0:0:0:0:
475,192,165801,1,0,0:0:0:0:
256,192,165801,1,0,0:0:0:0:
402,192,165919,1,0,0:0:0:0:
182,192,165919,1,0,0:0:0:0:
329,192,166036,1,0,0:0:0:0:
256,192,166036,1,0,0:0:0:0:
109,192,166036,1,0,0:0:0:0:
36,192,166036,1,0,0:0:0:0:
475,192,166154,1,0,0:0:0:0:
402,192,166154,1,0,0:0:0:0:
256,192,166389,1,0,0:0:0:0:
329,192,166389,1,0,0:0:0:0:
36,192,166389,1,0,0:0:0:0:
109,192,166389,1,0,0:0:0:0:
182,192,166507,1,0,0:0:0:0:
475,192,166625,1,0,0:0:0:0:
402,192,166625,1,0,0:0:0:0:
109,192,166625,1,0,0:0:0:0:
36,192,166625,1,0,0:0:0:0:
329,192,166742,1,0,0:0:0:0:
256,192,166860,1,0,0:0:0:0:
475,192,166860,1,0,0:0:0:0:
182,192,166860,1,0,0:0:0:0:
402,192,166978,1,0,0:0:0:0:
109,192,166978,1,0,0:0:0:0:
36,192,166978,1,0,0:0:0:0:
329,192,167095,1,0,0:0:0:0:
256,192,167095,1,0,0:0:0:0:
475,192,167213,1,0,0:0:0:0:
402,192,167330,1,0,0:0:0:0:
256,192,167330,1,0,0:0:0:0:
36,192,167330,1,0,0:0:0:0:
109,192,167330,1,0,0:0:0:0:
182,192,167448,1,0,0:0:0:0:
329,192,167566,1,0,0:0:0:0:
475,192,167566,1,0,0:0:0:0:
36,192,167566,1,0,0:0:0:0:
109,192,167566,1,0,0:0:0:0:
256,192,167801,1,0,0:0:0:0:
402,192,167801,1,0,0:0:0:0:
182,192,167801,1,0,0:0:0:0:
329,192,167919,1,0,0:0:0:0:
475,192,167919,1,0,0:0:0:0:
36,192,167919,1,0,0:0:0:0:
109,192,167919,1,0,0:0:0:0:
36,192,168154,1,0,0:0:0:0:
182,192,168154,1,0,0:0:0:0:
475,192,168154,1,0,0:0:0:0:
402,192,168154,1,0,0:0:0:0:
475,192,168389,1,0,0:0:0:0:
36,192,168389,1,0,0:0:0:0:
109,192,168389,1,0,0:0:0:0:
402,192,168389,1,0,0:0:0:0:
182,192,168507,1,0,0:0:0:0:
329,192,168507,1,0,0:0:0:0:
36,192,168625,1,0,0:0:0:0:
475,192,168625,1,0,0:0:0:0:
402,192,168625,1,0,0:0:0:0:
109,192,168625,1,0,0:0:0:0:
182,192,168742,1,0,0:0:0:0:
329,192,168742,1,0,0:0:0:0:
36,192,168860,1,0,0:0:0:0:
475,192,168860,1,0,0:0:0:0:
109,192,168860,1,0,0:0:0:0:
256,192,168860,1,0,0:0:0:0:
402,192,168978,1,0,0:0:0:0:
182,192,168978,1,0,0:0:0:0:
329,192,169095,1,0,0:0:0:0:
109,192,169095,1,0,0:0:0:0:
475,192,169095,1,0,0:0:0:0:
36,192,169213,1,0,0:0:0:0:
256,192,169213,1,0,0:0:0:0:
475,192,169330,1,0,0:0:0:0:
402,192,169330,1,0,0:0:0:0:
182,192,169330,1,0,0:0:0:0:
329,192,169448,1,0,0:0:0:0:
256,192,169566,1,0,0:0:0:0:
36,192,169566,1,0,0:0:0:0:
109,192,169683,1,0,0:0:0:0:
329,192,169683,1,0,0:0:0:0:
36,192,169801,1,0,0:0:0:0:
182,192,169801,1,0,0:0:0:0:
402,192,169801,1,0,0:0:0:0:
475,192,169801,1,0,0:0:0:0:
329,192,169919,1,0,0:0:0:0:
256,192,170036,1,0,0:0:0:0:
36,192,170036,1,0,0:0:0:0:
109,192,170036,1,0,0:0:0:0:
475,192,170036,1,0,0:0:0:0:
329,192,170154,1,0,0:0:0:0:
475,192,170272,1,0,0:0:0:0:
402,192,170272,1,0,0:0:0:0:
36,192,170272,1,0,0:0:0:0:
109,192,170272,1,0,0:0:0:0:
182,192,170389,1,0,0:0:0:0:
256,192,170507,1,0,0:0:0:0:
475,192,170507,1,0,0:0:0:0:
36,192,170507,1,0,0:0:0:0:
402,192,170507,1,0,0:0:0:0:
182,192,170625,1,0,0:0:0:0:
329,192,170625,1,0,0:0:0:0:
36,192,170742,1,0,0:0:0:0:
109,192,170742,1,0,0:0:0:0:
256,192,170742,1,0,0:0:0:0:
475,192,170742,1,0,0:0:0:0:
402,192,170860,1,0,0:0:0:0:
182,192,170860,1,0,0:0:0:0:
109,192,170978,1,0,0:0:0:0:
329,192,170978,1,0,0:0:0:0:
36,192,170978,1,0,0:0:0:0:
256,192,171095,1,0,0:0:0:0:
475,192,171095,1,0,0:0:0:0:
182,192,171213,1,0,0:0:0:0:
402,192,171213,1,0,0:0:0:0:
36,192,171213,1,0,0:0:0:0:
109,192,171330,1,0,0:0:0:0:
256,192,171330,1,0,0:0:0:0:
329,192,171330,1,0,0:0:0:0:
475,192,171448,1,0,0:0:0:0:
402,192,171448,1,0,0:0:0:0:
182,192,171448,1,0,0:0:0:0:
256,192,171566,1,0,0:0:0:0:
109,192,171566,1,0,0:0:0:0:
36,192,171683,1,0,0:0:0:0:
182,192,171683,1,0,0:0:0:0:
329,192,171683,1,0,0:0:0:0:
402,192,171683,1,0,0:0:0:0:
475,192,171683,1,0,0:0:0:0:
256,192,171919,1,0,0:0:0:0:
329,192,171919,1,0,0:0:0:0:
402,192,171919,1,0,0:0:0:0:
109,192,171919,1,0,0:0:0:0:
182,192,172154,1,0,0:0:0:0:
256,192,172154,1,0,0:0:0:0:
329,192,172154,1,0,0:0:0:0:
475,192,172154,1,0,0:0:0:0:
36,192,172154,1,0,0:0:0:0:
36,192,172389,1,0,0:0:0:0:
475,192,172389,1,0,0:0:0:0:
109,192,172389,1,0,0:0:0:0:
402,192,172389,1,0,0:0:0:0:
329,192,172507,1,0,0:0:0:0:
182,192,172507,1,0,0:0:0:0:
36,192,172625,1,0,0:0:0:0:
109,192,172625,1,0,0:0:0:0:
256,192,172625,1,0,0:0:0:0:
475,192,172625,1,0,0:0:0:0:
402,192,172625,1,0,0:0:0:0:
182,192,172742,1,0,0:0:0:0:
329,192,172742,1,0,0:0:0:0:
256,192,172860,1,0,0:0:0:0:
402,192,172860,1,0,0:0:0:0:
36,192,172860,1,0,0:0:0:0:
109,192,172978,1,0,0:0:0:0:
329,192,172978,1,0,0:0:0:0:
475,192,172978,1,0,0:0:0:0:
182,192,173095,1,0,0:0:0:0:
402,192,173095,1,0,0:0:0:0:
36,192,173095,1,0,0:0:0:0:
109,192,173213,1,0,0:0:0:0:
256,192,173213,1,0,0:0:0:0:
475,192,173213,1,0,0:0:0:0:
36,192,173330,1,0,0:0:0:0:
182,192,173330,1,0,0:0:0:0:
329,192,173330,1,0,0:0:0:0:
109,192,173448,1,0,0:0:0:0:
256,192,173448,1,0,0:0:0:0:
402,192,173448,1,0,0:0:0:0:
36,192,173566,1,0,0:0:0:0:
182,192,173566,1,0,0:0:0:0:
329,192,173566,1,0,0:0:0:0:
475,192,173566,1,0,0:0:0:0:
402,192,173683,1,0,0:0:0:0:
109,192,173683,1,0,0:0:0:0:
475,192,173801,1,0,0:0:0:0:
256,192,173801,1,0,0:0:0:0:
36,192,173801,1,0,0:0:0:0:
182,192,173919,1,0,0:0:0:0:
402,192,173919,1,0,0:0:0:0:
109,192,174036,1,0,0:0:0:0:
36,192,174036,1,0,0:0:0:0:
329,192,174036,1,0,0:0:0:0:
475,192,174036,1,0,0:0:0:0:
182,192,174154,1,0,0:0:0:0:
256,192,174154,1,0,0:0:0:0:
402,192,174154,1,0,0:0:0:0:
475,192,174272,1,0,0:0:0:0:
36,192,174272,1,0,0:0:0:0:
329,192,174272,1,0,0:0:0:0:
109,192,174389,1,0,0:0:0:0:
182,192,174389,1,0,0:0:0:0:
402,192,174389,1,0,0:0:0:0:
256,192,174507,1,0,0:0:0:0:
329,192,174507,1,0,0:0:0:0:
36,192,174507,1,0,0:0:0:0:
475,192,174507,1,0,0:0:0:0:
109,192,174625,1,0,0:0:0:0:
182,192,174625,1,0,0:0:0:0:
36,192,174742,1,0,0:0:0:0:
329,192,174742,1,0,0:0:0:0:
402,192,174742,1,0,0:0:0:0:
475,192,174742,1,0,0:0:0:0:
182,192,174860,1,0,0:0:0:0:
256,192,174860,1,0,0:0:0:0:
36,192,174978,1,0,0:0:0:0:
109,192,174978,1,0,0:0:0:0:
402,192,174978,1,0,0:0:0:0:
475,192,174978,1,0,0:0:0:0:
256,192,175095,1,0,0:0:0:0:
329,192,175095,1,0,0:0:0:0:
36,192,175213,1,0,0:0:0:0:
109,192,175213,1,0,0:0:0:0:
182,192,175213,1,0,0:0:0:0:
475,192,175213,1,0,0:0:0:0:
402,192,175330,1,0,0:0:0:0:
329,192,175330,1,0,0:0:0:0:
36,192,175448,1,0,0:0:0:0:
109,192,175448,1,0,0:0:0:0:
475,192,175448,1,0,0:0:0:0:
256,192,175448,1,0,0:0:0:0:
182,192,175448,1,0,0:0:0:0:
329,192,175566,1,0,0:0:0:0:
402,192,175566,1,0,0:0:0:0:
475,192,175683,1,0,0:0:0:0:
182,192,175683,1,0,0:0:0:0:
109,192,175683,1,0,0:0:0:0:
36,192,175683,1,0,0:0:0:0:
256,192,175801,1,0,0:0:0:0:
329,192,175801,1,0,0:0:0:0:
36,192,175919,1,0,0:0:0:0:
402,192,175919,1,0,0:0:0:0:
475,192,175919,1,0,0:0:0:0:
109,192,175919,1,0,0:0:0:0:
182,192,176036,1,0,0:0:0:0:
256,192,176036,1,0,0:0:0:0:
329,192,176154,1,0,0:0:0:0:
402,192,176154,1,0,0:0:0:0:
475,192,176154,1,0,0:0:0:0:
36,192,176154,1,0,0:0:0:0:
109,192,176272,1,0,0:0:0:0:
182,192,176272,1,0,0:0:0:0:
36,192,176389,1,0,0:0:0:0:
256,192,176389,1,0,0:0:0:0:
329,192,176389,1,0,0:0:0:0:
475,192,176389,1,0,0:0:0:0:
182,192,176507,1,0,0:0:0:0:
402,192,176507,1,0,0:0:0:0:
36,192,176625,1,0,0:0:0:0:
109,192,176625,1,0,0:0:0:0:
329,192,176625,1,0,0:0:0:0:
182,192,176742,1,0,0:0:0:0:
256,192,176742,1,0,0:0:0:0:
402,192,176742,1,0,0:0:0:0:
36,192,176860,1,0,0:0:0:0:
329,192,176860,1,0,0:0:0:0:
109,192,176860,1,0,0:0:0:0:
475,192,176860,1,0,0:0:0:0:
182,192,176978,1,0,0:0:0:0:
402,192,176978,1,0,0:0:0:0:
256,192,177095,1,0,0:0:0:0:
36,192,177095,1,0,0:0:0:0:
475,192,177095,1,0,0:0:0:0:
109,192,177213,1,0,0:0:0:0:
402,192,177213,1,0,0:0:0:0:
36,192,177330,1,0,0:0:0:0:
182,192,177330,1,0,0:0:0:0:
475,192,177330,1,0,0:0:0:0:
329,192,177330,1,0,0:0:0:0:
109,192,177448,1,0,0:0:0:0:
256,192,177448,1,0,0:0:0:0:
36,192,177566,1,0,0:0:0:0:
182,192,177566,1,0,0:0:0:0:
402,192,177566,1,0,0:0:0:0:
475,192,177566,1,0,0:0:0:0:
109,192,177683,1,0,0:0:0:0:
256,192,177683,1,0,0:0:0:0:
329,192,177683,1,0,0:0:0:0:
36,192,177801,1,0,0:0:0:0:
475,192,177801,1,0,0:0:0:0:
182,192,177919,1,0,0:0:0:0:
256,192,177919,1,0,0:0:0:0:
402,192,177919,1,0,0:0:0:0:
329,192,178036,1,0,0:0:0:0:
475,192,178036,1,0,0:0:0:0:
36,192,178036,1,0,0:0:0:0:
109,192,178036,1,0,0:0:0:0:
402,192,178154,1,0,0:0:0:0:
182,192,178154,1,0,0:0:0:0:
109,192,178272,1,0,0:0:0:0:
36,192,178272,1,0,0:0:0:0:
256,192,178272,1,0,0:0:0:0:
475,192,178272,1,0,0:0:0:0:
182,192,178389,1,0,0:0:0:0:
402,192,178389,1,0,0:0:0:0:
36,192,178507,1,0,0:0:0:0:
109,192,178507,1,0,0:0:0:0:
329,192,178507,1,0,0:0:0:0:
475,192,178507,1,0,0:0:0:0:
402,192,178625,1,0,0:0:0:0:
182,192,178625,1,0,0:0:0:0:
256,192,178625,1,0,0:0:0:0:
475,192,178742,1,0,0:0:0:0:
36,192,178742,1,0,0:0:0:0:
329,192,178860,1,0,0:0:0:0:
256,192,178860,1,0,0:0:0:0:
109,192,178860,1,0,0:0:0:0:
36,192,178978,1,0,0:0:0:0:
402,192,178978,1,0,0:0:0:0:
182,192,178978,1,0,0:0:0:0:
475,192,178978,1,0,0:0:0:0:
109,192,179095,1,0,0:0:0:0:
329,192,179095,1,0,0:0:0:0:
36,192,179213,1,0,0:0:0:0:
475,192,179213,1,0,0:0:0:0:
256,192,179213,1,0,0:0:0:0:
182,192,179213,1,0,0:0:0:0:
109,192,179330,1,0,0:0:0:0:
329,192,179330,1,0,0:0:0:0:
182,192,179448,1,0,0:0:0:0:
402,192,179448,1,0,0:0:0:0:
36,192,179448,1,0,0:0:0:0:
475,192,179448,1,0,0:0:0:0:
109,192,179566,1,0,0:0:0:0:
256,192,179566,1,0,0:0:0:0:
36,192,179683,1,0,0:0:0:0:
182,192,179683,1,0,0:0:0:0:
329,192,179683,1,0,0:0:0:0:
475,192,179683,1,0,0:0:0:0:
402,192,179801,1,0,0:0:0:0:
256,192,179801,1,0,0:0:0:0:
36,192,179919,1,0,0:0:0:0:
475,192,179919,1,0,0:0:0:0:
329,192,179919,1,0,0:0:0:0:
109,192,179919,1,0,0:0:0:0:
402,192,180036,1,0,0:0:0:0:
182,192,180036,1,0,0:0:0:0:
36,192,180154,1,0,0:0:0:0:
475,192,180154,1,0,0:0:0:0:
109,192,180154,1,0,0:0:0:0:
256,192,180154,1,0,0:0:0:0:
182,192,180272,1,0,0:0:0:0:
329,192,180272,1,0,0:0:0:0:
36,192,180389,1,0,0:0:0:0:
109,192,180389,1,0,0:0:0:0:
402,192,180389,1,0,0:0:0:0:
475,192,180389,1,0,0:0:0:0:
182,192,180507,1,0,0:0:0:0:
329,192,180507,1,0,0:0:0:0:
36,192,180625,1,0,0:0:0:0:
256,192,180625,1,0,0:0:0:0:
475,192,180625,1,0,0:0:0:0:
109,192,180742,1,0,0:0:0:0:
402,192,180742,1,0,0:0:0:0:
329,192,180860,1,0,0:0:0:0:
182,192,180860,1,0,0:0:0:0:
256,192,180860,1,0,0:0:0:0:
109,192,180978,1,0,0:0:0:0:
402,192,180978,1,0,0:0:0:0:
329,192,181095,1,0,0:0:0:0:
256,192,181095,1,0,0:0:0:0:
36,192,181095,1,0,0:0:0:0:
475,192,181095,1,0,0:0:0:0:
109,192,181213,1,0,0:0:0:0:
182,192,181213,1,0,0:0:0:0:
36,192,181330,1,0,0:0:0:0:
475,192,181330,1,0,0:0:0:0:
329,192,181330,1,0,0:0:0:0:
402,192,181330,1,0,0:0:0:0:
256,192,181448,1,0,0:0:0:0:
109,192,181448,1,0,0:0:0:0:
402,192,181566,1,0,0:0:0:0:
182,192,181566,1,0,0:0:0:0:
36,192,181566,1,0,0:0:0:0:
475,192,181566,1,0,0:0:0:0:
329,192,181683,1,0,0:0:0:0:
256,192,181683,1,0,0:0:0:0:
36,192,181801,1,0,0:0:0:0:
109,192,181801,1,0,0:0:0:0:
182,192,181801,1,0,0:0:0:0:
475,192,181801,1,0,0:0:0:0:
402,192,181919,1,0,0:0:0:0:
329,192,181919,1,0,0:0:0:0:
36,192,182036,1,0,0:0:0:0:
109,192,182036,1,0,0:0:0:0:
475,192,182036,1,0,0:0:0:0:
256,192,182036,1,0,0:0:0:0:
182,192,182154,1,0,0:0:0:0:
402,192,182154,1,0,0:0:0:0:
36,192,182272,1,0,0:0:0:0:
109,192,182272,1,0,0:0:0:0:
329,192,182272,1,0,0:0:0:0:
475,192,182272,1,0,0:0:0:0:
182,192,182389,1,0,0:0:0:0:
256,192,182389,1,0,0:0:0:0:
402,192,182389,1,0,0:0:0:0:
36,192,182507,1,0,0:0:0:0:
109,192,182507,1,0,0:0:0:0:
329,192,182507,1,0,0:0:0:0:
256,192,182625,1,0,0:0:0:0:
475,192,182625,1,0,0:0:0:0:
36,192,182742,1,0,0:0:0:0:
402,192,182742,1,0,0:0:0:0:
182,192,182742,1,0,0:0:0:0:
109,192,182742,1,0,0:0:0:0:
329,192,182860,1,0,0:0:0:0:
256,192,182860,1,0,0:0:0:0:
402,192,182978,1,0,0:0:0:0:
475,192,182978,1,0,0:0:0:0:
36,192,182978,1,0,0:0:0:0:
182,192,182978,1,0,0:0:0:0:
329,192,183095,1,0,0:0:0:0:
109,192,183095,1,0,0:0:0:0:
475,192,183213,1,0,0:0:0:0:
402,192,183213,1,0,0:0:0:0:
182,192,183213,1,0,0:0:0:0:
36,192,183213,1,0,0:0:0:0:
329,192,183330,1,0,0:0:0:0:
256,192,183330,1,0,0:0:0:0:
109,192,183330,1,0,0:0:0:0:
475,192,183448,1,0,0:0:0:0:
402,192,183448,1,0,0:0:0:0:
182,192,183448,1,0,0:0:0:0:
256,192,183566,1,0,0:0:0:0:
36,192,183566,1,0,0:0:0:0:
475,192,183683,1,0,0:0:0:0:
109,192,183683,1,0,0:0:0:0:
329,192,183683,1,0,0:0:0:0:
402,192,183683,1,0,0:0:0:0:
182,192,183801,1,0,0:0:0:0:
256,192,183801,1,0,0:0:0:0:
109,192,183919,1,0,0:0:0:0:
36,192,183919,1,0,0:0:0:0:
475,192,183919,1,0,0:0:0:0:
329,192,183919,1,0,0:0:0:0:
402,192,184036,1,0,0:0:0:0:
256,192,184036,1,0,0:0:0:0:
36,192,184154,1,0,0:0:0:0:
329,192,184154,1,0,0:0:0:0:
182,192,184154,1,0,0:0:0:0:
256,192,184272,1,0,0:0:0:0:
109,192,184272,1,0,0:0:0:0:
475,192,184272,1,0,0:0:0:0:
402,192,184389,1,0,0:0:0:0:
36,192,184389,1,0,0:0:0:0:
182,192,184389,1,0,0:0:0:0:
256,192,184507,1,0,0:0:0:0:
329,192,184507,1,0,0:0:0:0:
36,192,184625,1,0,0:0:0:0:
402,192,184625,1,0,0:0:0:0:
475,192,184625,1,0,0:0:0:0:
109,192,184625,1,0,0:0:0:0:
256,192,184742,1,0,0:0:0:0:
182,192,184742,1,0,0:0:0:0:
36,192,184860,1,0,0:0:0:0:
329,192,184860,1,0,0:0:0:0:
109,192,184860,1,0,0:0:0:0:
402,192,184860,1,0,0:0:0:0:
475,192,184860,1,0,0:0:0:0:
256,192,184978,1,0,0:0:0:0:
182,192,184978,1,0,0:0:0:0:
36,192,185095,1,0,0:0:0:0:
109,192,185095,1,0,0:0:0:0:
475,192,185095,1,0,0:0:0:0:
329,192,185095,1,0,0:0:0:0:
256,192,185213,1,0,0:0:0:0:
402,192,185213,1,0,0:0:0:0:
36,192,185330,1,0,0:0:0:0:
475,192,185330,1,0,0:0:0:0:
109,192,185330,1,0,0:0:0:0:
182,192,185330,1,0,0:0:0:0:
329,192,185448,1,0,0:0:0:0:
402,192,185448,1,0,0:0:0:0:
475,192,185566,1,0,0:0:0:0:
182,192,185566,1,0,0:0:0:0:
36,192,185566,1,0,0:0:0:0:
109,192,185683,1,0,0:0:0:0:
256,192,185683,1,0,0:0:0:0:
402,192,185683,1,0,0:0:0:0:
36,192,185801,1,0,0:0:0:0:
182,192,185801,1,0,0:0:0:0:
329,192,185801,1,0,0:0:0:0:
475,192,185801,1,0,0:0:0:0:
402,192,185919,1,0,0:0:0:0:
256,192,186036,1,0,0:0:0:0:
475,192,186036,1,0,0:0:0:0:
109,192,186036,1,0,0:0:0:0:
36,192,186036,1,0,0:0:0:0:
329,192,186154,1,0,0:0:0:0:
402,192,186272,1,0,0:0:0:0:
182,192,186272,1,0,0:0:0:0:
475,192,186272,1,0,0:0:0:0:
36,192,186272,1,0,0:0:0:0:
256,192,186389,1,0,0:0:0:0:
109,192,186507,1,0,0:0:0:0:
329,192,186507,1,0,0:0:0:0:
36,192,186507,1,0,0:0:0:0:
475,192,186507,1,0,0:0:0:0:
182,192,186625,1,0,0:0:0:0:
256,192,186742,1,0,0:0:0:0:
36,192,186742,1,0,0:0:0:0:
402,192,186742,1,0,0:0:0:0:
475,192,186742,1,0,0:0:0:0:
109,192,186860,1,0,0:0:0:0:
182,192,186860,1,0,0:0:0:0:
475,192,186978,1,0,0:0:0:0:
329,192,186978,1,0,0:0:0:0:
256,192,186978,1,0,0:0:0:0:
36,192,186978,1,0,0:0:0:0:
182,192,187095,1,0,0:0:0:0:
402,192,187095,1,0,0:0:0:0:
36,192,187213,1,0,0:0:0:0:
109,192,187213,1,0,0:0:0:0:
256,192,187213,1,0,0:0:0:0:
475,192,187213,1,0,0:0:0:0:
402,192,187330,1,0,0:0:0:0:
329,192,187330,1,0,0:0:0:0:
256,192,187448,1,0,0:0:0:0:
182,192,187448,1,0,0:0:0:0:
36,192,187448,1,0,0:0:0:0:
475,192,187448,1,0,0:0:0:0:
109,192,187566,1,0,0:0:0:0:
329,192,187566,1,0,0:0:0:0:
36,192,187683,1,0,0:0:0:0:
182,192,187683,1,0,0:0:0:0:
256,192,187683,1,0,0:0:0:0:
402,192,187683,1,0,0:0:0:0:
475,192,187683,1,0,0:0:0:0:
329,192,187801,1,0,0:0:0:0:
402,192,187919,1,0,0:0:0:0:
182,192,187919,1,0,0:0:0:0:
36,192,187919,1,0,0:0:0:0:
475,192,187919,1,0,0:0:0:0:
256,192,188036,1,0,0:0:0:0:
329,192,188154,1,0,0:0:0:0:
109,192,188154,1,0,0:0:0:0:
36,192,188154,1,0,0:0:0:0:
475,192,188154,1,0,0:0:0:0:
182,192,188272,1,0,0:0:0:0:
256,192,188272,1,0,0:0:0:0:
402,192,188389,1,0,0:0:0:0:
475,192,188389,1,0,0:0:0:0:
36,192,188389,1,0,0:0:0:0:
109,192,188389,1,0,0:0:0:0:
256,192,188507,1,0,0:0:0:0:
329,192,188507,1,0,0:0:0:0:
36,192,188625,1,0,0:0:0:0:
475,192,188625,1,0,0:0:0:0:
402,192,188625,1,0,0:0:0:0:
182,192,188625,1,0,0:0:0:0:
329,192,188742,1,0,0:0:0:0:
109,192,188742,1,0,0:0:0:0:
36,192,188860,1,0,0:0:0:0:
256,192,188860,1,0,0:0:0:0:
475,192,188860,1,0,0:0:0:0:
182,192,188860,1,0,0:0:0:0:
329,192,188978,1,0,0:0:0:0:
402,192,188978,1,0,0:0:0:0:
36,192,189095,1,0,0:0:0:0:
109,192,189095,1,0,0:0:0:0:
256,192,189095,1,0,0:0:0:0:
475,192,189095,1,0,0:0:0:0:
182,192,189213,1,0,0:0:0:0:
402,192,189213,1,0,0:0:0:0:
109,192,189330,1,0,0:0:0:0:
36,192,189330,1,0,0:0:0:0:
329,192,189330,1,0,0:0:0:0:
256,192,189330,1,0,0:0:0:0:
402,192,189448,1,0,0:0:0:0:
475,192,189448,1,0,0:0:0:0:
36,192,189566,1,0,0:0:0:0:
182,192,189566,1,0,0:0:0:0:
329,192,189566,1,0,0:0:0:0:
256,192,189566,1,0,0:0:0:0:
109,192,189683,1,0,0:0:0:0:
475,192,189683,1,0,0:0:0:0:
36,192,189801,1,0,0:0:0:0:
182,192,189801,1,0,0:0:0:0:
402,192,189801,1,0,0:0:0:0:
256,192,189801,1,0,0:0:0:0:
329,192,189919,1,0,0:0:0:0:
109,192,189919,1,0,0:0:0:0:
36,192,190036,1,0,0:0:0:0:
182,192,190036,1,0,0:0:0:0:
256,192,190036,1,0,0:0:0:0:
475,192,190036,1,0,0:0:0:0:
402,192,190154,1,0,0:0:0:0:
329,192,190154,1,0,0:0:0:0:
475,192,190272,1,0,0:0:0:0:
182,192,190272,1,0,0:0:0:0:
109,192,190272,1,0,0:0:0:0:
36,192,190272,1,0,0:0:0:0:
256,192,190389,1,0,0:0:0:0:
329,192,190389,1,0,0:0:0:0:
402,192,190507,1,0,0:0:0:0:
475,192,190507,1,0,0:0:0:0:
109,192,190507,1,0,0:0:0:0:
36,192,190507,1,0,0:0:0:0:
182,192,190625,1,0,0:0:0:0:
256,192,190625,1,0,0:0:0:0:
329,192,190625,1,0,0:0:0:0:
36,192,190742,1,0,0:0:0:0:
109,192,190742,1,0,0:0:0:0:
402,192,190742,1,0,0:0:0:0:
475,192,190742,1,0,0:0:0:0:
182,192,190860,1,0,0:0:0:0:
256,192,190860,1,0,0:0:0:0:
329,192,190860,1,0,0:0:0:0:
36,192,191095,1,0,0:0:0:0:
402,192,191095,1,0,0:0:0:0:
109,192,191095,1,0,0:0:0:0:
256,192,191095,1,0,0:0:0:0:
109,192,191330,1,0,0:0:0:0:
182,192,191330,1,0,0:0:0:0:
329,192,191330,1,0,0:0:0:0:
475,192,191330,1,0,0:0:0:0:
182,192,191566,1,0,0:0:0:0:
256,192,191566,1,0,0:0:0:0:
402,192,191566,1,0,0:0:0:0:
36,192,191566,1,0,0:0:0:0:
109,192,191801,1,0,0:0:0:0:
256,192,191801,1,0,0:0:0:0:
329,192,191801,1,0,0:0:0:0:
36,192,191919,1,0,0:0:0:0:
182,192,191919,1,0,0:0:0:0:
402,192,191919,1,0,0:0:0:0:
475,192,191919,1,0,0:0:0:0:
329,192,191978,1,0,0:0:0:0:
256,192,192036,1,0,0:0:0:0:
182,192,192095,1,0,0:0:0:0:
109,192,192154,1,0,0:0:0:0:
402,192,192154,1,0,0:0:0:0:
475,192,192154,1,0,0:0:0:0:
36,192,192154,1,0,0:0:0:0:
329,192,192213,1,0,0:0:0:0:
256,192,192272,1,0,0:0:0:0:
182,192,192330,1,0,0:0:0:0:
109,192,192389,1,0,0:0:0:0:
36,192,192389,1,0,0:0:0:0:
475,192,192389,1,0,0:0:0:0:
329,192,192389,1,0,0:0:0:0:
256,192,192507,1,0,0:0:0:0:
402,192,192507,1,0,0:0:0:0:
329,192,192625,1,0,0:0:0:0:
182,192,192625,1,0,0:0:0:0:
36,192,192625,1,0,0:0:0:0:
109,192,192742,1,0,0:0:0:0:
256,192,192742,1,0,0:0:0:0:
36,192,192860,1,0,0:0:0:0:
182,192,192860,1,0,0:0:0:0:
402,192,192860,1,0,0:0:0:0:
475,192,192860,1,0,0:0:0:0:
109,192,192978,1,0,0:0:0:0:
329,192,192978,1,0,0:0:0:0:
182,192,193095,1,0,0:0:0:0:
402,192,193095,1,0,0:0:0:0:
475,192,193095,1,0,0:0:0:0:
256,192,193213,1,0,0:0:0:0:
36,192,193213,1,0,0:0:0:0:
475,192,193330,1,0,0:0:0:0:
109,192,193330,1,0,0:0:0:0:
329,192,193330,1,0,0:0:0:0:
182,192,193448,1,0,0:0:0:0:
402,192,193448,1,0,0:0:0:0:
475,192,193566,1,0,0:0:0:0:
36,192,193566,1,0,0:0:0:0:
256,192,193566,1,0,0:0:0:0:
109,192,193644,1,0,0:0:0:0:
402,192,193644,1,0,0:0:0:0:
182,192,193723,1,0,0:0:0:0:
329,192,193723,1,0,0:0:0:0:
36,192,193801,1,0,0:0:0:0:
475,192,193801,1,0,0:0:0:0:
256,192,193801,1,0,0:0:0:0:
182,192,193919,1,0,0:0:0:0:
402,192,193919,1,0,0:0:0:0:
109,192,194036,1,0,0:0:0:0:
329,192,194036,1,0,0:0:0:0:
36,192,194036,1,0,0:0:0:0:
256,192,194154,1,0,0:0:0:0:
402,192,194154,1,0,0:0:0:0:
36,192,194272,1,0,0:0:0:0:
475,192,194272,1,0,0:0:0:0:
329,192,194272,1,0,0:0:0:0:
182,192,194272,1,0,0:0:0:0:
256,192,194389,1,0,0:0:0:0:
109,192,194389,1,0,0:0:0:0:
182,192,194507,1,0,0:0:0:0:
329,192,194507,1,0,0:0:0:0:
475,192,194507,1,0,0:0:0:0:
402,192,194625,1,0,0:0:0:0:
256,192,194625,1,0,0:0:0:0:
475,192,194742,1,0,0:0:0:0:
329,192,194742,1,0,0:0:0:0:
109,192,194742,1,0,0:0:0:0:
36,192,194742,1,0,0:0:0:0:
402,192,194860,1,0,0:0:0:0:
182,192,194860,1,0,0:0:0:0:
329,192,194978,1,0,0:0:0:0:
109,192,194978,1,0,0:0:0:0:
36,192,194978,1,0,0:0:0:0:
256,192,195095,1,0,0:0:0:0:
475,192,195095,1,0,0:0:0:0:
36,192,195213,1,0,0:0:0:0:
402,192,195213,1,0,0:0:0:0:
182,192,195213,1,0,0:0:0:0:
329,192,195330,1,0,0:0:0:0:
109,192,195330,1,0,0:0:0:0:
36,192,195448,1,0,0:0:0:0:
475,192,195448,1,0,0:0:0:0:
256,192,195448,1,0,0:0:0:0:
402,192,195527,1,0,0:0:0:0:
109,192,195527,1,0,0:0:0:0:
329,192,195605,1,0,0:0:0:0:
182,192,195605,1,0,0:0:0:0:
475,192,195683,1,0,0:0:0:0:
36,192,195683,1,0,0:0:0:0:
256,192,195683,1,0,0:0:0:0:
329,192,195801,1,0,0:0:0:0:
109,192,195801,1,0,0:0:0:0:
402,192,195919,1,0,0:0:0:0:
182,192,195919,1,0,0:0:0:0:
475,192,195919,1,0,0:0:0:0:
256,192,196036,1,0,0:0:0:0:
109,192,196036,1,0,0:0:0:0:
475,192,196154,1,0,0:0:0:0:
36,192,196154,1,0,0:0:0:0:
182,192,196154,1,0,0:0:0:0:
329,192,196154,1,0,0:0:0:0:
109,192,196272,1,0,0:0:0:0:
402,192,196272,1,0,0:0:0:0:
182,192,196389,1,0,0:0:0:0:
329,192,196389,1,0,0:0:0:0:
256,192,196389,1,0,0:0:0:0:
109,192,196507,1,0,0:0:0:0:
402,192,196507,1,0,0:0:0:0:
36,192,196625,1,0,0:0:0:0:
475,192,196625,1,0,0:0:0:0:
256,192,196625,1,0,0:0:0:0:
182,192,196742,1,0,0:0:0:0:
402,192,196742,1,0,0:0:0:0:
109,192,196860,1,0,0:0:0:0:
329,192,196860,1,0,0:0:0:0:
36,192,196860,1,0,0:0:0:0:
182,192,196978,1,0,0:0:0:0:
402,192,196978,1,0,0:0:0:0:
256,192,197095,1,0,0:0:0:0:
475,192,197095,1,0,0:0:0:0:
36,192,197095,1,0,0:0:0:0:
182,192,197213,1,0,0:0:0:0:
329,192,197213,1,0,0:0:0:0:
109,192,197330,1,0,0:0:0:0:
36,192,197330,1,0,0:0:0:0:
475,192,197330,1,0,0:0:0:0:
402,192,197330,1,0,0:0:0:0:
182,192,197448,1,0,0:0:0:0:
329,192,197448,1,0,0:0:0:0:
256,192,197566,1,0,0:0:0:0:
36,192,197566,1,0,0:0:0:0:
475,192,197566,1,0,0:0:0:0:
109,192,197683,1,0,0:0:0:0:
329,192,197683,1,0,0:0:0:0:
182,192,197801,1,0,0:0:0:0:
402,192,197801,1,0,0:0:0:0:
475,192,197801,1,0,0:0:0:0:
109,192,197919,1,0,0:0:0:0:
329,192,197919,1,0,0:0:0:0:
36,192,198036,1,0,0:0:0:0:
256,192,198036,1,0,0:0:0:0:
475,192,198036,1,0,0:0:0:0:
182,192,198154,1,0,0:0:0:0:
402,192,198154,1,0,0:0:0:0:
109,192,198272,1,0,0:0:0:0:
36,192,198272,1,0,0:0:0:0:
329,192,198272,1,0,0:0:0:0:
475,192,198272,1,0,0:0:0:0:
182,192,198350,1,0,0:0:0:0:
256,192,198350,1,0,0:0:0:0:
402,192,198428,1,0,0:0:0:0:
475,192,198428,1,0,0:0:0:0:
36,192,198507,1,0,0:0:0:0:
329,192,198507,1,0,0:0:0:0:
256,192,198507,1,0,0:0:0:0:
109,192,198507,1,0,0:0:0:0:
182,192,198625,1,0,0:0:0:0:
402,192,198625,1,0,0:0:0:0:
256,192,198742,1,0,0:0:0:0:
475,192,198742,1,0,0:0:0:0:
36,192,198742,1,0,0:0:0:0:
109,192,198860,1,0,0:0:0:0:
329,192,198860,1,0,0:0:0:0:
182,192,198860,1,0,0:0:0:0:
36,192,198978,1,0,0:0:0:0:
475,192,198978,1,0,0:0:0:0:
402,192,198978,1,0,0:0:0:0:
256,192,198978,1,0,0:0:0:0:
109,192,199095,1,0,0:0:0:0:
182,192,199095,1,0,0:0:0:0:
36,192,199213,1,0,0:0:0:0:
402,192,199213,1,0,0:0:0:0:
475,192,199213,1,0,0:0:0:0:
329,192,199213,1,0,0:0:0:0:
256,192,199330,1,0,0:0:0:0:
182,192,199330,1,0,0:0:0:0:
475,192,199448,1,0,0:0:0:0:
109,192,199448,1,0,0:0:0:0:
36,192,199448,1,0,0:0:0:0:
402,192,199448,1,0,0:0:0:0:
329,192,199566,1,0,0:0:0:0:
256,192,199566,1,0,0:0:0:0:
36,192,199683,1,0,0:0:0:0:
109,192,199683,1,0,0:0:0:0:
475,192,199683,1,0,0:0:0:0:
182,192,199683,1,0,0:0:0:0:
329,192,199801,1,0,0:0:0:0:
402,192,199801,1,0,0:0:0:0:
36,192,199919,1,0,0:0:0:0:
109,192,199919,1,0,0:0:0:0:
475,192,199919,1,0,0:0:0:0:
182,192,199919,1,0,0:0:0:0:
402,192,200036,1,0,0:0:0:0:
256,192,200036,1,0,0:0:0:0:
36,192,200154,1,0,0:0:0:0:
182,192,200154,1,0,0:0:0:0:
329,192,200154,1,0,0:0:0:0:
256,192,200272,1,0,0:0:0:0:
109,192,200272,1,0,0:0:0:0:
402,192,200389,1,0,0:0:0:0:
475,192,200389,1,0,0:0:0:0:
36,192,200389,1,0,0:0:0:0:
182,192,200389,1,0,0:0:0:0:
329,192,200507,1,0,0:0:0:0:
109,192,200507,1,0,0:0:0:0:
475,192,200625,1,0,0:0:0:0:
402,192,200625,1,0,0:0:0:0:
182,192,200625,1,0,0:0:0:0:
36,192,200742,1,0,0:0:0:0:
256,192,200742,1,0,0:0:0:0:
329,192,200860,1,0,0:0:0:0:
109,192,200860,1,0,0:0:0:0:
475,192,200860,1,0,0:0:0:0:
402,192,200978,1,0,0:0:0:0:
182,192,200978,1,0,0:0:0:0:
256,192,201095,1,0,0:0:0:0:
36,192,201095,1,0,0:0:0:0:
475,192,201095,1,0,0:0:0:0:
402,192,201174,1,0,0:0:0:0:
109,192,201174,1,0,0:0:0:0:
329,192,201252,1,0,0:0:0:0:
182,192,201252,1,0,0:0:0:0:
256,192,201330,1,0,0:0:0:0:
475,192,201330,1,0,0:0:0:0:
36,192,201330,1,0,0:0:0:0:
402,192,201448,1,0,0:0:0:0:
182,192,201448,1,0,0:0:0:0:
36,192,201566,1,0,0:0:0:0:
329,192,201566,1,0,0:0:0:0:
109,192,201566,1,0,0:0:0:0:
402,192,201683,1,0,0:0:0:0:
256,192,201683,1,0,0:0:0:0:
329,192,201801,1,0,0:0:0:0:
182,192,201801,1,0,0:0:0:0:
36,192,201801,1,0,0:0:0:0:
475,192,201801,1,0,0:0:0:0:
109,192,201919,1,0,0:0:0:0:
256,192,201919,1,0,0:0:0:0:
475,192,202036,1,0,0:0:0:0:
329,192,202036,1,0,0:0:0:0:
182,192,202036,1,0,0:0:0:0:
256,192,202154,1,0,0:0:0:0:
402,192,202154,1,0,0:0:0:0:
109,192,202272,1,0,0:0:0:0:
36,192,202272,1,0,0:0:0:0:
475,192,202272,1,0,0:0:0:0:
329,192,202272,1,0,0:0:0:0:
182,192,202389,1,0,0:0:0:0:
402,192,202389,1,0,0:0:0:0:
36,192,202507,1,0,0:0:0:0:
109,192,202507,1,0,0:0:0:0:
329,192,202507,1,0,0:0:0:0:
475,192,202625,1,0,0:0:0:0:
256,192,202625,1,0,0:0:0:0:
182,192,202742,1,0,0:0:0:0:
402,192,202742,1,0,0:0:0:0:
36,192,202742,1,0,0:0:0:0:
109,192,202860,1,0,0:0:0:0:
329,192,202860,1,0,0:0:0:0:
256,192,202978,1,0,0:0:0:0:
475,192,202978,1,0,0:0:0:0:
36,192,202978,1,0,0:0:0:0:
109,192,203056,1,0,0:0:0:0:
402,192,203056,1,0,0:0:0:0:
182,192,203134,1,0,0:0:0:0:
329,192,203134,1,0,0:0:0:0:
256,192,203213,1,0,0:0:0:0:
36,192,203213,1,0,0:0:0:0:
475,192,203213,1,0,0:0:0:0:
109,192,203330,1,0,0:0:0:0:
329,192,203330,1,0,0:0:0:0:
475,192,203448,1,0,0:0:0:0:
182,192,203448,1,0,0:0:0:0:
402,192,203448,1,0,0:0:0:0:
109,192,203566,1,0,0:0:0:0:
256,192,203566,1,0,0:0:0:0:
182,192,203683,1,0,0:0:0:0:
329,192,203683,1,0,0:0:0:0:
475,192,203683,1,0,0:0:0:0:
36,192,203683,1,0,0:0:0:0:
402,192,203801,1,0,0:0:0:0:
109,192,203801,1,0,0:0:0:0:
256,192,203919,1,0,0:0:0:0:
329,192,203919,1,0,0:0:0:0:
182,192,203919,1,0,0:0:0:0:
402,192,204036,1,0,0:0:0:0:
109,192,204036,1,0,0:0:0:0:
256,192,204154,1,0,0:0:0:0:
475,192,204154,1,0,0:0:0:0:
36,192,204154,1,0,0:0:0:0:
402,192,204272,1,0,0:0:0:0:
182,192,204272,1,0,0:0:0:0:
36,192,204389,1,0,0:0:0:0:
329,192,204389,1,0,0:0:0:0:
109,192,204389,1,0,0:0:0:0:
402,192,204507,1,0,0:0:0:0:
182,192,204507,1,0,0:0:0:0:
36,192,204625,1,0,0:0:0:0:
475,192,204625,1,0,0:0:0:0:
256,192,204625,1,0,0:0:0:0:
329,192,204742,1,0,0:0:0:0:
182,192,204742,1,0,0:0:0:0:
475,192,204860,1,0,0:0:0:0:
402,192,204860,1,0,0:0:0:0:
109,192,204860,1,0,0:0:0:0:
36,192,204860,1,0,0:0:0:0:
329,192,204978,1,0,0:0:0:0:
182,192,204978,1,0,0:0:0:0:
475,192,205095,1,0,0:0:0:0:
36,192,205095,1,0,0:0:0:0:
256,192,205095,1,0,0:0:0:0:
329,192,205213,1,0,0:0:0:0:
109,192,205213,1,0,0:0:0:0:
475,192,205330,1,0,0:0:0:0:
402,192,205330,1,0,0:0:0:0:
182,192,205330,1,0,0:0:0:0:
329,192,205448,1,0,0:0:0:0:
109,192,205448,1,0,0:0:0:0:
475,192,205566,1,0,0:0:0:0:
256,192,205566,1,0,0:0:0:0:
36,192,205566,1,0,0:0:0:0:
402,192,205683,1,0,0:0:0:0:
182,192,205683,1,0,0:0:0:0:
329,192,205801,1,0,0:0:0:0:
475,192,205801,1,0,0:0:0:0:
109,192,205801,1,0,0:0:0:0:
36,192,205801,1,0,0:0:0:0:
256,192,205879,1,0,0:0:0:0:
182,192,205879,1,0,0:0:0:0:
475,192,205958,1,0,0:0:0:0:
402,192,205958,1,0,0:0:0:0:
256,192,206036,1,0,0:0:0:0:
109,192,206036,1,0,0:0:0:0:
36,192,206036,1,0,0:0:0:0:
329,192,206036,1,0,0:0:0:0:
402,192,206154,1,0,0:0:0:0:
182,192,206154,1,0,0:0:0:0:
36,192,206272,1,0,0:0:0:0:
475,192,206272,1,0,0:0:0:0:
256,192,206272,1,0,0:0:0:0:
182,192,206389,1,0,0:0:0:0:
329,192,206389,1,0,0:0:0:0:
109,192,206389,1,0,0:0:0:0:
256,192,206507,1,0,0:0:0:0:
36,192,206507,1,0,0:0:0:0:
475,192,206507,1,0,0:0:0:0:
329,192,206625,1,0,0:0:0:0:
402,192,206625,1,0,0:0:0:0:
36,192,206742,1,0,0:0:0:0:
182,192,206742,1,0,0:0:0:0:
475,192,206742,1,0,0:0:0:0:
109,192,206742,1,0,0:0:0:0:
329,192,206860,1,0,0:0:0:0:
256,192,206860,1,0,0:0:0:0:
475,192,206978,1,0,0:0:0:0:
109,192,206978,1,0,0:0:0:0:
36,192,206978,1,0,0:0:0:0:
402,192,206978,1,0,0:0:0:0:
256,192,207095,1,0,0:0:0:0:
182,192,207095,1,0,0:0:0:0:
36,192,207213,1,0,0:0:0:0:
329,192,207213,1,0,0:0:0:0:
475,192,207213,1,0,0:0:0:0:
402,192,207213,1,0,0:0:0:0:
109,192,207330,1,0,0:0:0:0:
182,192,207330,1,0,0:0:0:0:
36,192,207448,1,0,0:0:0:0:
329,192,207448,1,0,0:0:0:0:
475,192,207448,1,0,0:0:0:0:
402,192,207448,1,0,0:0:0:0:
256,192,207448,1,0,0:0:0:0:
109,192,207683,1,0,0:0:0:0:
182,192,207683,1,0,0:0:0:0:
329,192,207683,1,0,0:0:0:0:
475,192,207683,1,0,0:0:0:0:
182,192,207919,1,0,0:0:0:0:
256,192,207919,1,0,0:0:0:0:
402,192,207919,1,0,0:0:0:0:
36,192,207919,1,0,0:0:0:0:
109,192,208036,1,0,0:0:0:0:
329,192,208036,1,0,0:0:0:0:
475,192,208036,1,0,0:0:0:0:
36,192,208154,1,0,0:0:0:0:
182,192,208154,1,0,0:0:0:0:
256,192,208154,1,0,0:0:0:0:
402,192,208154,1,0,0:0:0:0:
109,192,208272,1,0,0:0:0:0:
329,192,208272,1,0,0:0:0:0:
475,192,208272,1,0,0:0:0:0:
36,192,208389,1,0,0:0:0:0:
256,192,208389,1,0,0:0:0:0:
182,192,208389,1,0,0:0:0:0:
402,192,208389,1,0,0:0:0:0:
109,192,208625,1,0,0:0:0:0:
256,192,208625,1,0,0:0:0:0:
329,192,208625,1,0,0:0:0:0:
475,192,208625,1,0,0:0:0:0:
329,192,208860,1,0,0:0:0:0:
402,192,208860,1,0,0:0:0:0:
182,192,208860,1,0,0:0:0:0:
36,192,208860,1,0,0:0:0:0:
109,192,208978,1,0,0:0:0:0:
256,192,208978,1,0,0:0:0:0:
475,192,208978,1,0,0:0:0:0:
36,192,209095,1,0,0:0:0:0:
182,192,209095,1,0,0:0:0:0:
329,192,209095,1,0,0:0:0:0:
402,192,209095,1,0,0:0:0:0:
109,192,209213,1,0,0:0:0:0:
256,192,209213,1,0,0:0:0:0:
475,192,209213,1,0,0:0:0:0:
36,192,209330,1,0,0:0:0:0:
182,192,209330,1,0,0:0:0:0:
329,192,209330,1,0,0:0:0:0:
402,192,209330,1,0,0:0:0:0:
109,192,209566,1,0,0:0:0:0:
256,192,209566,1,0,0:0:0:0:
402,192,209566,1,0,0:0:0:0:
475,192,209566,1,0,0:0:0:0:
36,192,209801,1,0,0:0:0:0:
182,192,209801,1,0,0:0:0:0:
329,192,209801,1,0,0:0:0:0:
475,192,209801,1,0,0:0:0:0:
109,192,209919,1,0,0:0:0:0:
256,192,209919,1,0,0:0:0:0:
402,192,209919,1,0,0:0:0:0:
36,192,210036,1,0,0:0:0:0:
182,192,210036,1,0,0:0:0:0:
329,192,210036,1,0,0:0:0:0:
475,192,210036,1,0,0:0:0:0:
109,192,210154,1,0,0:0:0:0:
256,192,210154,1,0,0:0:0:0:
402,192,210154,1,0,0:0:0:0:
36,192,210272,1,0,0:0:0:0:
182,192,210272,1,0,0:0:0:0:
329,192,210272,1,0,0:0:0:0:
475,192,210272,1,0,0:0:0:0:
109,192,210507,1,0,0:0:0:0:
36,192,210507,1,0,0:0:0:0:
256,192,210507,1,0,0:0:0:0:
402,192,210507,1,0,0:0:0:0:
475,192,210507,1,0,0:0:0:0:
36,192,210742,1,0,0:0:0:0:
182,192,210742,1,0,0:0:0:0:
256,192,210742,1,0,0:0:0:0:
329,192,210742,1,0,0:0:0:0:
475,192,210742,1,0,0:0:0:0:
36,192,211213,1,0,0:0:0:0:
182,192,211213,1,0,0:0:0:0:
36,192,211448,1,0,0:0:0:0:
182,192,211448,1,0,0:0:0:0:
109,192,211683,1,0,0:0:0:0:
256,192,211683,1,0,0:0:0:0:
109,192,211919,1,0,0:0:0:0:
256,192,211919,1,0,0:0:0:0:
182,192,212154,1,0,0:0:0:0:
329,192,212154,1,0,0:0:0:0:
256,192,212507,1,0,0:0:0:0:
402,192,212507,1,0,0:0:0:0:
36,192,212860,1,0,0:0:0:0:
109,192,212860,1,0,0:0:0:0:
182,192,212860,1,0,0:0:0:0:
329,192,212860,1,0,0:0:0:0:
402,192,212860,1,0,0:0:0:0:
475,192,212860,1,0,0:0:0:0:
