osu file format v14 --This beatmap was auto-generated by Trippin's Rate Changer!

[General]
AudioFilename: nameless - Milk Crown on Sonnetica110.mp3
AudioLeadIn: 0
PreviewTime: 60009
Countdown: 0
SampleSet: Soft
StackLeniency: 0.7
Mode: 3
LetterboxInBreaks: 0
SpecialStyle: 0
WidescreenStoryboard: 0

[Editor]
Bookmarks: 1867 ,15556 ,29246 ,42936 ,60049 ,72027 ,83362 ,97052 ,103896 ,110742 ,122720 ,129592 ,143282 ,150126 ,157827 ,173228 ,174939 ,193763
DistanceSpacing: 1.5
BeatDivisor: 4
GridSize: 8
TimelineZoom: 3.100005

[Metadata]
Title:Milk Crown on Sonnetica
TitleUnicode:ミルククラウン・オン・ソーネチカ
Artist:nameless
ArtistUnicode:nameless
Creator:Applequestria
Version:For Kawawa [1.1x Rate]
Source:
Tags:utaite ユジー yuzy vocaloid hatsune miku
BeatmapID:1575412
BeatmapSetID:-1

[Difficulty]
HPDrainRate:8
CircleSize:7
OverallDifficulty:8
ApproachRate:5
SliderMultiplier:1.4
SliderTickRate:1

[Events]
//Background and Video events
0,0,"nameless - Milk Crown on Sonnetica.jpg",0,0
//Break Periods
//Storyboard Layer 0 (Background)
//Storyboard Layer 1 (Fail)
//Storyboard Layer 2 (Pass)
//Storyboard Layer 3 (Foreground)
//Storyboard Layer 4 (Overlay)
//Storyboard Sound Samples

[TimingPoints]
1867,213.903743315508,4,2,0,10,1,0
60049,-100,4,2,0,10,0,1
72027,213.903743315508,3,2,0,10,1,0
72668,213.903743315508,4,2,0,10,1,0
73524,213.903743315508,3,2,0,10,1,0
75448,213.903743315508,4,2,0,10,1,0
76304,213.903743315508,3,2,0,10,1,0
80795,213.903743315508,4,2,0,10,1,0
110742,-100,4,2,0,10,0,1
122720,-100,4,2,0,10,0,0
122747,213.903743315508,4,2,0,10,1,0
157827,-100,4,2,0,10,0,1
173229,-100,4,2,0,10,0,0
174940,-100,4,2,0,10,0,1
192052,-100,4,2,0,10,0,0

[HitObjects]
182,192,1867,5,0,0:0:0:0:
329,192,1867,1,0,0:0:0:0:
475,192,1867,1,0,0:0:0:0:
36,192,1867,1,0,0:0:0:0:
36,192,2081,1,0,0:0:0:0:
329,192,2081,1,0,0:0:0:0:
475,192,2081,1,0,0:0:0:0:
329,192,2187,1,0,0:0:0:0:
475,192,2187,1,0,0:0:0:0:
182,192,2295,1,0,0:0:0:0:
256,192,2402,1,0,0:0:0:0:
402,192,2402,1,0,0:0:0:0:
36,192,2508,1,0,0:0:0:0:
182,192,2615,1,0,0:0:0:0:
329,192,2615,1,0,0:0:0:0:
475,192,2615,1,0,0:0:0:0:
182,192,2829,1,0,0:0:0:0:
256,192,2829,1,0,0:0:0:0:
402,192,2829,1,0,0:0:0:0:
36,192,2936,1,0,0:0:0:0:
475,192,3044,1,0,0:0:0:0:
329,192,3044,1,0,0:0:0:0:
182,192,3150,1,0,0:0:0:0:
402,192,3150,1,0,0:0:0:0:
256,192,3150,1,0,0:0:0:0:
475,192,3257,1,0,0:0:0:0:
329,192,3257,1,0,0:0:0:0:
36,192,3365,1,0,0:0:0:0:
402,192,3365,1,0,0:0:0:0:
256,192,3365,1,0,0:0:0:0:
475,192,3471,1,0,0:0:0:0:
329,192,3471,1,0,0:0:0:0:
182,192,3578,1,0,0:0:0:0:
329,192,3578,1,0,0:0:0:0:
475,192,3578,1,0,0:0:0:0:
402,192,3685,1,0,0:0:0:0:
256,192,3685,1,0,0:0:0:0:
36,192,3792,1,0,0:0:0:0:
329,192,3792,1,0,0:0:0:0:
475,192,3792,1,0,0:0:0:0:
329,192,3899,1,0,0:0:0:0:
475,192,3899,1,0,0:0:0:0:
182,192,4005,1,0,0:0:0:0:
256,192,4113,1,0,0:0:0:0:
402,192,4113,1,0,0:0:0:0:
36,192,4220,1,0,0:0:0:0:
182,192,4326,1,0,0:0:0:0:
329,192,4326,1,0,0:0:0:0:
475,192,4326,1,0,0:0:0:0:
182,192,4541,1,0,0:0:0:0:
329,192,4541,1,0,0:0:0:0:
475,192,4541,1,0,0:0:0:0:
36,192,4647,1,0,0:0:0:0:
256,192,4755,1,0,0:0:0:0:
402,192,4755,1,0,0:0:0:0:
182,192,4862,1,0,0:0:0:0:
329,192,4862,1,0,0:0:0:0:
475,192,4862,1,0,0:0:0:0:
36,192,5075,1,0,0:0:0:0:
256,192,5075,1,0,0:0:0:0:
402,192,5075,1,0,0:0:0:0:
329,192,5289,5,0,0:0:0:0:
36,192,5289,1,0,0:0:0:0:
182,192,5289,1,0,0:0:0:0:
109,192,5396,1,0,0:0:0:0:
256,192,5396,1,0,0:0:0:0:
475,192,5504,1,0,0:0:0:0:
182,192,5504,1,0,0:0:0:0:
36,192,5504,1,0,0:0:0:0:
182,192,5610,1,0,0:0:0:0:
36,192,5610,1,0,0:0:0:0:
329,192,5717,1,0,0:0:0:0:
256,192,5824,1,0,0:0:0:0:
109,192,5824,1,0,0:0:0:0:
475,192,5931,1,0,0:0:0:0:
329,192,6038,1,0,0:0:0:0:
182,192,6038,1,0,0:0:0:0:
36,192,6038,1,0,0:0:0:0:
329,192,6252,1,0,0:0:0:0:
256,192,6252,1,0,0:0:0:0:
109,192,6252,1,0,0:0:0:0:
475,192,6359,1,0,0:0:0:0:
36,192,6465,1,0,0:0:0:0:
182,192,6465,1,0,0:0:0:0:
329,192,6573,1,0,0:0:0:0:
109,192,6573,1,0,0:0:0:0:
256,192,6573,1,0,0:0:0:0:
36,192,6680,1,0,0:0:0:0:
182,192,6680,1,0,0:0:0:0:
475,192,6786,1,0,0:0:0:0:
256,192,6786,1,0,0:0:0:0:
109,192,6786,1,0,0:0:0:0:
182,192,6894,1,0,0:0:0:0:
36,192,6894,1,0,0:0:0:0:
329,192,7001,1,0,0:0:0:0:
182,192,7001,1,0,0:0:0:0:
36,192,7001,1,0,0:0:0:0:
109,192,7107,1,0,0:0:0:0:
256,192,7107,1,0,0:0:0:0:
475,192,7215,1,0,0:0:0:0:
182,192,7215,1,0,0:0:0:0:
36,192,7215,1,0,0:0:0:0:
182,192,7322,1,0,0:0:0:0:
36,192,7322,1,0,0:0:0:0:
329,192,7428,1,0,0:0:0:0:
256,192,7535,1,0,0:0:0:0:
109,192,7535,1,0,0:0:0:0:
475,192,7642,1,0,0:0:0:0:
329,192,7749,1,0,0:0:0:0:
182,192,7749,1,0,0:0:0:0:
36,192,7749,1,0,0:0:0:0:
329,192,7963,1,0,0:0:0:0:
182,192,7963,1,0,0:0:0:0:
36,192,7963,1,0,0:0:0:0:
475,192,8070,1,0,0:0:0:0:
256,192,8177,1,0,0:0:0:0:
109,192,8177,1,0,0:0:0:0:
329,192,8284,1,0,0:0:0:0:
182,192,8284,1,0,0:0:0:0:
36,192,8284,1,0,0:0:0:0:
475,192,8498,1,0,0:0:0:0:
256,192,8498,1,0,0:0:0:0:
109,192,8498,1,0,0:0:0:0:
36,192,8712,1,0,0:0:0:0:
109,192,8712,1,0,0:0:0:0:
475,192,8712,1,0,0:0:0:0:
256,192,8712,1,0,0:0:0:0:
329,192,8712,1,0,0:0:0:0:
402,192,8819,1,0,0:0:0:0:
182,192,8819,1,0,0:0:0:0:
329,192,8925,1,0,0:0:0:0:
109,192,8925,1,0,0:0:0:0:
256,192,9033,1,0,0:0:0:0:
36,192,9033,1,0,0:0:0:0:
182,192,9140,1,0,0:0:0:0:
475,192,9140,1,0,0:0:0:0:
402,192,9140,1,0,0:0:0:0:
109,192,9246,1,0,0:0:0:0:
329,192,9246,1,0,0:0:0:0:
36,192,9354,1,0,0:0:0:0:
256,192,9354,1,0,0:0:0:0:
182,192,9460,1,0,0:0:0:0:
475,192,9460,1,0,0:0:0:0:
402,192,9460,1,0,0:0:0:0:
36,192,9567,1,0,0:0:0:0:
109,192,9567,1,0,0:0:0:0:
475,192,9675,1,0,0:0:0:0:
402,192,9675,1,0,0:0:0:0:
182,192,9675,1,0,0:0:0:0:
182,192,9888,1,0,0:0:0:0:
475,192,9888,1,0,0:0:0:0:
402,192,9888,1,0,0:0:0:0:
36,192,9995,1,0,0:0:0:0:
109,192,9995,1,0,0:0:0:0:
329,192,9995,1,0,0:0:0:0:
182,192,10102,1,0,0:0:0:0:
402,192,10102,1,0,0:0:0:0:
256,192,10209,1,0,0:0:0:0:
36,192,10209,1,0,0:0:0:0:
475,192,10209,1,0,0:0:0:0:
109,192,10316,1,0,0:0:0:0:
329,192,10316,1,0,0:0:0:0:
36,192,10423,1,0,0:0:0:0:
475,192,10423,1,0,0:0:0:0:
402,192,10423,1,0,0:0:0:0:
182,192,10423,1,0,0:0:0:0:
256,192,10423,1,0,0:0:0:0:
329,192,10530,1,0,0:0:0:0:
109,192,10530,1,0,0:0:0:0:
402,192,10637,1,0,0:0:0:0:
182,192,10637,1,0,0:0:0:0:
475,192,10744,1,0,0:0:0:0:
256,192,10744,1,0,0:0:0:0:
109,192,10851,1,0,0:0:0:0:
36,192,10851,1,0,0:0:0:0:
329,192,10851,1,0,0:0:0:0:
182,192,10958,1,0,0:0:0:0:
402,192,10958,1,0,0:0:0:0:
256,192,11065,1,0,0:0:0:0:
475,192,11065,1,0,0:0:0:0:
109,192,11172,1,0,0:0:0:0:
36,192,11172,1,0,0:0:0:0:
329,192,11172,1,0,0:0:0:0:
402,192,11278,1,0,0:0:0:0:
475,192,11278,1,0,0:0:0:0:
329,192,11385,1,0,0:0:0:0:
109,192,11385,1,0,0:0:0:0:
36,192,11385,1,0,0:0:0:0:
36,192,11599,1,0,0:0:0:0:
109,192,11599,1,0,0:0:0:0:
329,192,11599,1,0,0:0:0:0:
182,192,11706,1,0,0:0:0:0:
256,192,11706,1,0,0:0:0:0:
402,192,11706,1,0,0:0:0:0:
475,192,11706,1,0,0:0:0:0:
36,192,11920,1,0,0:0:0:0:
109,192,11920,1,0,0:0:0:0:
329,192,11920,1,0,0:0:0:0:
256,192,12135,1,0,0:0:0:0:
402,192,12135,1,0,0:0:0:0:
182,192,12135,1,0,0:0:0:0:
36,192,12135,1,0,0:0:0:0:
475,192,12135,1,0,0:0:0:0:
109,192,12241,1,0,0:0:0:0:
329,192,12241,1,0,0:0:0:0:
182,192,12348,1,0,0:0:0:0:
402,192,12348,1,0,0:0:0:0:
256,192,12455,1,0,0:0:0:0:
475,192,12455,1,0,0:0:0:0:
329,192,12562,1,0,0:0:0:0:
36,192,12562,1,0,0:0:0:0:
109,192,12562,1,0,0:0:0:0:
402,192,12669,1,0,0:0:0:0:
182,192,12669,1,0,0:0:0:0:
475,192,12776,1,0,0:0:0:0:
256,192,12776,1,0,0:0:0:0:
329,192,12883,1,0,0:0:0:0:
36,192,12883,1,0,0:0:0:0:
109,192,12883,1,0,0:0:0:0:
475,192,12990,1,0,0:0:0:0:
402,192,12990,1,0,0:0:0:0:
109,192,13096,1,0,0:0:0:0:
182,192,13096,1,0,0:0:0:0:
329,192,13096,1,0,0:0:0:0:
329,192,13311,1,0,0:0:0:0:
109,192,13311,1,0,0:0:0:0:
36,192,13311,1,0,0:0:0:0:
475,192,13417,1,0,0:0:0:0:
402,192,13417,1,0,0:0:0:0:
182,192,13417,1,0,0:0:0:0:
109,192,13525,1,0,0:0:0:0:
329,192,13525,1,0,0:0:0:0:
36,192,13632,1,0,0:0:0:0:
256,192,13632,1,0,0:0:0:0:
475,192,13632,1,0,0:0:0:0:
182,192,13738,1,0,0:0:0:0:
402,192,13738,1,0,0:0:0:0:
36,192,13845,1,0,0:0:0:0:
109,192,13845,1,0,0:0:0:0:
329,192,13845,1,0,0:0:0:0:
475,192,13845,1,0,0:0:0:0:
182,192,13953,1,0,0:0:0:0:
256,192,13953,1,0,0:0:0:0:
402,192,13953,1,0,0:0:0:0:
36,192,14059,1,0,0:0:0:0:
109,192,14059,1,0,0:0:0:0:
475,192,14059,1,0,0:0:0:0:
329,192,14059,1,0,0:0:0:0:
182,192,14166,1,0,0:0:0:0:
256,192,14166,1,0,0:0:0:0:
402,192,14166,1,0,0:0:0:0:
109,192,14380,1,0,0:0:0:0:
329,192,14380,1,0,0:0:0:0:
475,192,14380,1,0,0:0:0:0:
182,192,14380,1,0,0:0:0:0:
36,192,14595,1,0,0:0:0:0:
256,192,14595,1,0,0:0:0:0:
402,192,14595,1,0,0:0:0:0:
109,192,14595,1,0,0:0:0:0:
109,192,14808,1,0,0:0:0:0:
329,192,14808,1,0,0:0:0:0:
475,192,14808,1,0,0:0:0:0:
182,192,14808,1,0,0:0:0:0:
256,192,15022,1,0,0:0:0:0:
182,192,15022,1,0,0:0:0:0:
402,192,15022,1,0,0:0:0:0:
475,192,15129,1,0,0:0:0:0:
329,192,15129,1,0,0:0:0:0:
36,192,15129,1,0,0:0:0:0:
109,192,15129,1,0,0:0:0:0:
475,192,15343,1,0,0:0:0:0:
36,192,15343,1,0,0:0:0:0:
182,192,15343,1,0,0:0:0:0:
402,192,15343,1,0,0:0:0:0:
256,192,15450,1,0,0:0:0:0:
109,192,15450,1,0,0:0:0:0:
329,192,15450,1,0,0:0:0:0:
475,192,15556,1,0,0:0:0:0:
402,192,15556,1,0,0:0:0:0:
182,192,15556,1,0,0:0:0:0:
36,192,15556,1,0,0:0:0:0:
329,192,15664,1,0,0:0:0:0:
109,192,15664,1,0,0:0:0:0:
256,192,15771,1,0,0:0:0:0:
36,192,15771,1,0,0:0:0:0:
475,192,15771,1,0,0:0:0:0:
402,192,15877,1,0,0:0:0:0:
182,192,15877,1,0,0:0:0:0:
36,192,15985,1,0,0:0:0:0:
475,192,15985,1,0,0:0:0:0:
109,192,15985,1,0,0:0:0:0:
329,192,15985,1,0,0:0:0:0:
402,192,16092,1,0,0:0:0:0:
256,192,16092,1,0,0:0:0:0:
36,192,16198,1,0,0:0:0:0:
329,192,16198,1,0,0:0:0:0:
182,192,16198,1,0,0:0:0:0:
402,192,16305,1,0,0:0:0:0:
256,192,16305,1,0,0:0:0:0:
109,192,16413,1,0,0:0:0:0:
36,192,16413,1,0,0:0:0:0:
475,192,16413,1,0,0:0:0:0:
329,192,16413,1,0,0:0:0:0:
182,192,16519,1,0,0:0:0:0:
402,192,16519,1,0,0:0:0:0:
256,192,16626,1,0,0:0:0:0:
475,192,16626,1,0,0:0:0:0:
36,192,16626,1,0,0:0:0:0:
109,192,16733,1,0,0:0:0:0:
329,192,16733,1,0,0:0:0:0:
475,192,16840,1,0,0:0:0:0:
36,192,16840,1,0,0:0:0:0:
402,192,16840,1,0,0:0:0:0:
182,192,16840,1,0,0:0:0:0:
109,192,16947,1,0,0:0:0:0:
256,192,16947,1,0,0:0:0:0:
475,192,17054,1,0,0:0:0:0:
182,192,17054,1,0,0:0:0:0:
329,192,17054,1,0,0:0:0:0:
109,192,17161,1,0,0:0:0:0:
256,192,17161,1,0,0:0:0:0:
36,192,17268,1,0,0:0:0:0:
182,192,17268,1,0,0:0:0:0:
475,192,17268,1,0,0:0:0:0:
402,192,17268,1,0,0:0:0:0:
109,192,17375,1,0,0:0:0:0:
329,192,17375,1,0,0:0:0:0:
36,192,17482,1,0,0:0:0:0:
182,192,17482,1,0,0:0:0:0:
256,192,17482,1,0,0:0:0:0:
475,192,17482,1,0,0:0:0:0:
109,192,17589,1,0,0:0:0:0:
402,192,17589,1,0,0:0:0:0:
36,192,17695,1,0,0:0:0:0:
182,192,17695,1,0,0:0:0:0:
329,192,17695,1,0,0:0:0:0:
256,192,17695,1,0,0:0:0:0:
109,192,17803,1,0,0:0:0:0:
475,192,17803,1,0,0:0:0:0:
36,192,17910,1,0,0:0:0:0:
182,192,17910,1,0,0:0:0:0:
256,192,17910,1,0,0:0:0:0:
329,192,17910,1,0,0:0:0:0:
109,192,18016,1,0,0:0:0:0:
402,192,18016,1,0,0:0:0:0:
329,192,18124,1,0,0:0:0:0:
475,192,18124,1,0,0:0:0:0:
182,192,18124,1,0,0:0:0:0:
256,192,18124,1,0,0:0:0:0:
402,192,18231,1,0,0:0:0:0:
109,192,18231,1,0,0:0:0:0:
475,192,18337,1,0,0:0:0:0:
329,192,18337,1,0,0:0:0:0:
256,192,18337,1,0,0:0:0:0:
36,192,18337,1,0,0:0:0:0:
402,192,18445,1,0,0:0:0:0:
182,192,18445,1,0,0:0:0:0:
109,192,18445,1,0,0:0:0:0:
475,192,18551,1,0,0:0:0:0:
329,192,18551,1,0,0:0:0:0:
256,192,18551,1,0,0:0:0:0:
36,192,18551,1,0,0:0:0:0:
402,192,18658,1,0,0:0:0:0:
182,192,18658,1,0,0:0:0:0:
329,192,18765,1,0,0:0:0:0:
475,192,18765,1,0,0:0:0:0:
36,192,18765,1,0,0:0:0:0:
109,192,18765,1,0,0:0:0:0:
402,192,18872,1,0,0:0:0:0:
182,192,18872,1,0,0:0:0:0:
475,192,18979,1,0,0:0:0:0:
329,192,18979,1,0,0:0:0:0:
36,192,18979,1,0,0:0:0:0:
256,192,18979,1,0,0:0:0:0:
109,192,19086,1,0,0:0:0:0:
182,192,19086,1,0,0:0:0:0:
402,192,19086,1,0,0:0:0:0:
36,192,19193,1,0,0:0:0:0:
329,192,19193,1,0,0:0:0:0:
256,192,19193,1,0,0:0:0:0:
475,192,19193,1,0,0:0:0:0:
109,192,19300,1,0,0:0:0:0:
182,192,19300,1,0,0:0:0:0:
402,192,19300,1,0,0:0:0:0:
36,192,19407,1,0,0:0:0:0:
256,192,19407,1,0,0:0:0:0:
329,192,19407,1,0,0:0:0:0:
475,192,19407,1,0,0:0:0:0:
402,192,19514,1,0,0:0:0:0:
109,192,19514,1,0,0:0:0:0:
256,192,19621,1,0,0:0:0:0:
182,192,19621,1,0,0:0:0:0:
329,192,19621,1,0,0:0:0:0:
109,192,19728,1,0,0:0:0:0:
402,192,19728,1,0,0:0:0:0:
256,192,19835,1,0,0:0:0:0:
182,192,19835,1,0,0:0:0:0:
36,192,19835,1,0,0:0:0:0:
475,192,19835,1,0,0:0:0:0:
109,192,19942,1,0,0:0:0:0:
329,192,19942,1,0,0:0:0:0:
402,192,19942,1,0,0:0:0:0:
36,192,20049,1,0,0:0:0:0:
182,192,20049,1,0,0:0:0:0:
256,192,20049,1,0,0:0:0:0:
475,192,20049,1,0,0:0:0:0:
402,192,20155,1,0,0:0:0:0:
329,192,20155,1,0,0:0:0:0:
109,192,20155,1,0,0:0:0:0:
36,192,20263,1,0,0:0:0:0:
182,192,20263,1,0,0:0:0:0:
256,192,20263,1,0,0:0:0:0:
475,192,20263,1,0,0:0:0:0:
109,192,20369,1,0,0:0:0:0:
402,192,20369,1,0,0:0:0:0:
182,192,20476,1,0,0:0:0:0:
256,192,20476,1,0,0:0:0:0:
329,192,20476,1,0,0:0:0:0:
109,192,20584,1,0,0:0:0:0:
402,192,20584,1,0,0:0:0:0:
36,192,20690,1,0,0:0:0:0:
182,192,20690,1,0,0:0:0:0:
256,192,20690,1,0,0:0:0:0:
475,192,20690,1,0,0:0:0:0:
109,192,20797,1,0,0:0:0:0:
329,192,20797,1,0,0:0:0:0:
182,192,20905,1,0,0:0:0:0:
475,192,20905,1,0,0:0:0:0:
402,192,20905,1,0,0:0:0:0:
36,192,21011,1,0,0:0:0:0:
256,192,21011,1,0,0:0:0:0:
109,192,21118,1,0,0:0:0:0:
329,192,21118,1,0,0:0:0:0:
475,192,21118,1,0,0:0:0:0:
182,192,21225,1,0,0:0:0:0:
402,192,21225,1,0,0:0:0:0:
36,192,21332,1,0,0:0:0:0:
256,192,21332,1,0,0:0:0:0:
475,192,21332,1,0,0:0:0:0:
109,192,21439,1,0,0:0:0:0:
329,192,21439,1,0,0:0:0:0:
182,192,21546,1,0,0:0:0:0:
402,192,21546,1,0,0:0:0:0:
475,192,21546,1,0,0:0:0:0:
36,192,21546,1,0,0:0:0:0:
256,192,21653,1,0,0:0:0:0:
329,192,21653,1,0,0:0:0:0:
109,192,21760,1,0,0:0:0:0:
36,192,21760,1,0,0:0:0:0:
475,192,21760,1,0,0:0:0:0:
402,192,21760,1,0,0:0:0:0:
182,192,21867,1,0,0:0:0:0:
256,192,21867,1,0,0:0:0:0:
36,192,21974,1,0,0:0:0:0:
109,192,21974,1,0,0:0:0:0:
402,192,21974,1,0,0:0:0:0:
475,192,21974,1,0,0:0:0:0:
256,192,22081,1,0,0:0:0:0:
329,192,22081,1,0,0:0:0:0:
109,192,22187,1,0,0:0:0:0:
36,192,22187,1,0,0:0:0:0:
475,192,22187,1,0,0:0:0:0:
402,192,22187,1,0,0:0:0:0:
182,192,22295,1,0,0:0:0:0:
256,192,22295,1,0,0:0:0:0:
36,192,22402,1,0,0:0:0:0:
109,192,22402,1,0,0:0:0:0:
475,192,22402,1,0,0:0:0:0:
329,192,22402,1,0,0:0:0:0:
182,192,22508,1,0,0:0:0:0:
402,192,22508,1,0,0:0:0:0:
36,192,22615,1,0,0:0:0:0:
256,192,22615,1,0,0:0:0:0:
475,192,22615,1,0,0:0:0:0:
109,192,22723,1,0,0:0:0:0:
329,192,22723,1,0,0:0:0:0:
36,192,22829,1,0,0:0:0:0:
182,192,22829,1,0,0:0:0:0:
256,192,22829,1,0,0:0:0:0:
402,192,22829,1,0,0:0:0:0:
475,192,22829,1,0,0:0:0:0:
109,192,22936,1,0,0:0:0:0:
329,192,22936,1,0,0:0:0:0:
36,192,23044,1,0,0:0:0:0:
256,192,23044,1,0,0:0:0:0:
475,192,23044,1,0,0:0:0:0:
182,192,23150,1,0,0:0:0:0:
402,192,23150,1,0,0:0:0:0:
36,192,23257,1,0,0:0:0:0:
109,192,23257,1,0,0:0:0:0:
256,192,23257,1,0,0:0:0:0:
475,192,23257,1,0,0:0:0:0:
329,192,23328,1,0,0:0:0:0:
182,192,23328,1,0,0:0:0:0:
402,192,23400,1,0,0:0:0:0:
109,192,23400,1,0,0:0:0:0:
36,192,23471,1,0,0:0:0:0:
256,192,23471,1,0,0:0:0:0:
475,192,23471,1,0,0:0:0:0:
329,192,23578,1,0,0:0:0:0:
182,192,23578,1,0,0:0:0:0:
36,192,23685,1,0,0:0:0:0:
475,192,23685,1,0,0:0:0:0:
109,192,23685,1,0,0:0:0:0:
402,192,23685,1,0,0:0:0:0:
182,192,23792,1,0,0:0:0:0:
329,192,23792,1,0,0:0:0:0:
256,192,23899,1,0,0:0:0:0:
36,192,23899,1,0,0:0:0:0:
475,192,23899,1,0,0:0:0:0:
109,192,24005,1,0,0:0:0:0:
402,192,24005,1,0,0:0:0:0:
36,192,24113,1,0,0:0:0:0:
182,192,24113,1,0,0:0:0:0:
256,192,24113,1,0,0:0:0:0:
475,192,24113,1,0,0:0:0:0:
329,192,24113,1,0,0:0:0:0:
109,192,24220,1,0,0:0:0:0:
402,192,24220,1,0,0:0:0:0:
36,192,24326,1,0,0:0:0:0:
256,192,24326,1,0,0:0:0:0:
475,192,24326,1,0,0:0:0:0:
182,192,24434,1,0,0:0:0:0:
402,192,24434,1,0,0:0:0:0:
109,192,24541,1,0,0:0:0:0:
36,192,24541,1,0,0:0:0:0:
256,192,24541,1,0,0:0:0:0:
475,192,24541,1,0,0:0:0:0:
329,192,24541,1,0,0:0:0:0:
182,192,24647,1,0,0:0:0:0:
402,192,24647,1,0,0:0:0:0:
36,192,24755,1,0,0:0:0:0:
256,192,24755,1,0,0:0:0:0:
475,192,24755,1,0,0:0:0:0:
109,192,24862,1,0,0:0:0:0:
329,192,24862,1,0,0:0:0:0:
36,192,24968,1,0,0:0:0:0:
475,192,24968,1,0,0:0:0:0:
402,192,24968,1,0,0:0:0:0:
182,192,24968,1,0,0:0:0:0:
329,192,25075,1,0,0:0:0:0:
109,192,25075,1,0,0:0:0:0:
475,192,25183,1,0,0:0:0:0:
36,192,25183,1,0,0:0:0:0:
402,192,25183,1,0,0:0:0:0:
256,192,25183,1,0,0:0:0:0:
329,192,25289,1,0,0:0:0:0:
182,192,25289,1,0,0:0:0:0:
109,192,25289,1,0,0:0:0:0:
36,192,25396,1,0,0:0:0:0:
256,192,25396,1,0,0:0:0:0:
402,192,25396,1,0,0:0:0:0:
475,192,25396,1,0,0:0:0:0:
182,192,25504,1,0,0:0:0:0:
329,192,25504,1,0,0:0:0:0:
256,192,25610,1,0,0:0:0:0:
36,192,25610,1,0,0:0:0:0:
475,192,25610,1,0,0:0:0:0:
109,192,25717,1,0,0:0:0:0:
402,192,25717,1,0,0:0:0:0:
36,192,25824,1,0,0:0:0:0:
182,192,25824,1,0,0:0:0:0:
475,192,25824,1,0,0:0:0:0:
256,192,25824,1,0,0:0:0:0:
109,192,25931,1,0,0:0:0:0:
329,192,25931,1,0,0:0:0:0:
182,192,26038,1,0,0:0:0:0:
402,192,26038,1,0,0:0:0:0:
475,192,26038,1,0,0:0:0:0:
36,192,26145,1,0,0:0:0:0:
256,192,26145,1,0,0:0:0:0:
109,192,26252,1,0,0:0:0:0:
329,192,26252,1,0,0:0:0:0:
475,192,26252,1,0,0:0:0:0:
182,192,26359,1,0,0:0:0:0:
402,192,26359,1,0,0:0:0:0:
36,192,26465,1,0,0:0:0:0:
256,192,26465,1,0,0:0:0:0:
475,192,26465,1,0,0:0:0:0:
109,192,26573,1,0,0:0:0:0:
329,192,26573,1,0,0:0:0:0:
36,192,26680,1,0,0:0:0:0:
182,192,26680,1,0,0:0:0:0:
402,192,26680,1,0,0:0:0:0:
109,192,26786,1,0,0:0:0:0:
256,192,26786,1,0,0:0:0:0:
475,192,26786,1,0,0:0:0:0:
36,192,26894,1,0,0:0:0:0:
182,192,26894,1,0,0:0:0:0:
329,192,26894,1,0,0:0:0:0:
109,192,27001,1,0,0:0:0:0:
256,192,27001,1,0,0:0:0:0:
475,192,27001,1,0,0:0:0:0:
36,192,27107,1,0,0:0:0:0:
182,192,27107,1,0,0:0:0:0:
402,192,27107,1,0,0:0:0:0:
109,192,27215,1,0,0:0:0:0:
329,192,27215,1,0,0:0:0:0:
475,192,27215,1,0,0:0:0:0:
36,192,27322,1,0,0:0:0:0:
402,192,27322,1,0,0:0:0:0:
256,192,27322,1,0,0:0:0:0:
182,192,27428,1,0,0:0:0:0:
329,192,27428,1,0,0:0:0:0:
475,192,27428,1,0,0:0:0:0:
36,192,27535,1,0,0:0:0:0:
109,192,27535,1,0,0:0:0:0:
256,192,27535,1,0,0:0:0:0:
402,192,27535,1,0,0:0:0:0:
36,192,27642,1,0,0:0:0:0:
36,192,27856,1,0,0:0:0:0:
36,192,28070,1,0,0:0:0:0:
36,192,28284,1,0,0:0:0:0:
182,192,28284,1,0,0:0:0:0:
36,192,28391,1,0,0:0:0:0:
109,192,28391,1,0,0:0:0:0:
256,192,28391,1,0,0:0:0:0:
475,192,28391,1,0,0:0:0:0:
402,192,28391,1,0,0:0:0:0:
182,192,28925,1,0,0:0:0:0:
329,192,28925,1,0,0:0:0:0:
182,192,29140,1,0,0:0:0:0:
329,192,29140,1,0,0:0:0:0:
36,192,29246,1,0,0:0:0:0:
109,192,29246,1,0,0:0:0:0:
256,192,29246,1,0,0:0:0:0:
475,192,29246,1,0,0:0:0:0:
402,192,29246,1,0,0:0:0:0:
182,192,29354,1,0,0:0:0:0:
329,192,29354,1,0,0:0:0:0:
36,192,29460,1,0,0:0:0:0:
256,192,29460,1,0,0:0:0:0:
402,192,29460,1,0,0:0:0:0:
475,192,29460,1,0,0:0:0:0:
109,192,29567,1,0,0:0:0:0:
329,192,29567,1,0,0:0:0:0:
36,192,29675,1,0,0:0:0:0:
182,192,29675,1,0,0:0:0:0:
475,192,29675,1,0,0:0:0:0:
402,192,29675,1,0,0:0:0:0:
329,192,29781,1,0,0:0:0:0:
256,192,29781,1,0,0:0:0:0:
36,192,29888,1,0,0:0:0:0:
109,192,29888,1,0,0:0:0:0:
182,192,29888,1,0,0:0:0:0:
475,192,29888,1,0,0:0:0:0:
329,192,29995,1,0,0:0:0:0:
402,192,29995,1,0,0:0:0:0:
36,192,30102,1,0,0:0:0:0:
109,192,30102,1,0,0:0:0:0:
256,192,30102,1,0,0:0:0:0:
475,192,30102,1,0,0:0:0:0:
182,192,30209,1,0,0:0:0:0:
329,192,30209,1,0,0:0:0:0:
36,192,30316,1,0,0:0:0:0:
109,192,30316,1,0,0:0:0:0:
475,192,30316,1,0,0:0:0:0:
256,192,30316,1,0,0:0:0:0:
182,192,30423,1,0,0:0:0:0:
402,192,30423,1,0,0:0:0:0:
36,192,30530,1,0,0:0:0:0:
109,192,30530,1,0,0:0:0:0:
329,192,30530,1,0,0:0:0:0:
475,192,30530,1,0,0:0:0:0:
182,192,30637,1,0,0:0:0:0:
256,192,30637,1,0,0:0:0:0:
329,192,30744,1,0,0:0:0:0:
475,192,30744,1,0,0:0:0:0:
402,192,30744,1,0,0:0:0:0:
36,192,30744,1,0,0:0:0:0:
109,192,30851,1,0,0:0:0:0:
182,192,30851,1,0,0:0:0:0:
36,192,30958,1,0,0:0:0:0:
256,192,30958,1,0,0:0:0:0:
475,192,30958,1,0,0:0:0:0:
402,192,30958,1,0,0:0:0:0:
109,192,31065,1,0,0:0:0:0:
329,192,31065,1,0,0:0:0:0:
402,192,31172,1,0,0:0:0:0:
475,192,31172,1,0,0:0:0:0:
36,192,31172,1,0,0:0:0:0:
182,192,31172,1,0,0:0:0:0:
256,192,31278,1,0,0:0:0:0:
109,192,31278,1,0,0:0:0:0:
402,192,31385,1,0,0:0:0:0:
475,192,31385,1,0,0:0:0:0:
36,192,31385,1,0,0:0:0:0:
182,192,31385,1,0,0:0:0:0:
329,192,31385,1,0,0:0:0:0:
109,192,31493,1,0,0:0:0:0:
36,192,31599,1,0,0:0:0:0:
475,192,31599,1,0,0:0:0:0:
402,192,31599,1,0,0:0:0:0:
256,192,31599,1,0,0:0:0:0:
182,192,31706,1,0,0:0:0:0:
329,192,31706,1,0,0:0:0:0:
36,192,31814,1,0,0:0:0:0:
256,192,31814,1,0,0:0:0:0:
475,192,31814,1,0,0:0:0:0:
109,192,31814,1,0,0:0:0:0:
329,192,31920,1,0,0:0:0:0:
182,192,31920,1,0,0:0:0:0:
256,192,32027,1,0,0:0:0:0:
402,192,32027,1,0,0:0:0:0:
475,192,32027,1,0,0:0:0:0:
36,192,32027,1,0,0:0:0:0:
182,192,32135,1,0,0:0:0:0:
109,192,32241,1,0,0:0:0:0:
329,192,32241,1,0,0:0:0:0:
475,192,32241,1,0,0:0:0:0:
36,192,32241,1,0,0:0:0:0:
256,192,32348,1,0,0:0:0:0:
182,192,32348,1,0,0:0:0:0:
36,192,32455,1,0,0:0:0:0:
475,192,32455,1,0,0:0:0:0:
402,192,32455,1,0,0:0:0:0:
109,192,32455,1,0,0:0:0:0:
256,192,32562,1,0,0:0:0:0:
329,192,32562,1,0,0:0:0:0:
36,192,32669,1,0,0:0:0:0:
402,192,32669,1,0,0:0:0:0:
475,192,32669,1,0,0:0:0:0:
182,192,32669,1,0,0:0:0:0:
109,192,32776,1,0,0:0:0:0:
329,192,32776,1,0,0:0:0:0:
475,192,32883,1,0,0:0:0:0:
256,192,32883,1,0,0:0:0:0:
36,192,32883,1,0,0:0:0:0:
402,192,32883,1,0,0:0:0:0:
329,192,32990,1,0,0:0:0:0:
182,192,32990,1,0,0:0:0:0:
475,192,33096,1,0,0:0:0:0:
402,192,33096,1,0,0:0:0:0:
256,192,33096,1,0,0:0:0:0:
36,192,33096,1,0,0:0:0:0:
109,192,33204,1,0,0:0:0:0:
182,192,33204,1,0,0:0:0:0:
36,192,33311,1,0,0:0:0:0:
475,192,33311,1,0,0:0:0:0:
402,192,33311,1,0,0:0:0:0:
329,192,33311,1,0,0:0:0:0:
182,192,33417,1,0,0:0:0:0:
256,192,33417,1,0,0:0:0:0:
36,192,33525,1,0,0:0:0:0:
475,192,33525,1,0,0:0:0:0:
109,192,33525,1,0,0:0:0:0:
329,192,33525,1,0,0:0:0:0:
182,192,33632,1,0,0:0:0:0:
402,192,33632,1,0,0:0:0:0:
475,192,33738,1,0,0:0:0:0:
109,192,33738,1,0,0:0:0:0:
36,192,33738,1,0,0:0:0:0:
256,192,33738,1,0,0:0:0:0:
329,192,33845,1,0,0:0:0:0:
182,192,33845,1,0,0:0:0:0:
256,192,33953,1,0,0:0:0:0:
475,192,33953,1,0,0:0:0:0:
36,192,33953,1,0,0:0:0:0:
109,192,33953,1,0,0:0:0:0:
329,192,34059,1,0,0:0:0:0:
402,192,34059,1,0,0:0:0:0:
109,192,34166,1,0,0:0:0:0:
182,192,34166,1,0,0:0:0:0:
475,192,34166,1,0,0:0:0:0:
36,192,34166,1,0,0:0:0:0:
256,192,34274,1,0,0:0:0:0:
329,192,34274,1,0,0:0:0:0:
402,192,34380,1,0,0:0:0:0:
182,192,34380,1,0,0:0:0:0:
475,192,34380,1,0,0:0:0:0:
36,192,34380,1,0,0:0:0:0:
329,192,34487,1,0,0:0:0:0:
256,192,34487,1,0,0:0:0:0:
36,192,34595,1,0,0:0:0:0:
182,192,34595,1,0,0:0:0:0:
402,192,34595,1,0,0:0:0:0:
475,192,34595,1,0,0:0:0:0:
109,192,34701,1,0,0:0:0:0:
256,192,34701,1,0,0:0:0:0:
182,192,34808,1,0,0:0:0:0:
329,192,34808,1,0,0:0:0:0:
36,192,34808,1,0,0:0:0:0:
402,192,34808,1,0,0:0:0:0:
475,192,34808,1,0,0:0:0:0:
109,192,34915,1,0,0:0:0:0:
402,192,35022,1,0,0:0:0:0:
256,192,35022,1,0,0:0:0:0:
36,192,35022,1,0,0:0:0:0:
475,192,35022,1,0,0:0:0:0:
329,192,35129,1,0,0:0:0:0:
182,192,35129,1,0,0:0:0:0:
475,192,35235,1,0,0:0:0:0:
109,192,35235,1,0,0:0:0:0:
36,192,35235,1,0,0:0:0:0:
256,192,35235,1,0,0:0:0:0:
182,192,35343,1,0,0:0:0:0:
329,192,35343,1,0,0:0:0:0:
475,192,35450,1,0,0:0:0:0:
36,192,35450,1,0,0:0:0:0:
256,192,35450,1,0,0:0:0:0:
402,192,35450,1,0,0:0:0:0:
182,192,35556,1,0,0:0:0:0:
475,192,35664,1,0,0:0:0:0:
36,192,35664,1,0,0:0:0:0:
109,192,35664,1,0,0:0:0:0:
329,192,35664,1,0,0:0:0:0:
182,192,35771,1,0,0:0:0:0:
256,192,35771,1,0,0:0:0:0:
109,192,35877,1,0,0:0:0:0:
36,192,35877,1,0,0:0:0:0:
475,192,35877,1,0,0:0:0:0:
402,192,35877,1,0,0:0:0:0:
256,192,35985,1,0,0:0:0:0:
329,192,35985,1,0,0:0:0:0:
36,192,36092,1,0,0:0:0:0:
109,192,36092,1,0,0:0:0:0:
402,192,36092,1,0,0:0:0:0:
475,192,36092,1,0,0:0:0:0:
329,192,36198,1,0,0:0:0:0:
182,192,36198,1,0,0:0:0:0:
402,192,36305,1,0,0:0:0:0:
475,192,36305,1,0,0:0:0:0:
36,192,36305,1,0,0:0:0:0:
256,192,36305,1,0,0:0:0:0:
329,192,36413,1,0,0:0:0:0:
109,192,36413,1,0,0:0:0:0:
475,192,36519,1,0,0:0:0:0:
402,192,36519,1,0,0:0:0:0:
36,192,36519,1,0,0:0:0:0:
182,192,36519,1,0,0:0:0:0:
256,192,36626,1,0,0:0:0:0:
329,192,36626,1,0,0:0:0:0:
182,192,36733,1,0,0:0:0:0:
475,192,36733,1,0,0:0:0:0:
36,192,36733,1,0,0:0:0:0:
109,192,36733,1,0,0:0:0:0:
402,192,36840,1,0,0:0:0:0:
329,192,36840,1,0,0:0:0:0:
256,192,36947,1,0,0:0:0:0:
475,192,36947,1,0,0:0:0:0:
36,192,36947,1,0,0:0:0:0:
109,192,36947,1,0,0:0:0:0:
329,192,37054,1,0,0:0:0:0:
182,192,37054,1,0,0:0:0:0:
475,192,37161,1,0,0:0:0:0:
256,192,37161,1,0,0:0:0:0:
36,192,37161,1,0,0:0:0:0:
109,192,37161,1,0,0:0:0:0:
402,192,37268,1,0,0:0:0:0:
182,192,37268,1,0,0:0:0:0:
329,192,37375,1,0,0:0:0:0:
475,192,37375,1,0,0:0:0:0:
36,192,37375,1,0,0:0:0:0:
109,192,37375,1,0,0:0:0:0:
256,192,37482,1,0,0:0:0:0:
182,192,37482,1,0,0:0:0:0:
402,192,37589,1,0,0:0:0:0:
36,192,37589,1,0,0:0:0:0:
329,192,37589,1,0,0:0:0:0:
475,192,37589,1,0,0:0:0:0:
182,192,37695,1,0,0:0:0:0:
109,192,37695,1,0,0:0:0:0:
475,192,37803,1,0,0:0:0:0:
402,192,37803,1,0,0:0:0:0:
36,192,37803,1,0,0:0:0:0:
256,192,37803,1,0,0:0:0:0:
329,192,37910,1,0,0:0:0:0:
109,192,37910,1,0,0:0:0:0:
36,192,38016,1,0,0:0:0:0:
182,192,38016,1,0,0:0:0:0:
402,192,38016,1,0,0:0:0:0:
475,192,38016,1,0,0:0:0:0:
109,192,38124,1,0,0:0:0:0:
256,192,38124,1,0,0:0:0:0:
182,192,38231,1,0,0:0:0:0:
329,192,38231,1,0,0:0:0:0:
36,192,38231,1,0,0:0:0:0:
402,192,38231,1,0,0:0:0:0:
475,192,38231,1,0,0:0:0:0:
109,192,38337,1,0,0:0:0:0:
402,192,38445,1,0,0:0:0:0:
256,192,38445,1,0,0:0:0:0:
36,192,38445,1,0,0:0:0:0:
475,192,38445,1,0,0:0:0:0:
329,192,38551,1,0,0:0:0:0:
182,192,38551,1,0,0:0:0:0:
475,192,38658,1,0,0:0:0:0:
109,192,38658,1,0,0:0:0:0:
36,192,38658,1,0,0:0:0:0:
256,192,38658,1,0,0:0:0:0:
182,192,38765,1,0,0:0:0:0:
329,192,38765,1,0,0:0:0:0:
475,192,38872,1,0,0:0:0:0:
36,192,38872,1,0,0:0:0:0:
256,192,38872,1,0,0:0:0:0:
402,192,38872,1,0,0:0:0:0:
109,192,38979,1,0,0:0:0:0:
475,192,39086,1,0,0:0:0:0:
329,192,39086,1,0,0:0:0:0:
182,192,39086,1,0,0:0:0:0:
402,192,39086,1,0,0:0:0:0:
36,192,39193,1,0,0:0:0:0:
109,192,39193,1,0,0:0:0:0:
182,192,39300,1,0,0:0:0:0:
329,192,39300,1,0,0:0:0:0:
256,192,39300,1,0,0:0:0:0:
475,192,39407,1,0,0:0:0:0:
402,192,39407,1,0,0:0:0:0:
36,192,39514,1,0,0:0:0:0:
109,192,39514,1,0,0:0:0:0:
182,192,39514,1,0,0:0:0:0:
329,192,39514,1,0,0:0:0:0:
256,192,39621,1,0,0:0:0:0:
402,192,39621,1,0,0:0:0:0:
36,192,39728,1,0,0:0:0:0:
475,192,39728,1,0,0:0:0:0:
329,192,39728,1,0,0:0:0:0:
109,192,39728,1,0,0:0:0:0:
182,192,39835,1,0,0:0:0:0:
402,192,39835,1,0,0:0:0:0:
475,192,39942,1,0,0:0:0:0:
256,192,39942,1,0,0:0:0:0:
36,192,39942,1,0,0:0:0:0:
109,192,39942,1,0,0:0:0:0:
329,192,40049,1,0,0:0:0:0:
402,192,40049,1,0,0:0:0:0:
109,192,40155,1,0,0:0:0:0:
36,192,40155,1,0,0:0:0:0:
475,192,40155,1,0,0:0:0:0:
182,192,40155,1,0,0:0:0:0:
256,192,40263,1,0,0:0:0:0:
329,192,40263,1,0,0:0:0:0:
36,192,40369,1,0,0:0:0:0:
402,192,40369,1,0,0:0:0:0:
475,192,40369,1,0,0:0:0:0:
182,192,40369,1,0,0:0:0:0:
109,192,40476,1,0,0:0:0:0:
256,192,40476,1,0,0:0:0:0:
182,192,40584,1,0,0:0:0:0:
402,192,40584,1,0,0:0:0:0:
475,192,40584,1,0,0:0:0:0:
36,192,40584,1,0,0:0:0:0:
109,192,40690,1,0,0:0:0:0:
329,192,40690,1,0,0:0:0:0:
475,192,40797,1,0,0:0:0:0:
402,192,40797,1,0,0:0:0:0:
36,192,40797,1,0,0:0:0:0:
256,192,40797,1,0,0:0:0:0:
182,192,40797,1,0,0:0:0:0:
109,192,40905,1,0,0:0:0:0:
36,192,41011,1,0,0:0:0:0:
329,192,41011,1,0,0:0:0:0:
402,192,41011,1,0,0:0:0:0:
475,192,41011,1,0,0:0:0:0:
182,192,41118,1,0,0:0:0:0:
256,192,41118,1,0,0:0:0:0:
36,192,41225,1,0,0:0:0:0:
329,192,41225,1,0,0:0:0:0:
475,192,41225,1,0,0:0:0:0:
109,192,41225,1,0,0:0:0:0:
182,192,41332,1,0,0:0:0:0:
36,192,41439,1,0,0:0:0:0:
256,192,41439,1,0,0:0:0:0:
475,192,41439,1,0,0:0:0:0:
182,192,41546,1,0,0:0:0:0:
402,192,41546,1,0,0:0:0:0:
36,192,41653,1,0,0:0:0:0:
475,192,41653,1,0,0:0:0:0:
109,192,41653,1,0,0:0:0:0:
329,192,41653,1,0,0:0:0:0:
182,192,41760,1,0,0:0:0:0:
402,192,41867,1,0,0:0:0:0:
256,192,41867,1,0,0:0:0:0:
36,192,41867,1,0,0:0:0:0:
109,192,41974,1,0,0:0:0:0:
182,192,41974,1,0,0:0:0:0:
329,192,41974,1,0,0:0:0:0:
475,192,41974,1,0,0:0:0:0:
182,192,42187,1,0,0:0:0:0:
256,192,42187,1,0,0:0:0:0:
402,192,42187,1,0,0:0:0:0:
36,192,42187,1,0,0:0:0:0:
475,192,42402,1,0,0:0:0:0:
109,192,42402,1,0,0:0:0:0:
256,192,42402,1,0,0:0:0:0:
36,192,42508,1,0,0:0:0:0:
402,192,42508,1,0,0:0:0:0:
182,192,42508,1,0,0:0:0:0:
329,192,42508,1,0,0:0:0:0:
36,192,42723,1,0,0:0:0:0:
109,192,42723,1,0,0:0:0:0:
402,192,42723,1,0,0:0:0:0:
475,192,42723,1,0,0:0:0:0:
329,192,42829,1,0,0:0:0:0:
182,192,42829,1,0,0:0:0:0:
36,192,42936,1,0,0:0:0:0:
256,192,42936,1,0,0:0:0:0:
402,192,42936,1,0,0:0:0:0:
475,192,42936,1,0,0:0:0:0:
109,192,42936,1,0,0:0:0:0:
182,192,43044,1,0,0:0:0:0:
329,192,43044,1,0,0:0:0:0:
109,192,43150,1,0,0:0:0:0:
36,192,43150,1,0,0:0:0:0:
256,192,43150,1,0,0:0:0:0:
475,192,43150,1,0,0:0:0:0:
402,192,43257,1,0,0:0:0:0:
36,192,43365,1,0,0:0:0:0:
182,192,43365,1,0,0:0:0:0:
329,192,43365,1,0,0:0:0:0:
256,192,43365,1,0,0:0:0:0:
109,192,43471,1,0,0:0:0:0:
475,192,43471,1,0,0:0:0:0:
36,192,43578,1,0,0:0:0:0:
182,192,43578,1,0,0:0:0:0:
402,192,43578,1,0,0:0:0:0:
256,192,43578,1,0,0:0:0:0:
329,192,43685,1,0,0:0:0:0:
109,192,43685,1,0,0:0:0:0:
36,192,43792,1,0,0:0:0:0:
256,192,43792,1,0,0:0:0:0:
475,192,43792,1,0,0:0:0:0:
109,192,43899,1,0,0:0:0:0:
329,192,43899,1,0,0:0:0:0:
182,192,44005,1,0,0:0:0:0:
402,192,44005,1,0,0:0:0:0:
475,192,44005,1,0,0:0:0:0:
36,192,44005,1,0,0:0:0:0:
256,192,44113,1,0,0:0:0:0:
329,192,44220,1,0,0:0:0:0:
402,192,44220,1,0,0:0:0:0:
109,192,44220,1,0,0:0:0:0:
36,192,44220,1,0,0:0:0:0:
182,192,44326,1,0,0:0:0:0:
36,192,44434,1,0,0:0:0:0:
329,192,44434,1,0,0:0:0:0:
256,192,44434,1,0,0:0:0:0:
475,192,44434,1,0,0:0:0:0:
182,192,44541,1,0,0:0:0:0:
475,192,44647,1,0,0:0:0:0:
36,192,44647,1,0,0:0:0:0:
109,192,44647,1,0,0:0:0:0:
329,192,44647,1,0,0:0:0:0:
256,192,44647,1,0,0:0:0:0:
182,192,44755,1,0,0:0:0:0:
402,192,44755,1,0,0:0:0:0:
109,192,44862,1,0,0:0:0:0:
36,192,44862,1,0,0:0:0:0:
256,192,44862,1,0,0:0:0:0:
475,192,44862,1,0,0:0:0:0:
329,192,44968,1,0,0:0:0:0:
36,192,45075,1,0,0:0:0:0:
182,192,45075,1,0,0:0:0:0:
402,192,45075,1,0,0:0:0:0:
475,192,45075,1,0,0:0:0:0:
109,192,45183,1,0,0:0:0:0:
256,192,45183,1,0,0:0:0:0:
36,192,45289,1,0,0:0:0:0:
182,192,45289,1,0,0:0:0:0:
329,192,45289,1,0,0:0:0:0:
475,192,45289,1,0,0:0:0:0:
402,192,45396,1,0,0:0:0:0:
109,192,45396,1,0,0:0:0:0:
36,192,45504,1,0,0:0:0:0:
475,192,45504,1,0,0:0:0:0:
256,192,45504,1,0,0:0:0:0:
109,192,45610,1,0,0:0:0:0:
329,192,45610,1,0,0:0:0:0:
182,192,45717,1,0,0:0:0:0:
402,192,45717,1,0,0:0:0:0:
475,192,45717,1,0,0:0:0:0:
36,192,45717,1,0,0:0:0:0:
256,192,45824,1,0,0:0:0:0:
329,192,45931,1,0,0:0:0:0:
402,192,45931,1,0,0:0:0:0:
109,192,45931,1,0,0:0:0:0:
36,192,45931,1,0,0:0:0:0:
182,192,46038,1,0,0:0:0:0:
256,192,46145,1,0,0:0:0:0:
36,192,46145,1,0,0:0:0:0:
475,192,46145,1,0,0:0:0:0:
329,192,46145,1,0,0:0:0:0:
182,192,46252,1,0,0:0:0:0:
109,192,46359,1,0,0:0:0:0:
36,192,46359,1,0,0:0:0:0:
256,192,46359,1,0,0:0:0:0:
475,192,46359,1,0,0:0:0:0:
329,192,46359,1,0,0:0:0:0:
182,192,46465,1,0,0:0:0:0:
402,192,46465,1,0,0:0:0:0:
109,192,46573,1,0,0:0:0:0:
36,192,46573,1,0,0:0:0:0:
256,192,46573,1,0,0:0:0:0:
329,192,46573,1,0,0:0:0:0:
475,192,46680,1,0,0:0:0:0:
36,192,46786,1,0,0:0:0:0:
182,192,46786,1,0,0:0:0:0:
402,192,46786,1,0,0:0:0:0:
256,192,46786,1,0,0:0:0:0:
109,192,46894,1,0,0:0:0:0:
329,192,46894,1,0,0:0:0:0:
36,192,47001,1,0,0:0:0:0:
182,192,47001,1,0,0:0:0:0:
256,192,47001,1,0,0:0:0:0:
475,192,47001,1,0,0:0:0:0:
402,192,47107,1,0,0:0:0:0:
109,192,47107,1,0,0:0:0:0:
36,192,47215,1,0,0:0:0:0:
256,192,47215,1,0,0:0:0:0:
329,192,47215,1,0,0:0:0:0:
475,192,47215,1,0,0:0:0:0:
182,192,47322,1,0,0:0:0:0:
36,192,47428,1,0,0:0:0:0:
109,192,47428,1,0,0:0:0:0:
329,192,47428,1,0,0:0:0:0:
475,192,47428,1,0,0:0:0:0:
256,192,47535,1,0,0:0:0:0:
36,192,47642,1,0,0:0:0:0:
182,192,47642,1,0,0:0:0:0:
402,192,47642,1,0,0:0:0:0:
475,192,47642,1,0,0:0:0:0:
256,192,47749,1,0,0:0:0:0:
329,192,47856,1,0,0:0:0:0:
475,192,47856,1,0,0:0:0:0:
36,192,47856,1,0,0:0:0:0:
109,192,47856,1,0,0:0:0:0:
182,192,47963,1,0,0:0:0:0:
402,192,47963,1,0,0:0:0:0:
36,192,48070,1,0,0:0:0:0:
256,192,48070,1,0,0:0:0:0:
475,192,48070,1,0,0:0:0:0:
109,192,48177,1,0,0:0:0:0:
329,192,48177,1,0,0:0:0:0:
402,192,48177,1,0,0:0:0:0:
182,192,48284,1,0,0:0:0:0:
256,192,48284,1,0,0:0:0:0:
475,192,48284,1,0,0:0:0:0:
36,192,48391,1,0,0:0:0:0:
109,192,48391,1,0,0:0:0:0:
329,192,48391,1,0,0:0:0:0:
402,192,48498,1,0,0:0:0:0:
475,192,48498,1,0,0:0:0:0:
182,192,48498,1,0,0:0:0:0:
256,192,48605,1,0,0:0:0:0:
329,192,48605,1,0,0:0:0:0:
36,192,48605,1,0,0:0:0:0:
109,192,48712,1,0,0:0:0:0:
182,192,48712,1,0,0:0:0:0:
475,192,48712,1,0,0:0:0:0:
36,192,48819,1,0,0:0:0:0:
329,192,48819,1,0,0:0:0:0:
256,192,48819,1,0,0:0:0:0:
402,192,48819,1,0,0:0:0:0:
182,192,48925,1,0,0:0:0:0:
36,192,49033,1,0,0:0:0:0:
109,192,49033,1,0,0:0:0:0:
329,192,49033,1,0,0:0:0:0:
182,192,49140,1,0,0:0:0:0:
256,192,49140,1,0,0:0:0:0:
475,192,49140,1,0,0:0:0:0:
329,192,49246,1,0,0:0:0:0:
402,192,49246,1,0,0:0:0:0:
109,192,49246,1,0,0:0:0:0:
475,192,49354,1,0,0:0:0:0:
36,192,49354,1,0,0:0:0:0:
256,192,49354,1,0,0:0:0:0:
182,192,49460,1,0,0:0:0:0:
329,192,49460,1,0,0:0:0:0:
475,192,49567,1,0,0:0:0:0:
36,192,49567,1,0,0:0:0:0:
109,192,49567,1,0,0:0:0:0:
402,192,49567,1,0,0:0:0:0:
182,192,49675,1,0,0:0:0:0:
329,192,49675,1,0,0:0:0:0:
109,192,49781,1,0,0:0:0:0:
36,192,49781,1,0,0:0:0:0:
256,192,49781,1,0,0:0:0:0:
475,192,49781,1,0,0:0:0:0:
402,192,49781,1,0,0:0:0:0:
329,192,49888,1,0,0:0:0:0:
182,192,49888,1,0,0:0:0:0:
256,192,49995,1,0,0:0:0:0:
475,192,49995,1,0,0:0:0:0:
109,192,49995,1,0,0:0:0:0:
36,192,49995,1,0,0:0:0:0:
402,192,50102,1,0,0:0:0:0:
329,192,50209,1,0,0:0:0:0:
256,192,50209,1,0,0:0:0:0:
36,192,50209,1,0,0:0:0:0:
182,192,50209,1,0,0:0:0:0:
475,192,50316,1,0,0:0:0:0:
109,192,50316,1,0,0:0:0:0:
402,192,50423,1,0,0:0:0:0:
256,192,50423,1,0,0:0:0:0:
36,192,50423,1,0,0:0:0:0:
182,192,50423,1,0,0:0:0:0:
109,192,50530,1,0,0:0:0:0:
329,192,50530,1,0,0:0:0:0:
475,192,50637,1,0,0:0:0:0:
256,192,50637,1,0,0:0:0:0:
36,192,50637,1,0,0:0:0:0:
329,192,50744,1,0,0:0:0:0:
109,192,50744,1,0,0:0:0:0:
475,192,50851,1,0,0:0:0:0:
36,192,50851,1,0,0:0:0:0:
182,192,50851,1,0,0:0:0:0:
402,192,50851,1,0,0:0:0:0:
256,192,50958,1,0,0:0:0:0:
109,192,51065,1,0,0:0:0:0:
36,192,51065,1,0,0:0:0:0:
329,192,51065,1,0,0:0:0:0:
402,192,51065,1,0,0:0:0:0:
109,192,51278,1,0,0:0:0:0:
329,192,51278,1,0,0:0:0:0:
256,192,51278,1,0,0:0:0:0:
475,192,51278,1,0,0:0:0:0:
182,192,51385,1,0,0:0:0:0:
402,192,51385,1,0,0:0:0:0:
329,192,51493,1,0,0:0:0:0:
256,192,51493,1,0,0:0:0:0:
109,192,51493,1,0,0:0:0:0:
475,192,51493,1,0,0:0:0:0:
36,192,51493,1,0,0:0:0:0:
402,192,51599,1,0,0:0:0:0:
182,192,51599,1,0,0:0:0:0:
256,192,51706,1,0,0:0:0:0:
475,192,51706,1,0,0:0:0:0:
109,192,51706,1,0,0:0:0:0:
36,192,51706,1,0,0:0:0:0:
329,192,51814,1,0,0:0:0:0:
402,192,51920,1,0,0:0:0:0:
475,192,51920,1,0,0:0:0:0:
36,192,51920,1,0,0:0:0:0:
182,192,51920,1,0,0:0:0:0:
256,192,52027,1,0,0:0:0:0:
109,192,52027,1,0,0:0:0:0:
329,192,52135,1,0,0:0:0:0:
475,192,52135,1,0,0:0:0:0:
36,192,52135,1,0,0:0:0:0:
182,192,52135,1,0,0:0:0:0:
109,192,52241,1,0,0:0:0:0:
402,192,52241,1,0,0:0:0:0:
256,192,52348,1,0,0:0:0:0:
475,192,52348,1,0,0:0:0:0:
36,192,52348,1,0,0:0:0:0:
329,192,52455,1,0,0:0:0:0:
109,192,52455,1,0,0:0:0:0:
475,192,52562,1,0,0:0:0:0:
36,192,52562,1,0,0:0:0:0:
182,192,52562,1,0,0:0:0:0:
402,192,52562,1,0,0:0:0:0:
109,192,52669,1,0,0:0:0:0:
329,192,52669,1,0,0:0:0:0:
36,192,52776,1,0,0:0:0:0:
256,192,52776,1,0,0:0:0:0:
475,192,52776,1,0,0:0:0:0:
402,192,52883,1,0,0:0:0:0:
182,192,52883,1,0,0:0:0:0:
109,192,52990,1,0,0:0:0:0:
329,192,52990,1,0,0:0:0:0:
36,192,52990,1,0,0:0:0:0:
256,192,53096,1,0,0:0:0:0:
182,192,53096,1,0,0:0:0:0:
402,192,53096,1,0,0:0:0:0:
36,192,53204,1,0,0:0:0:0:
475,192,53204,1,0,0:0:0:0:
329,192,53204,1,0,0:0:0:0:
109,192,53204,1,0,0:0:0:0:
182,192,53311,1,0,0:0:0:0:
256,192,53311,1,0,0:0:0:0:
36,192,53417,1,0,0:0:0:0:
109,192,53417,1,0,0:0:0:0:
402,192,53417,1,0,0:0:0:0:
475,192,53417,1,0,0:0:0:0:
329,192,53525,1,0,0:0:0:0:
36,192,53632,1,0,0:0:0:0:
182,192,53632,1,0,0:0:0:0:
256,192,53632,1,0,0:0:0:0:
475,192,53632,1,0,0:0:0:0:
109,192,53738,1,0,0:0:0:0:
402,192,53738,1,0,0:0:0:0:
36,192,53845,1,0,0:0:0:0:
182,192,53845,1,0,0:0:0:0:
329,192,53845,1,0,0:0:0:0:
256,192,53845,1,0,0:0:0:0:
402,192,53953,1,0,0:0:0:0:
256,192,54059,1,0,0:0:0:0:
182,192,54059,1,0,0:0:0:0:
109,192,54059,1,0,0:0:0:0:
475,192,54059,1,0,0:0:0:0:
36,192,54166,1,0,0:0:0:0:
329,192,54166,1,0,0:0:0:0:
109,192,54274,1,0,0:0:0:0:
182,192,54274,1,0,0:0:0:0:
402,192,54274,1,0,0:0:0:0:
475,192,54274,1,0,0:0:0:0:
256,192,54380,1,0,0:0:0:0:
475,192,54487,1,0,0:0:0:0:
36,192,54487,1,0,0:0:0:0:
182,192,54487,1,0,0:0:0:0:
329,192,54487,1,0,0:0:0:0:
109,192,54595,1,0,0:0:0:0:
402,192,54595,1,0,0:0:0:0:
475,192,54701,1,0,0:0:0:0:
36,192,54701,1,0,0:0:0:0:
182,192,54701,1,0,0:0:0:0:
256,192,54701,1,0,0:0:0:0:
402,192,54808,1,0,0:0:0:0:
36,192,54915,1,0,0:0:0:0:
109,192,54915,1,0,0:0:0:0:
329,192,54915,1,0,0:0:0:0:
256,192,54915,1,0,0:0:0:0:
182,192,55022,1,0,0:0:0:0:
475,192,55022,1,0,0:0:0:0:
109,192,55129,1,0,0:0:0:0:
36,192,55129,1,0,0:0:0:0:
256,192,55129,1,0,0:0:0:0:
402,192,55129,1,0,0:0:0:0:
329,192,55235,1,0,0:0:0:0:
36,192,55343,1,0,0:0:0:0:
256,192,55343,1,0,0:0:0:0:
182,192,55343,1,0,0:0:0:0:
475,192,55343,1,0,0:0:0:0:
109,192,55450,1,0,0:0:0:0:
402,192,55450,1,0,0:0:0:0:
256,192,55556,1,0,0:0:0:0:
36,192,55556,1,0,0:0:0:0:
182,192,55556,1,0,0:0:0:0:
329,192,55556,1,0,0:0:0:0:
402,192,55664,1,0,0:0:0:0:
256,192,55771,1,0,0:0:0:0:
109,192,55771,1,0,0:0:0:0:
182,192,55771,1,0,0:0:0:0:
475,192,55771,1,0,0:0:0:0:
36,192,55877,1,0,0:0:0:0:
329,192,55877,1,0,0:0:0:0:
402,192,55985,1,0,0:0:0:0:
109,192,55985,1,0,0:0:0:0:
182,192,55985,1,0,0:0:0:0:
475,192,55985,1,0,0:0:0:0:
256,192,56092,1,0,0:0:0:0:
36,192,56198,1,0,0:0:0:0:
182,192,56198,1,0,0:0:0:0:
329,192,56198,1,0,0:0:0:0:
475,192,56198,1,0,0:0:0:0:
109,192,56305,1,0,0:0:0:0:
402,192,56305,1,0,0:0:0:0:
36,192,56413,1,0,0:0:0:0:
182,192,56413,1,0,0:0:0:0:
256,192,56413,1,0,0:0:0:0:
475,192,56413,1,0,0:0:0:0:
329,192,56519,1,0,0:0:0:0:
402,192,56626,1,0,0:0:0:0:
475,192,56626,1,0,0:0:0:0:
36,192,56626,1,0,0:0:0:0:
109,192,56626,1,0,0:0:0:0:
182,192,56626,1,0,0:0:0:0:
256,192,56733,1,0,0:0:0:0:
329,192,56840,1,0,0:0:0:0:
402,192,56840,1,0,0:0:0:0:
475,192,56840,1,0,0:0:0:0:
36,192,56840,1,0,0:0:0:0:
109,192,56840,1,0,0:0:0:0:
182,192,56947,1,0,0:0:0:0:
256,192,57054,1,0,0:0:0:0:
329,192,57054,1,0,0:0:0:0:
402,192,57054,1,0,0:0:0:0:
475,192,57054,1,0,0:0:0:0:
36,192,57054,1,0,0:0:0:0:
182,192,57161,1,0,0:0:0:0:
36,192,57268,1,0,0:0:0:0:
109,192,57268,1,0,0:0:0:0:
402,192,57268,1,0,0:0:0:0:
475,192,57268,1,0,0:0:0:0:
329,192,57268,1,0,0:0:0:0:
256,192,57375,1,0,0:0:0:0:
182,192,57482,1,0,0:0:0:0:
109,192,57482,1,0,0:0:0:0:
36,192,57482,1,0,0:0:0:0:
402,192,57482,1,0,0:0:0:0:
475,192,57482,1,0,0:0:0:0:
256,192,57589,1,0,0:0:0:0:
36,192,57695,1,0,0:0:0:0:
475,192,57695,1,0,0:0:0:0:
109,192,57695,1,0,0:0:0:0:
182,192,57695,1,0,0:0:0:0:
402,192,57695,1,0,0:0:0:0:
329,192,57803,1,0,0:0:0:0:
182,192,57910,1,0,0:0:0:0:
109,192,57910,1,0,0:0:0:0:
36,192,57910,1,0,0:0:0:0:
256,192,57910,1,0,0:0:0:0:
475,192,57910,1,0,0:0:0:0:
329,192,58016,1,0,0:0:0:0:
402,192,58124,1,0,0:0:0:0:
475,192,58124,1,0,0:0:0:0:
36,192,58124,1,0,0:0:0:0:
109,192,58124,1,0,0:0:0:0:
182,192,58124,1,0,0:0:0:0:
256,192,58231,1,0,0:0:0:0:
36,192,58337,1,0,0:0:0:0:
329,192,58337,1,0,0:0:0:0:
402,192,58337,1,0,0:0:0:0:
475,192,58337,1,0,0:0:0:0:
109,192,58337,1,0,0:0:0:0:
36,192,58445,1,0,0:0:0:0:
182,192,58551,1,0,0:0:0:0:
329,192,58551,1,0,0:0:0:0:
36,192,58658,1,0,0:0:0:0:
182,192,58658,1,0,0:0:0:0:
329,192,58658,1,0,0:0:0:0:
256,192,58765,1,0,0:0:0:0:
402,192,58765,1,0,0:0:0:0:
36,192,58872,1,0,0:0:0:0:
329,192,58872,1,0,0:0:0:0:
475,192,58872,1,0,0:0:0:0:
182,192,59086,1,0,0:0:0:0:
329,192,59086,1,0,0:0:0:0:
36,192,59086,1,0,0:0:0:0:
36,192,59193,1,0,0:0:0:0:
109,192,59193,1,0,0:0:0:0:
256,192,59193,1,0,0:0:0:0:
475,192,59193,1,0,0:0:0:0:
402,192,59193,1,0,0:0:0:0:
182,192,59300,1,0,0:0:0:0:
329,192,59300,1,0,0:0:0:0:
109,192,59407,1,0,0:0:0:0:
36,192,59407,1,0,0:0:0:0:
402,192,59407,1,0,0:0:0:0:
475,192,59407,1,0,0:0:0:0:
182,192,59514,1,0,0:0:0:0:
329,192,59514,1,0,0:0:0:0:
256,192,59621,1,0,0:0:0:0:
36,192,59621,1,0,0:0:0:0:
475,192,59621,1,0,0:0:0:0:
109,192,59728,1,0,0:0:0:0:
402,192,59728,1,0,0:0:0:0:
182,192,59835,1,0,0:0:0:0:
256,192,59835,1,0,0:0:0:0:
329,192,59835,1,0,0:0:0:0:
109,192,59942,1,0,0:0:0:0:
402,192,59942,1,0,0:0:0:0:
36,192,60049,1,0,0:0:0:0:
475,192,60049,1,0,0:0:0:0:
329,192,60049,1,0,0:0:0:0:
256,192,60049,1,0,0:0:0:0:
182,192,60049,1,0,0:0:0:0:
402,192,60155,1,0,0:0:0:0:
109,192,60155,1,0,0:0:0:0:
475,192,60263,1,0,0:0:0:0:
256,192,60263,1,0,0:0:0:0:
36,192,60263,1,0,0:0:0:0:
182,192,60369,1,0,0:0:0:0:
402,192,60369,1,0,0:0:0:0:
109,192,60476,1,0,0:0:0:0:
36,192,60476,1,0,0:0:0:0:
329,192,60476,1,0,0:0:0:0:
475,192,60476,1,0,0:0:0:0:
182,192,60584,1,0,0:0:0:0:
256,192,60584,1,0,0:0:0:0:
402,192,60584,1,0,0:0:0:0:
475,192,60690,1,0,0:0:0:0:
36,192,60690,1,0,0:0:0:0:
329,192,60690,1,0,0:0:0:0:
109,192,60797,1,0,0:0:0:0:
182,192,60797,1,0,0:0:0:0:
402,192,60797,1,0,0:0:0:0:
256,192,60905,1,0,0:0:0:0:
329,192,60905,1,0,0:0:0:0:
36,192,60905,1,0,0:0:0:0:
475,192,60905,1,0,0:0:0:0:
109,192,61011,1,0,0:0:0:0:
182,192,61011,1,0,0:0:0:0:
36,192,61118,1,0,0:0:0:0:
329,192,61118,1,0,0:0:0:0:
402,192,61118,1,0,0:0:0:0:
475,192,61118,1,0,0:0:0:0:
182,192,61225,1,0,0:0:0:0:
256,192,61225,1,0,0:0:0:0:
36,192,61332,1,0,0:0:0:0:
109,192,61332,1,0,0:0:0:0:
402,192,61332,1,0,0:0:0:0:
475,192,61332,1,0,0:0:0:0:
256,192,61439,1,0,0:0:0:0:
329,192,61439,1,0,0:0:0:0:
36,192,61546,1,0,0:0:0:0:
109,192,61546,1,0,0:0:0:0:
182,192,61546,1,0,0:0:0:0:
475,192,61546,1,0,0:0:0:0:
402,192,61653,1,0,0:0:0:0:
329,192,61653,1,0,0:0:0:0:
36,192,61760,1,0,0:0:0:0:
109,192,61760,1,0,0:0:0:0:
475,192,61760,1,0,0:0:0:0:
256,192,61760,1,0,0:0:0:0:
182,192,61760,1,0,0:0:0:0:
329,192,61867,1,0,0:0:0:0:
402,192,61867,1,0,0:0:0:0:
475,192,61974,1,0,0:0:0:0:
182,192,61974,1,0,0:0:0:0:
109,192,61974,1,0,0:0:0:0:
36,192,61974,1,0,0:0:0:0:
256,192,62081,1,0,0:0:0:0:
329,192,62081,1,0,0:0:0:0:
36,192,62187,1,0,0:0:0:0:
402,192,62187,1,0,0:0:0:0:
475,192,62187,1,0,0:0:0:0:
109,192,62187,1,0,0:0:0:0:
182,192,62295,1,0,0:0:0:0:
256,192,62295,1,0,0:0:0:0:
329,192,62402,1,0,0:0:0:0:
402,192,62402,1,0,0:0:0:0:
475,192,62402,1,0,0:0:0:0:
36,192,62402,1,0,0:0:0:0:
109,192,62508,1,0,0:0:0:0:
182,192,62508,1,0,0:0:0:0:
36,192,62615,1,0,0:0:0:0:
256,192,62615,1,0,0:0:0:0:
329,192,62615,1,0,0:0:0:0:
475,192,62615,1,0,0:0:0:0:
182,192,62723,1,0,0:0:0:0:
402,192,62723,1,0,0:0:0:0:
36,192,62829,1,0,0:0:0:0:
109,192,62829,1,0,0:0:0:0:
329,192,62829,1,0,0:0:0:0:
182,192,62936,1,0,0:0:0:0:
256,192,62936,1,0,0:0:0:0:
402,192,62936,1,0,0:0:0:0:
36,192,63044,1,0,0:0:0:0:
329,192,63044,1,0,0:0:0:0:
109,192,63044,1,0,0:0:0:0:
475,192,63044,1,0,0:0:0:0:
182,192,63150,1,0,0:0:0:0:
402,192,63150,1,0,0:0:0:0:
256,192,63257,1,0,0:0:0:0:
36,192,63257,1,0,0:0:0:0:
475,192,63257,1,0,0:0:0:0:
109,192,63365,1,0,0:0:0:0:
402,192,63365,1,0,0:0:0:0:
36,192,63471,1,0,0:0:0:0:
182,192,63471,1,0,0:0:0:0:
475,192,63471,1,0,0:0:0:0:
329,192,63471,1,0,0:0:0:0:
109,192,63578,1,0,0:0:0:0:
256,192,63578,1,0,0:0:0:0:
36,192,63685,1,0,0:0:0:0:
182,192,63685,1,0,0:0:0:0:
402,192,63685,1,0,0:0:0:0:
475,192,63685,1,0,0:0:0:0:
109,192,63792,1,0,0:0:0:0:
256,192,63792,1,0,0:0:0:0:
329,192,63792,1,0,0:0:0:0:
36,192,63899,1,0,0:0:0:0:
475,192,63899,1,0,0:0:0:0:
182,192,64005,1,0,0:0:0:0:
256,192,64005,1,0,0:0:0:0:
402,192,64005,1,0,0:0:0:0:
329,192,64113,1,0,0:0:0:0:
475,192,64113,1,0,0:0:0:0:
36,192,64113,1,0,0:0:0:0:
109,192,64113,1,0,0:0:0:0:
402,192,64220,1,0,0:0:0:0:
182,192,64220,1,0,0:0:0:0:
109,192,64326,1,0,0:0:0:0:
36,192,64326,1,0,0:0:0:0:
256,192,64326,1,0,0:0:0:0:
475,192,64326,1,0,0:0:0:0:
182,192,64434,1,0,0:0:0:0:
402,192,64434,1,0,0:0:0:0:
36,192,64541,1,0,0:0:0:0:
109,192,64541,1,0,0:0:0:0:
329,192,64541,1,0,0:0:0:0:
475,192,64541,1,0,0:0:0:0:
402,192,64647,1,0,0:0:0:0:
182,192,64647,1,0,0:0:0:0:
256,192,64647,1,0,0:0:0:0:
475,192,64755,1,0,0:0:0:0:
36,192,64755,1,0,0:0:0:0:
329,192,64862,1,0,0:0:0:0:
256,192,64862,1,0,0:0:0:0:
109,192,64862,1,0,0:0:0:0:
36,192,64968,1,0,0:0:0:0:
402,192,64968,1,0,0:0:0:0:
182,192,64968,1,0,0:0:0:0:
475,192,64968,1,0,0:0:0:0:
109,192,65075,1,0,0:0:0:0:
329,192,65075,1,0,0:0:0:0:
36,192,65183,1,0,0:0:0:0:
475,192,65183,1,0,0:0:0:0:
256,192,65183,1,0,0:0:0:0:
182,192,65183,1,0,0:0:0:0:
109,192,65289,1,0,0:0:0:0:
329,192,65289,1,0,0:0:0:0:
182,192,65396,1,0,0:0:0:0:
402,192,65396,1,0,0:0:0:0:
36,192,65396,1,0,0:0:0:0:
475,192,65396,1,0,0:0:0:0:
109,192,65504,1,0,0:0:0:0:
256,192,65504,1,0,0:0:0:0:
36,192,65610,1,0,0:0:0:0:
182,192,65610,1,0,0:0:0:0:
329,192,65610,1,0,0:0:0:0:
475,192,65610,1,0,0:0:0:0:
402,192,65717,1,0,0:0:0:0:
256,192,65717,1,0,0:0:0:0:
36,192,65824,1,0,0:0:0:0:
475,192,65824,1,0,0:0:0:0:
329,192,65824,1,0,0:0:0:0:
109,192,65824,1,0,0:0:0:0:
402,192,65931,1,0,0:0:0:0:
182,192,65931,1,0,0:0:0:0:
36,192,66038,1,0,0:0:0:0:
475,192,66038,1,0,0:0:0:0:
109,192,66038,1,0,0:0:0:0:
256,192,66038,1,0,0:0:0:0:
182,192,66145,1,0,0:0:0:0:
329,192,66145,1,0,0:0:0:0:
36,192,66252,1,0,0:0:0:0:
109,192,66252,1,0,0:0:0:0:
402,192,66252,1,0,0:0:0:0:
475,192,66252,1,0,0:0:0:0:
182,192,66359,1,0,0:0:0:0:
329,192,66359,1,0,0:0:0:0:
36,192,66465,1,0,0:0:0:0:
256,192,66465,1,0,0:0:0:0:
475,192,66465,1,0,0:0:0:0:
109,192,66573,1,0,0:0:0:0:
402,192,66573,1,0,0:0:0:0:
329,192,66680,1,0,0:0:0:0:
182,192,66680,1,0,0:0:0:0:
256,192,66680,1,0,0:0:0:0:
109,192,66786,1,0,0:0:0:0:
402,192,66786,1,0,0:0:0:0:
329,192,66894,1,0,0:0:0:0:
256,192,66894,1,0,0:0:0:0:
36,192,66894,1,0,0:0:0:0:
475,192,66894,1,0,0:0:0:0:
109,192,67001,1,0,0:0:0:0:
182,192,67001,1,0,0:0:0:0:
36,192,67107,1,0,0:0:0:0:
475,192,67107,1,0,0:0:0:0:
329,192,67107,1,0,0:0:0:0:
402,192,67107,1,0,0:0:0:0:
256,192,67215,1,0,0:0:0:0:
182,192,67215,1,0,0:0:0:0:
402,192,67322,1,0,0:0:0:0:
109,192,67322,1,0,0:0:0:0:
36,192,67322,1,0,0:0:0:0:
475,192,67322,1,0,0:0:0:0:
329,192,67428,1,0,0:0:0:0:
256,192,67428,1,0,0:0:0:0:
36,192,67535,1,0,0:0:0:0:
109,192,67535,1,0,0:0:0:0:
182,192,67535,1,0,0:0:0:0:
475,192,67535,1,0,0:0:0:0:
402,192,67642,1,0,0:0:0:0:
329,192,67642,1,0,0:0:0:0:
36,192,67749,1,0,0:0:0:0:
109,192,67749,1,0,0:0:0:0:
475,192,67749,1,0,0:0:0:0:
256,192,67749,1,0,0:0:0:0:
182,192,67856,1,0,0:0:0:0:
402,192,67856,1,0,0:0:0:0:
36,192,67963,1,0,0:0:0:0:
109,192,67963,1,0,0:0:0:0:
329,192,67963,1,0,0:0:0:0:
475,192,67963,1,0,0:0:0:0:
182,192,68070,1,0,0:0:0:0:
256,192,68070,1,0,0:0:0:0:
402,192,68070,1,0,0:0:0:0:
36,192,68177,1,0,0:0:0:0:
109,192,68177,1,0,0:0:0:0:
329,192,68177,1,0,0:0:0:0:
256,192,68284,1,0,0:0:0:0:
475,192,68284,1,0,0:0:0:0:
36,192,68391,1,0,0:0:0:0:
402,192,68391,1,0,0:0:0:0:
182,192,68391,1,0,0:0:0:0:
109,192,68391,1,0,0:0:0:0:
329,192,68498,1,0,0:0:0:0:
256,192,68498,1,0,0:0:0:0:
402,192,68605,1,0,0:0:0:0:
475,192,68605,1,0,0:0:0:0:
36,192,68605,1,0,0:0:0:0:
182,192,68605,1,0,0:0:0:0:
329,192,68712,1,0,0:0:0:0:
109,192,68712,1,0,0:0:0:0:
475,192,68819,1,0,0:0:0:0:
402,192,68819,1,0,0:0:0:0:
182,192,68819,1,0,0:0:0:0:
36,192,68819,1,0,0:0:0:0:
329,192,68925,1,0,0:0:0:0:
256,192,68925,1,0,0:0:0:0:
109,192,68925,1,0,0:0:0:0:
475,192,69033,1,0,0:0:0:0:
402,192,69033,1,0,0:0:0:0:
182,192,69033,1,0,0:0:0:0:
256,192,69140,1,0,0:0:0:0:
36,192,69140,1,0,0:0:0:0:
475,192,69246,1,0,0:0:0:0:
109,192,69246,1,0,0:0:0:0:
329,192,69246,1,0,0:0:0:0:
402,192,69246,1,0,0:0:0:0:
182,192,69354,1,0,0:0:0:0:
256,192,69354,1,0,0:0:0:0:
109,192,69460,1,0,0:0:0:0:
36,192,69460,1,0,0:0:0:0:
475,192,69460,1,0,0:0:0:0:
329,192,69460,1,0,0:0:0:0:
182,192,69567,1,0,0:0:0:0:
402,192,69567,1,0,0:0:0:0:
36,192,69675,1,0,0:0:0:0:
256,192,69675,1,0,0:0:0:0:
475,192,69675,1,0,0:0:0:0:
109,192,69781,1,0,0:0:0:0:
329,192,69781,1,0,0:0:0:0:
182,192,69888,1,0,0:0:0:0:
402,192,69888,1,0,0:0:0:0:
475,192,69888,1,0,0:0:0:0:
36,192,69888,1,0,0:0:0:0:
109,192,69995,1,0,0:0:0:0:
329,192,69995,1,0,0:0:0:0:
36,192,70102,1,0,0:0:0:0:
256,192,70102,1,0,0:0:0:0:
475,192,70102,1,0,0:0:0:0:
402,192,70102,1,0,0:0:0:0:
182,192,70209,1,0,0:0:0:0:
329,192,70209,1,0,0:0:0:0:
36,192,70316,1,0,0:0:0:0:
475,192,70316,1,0,0:0:0:0:
109,192,70316,1,0,0:0:0:0:
256,192,70316,1,0,0:0:0:0:
182,192,70423,1,0,0:0:0:0:
402,192,70423,1,0,0:0:0:0:
36,192,70530,1,0,0:0:0:0:
109,192,70530,1,0,0:0:0:0:
329,192,70530,1,0,0:0:0:0:
475,192,70530,1,0,0:0:0:0:
182,192,70637,1,0,0:0:0:0:
256,192,70637,1,0,0:0:0:0:
402,192,70637,1,0,0:0:0:0:
36,192,70744,1,0,0:0:0:0:
475,192,70744,1,0,0:0:0:0:
329,192,70744,1,0,0:0:0:0:
109,192,70744,1,0,0:0:0:0:
182,192,70851,1,0,0:0:0:0:
402,192,70851,1,0,0:0:0:0:
256,192,70958,1,0,0:0:0:0:
475,192,70958,1,0,0:0:0:0:
36,192,70958,1,0,0:0:0:0:
109,192,70958,1,0,0:0:0:0:
329,192,71065,1,0,0:0:0:0:
182,192,71065,1,0,0:0:0:0:
36,192,71172,1,0,0:0:0:0:
402,192,71172,1,0,0:0:0:0:
256,192,71172,1,0,0:0:0:0:
475,192,71172,1,0,0:0:0:0:
109,192,71278,1,0,0:0:0:0:
182,192,71278,1,0,0:0:0:0:
329,192,71278,1,0,0:0:0:0:
36,192,71385,1,0,0:0:0:0:
256,192,71385,1,0,0:0:0:0:
402,192,71385,1,0,0:0:0:0:
475,192,71385,1,0,0:0:0:0:
109,192,71493,1,0,0:0:0:0:
329,192,71493,1,0,0:0:0:0:
182,192,71599,1,0,0:0:0:0:
36,192,71599,1,0,0:0:0:0:
475,192,71599,1,0,0:0:0:0:
402,192,71599,1,0,0:0:0:0:
109,192,71706,1,0,0:0:0:0:
256,192,71706,1,0,0:0:0:0:
36,192,71814,1,0,0:0:0:0:
182,192,71814,1,0,0:0:0:0:
329,192,71814,1,0,0:0:0:0:
109,192,71920,1,0,0:0:0:0:
256,192,71920,1,0,0:0:0:0:
402,192,71920,1,0,0:0:0:0:
36,192,72027,1,0,0:0:0:0:
475,192,72027,1,0,0:0:0:0:
182,192,72027,1,0,0:0:0:0:
329,192,72027,1,0,0:0:0:0:
256,192,72241,1,0,0:0:0:0:
475,192,72241,1,0,0:0:0:0:
36,192,72241,1,0,0:0:0:0:
109,192,72241,1,0,0:0:0:0:
182,192,72347,1,0,0:0:0:0:
402,192,72347,1,0,0:0:0:0:
329,192,72455,1,0,0:0:0:0:
109,192,72455,1,0,0:0:0:0:
36,192,72455,1,0,0:0:0:0:
256,192,72562,1,0,0:0:0:0:
182,192,72562,1,0,0:0:0:0:
36,192,72668,1,0,0:0:0:0:
329,192,72668,1,0,0:0:0:0:
475,192,72668,1,0,0:0:0:0:
402,192,72668,1,0,0:0:0:0:
109,192,72775,1,0,0:0:0:0:
182,192,72775,1,0,0:0:0:0:
36,192,72882,1,0,0:0:0:0:
256,192,72882,1,0,0:0:0:0:
475,192,72882,1,0,0:0:0:0:
109,192,72988,1,0,0:0:0:0:
329,192,72988,1,0,0:0:0:0:
182,192,73095,1,0,0:0:0:0:
475,192,73095,1,0,0:0:0:0:
402,192,73095,1,0,0:0:0:0:
256,192,73203,1,0,0:0:0:0:
329,192,73203,1,0,0:0:0:0:
36,192,73309,1,0,0:0:0:0:
182,192,73309,1,0,0:0:0:0:
475,192,73309,1,0,0:0:0:0:
109,192,73309,1,0,0:0:0:0:
329,192,73416,1,0,0:0:0:0:
256,192,73524,1,0,0:0:0:0:
475,192,73524,1,0,0:0:0:0:
109,192,73524,1,0,0:0:0:0:
36,192,73524,1,0,0:0:0:0:
182,192,73630,1,0,0:0:0:0:
402,192,73630,1,0,0:0:0:0:
475,192,73737,1,0,0:0:0:0:
109,192,73737,1,0,0:0:0:0:
329,192,73737,1,0,0:0:0:0:
36,192,73844,1,0,0:0:0:0:
256,192,73844,1,0,0:0:0:0:
475,192,73951,1,0,0:0:0:0:
182,192,73951,1,0,0:0:0:0:
402,192,73951,1,0,0:0:0:0:
109,192,74058,1,0,0:0:0:0:
329,192,74058,1,0,0:0:0:0:
36,192,74165,1,0,0:0:0:0:
256,192,74165,1,0,0:0:0:0:
402,192,74165,1,0,0:0:0:0:
475,192,74165,1,0,0:0:0:0:
182,192,74272,1,0,0:0:0:0:
109,192,74379,1,0,0:0:0:0:
329,192,74379,1,0,0:0:0:0:
402,192,74379,1,0,0:0:0:0:
36,192,74379,1,0,0:0:0:0:
256,192,74485,1,0,0:0:0:0:
182,192,74593,1,0,0:0:0:0:
109,192,74593,1,0,0:0:0:0:
402,192,74593,1,0,0:0:0:0:
475,192,74593,1,0,0:0:0:0:
329,192,74700,1,0,0:0:0:0:
36,192,74806,1,0,0:0:0:0:
256,192,74806,1,0,0:0:0:0:
402,192,74806,1,0,0:0:0:0:
475,192,74806,1,0,0:0:0:0:
109,192,74806,1,0,0:0:0:0:
256,192,75021,1,0,0:0:0:0:
475,192,75021,1,0,0:0:0:0:
36,192,75021,1,0,0:0:0:0:
109,192,75021,1,0,0:0:0:0:
182,192,75127,1,0,0:0:0:0:
402,192,75127,1,0,0:0:0:0:
329,192,75235,1,0,0:0:0:0:
109,192,75235,1,0,0:0:0:0:
36,192,75235,1,0,0:0:0:0:
256,192,75342,1,0,0:0:0:0:
182,192,75342,1,0,0:0:0:0:
36,192,75448,1,0,0:0:0:0:
329,192,75448,1,0,0:0:0:0:
475,192,75448,1,0,0:0:0:0:
402,192,75448,1,0,0:0:0:0:
109,192,75555,1,0,0:0:0:0:
182,192,75555,1,0,0:0:0:0:
36,192,75662,1,0,0:0:0:0:
256,192,75662,1,0,0:0:0:0:
475,192,75662,1,0,0:0:0:0:
109,192,75768,1,0,0:0:0:0:
329,192,75768,1,0,0:0:0:0:
182,192,75875,1,0,0:0:0:0:
475,192,75875,1,0,0:0:0:0:
402,192,75875,1,0,0:0:0:0:
256,192,75983,1,0,0:0:0:0:
329,192,75983,1,0,0:0:0:0:
36,192,76089,1,0,0:0:0:0:
182,192,76089,1,0,0:0:0:0:
475,192,76089,1,0,0:0:0:0:
109,192,76089,1,0,0:0:0:0:
329,192,76196,1,0,0:0:0:0:
256,192,76304,1,0,0:0:0:0:
475,192,76304,1,0,0:0:0:0:
109,192,76304,1,0,0:0:0:0:
36,192,76304,1,0,0:0:0:0:
182,192,76410,1,0,0:0:0:0:
402,192,76410,1,0,0:0:0:0:
475,192,76517,1,0,0:0:0:0:
109,192,76517,1,0,0:0:0:0:
329,192,76517,1,0,0:0:0:0:
36,192,76624,1,0,0:0:0:0:
256,192,76624,1,0,0:0:0:0:
475,192,76731,1,0,0:0:0:0:
182,192,76731,1,0,0:0:0:0:
402,192,76731,1,0,0:0:0:0:
109,192,76838,1,0,0:0:0:0:
329,192,76838,1,0,0:0:0:0:
36,192,76945,1,0,0:0:0:0:
402,192,76945,1,0,0:0:0:0:
475,192,76945,1,0,0:0:0:0:
256,192,76945,1,0,0:0:0:0:
182,192,77052,1,0,0:0:0:0:
329,192,77159,1,0,0:0:0:0:
475,192,77159,1,0,0:0:0:0:
109,192,77159,1,0,0:0:0:0:
36,192,77159,1,0,0:0:0:0:
256,192,77265,1,0,0:0:0:0:
402,192,77373,1,0,0:0:0:0:
36,192,77373,1,0,0:0:0:0:
182,192,77373,1,0,0:0:0:0:
475,192,77373,1,0,0:0:0:0:
329,192,77480,1,0,0:0:0:0:
402,192,77586,1,0,0:0:0:0:
475,192,77586,1,0,0:0:0:0:
36,192,77586,1,0,0:0:0:0:
109,192,77586,1,0,0:0:0:0:
256,192,77586,1,0,0:0:0:0:
182,192,77801,1,0,0:0:0:0:
36,192,77801,1,0,0:0:0:0:
402,192,77801,1,0,0:0:0:0:
475,192,77801,1,0,0:0:0:0:
109,192,77907,1,0,0:0:0:0:
329,192,77907,1,0,0:0:0:0:
36,192,78015,1,0,0:0:0:0:
256,192,78015,1,0,0:0:0:0:
475,192,78015,1,0,0:0:0:0:
182,192,78122,1,0,0:0:0:0:
402,192,78122,1,0,0:0:0:0:
36,192,78228,1,0,0:0:0:0:
109,192,78228,1,0,0:0:0:0:
329,192,78228,1,0,0:0:0:0:
475,192,78228,1,0,0:0:0:0:
256,192,78335,1,0,0:0:0:0:
109,192,78442,1,0,0:0:0:0:
182,192,78442,1,0,0:0:0:0:
402,192,78442,1,0,0:0:0:0:
475,192,78442,1,0,0:0:0:0:
329,192,78549,1,0,0:0:0:0:
182,192,78656,1,0,0:0:0:0:
256,192,78656,1,0,0:0:0:0:
475,192,78656,1,0,0:0:0:0:
36,192,78656,1,0,0:0:0:0:
402,192,78763,1,0,0:0:0:0:
329,192,78870,1,0,0:0:0:0:
475,192,78870,1,0,0:0:0:0:
109,192,78870,1,0,0:0:0:0:
36,192,78870,1,0,0:0:0:0:
329,192,79084,1,0,0:0:0:0:
475,192,79084,1,0,0:0:0:0:
109,192,79084,1,0,0:0:0:0:
36,192,79084,1,0,0:0:0:0:
402,192,79191,1,0,0:0:0:0:
182,192,79191,1,0,0:0:0:0:
475,192,79298,1,0,0:0:0:0:
256,192,79298,1,0,0:0:0:0:
36,192,79298,1,0,0:0:0:0:
329,192,79405,1,0,0:0:0:0:
109,192,79405,1,0,0:0:0:0:
475,192,79512,1,0,0:0:0:0:
402,192,79512,1,0,0:0:0:0:
182,192,79512,1,0,0:0:0:0:
36,192,79512,1,0,0:0:0:0:
256,192,79619,1,0,0:0:0:0:
402,192,79725,1,0,0:0:0:0:
329,192,79725,1,0,0:0:0:0:
109,192,79725,1,0,0:0:0:0:
36,192,79725,1,0,0:0:0:0:
182,192,79833,1,0,0:0:0:0:
329,192,79940,1,0,0:0:0:0:
256,192,79940,1,0,0:0:0:0:
36,192,79940,1,0,0:0:0:0:
475,192,79940,1,0,0:0:0:0:
109,192,80046,1,0,0:0:0:0:
182,192,80154,1,0,0:0:0:0:
36,192,80154,1,0,0:0:0:0:
402,192,80154,1,0,0:0:0:0:
475,192,80154,1,0,0:0:0:0:
109,192,80260,1,0,0:0:0:0:
329,192,80260,1,0,0:0:0:0:
475,192,80367,1,0,0:0:0:0:
256,192,80367,1,0,0:0:0:0:
36,192,80367,1,0,0:0:0:0:
182,192,80475,1,0,0:0:0:0:
402,192,80475,1,0,0:0:0:0:
36,192,80581,1,0,0:0:0:0:
109,192,80581,1,0,0:0:0:0:
329,192,80581,1,0,0:0:0:0:
182,192,80688,1,0,0:0:0:0:
256,192,80688,1,0,0:0:0:0:
475,192,80795,1,0,0:0:0:0:
36,192,80795,1,0,0:0:0:0:
109,192,80795,1,0,0:0:0:0:
329,192,80795,1,0,0:0:0:0:
402,192,80902,1,0,0:0:0:0:
182,192,80902,1,0,0:0:0:0:
36,192,81009,1,0,0:0:0:0:
256,192,81009,1,0,0:0:0:0:
475,192,81009,1,0,0:0:0:0:
329,192,81115,1,0,0:0:0:0:
109,192,81115,1,0,0:0:0:0:
475,192,81223,1,0,0:0:0:0:
402,192,81223,1,0,0:0:0:0:
182,192,81223,1,0,0:0:0:0:
329,192,81330,1,0,0:0:0:0:
256,192,81330,1,0,0:0:0:0:
36,192,81436,1,0,0:0:0:0:
475,192,81436,1,0,0:0:0:0:
402,192,81436,1,0,0:0:0:0:
182,192,81436,1,0,0:0:0:0:
329,192,81544,1,0,0:0:0:0:
109,192,81544,1,0,0:0:0:0:
36,192,81651,1,0,0:0:0:0:
475,192,81651,1,0,0:0:0:0:
182,192,81651,1,0,0:0:0:0:
256,192,81651,1,0,0:0:0:0:
109,192,81757,1,0,0:0:0:0:
329,192,81757,1,0,0:0:0:0:
402,192,81757,1,0,0:0:0:0:
36,192,81865,1,0,0:0:0:0:
182,192,81865,1,0,0:0:0:0:
256,192,81865,1,0,0:0:0:0:
475,192,81865,1,0,0:0:0:0:
109,192,81972,1,0,0:0:0:0:
402,192,81972,1,0,0:0:0:0:
329,192,81972,1,0,0:0:0:0:
182,192,82185,1,0,0:0:0:0:
256,192,82185,1,0,0:0:0:0:
475,192,82185,1,0,0:0:0:0:
36,192,82185,1,0,0:0:0:0:
109,192,82399,1,0,0:0:0:0:
182,192,82399,1,0,0:0:0:0:
402,192,82399,1,0,0:0:0:0:
256,192,82506,1,0,0:0:0:0:
475,192,82506,1,0,0:0:0:0:
36,192,82506,1,0,0:0:0:0:
329,192,82506,1,0,0:0:0:0:
402,192,82720,1,0,0:0:0:0:
256,192,82720,1,0,0:0:0:0:
329,192,82934,1,0,0:0:0:0:
182,192,82934,1,0,0:0:0:0:
36,192,82934,1,0,0:0:0:0:
475,192,82934,1,0,0:0:0:0:
256,192,83148,1,0,0:0:0:0:
109,192,83148,1,0,0:0:0:0:
182,192,83255,1,0,0:0:0:0:
329,192,83255,1,0,0:0:0:0:
36,192,83362,1,0,0:0:0:0:
109,192,83362,1,0,0:0:0:0:
256,192,83362,1,0,0:0:0:0:
402,192,83362,1,0,0:0:0:0:
475,192,83362,1,0,0:0:0:0:
182,192,83469,1,0,0:0:0:0:
329,192,83469,1,0,0:0:0:0:
36,192,83575,1,0,0:0:0:0:
256,192,83575,1,0,0:0:0:0:
402,192,83575,1,0,0:0:0:0:
475,192,83575,1,0,0:0:0:0:
109,192,83683,1,0,0:0:0:0:
329,192,83683,1,0,0:0:0:0:
36,192,83790,1,0,0:0:0:0:
182,192,83790,1,0,0:0:0:0:
475,192,83790,1,0,0:0:0:0:
402,192,83790,1,0,0:0:0:0:
329,192,83896,1,0,0:0:0:0:
256,192,83896,1,0,0:0:0:0:
36,192,84004,1,0,0:0:0:0:
109,192,84004,1,0,0:0:0:0:
182,192,84004,1,0,0:0:0:0:
475,192,84004,1,0,0:0:0:0:
329,192,84111,1,0,0:0:0:0:
402,192,84111,1,0,0:0:0:0:
36,192,84217,1,0,0:0:0:0:
109,192,84217,1,0,0:0:0:0:
256,192,84217,1,0,0:0:0:0:
475,192,84217,1,0,0:0:0:0:
182,192,84325,1,0,0:0:0:0:
329,192,84325,1,0,0:0:0:0:
36,192,84432,1,0,0:0:0:0:
109,192,84432,1,0,0:0:0:0:
475,192,84432,1,0,0:0:0:0:
256,192,84432,1,0,0:0:0:0:
182,192,84538,1,0,0:0:0:0:
402,192,84538,1,0,0:0:0:0:
36,192,84645,1,0,0:0:0:0:
109,192,84645,1,0,0:0:0:0:
329,192,84645,1,0,0:0:0:0:
475,192,84645,1,0,0:0:0:0:
182,192,84752,1,0,0:0:0:0:
256,192,84752,1,0,0:0:0:0:
329,192,84859,1,0,0:0:0:0:
475,192,84859,1,0,0:0:0:0:
402,192,84859,1,0,0:0:0:0:
36,192,84859,1,0,0:0:0:0:
109,192,84966,1,0,0:0:0:0:
182,192,84966,1,0,0:0:0:0:
36,192,85073,1,0,0:0:0:0:
256,192,85073,1,0,0:0:0:0:
475,192,85073,1,0,0:0:0:0:
402,192,85073,1,0,0:0:0:0:
109,192,85180,1,0,0:0:0:0:
329,192,85180,1,0,0:0:0:0:
402,192,85287,1,0,0:0:0:0:
475,192,85287,1,0,0:0:0:0:
36,192,85287,1,0,0:0:0:0:
182,192,85287,1,0,0:0:0:0:
256,192,85394,1,0,0:0:0:0:
109,192,85394,1,0,0:0:0:0:
402,192,85501,1,0,0:0:0:0:
475,192,85501,1,0,0:0:0:0:
36,192,85501,1,0,0:0:0:0:
182,192,85501,1,0,0:0:0:0:
329,192,85501,1,0,0:0:0:0:
109,192,85608,1,0,0:0:0:0:
36,192,85715,1,0,0:0:0:0:
475,192,85715,1,0,0:0:0:0:
402,192,85715,1,0,0:0:0:0:
256,192,85715,1,0,0:0:0:0:
182,192,85822,1,0,0:0:0:0:
329,192,85822,1,0,0:0:0:0:
36,192,85929,1,0,0:0:0:0:
256,192,85929,1,0,0:0:0:0:
475,192,85929,1,0,0:0:0:0:
109,192,85929,1,0,0:0:0:0:
329,192,86035,1,0,0:0:0:0:
182,192,86035,1,0,0:0:0:0:
256,192,86143,1,0,0:0:0:0:
402,192,86143,1,0,0:0:0:0:
475,192,86143,1,0,0:0:0:0:
36,192,86143,1,0,0:0:0:0:
182,192,86250,1,0,0:0:0:0:
109,192,86356,1,0,0:0:0:0:
329,192,86356,1,0,0:0:0:0:
475,192,86356,1,0,0:0:0:0:
36,192,86356,1,0,0:0:0:0:
256,192,86464,1,0,0:0:0:0:
182,192,86464,1,0,0:0:0:0:
36,192,86570,1,0,0:0:0:0:
475,192,86570,1,0,0:0:0:0:
402,192,86570,1,0,0:0:0:0:
109,192,86570,1,0,0:0:0:0:
256,192,86677,1,0,0:0:0:0:
329,192,86677,1,0,0:0:0:0:
36,192,86785,1,0,0:0:0:0:
402,192,86785,1,0,0:0:0:0:
475,192,86785,1,0,0:0:0:0:
182,192,86785,1,0,0:0:0:0:
109,192,86891,1,0,0:0:0:0:
329,192,86891,1,0,0:0:0:0:
475,192,86998,1,0,0:0:0:0:
256,192,86998,1,0,0:0:0:0:
36,192,86998,1,0,0:0:0:0:
402,192,86998,1,0,0:0:0:0:
329,192,87105,1,0,0:0:0:0:
182,192,87105,1,0,0:0:0:0:
475,192,87212,1,0,0:0:0:0:
402,192,87212,1,0,0:0:0:0:
256,192,87212,1,0,0:0:0:0:
36,192,87212,1,0,0:0:0:0:
109,192,87319,1,0,0:0:0:0:
182,192,87319,1,0,0:0:0:0:
36,192,87426,1,0,0:0:0:0:
475,192,87426,1,0,0:0:0:0:
402,192,87426,1,0,0:0:0:0:
329,192,87426,1,0,0:0:0:0:
182,192,87533,1,0,0:0:0:0:
256,192,87533,1,0,0:0:0:0:
36,192,87640,1,0,0:0:0:0:
475,192,87640,1,0,0:0:0:0:
109,192,87640,1,0,0:0:0:0:
329,192,87640,1,0,0:0:0:0:
182,192,87747,1,0,0:0:0:0:
402,192,87747,1,0,0:0:0:0:
475,192,87854,1,0,0:0:0:0:
109,192,87854,1,0,0:0:0:0:
36,192,87854,1,0,0:0:0:0:
256,192,87854,1,0,0:0:0:0:
329,192,87961,1,0,0:0:0:0:
182,192,87961,1,0,0:0:0:0:
256,192,88068,1,0,0:0:0:0:
475,192,88068,1,0,0:0:0:0:
36,192,88068,1,0,0:0:0:0:
109,192,88068,1,0,0:0:0:0:
329,192,88175,1,0,0:0:0:0:
402,192,88175,1,0,0:0:0:0:
109,192,88282,1,0,0:0:0:0:
182,192,88282,1,0,0:0:0:0:
475,192,88282,1,0,0:0:0:0:
36,192,88282,1,0,0:0:0:0:
256,192,88388,1,0,0:0:0:0:
329,192,88388,1,0,0:0:0:0:
402,192,88495,1,0,0:0:0:0:
182,192,88495,1,0,0:0:0:0:
475,192,88495,1,0,0:0:0:0:
36,192,88495,1,0,0:0:0:0:
329,192,88603,1,0,0:0:0:0:
256,192,88603,1,0,0:0:0:0:
36,192,88709,1,0,0:0:0:0:
182,192,88709,1,0,0:0:0:0:
402,192,88709,1,0,0:0:0:0:
475,192,88709,1,0,0:0:0:0:
109,192,88816,1,0,0:0:0:0:
256,192,88816,1,0,0:0:0:0:
182,192,88924,1,0,0:0:0:0:
329,192,88924,1,0,0:0:0:0:
36,192,88924,1,0,0:0:0:0:
402,192,88924,1,0,0:0:0:0:
475,192,88924,1,0,0:0:0:0:
109,192,89030,1,0,0:0:0:0:
402,192,89137,1,0,0:0:0:0:
256,192,89137,1,0,0:0:0:0:
36,192,89137,1,0,0:0:0:0:
475,192,89137,1,0,0:0:0:0:
329,192,89245,1,0,0:0:0:0:
182,192,89245,1,0,0:0:0:0:
475,192,89351,1,0,0:0:0:0:
109,192,89351,1,0,0:0:0:0:
36,192,89351,1,0,0:0:0:0:
256,192,89351,1,0,0:0:0:0:
182,192,89458,1,0,0:0:0:0:
329,192,89458,1,0,0:0:0:0:
475,192,89565,1,0,0:0:0:0:
36,192,89565,1,0,0:0:0:0:
256,192,89565,1,0,0:0:0:0:
402,192,89565,1,0,0:0:0:0:
182,192,89672,1,0,0:0:0:0:
475,192,89779,1,0,0:0:0:0:
36,192,89779,1,0,0:0:0:0:
109,192,89779,1,0,0:0:0:0:
329,192,89779,1,0,0:0:0:0:
182,192,89886,1,0,0:0:0:0:
256,192,89886,1,0,0:0:0:0:
109,192,89993,1,0,0:0:0:0:
36,192,89993,1,0,0:0:0:0:
475,192,89993,1,0,0:0:0:0:
402,192,89993,1,0,0:0:0:0:
256,192,90100,1,0,0:0:0:0:
329,192,90100,1,0,0:0:0:0:
36,192,90206,1,0,0:0:0:0:
109,192,90206,1,0,0:0:0:0:
402,192,90206,1,0,0:0:0:0:
475,192,90206,1,0,0:0:0:0:
329,192,90314,1,0,0:0:0:0:
182,192,90314,1,0,0:0:0:0:
402,192,90421,1,0,0:0:0:0:
475,192,90421,1,0,0:0:0:0:
36,192,90421,1,0,0:0:0:0:
256,192,90421,1,0,0:0:0:0:
329,192,90527,1,0,0:0:0:0:
109,192,90527,1,0,0:0:0:0:
475,192,90635,1,0,0:0:0:0:
402,192,90635,1,0,0:0:0:0:
36,192,90635,1,0,0:0:0:0:
182,192,90635,1,0,0:0:0:0:
256,192,90742,1,0,0:0:0:0:
329,192,90742,1,0,0:0:0:0:
182,192,90848,1,0,0:0:0:0:
475,192,90848,1,0,0:0:0:0:
36,192,90848,1,0,0:0:0:0:
109,192,90848,1,0,0:0:0:0:
402,192,90955,1,0,0:0:0:0:
329,192,90955,1,0,0:0:0:0:
256,192,91063,1,0,0:0:0:0:
475,192,91063,1,0,0:0:0:0:
36,192,91063,1,0,0:0:0:0:
109,192,91063,1,0,0:0:0:0:
329,192,91169,1,0,0:0:0:0:
182,192,91169,1,0,0:0:0:0:
475,192,91276,1,0,0:0:0:0:
256,192,91276,1,0,0:0:0:0:
36,192,91276,1,0,0:0:0:0:
109,192,91276,1,0,0:0:0:0:
402,192,91384,1,0,0:0:0:0:
182,192,91384,1,0,0:0:0:0:
329,192,91490,1,0,0:0:0:0:
475,192,91490,1,0,0:0:0:0:
36,192,91490,1,0,0:0:0:0:
109,192,91490,1,0,0:0:0:0:
256,192,91597,1,0,0:0:0:0:
182,192,91597,1,0,0:0:0:0:
402,192,91705,1,0,0:0:0:0:
36,192,91705,1,0,0:0:0:0:
329,192,91705,1,0,0:0:0:0:
475,192,91705,1,0,0:0:0:0:
182,192,91811,1,0,0:0:0:0:
109,192,91811,1,0,0:0:0:0:
475,192,91918,1,0,0:0:0:0:
402,192,91918,1,0,0:0:0:0:
36,192,91918,1,0,0:0:0:0:
256,192,91918,1,0,0:0:0:0:
329,192,92025,1,0,0:0:0:0:
109,192,92025,1,0,0:0:0:0:
36,192,92132,1,0,0:0:0:0:
182,192,92132,1,0,0:0:0:0:
402,192,92132,1,0,0:0:0:0:
475,192,92132,1,0,0:0:0:0:
109,192,92239,1,0,0:0:0:0:
256,192,92239,1,0,0:0:0:0:
182,192,92345,1,0,0:0:0:0:
329,192,92345,1,0,0:0:0:0:
36,192,92345,1,0,0:0:0:0:
402,192,92345,1,0,0:0:0:0:
475,192,92345,1,0,0:0:0:0:
109,192,92453,1,0,0:0:0:0:
402,192,92560,1,0,0:0:0:0:
256,192,92560,1,0,0:0:0:0:
36,192,92560,1,0,0:0:0:0:
475,192,92560,1,0,0:0:0:0:
329,192,92666,1,0,0:0:0:0:
182,192,92666,1,0,0:0:0:0:
475,192,92774,1,0,0:0:0:0:
109,192,92774,1,0,0:0:0:0:
36,192,92774,1,0,0:0:0:0:
256,192,92774,1,0,0:0:0:0:
182,192,92881,1,0,0:0:0:0:
329,192,92881,1,0,0:0:0:0:
475,192,92987,1,0,0:0:0:0:
36,192,92987,1,0,0:0:0:0:
256,192,92987,1,0,0:0:0:0:
402,192,92987,1,0,0:0:0:0:
109,192,93095,1,0,0:0:0:0:
475,192,93202,1,0,0:0:0:0:
329,192,93202,1,0,0:0:0:0:
182,192,93202,1,0,0:0:0:0:
402,192,93202,1,0,0:0:0:0:
36,192,93308,1,0,0:0:0:0:
109,192,93308,1,0,0:0:0:0:
182,192,93415,1,0,0:0:0:0:
329,192,93415,1,0,0:0:0:0:
256,192,93415,1,0,0:0:0:0:
475,192,93523,1,0,0:0:0:0:
402,192,93523,1,0,0:0:0:0:
36,192,93629,1,0,0:0:0:0:
109,192,93629,1,0,0:0:0:0:
182,192,93629,1,0,0:0:0:0:
329,192,93629,1,0,0:0:0:0:
256,192,93736,1,0,0:0:0:0:
402,192,93736,1,0,0:0:0:0:
36,192,93843,1,0,0:0:0:0:
475,192,93843,1,0,0:0:0:0:
329,192,93843,1,0,0:0:0:0:
109,192,93843,1,0,0:0:0:0:
182,192,93950,1,0,0:0:0:0:
402,192,93950,1,0,0:0:0:0:
475,192,94057,1,0,0:0:0:0:
256,192,94057,1,0,0:0:0:0:
36,192,94057,1,0,0:0:0:0:
109,192,94057,1,0,0:0:0:0:
329,192,94164,1,0,0:0:0:0:
402,192,94164,1,0,0:0:0:0:
109,192,94271,1,0,0:0:0:0:
36,192,94271,1,0,0:0:0:0:
475,192,94271,1,0,0:0:0:0:
182,192,94271,1,0,0:0:0:0:
256,192,94378,1,0,0:0:0:0:
329,192,94378,1,0,0:0:0:0:
36,192,94485,1,0,0:0:0:0:
402,192,94485,1,0,0:0:0:0:
475,192,94485,1,0,0:0:0:0:
182,192,94485,1,0,0:0:0:0:
109,192,94592,1,0,0:0:0:0:
256,192,94592,1,0,0:0:0:0:
182,192,94699,1,0,0:0:0:0:
402,192,94699,1,0,0:0:0:0:
475,192,94699,1,0,0:0:0:0:
36,192,94699,1,0,0:0:0:0:
109,192,94805,1,0,0:0:0:0:
329,192,94805,1,0,0:0:0:0:
475,192,94913,1,0,0:0:0:0:
402,192,94913,1,0,0:0:0:0:
36,192,94913,1,0,0:0:0:0:
256,192,94913,1,0,0:0:0:0:
182,192,94913,1,0,0:0:0:0:
109,192,95020,1,0,0:0:0:0:
36,192,95126,1,0,0:0:0:0:
329,192,95126,1,0,0:0:0:0:
402,192,95126,1,0,0:0:0:0:
475,192,95126,1,0,0:0:0:0:
182,192,95234,1,0,0:0:0:0:
256,192,95234,1,0,0:0:0:0:
36,192,95341,1,0,0:0:0:0:
329,192,95341,1,0,0:0:0:0:
475,192,95341,1,0,0:0:0:0:
109,192,95341,1,0,0:0:0:0:
182,192,95447,1,0,0:0:0:0:
36,192,95555,1,0,0:0:0:0:
256,192,95555,1,0,0:0:0:0:
475,192,95555,1,0,0:0:0:0:
182,192,95661,1,0,0:0:0:0:
402,192,95661,1,0,0:0:0:0:
329,192,95768,1,0,0:0:0:0:
109,192,95768,1,0,0:0:0:0:
36,192,95768,1,0,0:0:0:0:
182,192,95875,1,0,0:0:0:0:
256,192,95875,1,0,0:0:0:0:
402,192,95875,1,0,0:0:0:0:
36,192,95982,1,0,0:0:0:0:
109,192,95982,1,0,0:0:0:0:
329,192,95982,1,0,0:0:0:0:
475,192,95982,1,0,0:0:0:0:
109,192,96196,1,0,0:0:0:0:
182,192,96196,1,0,0:0:0:0:
329,192,96196,1,0,0:0:0:0:
475,192,96196,1,0,0:0:0:0:
109,192,96410,1,0,0:0:0:0:
256,192,96410,1,0,0:0:0:0:
402,192,96410,1,0,0:0:0:0:
36,192,96410,1,0,0:0:0:0:
329,192,96517,1,0,0:0:0:0:
182,192,96517,1,0,0:0:0:0:
475,192,96517,1,0,0:0:0:0:
36,192,96624,1,0,0:0:0:0:
402,192,96624,1,0,0:0:0:0:
109,192,96624,1,0,0:0:0:0:
256,192,96624,1,0,0:0:0:0:
329,192,96731,1,0,0:0:0:0:
182,192,96731,1,0,0:0:0:0:
36,192,96838,1,0,0:0:0:0:
475,192,96838,1,0,0:0:0:0:
256,192,96838,1,0,0:0:0:0:
182,192,96945,1,0,0:0:0:0:
329,192,96945,1,0,0:0:0:0:
36,192,97052,1,0,0:0:0:0:
109,192,97052,1,0,0:0:0:0:
256,192,97052,1,0,0:0:0:0:
475,192,97052,1,0,0:0:0:0:
402,192,97052,1,0,0:0:0:0:
182,192,97159,1,0,0:0:0:0:
329,192,97159,1,0,0:0:0:0:
475,192,97265,1,0,0:0:0:0:
402,192,97265,1,0,0:0:0:0:
256,192,97265,1,0,0:0:0:0:
329,192,97373,1,0,0:0:0:0:
36,192,97373,1,0,0:0:0:0:
109,192,97373,1,0,0:0:0:0:
182,192,97479,1,0,0:0:0:0:
402,192,97479,1,0,0:0:0:0:
256,192,97586,1,0,0:0:0:0:
109,192,97586,1,0,0:0:0:0:
36,192,97586,1,0,0:0:0:0:
182,192,97694,1,0,0:0:0:0:
402,192,97694,1,0,0:0:0:0:
475,192,97694,1,0,0:0:0:0:
109,192,97800,1,0,0:0:0:0:
329,192,97800,1,0,0:0:0:0:
36,192,97907,1,0,0:0:0:0:
256,192,97907,1,0,0:0:0:0:
475,192,97907,1,0,0:0:0:0:
402,192,97907,1,0,0:0:0:0:
329,192,98015,1,0,0:0:0:0:
182,192,98015,1,0,0:0:0:0:
36,192,98121,1,0,0:0:0:0:
109,192,98121,1,0,0:0:0:0:
256,192,98121,1,0,0:0:0:0:
182,192,98228,1,0,0:0:0:0:
475,192,98228,1,0,0:0:0:0:
402,192,98228,1,0,0:0:0:0:
329,192,98335,1,0,0:0:0:0:
109,192,98335,1,0,0:0:0:0:
256,192,98442,1,0,0:0:0:0:
402,192,98442,1,0,0:0:0:0:
475,192,98442,1,0,0:0:0:0:
329,192,98549,1,0,0:0:0:0:
109,192,98549,1,0,0:0:0:0:
36,192,98549,1,0,0:0:0:0:
402,192,98656,1,0,0:0:0:0:
182,192,98656,1,0,0:0:0:0:
475,192,98763,1,0,0:0:0:0:
256,192,98763,1,0,0:0:0:0:
36,192,98763,1,0,0:0:0:0:
109,192,98763,1,0,0:0:0:0:
329,192,98870,1,0,0:0:0:0:
182,192,98870,1,0,0:0:0:0:
256,192,98977,1,0,0:0:0:0:
402,192,98977,1,0,0:0:0:0:
475,192,98977,1,0,0:0:0:0:
109,192,99084,1,0,0:0:0:0:
36,192,99084,1,0,0:0:0:0:
329,192,99084,1,0,0:0:0:0:
402,192,99191,1,0,0:0:0:0:
182,192,99191,1,0,0:0:0:0:
36,192,99297,1,0,0:0:0:0:
109,192,99297,1,0,0:0:0:0:
256,192,99297,1,0,0:0:0:0:
475,192,99405,1,0,0:0:0:0:
402,192,99405,1,0,0:0:0:0:
182,192,99405,1,0,0:0:0:0:
256,192,99512,1,0,0:0:0:0:
109,192,99512,1,0,0:0:0:0:
329,192,99618,1,0,0:0:0:0:
182,192,99618,1,0,0:0:0:0:
36,192,99618,1,0,0:0:0:0:
109,192,99725,1,0,0:0:0:0:
475,192,99725,1,0,0:0:0:0:
256,192,99725,1,0,0:0:0:0:
182,192,99833,1,0,0:0:0:0:
36,192,99833,1,0,0:0:0:0:
402,192,99833,1,0,0:0:0:0:
109,192,99939,1,0,0:0:0:0:
475,192,99939,1,0,0:0:0:0:
329,192,99939,1,0,0:0:0:0:
402,192,100046,1,0,0:0:0:0:
36,192,100046,1,0,0:0:0:0:
182,192,100046,1,0,0:0:0:0:
256,192,100046,1,0,0:0:0:0:
109,192,100260,1,0,0:0:0:0:
256,192,100260,1,0,0:0:0:0:
329,192,100260,1,0,0:0:0:0:
475,192,100260,1,0,0:0:0:0:
36,192,100475,1,0,0:0:0:0:
256,192,100475,1,0,0:0:0:0:
475,192,100475,1,0,0:0:0:0:
109,192,100475,1,0,0:0:0:0:
402,192,100475,1,0,0:0:0:0:
182,192,100581,1,0,0:0:0:0:
329,192,100581,1,0,0:0:0:0:
475,192,100688,1,0,0:0:0:0:
402,192,100688,1,0,0:0:0:0:
256,192,100688,1,0,0:0:0:0:
329,192,100795,1,0,0:0:0:0:
36,192,100795,1,0,0:0:0:0:
109,192,100795,1,0,0:0:0:0:
182,192,100902,1,0,0:0:0:0:
402,192,100902,1,0,0:0:0:0:
256,192,101009,1,0,0:0:0:0:
109,192,101009,1,0,0:0:0:0:
36,192,101009,1,0,0:0:0:0:
182,192,101115,1,0,0:0:0:0:
402,192,101115,1,0,0:0:0:0:
475,192,101115,1,0,0:0:0:0:
109,192,101223,1,0,0:0:0:0:
329,192,101223,1,0,0:0:0:0:
36,192,101330,1,0,0:0:0:0:
256,192,101330,1,0,0:0:0:0:
475,192,101330,1,0,0:0:0:0:
402,192,101330,1,0,0:0:0:0:
329,192,101436,1,0,0:0:0:0:
182,192,101436,1,0,0:0:0:0:
36,192,101544,1,0,0:0:0:0:
109,192,101544,1,0,0:0:0:0:
256,192,101544,1,0,0:0:0:0:
182,192,101651,1,0,0:0:0:0:
475,192,101651,1,0,0:0:0:0:
402,192,101651,1,0,0:0:0:0:
329,192,101757,1,0,0:0:0:0:
109,192,101757,1,0,0:0:0:0:
256,192,101865,1,0,0:0:0:0:
402,192,101865,1,0,0:0:0:0:
475,192,101865,1,0,0:0:0:0:
329,192,101972,1,0,0:0:0:0:
109,192,101972,1,0,0:0:0:0:
36,192,101972,1,0,0:0:0:0:
402,192,102078,1,0,0:0:0:0:
182,192,102078,1,0,0:0:0:0:
475,192,102185,1,0,0:0:0:0:
256,192,102185,1,0,0:0:0:0:
36,192,102185,1,0,0:0:0:0:
109,192,102185,1,0,0:0:0:0:
329,192,102293,1,0,0:0:0:0:
182,192,102293,1,0,0:0:0:0:
256,192,102399,1,0,0:0:0:0:
402,192,102399,1,0,0:0:0:0:
475,192,102399,1,0,0:0:0:0:
109,192,102506,1,0,0:0:0:0:
36,192,102506,1,0,0:0:0:0:
329,192,102506,1,0,0:0:0:0:
402,192,102614,1,0,0:0:0:0:
182,192,102614,1,0,0:0:0:0:
36,192,102720,1,0,0:0:0:0:
109,192,102720,1,0,0:0:0:0:
256,192,102720,1,0,0:0:0:0:
475,192,102827,1,0,0:0:0:0:
402,192,102827,1,0,0:0:0:0:
182,192,102827,1,0,0:0:0:0:
329,192,102934,1,0,0:0:0:0:
109,192,102934,1,0,0:0:0:0:
475,192,103041,1,0,0:0:0:0:
36,192,103041,1,0,0:0:0:0:
256,192,103041,1,0,0:0:0:0:
402,192,103041,1,0,0:0:0:0:
182,192,103255,1,0,0:0:0:0:
475,192,103255,1,0,0:0:0:0:
329,192,103255,1,0,0:0:0:0:
109,192,103255,1,0,0:0:0:0:
182,192,103469,1,0,0:0:0:0:
256,192,103469,1,0,0:0:0:0:
36,192,103469,1,0,0:0:0:0:
402,192,103469,1,0,0:0:0:0:
36,192,103683,1,0,0:0:0:0:
475,192,103683,1,0,0:0:0:0:
109,192,103736,1,0,0:0:0:0:
402,192,103736,1,0,0:0:0:0:
182,192,103790,1,0,0:0:0:0:
329,192,103790,1,0,0:0:0:0:
109,192,103843,1,0,0:0:0:0:
402,192,103843,1,0,0:0:0:0:
36,192,103896,1,0,0:0:0:0:
256,192,103896,1,0,0:0:0:0:
475,192,103896,1,0,0:0:0:0:
256,192,104111,1,0,0:0:0:0:
475,192,104111,1,0,0:0:0:0:
109,192,104111,1,0,0:0:0:0:
182,192,104217,1,0,0:0:0:0:
402,192,104217,1,0,0:0:0:0:
36,192,104325,1,0,0:0:0:0:
109,192,104325,1,0,0:0:0:0:
329,192,104325,1,0,0:0:0:0:
475,192,104325,1,0,0:0:0:0:
182,192,104538,1,0,0:0:0:0:
402,192,104538,1,0,0:0:0:0:
36,192,104538,1,0,0:0:0:0:
109,192,104645,1,0,0:0:0:0:
329,192,104645,1,0,0:0:0:0:
36,192,104752,1,0,0:0:0:0:
256,192,104752,1,0,0:0:0:0:
475,192,104752,1,0,0:0:0:0:
402,192,104752,1,0,0:0:0:0:
256,192,104966,1,0,0:0:0:0:
36,192,104966,1,0,0:0:0:0:
402,192,104966,1,0,0:0:0:0:
329,192,105073,1,0,0:0:0:0:
109,192,105073,1,0,0:0:0:0:
475,192,105180,1,0,0:0:0:0:
402,192,105180,1,0,0:0:0:0:
182,192,105180,1,0,0:0:0:0:
36,192,105180,1,0,0:0:0:0:
329,192,105394,1,0,0:0:0:0:
109,192,105394,1,0,0:0:0:0:
475,192,105394,1,0,0:0:0:0:
402,192,105501,1,0,0:0:0:0:
182,192,105501,1,0,0:0:0:0:
475,192,105608,1,0,0:0:0:0:
256,192,105608,1,0,0:0:0:0:
36,192,105608,1,0,0:0:0:0:
109,192,105608,1,0,0:0:0:0:
329,192,105822,1,0,0:0:0:0:
475,192,105822,1,0,0:0:0:0:
109,192,105822,1,0,0:0:0:0:
256,192,105929,1,0,0:0:0:0:
402,192,105929,1,0,0:0:0:0:
36,192,106035,1,0,0:0:0:0:
182,192,106035,1,0,0:0:0:0:
329,192,106035,1,0,0:0:0:0:
475,192,106035,1,0,0:0:0:0:
256,192,106250,1,0,0:0:0:0:
402,192,106250,1,0,0:0:0:0:
36,192,106250,1,0,0:0:0:0:
329,192,106356,1,0,0:0:0:0:
182,192,106356,1,0,0:0:0:0:
36,192,106464,1,0,0:0:0:0:
256,192,106464,1,0,0:0:0:0:
475,192,106464,1,0,0:0:0:0:
109,192,106464,1,0,0:0:0:0:
182,192,106677,1,0,0:0:0:0:
36,192,106677,1,0,0:0:0:0:
402,192,106677,1,0,0:0:0:0:
256,192,106785,1,0,0:0:0:0:
109,192,106785,1,0,0:0:0:0:
475,192,106891,1,0,0:0:0:0:
329,192,106891,1,0,0:0:0:0:
182,192,106891,1,0,0:0:0:0:
36,192,106891,1,0,0:0:0:0:
256,192,107105,1,0,0:0:0:0:
109,192,107105,1,0,0:0:0:0:
475,192,107105,1,0,0:0:0:0:
182,192,107212,1,0,0:0:0:0:
329,192,107212,1,0,0:0:0:0:
475,192,107319,1,0,0:0:0:0:
256,192,107319,1,0,0:0:0:0:
36,192,107319,1,0,0:0:0:0:
402,192,107319,1,0,0:0:0:0:
109,192,107426,1,0,0:0:0:0:
329,192,107426,1,0,0:0:0:0:
402,192,107533,1,0,0:0:0:0:
475,192,107533,1,0,0:0:0:0:
182,192,107533,1,0,0:0:0:0:
256,192,107640,1,0,0:0:0:0:
36,192,107640,1,0,0:0:0:0:
329,192,107640,1,0,0:0:0:0:
182,192,107747,1,0,0:0:0:0:
109,192,107747,1,0,0:0:0:0:
402,192,107747,1,0,0:0:0:0:
256,192,107854,1,0,0:0:0:0:
475,192,107854,1,0,0:0:0:0:
36,192,107854,1,0,0:0:0:0:
109,192,107961,1,0,0:0:0:0:
329,192,107961,1,0,0:0:0:0:
402,192,107961,1,0,0:0:0:0:
182,192,108068,1,0,0:0:0:0:
256,192,108068,1,0,0:0:0:0:
475,192,108068,1,0,0:0:0:0:
36,192,108175,1,0,0:0:0:0:
109,192,108175,1,0,0:0:0:0:
329,192,108175,1,0,0:0:0:0:
402,192,108175,1,0,0:0:0:0:
182,192,108282,1,0,0:0:0:0:
256,192,108388,1,0,0:0:0:0:
329,192,108388,1,0,0:0:0:0:
475,192,108388,1,0,0:0:0:0:
36,192,108388,1,0,0:0:0:0:
109,192,108495,1,0,0:0:0:0:
182,192,108603,1,0,0:0:0:0:
256,192,108603,1,0,0:0:0:0:
402,192,108603,1,0,0:0:0:0:
475,192,108603,1,0,0:0:0:0:
109,192,108709,1,0,0:0:0:0:
36,192,108816,1,0,0:0:0:0:
256,192,108816,1,0,0:0:0:0:
475,192,108816,1,0,0:0:0:0:
402,192,108816,1,0,0:0:0:0:
182,192,108924,1,0,0:0:0:0:
329,192,108924,1,0,0:0:0:0:
109,192,109030,1,0,0:0:0:0:
36,192,109030,1,0,0:0:0:0:
402,192,109030,1,0,0:0:0:0:
475,192,109030,1,0,0:0:0:0:
256,192,109030,1,0,0:0:0:0:
36,192,109137,1,0,0:0:0:0:
329,192,109245,1,0,0:0:0:0:
182,192,109245,1,0,0:0:0:0:
36,192,109351,1,0,0:0:0:0:
329,192,109351,1,0,0:0:0:0:
182,192,109351,1,0,0:0:0:0:
36,192,109565,1,0,0:0:0:0:
329,192,109565,1,0,0:0:0:0:
182,192,109565,1,0,0:0:0:0:
36,192,109779,1,0,0:0:0:0:
256,192,109779,1,0,0:0:0:0:
402,192,109779,1,0,0:0:0:0:
475,192,109886,1,0,0:0:0:0:
36,192,109886,1,0,0:0:0:0:
109,192,109886,1,0,0:0:0:0:
329,192,109886,1,0,0:0:0:0:
182,192,109993,1,0,0:0:0:0:
402,192,109993,1,0,0:0:0:0:
36,192,110100,1,0,0:0:0:0:
475,192,110100,1,0,0:0:0:0:
109,192,110100,1,0,0:0:0:0:
256,192,110100,1,0,0:0:0:0:
182,192,110206,1,0,0:0:0:0:
329,192,110206,1,0,0:0:0:0:
36,192,110314,1,0,0:0:0:0:
109,192,110314,1,0,0:0:0:0:
402,192,110314,1,0,0:0:0:0:
475,192,110314,1,0,0:0:0:0:
329,192,110421,1,0,0:0:0:0:
182,192,110421,1,0,0:0:0:0:
36,192,110527,1,0,0:0:0:0:
256,192,110527,1,0,0:0:0:0:
475,192,110527,1,0,0:0:0:0:
109,192,110635,1,0,0:0:0:0:
402,192,110635,1,0,0:0:0:0:
36,192,110742,1,0,0:0:0:0:
182,192,110742,1,0,0:0:0:0:
256,192,110742,1,0,0:0:0:0:
329,192,110742,1,0,0:0:0:0:
475,192,110742,1,0,0:0:0:0:
402,192,110848,1,0,0:0:0:0:
109,192,110848,1,0,0:0:0:0:
475,192,110955,1,0,0:0:0:0:
256,192,110955,1,0,0:0:0:0:
36,192,110955,1,0,0:0:0:0:
182,192,111063,1,0,0:0:0:0:
402,192,111063,1,0,0:0:0:0:
109,192,111169,1,0,0:0:0:0:
36,192,111169,1,0,0:0:0:0:
329,192,111169,1,0,0:0:0:0:
475,192,111169,1,0,0:0:0:0:
182,192,111276,1,0,0:0:0:0:
256,192,111276,1,0,0:0:0:0:
402,192,111276,1,0,0:0:0:0:
475,192,111384,1,0,0:0:0:0:
36,192,111384,1,0,0:0:0:0:
329,192,111384,1,0,0:0:0:0:
109,192,111490,1,0,0:0:0:0:
182,192,111490,1,0,0:0:0:0:
402,192,111490,1,0,0:0:0:0:
256,192,111597,1,0,0:0:0:0:
329,192,111597,1,0,0:0:0:0:
36,192,111597,1,0,0:0:0:0:
475,192,111597,1,0,0:0:0:0:
109,192,111705,1,0,0:0:0:0:
182,192,111705,1,0,0:0:0:0:
36,192,111811,1,0,0:0:0:0:
329,192,111811,1,0,0:0:0:0:
402,192,111811,1,0,0:0:0:0:
475,192,111811,1,0,0:0:0:0:
182,192,111918,1,0,0:0:0:0:
256,192,111918,1,0,0:0:0:0:
36,192,112025,1,0,0:0:0:0:
109,192,112025,1,0,0:0:0:0:
402,192,112025,1,0,0:0:0:0:
475,192,112025,1,0,0:0:0:0:
329,192,112132,1,0,0:0:0:0:
182,192,112132,1,0,0:0:0:0:
36,192,112239,1,0,0:0:0:0:
109,192,112239,1,0,0:0:0:0:
475,192,112239,1,0,0:0:0:0:
256,192,112239,1,0,0:0:0:0:
402,192,112345,1,0,0:0:0:0:
329,192,112345,1,0,0:0:0:0:
36,192,112453,1,0,0:0:0:0:
109,192,112453,1,0,0:0:0:0:
475,192,112453,1,0,0:0:0:0:
256,192,112453,1,0,0:0:0:0:
182,192,112453,1,0,0:0:0:0:
329,192,112560,1,0,0:0:0:0:
402,192,112560,1,0,0:0:0:0:
475,192,112666,1,0,0:0:0:0:
182,192,112666,1,0,0:0:0:0:
109,192,112666,1,0,0:0:0:0:
36,192,112666,1,0,0:0:0:0:
256,192,112774,1,0,0:0:0:0:
329,192,112774,1,0,0:0:0:0:
36,192,112881,1,0,0:0:0:0:
402,192,112881,1,0,0:0:0:0:
475,192,112881,1,0,0:0:0:0:
109,192,112881,1,0,0:0:0:0:
182,192,112987,1,0,0:0:0:0:
256,192,112987,1,0,0:0:0:0:
329,192,113095,1,0,0:0:0:0:
402,192,113095,1,0,0:0:0:0:
475,192,113095,1,0,0:0:0:0:
36,192,113095,1,0,0:0:0:0:
109,192,113202,1,0,0:0:0:0:
182,192,113202,1,0,0:0:0:0:
36,192,113308,1,0,0:0:0:0:
256,192,113308,1,0,0:0:0:0:
329,192,113308,1,0,0:0:0:0:
475,192,113308,1,0,0:0:0:0:
182,192,113415,1,0,0:0:0:0:
402,192,113415,1,0,0:0:0:0:
36,192,113523,1,0,0:0:0:0:
109,192,113523,1,0,0:0:0:0:
329,192,113523,1,0,0:0:0:0:
182,192,113629,1,0,0:0:0:0:
256,192,113629,1,0,0:0:0:0:
402,192,113629,1,0,0:0:0:0:
36,192,113736,1,0,0:0:0:0:
329,192,113736,1,0,0:0:0:0:
109,192,113736,1,0,0:0:0:0:
475,192,113736,1,0,0:0:0:0:
182,192,113843,1,0,0:0:0:0:
402,192,113843,1,0,0:0:0:0:
256,192,113950,1,0,0:0:0:0:
36,192,113950,1,0,0:0:0:0:
475,192,113950,1,0,0:0:0:0:
109,192,114057,1,0,0:0:0:0:
402,192,114057,1,0,0:0:0:0:
36,192,114164,1,0,0:0:0:0:
182,192,114164,1,0,0:0:0:0:
475,192,114164,1,0,0:0:0:0:
329,192,114164,1,0,0:0:0:0:
109,192,114271,1,0,0:0:0:0:
256,192,114271,1,0,0:0:0:0:
36,192,114378,1,0,0:0:0:0:
182,192,114378,1,0,0:0:0:0:
402,192,114378,1,0,0:0:0:0:
475,192,114378,1,0,0:0:0:0:
109,192,114485,1,0,0:0:0:0:
256,192,114485,1,0,0:0:0:0:
329,192,114485,1,0,0:0:0:0:
36,192,114592,1,0,0:0:0:0:
475,192,114592,1,0,0:0:0:0:
182,192,114699,1,0,0:0:0:0:
256,192,114699,1,0,0:0:0:0:
402,192,114699,1,0,0:0:0:0:
329,192,114805,1,0,0:0:0:0:
475,192,114805,1,0,0:0:0:0:
36,192,114805,1,0,0:0:0:0:
109,192,114805,1,0,0:0:0:0:
402,192,114913,1,0,0:0:0:0:
182,192,114913,1,0,0:0:0:0:
109,192,115020,1,0,0:0:0:0:
36,192,115020,1,0,0:0:0:0:
256,192,115020,1,0,0:0:0:0:
475,192,115020,1,0,0:0:0:0:
182,192,115126,1,0,0:0:0:0:
402,192,115126,1,0,0:0:0:0:
36,192,115234,1,0,0:0:0:0:
109,192,115234,1,0,0:0:0:0:
329,192,115234,1,0,0:0:0:0:
475,192,115234,1,0,0:0:0:0:
402,192,115341,1,0,0:0:0:0:
182,192,115341,1,0,0:0:0:0:
256,192,115341,1,0,0:0:0:0:
475,192,115447,1,0,0:0:0:0:
36,192,115447,1,0,0:0:0:0:
329,192,115555,1,0,0:0:0:0:
256,192,115555,1,0,0:0:0:0:
109,192,115555,1,0,0:0:0:0:
36,192,115661,1,0,0:0:0:0:
402,192,115661,1,0,0:0:0:0:
182,192,115661,1,0,0:0:0:0:
475,192,115661,1,0,0:0:0:0:
109,192,115768,1,0,0:0:0:0:
329,192,115768,1,0,0:0:0:0:
36,192,115875,1,0,0:0:0:0:
475,192,115875,1,0,0:0:0:0:
256,192,115875,1,0,0:0:0:0:
182,192,115875,1,0,0:0:0:0:
109,192,115982,1,0,0:0:0:0:
329,192,115982,1,0,0:0:0:0:
182,192,116089,1,0,0:0:0:0:
402,192,116089,1,0,0:0:0:0:
36,192,116089,1,0,0:0:0:0:
475,192,116089,1,0,0:0:0:0:
109,192,116196,1,0,0:0:0:0:
256,192,116196,1,0,0:0:0:0:
36,192,116303,1,0,0:0:0:0:
182,192,116303,1,0,0:0:0:0:
329,192,116303,1,0,0:0:0:0:
475,192,116303,1,0,0:0:0:0:
402,192,116410,1,0,0:0:0:0:
256,192,116410,1,0,0:0:0:0:
36,192,116517,1,0,0:0:0:0:
475,192,116517,1,0,0:0:0:0:
329,192,116517,1,0,0:0:0:0:
109,192,116517,1,0,0:0:0:0:
402,192,116624,1,0,0:0:0:0:
182,192,116624,1,0,0:0:0:0:
36,192,116731,1,0,0:0:0:0:
475,192,116731,1,0,0:0:0:0:
109,192,116731,1,0,0:0:0:0:
256,192,116731,1,0,0:0:0:0:
182,192,116838,1,0,0:0:0:0:
329,192,116838,1,0,0:0:0:0:
36,192,116945,1,0,0:0:0:0:
109,192,116945,1,0,0:0:0:0:
402,192,116945,1,0,0:0:0:0:
475,192,116945,1,0,0:0:0:0:
182,192,117052,1,0,0:0:0:0:
329,192,117052,1,0,0:0:0:0:
36,192,117159,1,0,0:0:0:0:
256,192,117159,1,0,0:0:0:0:
475,192,117159,1,0,0:0:0:0:
109,192,117265,1,0,0:0:0:0:
402,192,117265,1,0,0:0:0:0:
329,192,117373,1,0,0:0:0:0:
182,192,117373,1,0,0:0:0:0:
256,192,117373,1,0,0:0:0:0:
109,192,117479,1,0,0:0:0:0:
402,192,117479,1,0,0:0:0:0:
329,192,117586,1,0,0:0:0:0:
256,192,117586,1,0,0:0:0:0:
36,192,117586,1,0,0:0:0:0:
475,192,117586,1,0,0:0:0:0:
109,192,117694,1,0,0:0:0:0:
182,192,117694,1,0,0:0:0:0:
36,192,117800,1,0,0:0:0:0:
475,192,117800,1,0,0:0:0:0:
329,192,117800,1,0,0:0:0:0:
402,192,117800,1,0,0:0:0:0:
256,192,117907,1,0,0:0:0:0:
109,192,117907,1,0,0:0:0:0:
402,192,118015,1,0,0:0:0:0:
36,192,118015,1,0,0:0:0:0:
475,192,118015,1,0,0:0:0:0:
182,192,118015,1,0,0:0:0:0:
329,192,118121,1,0,0:0:0:0:
256,192,118121,1,0,0:0:0:0:
36,192,118228,1,0,0:0:0:0:
109,192,118228,1,0,0:0:0:0:
182,192,118228,1,0,0:0:0:0:
475,192,118228,1,0,0:0:0:0:
402,192,118335,1,0,0:0:0:0:
329,192,118335,1,0,0:0:0:0:
256,192,118442,1,0,0:0:0:0:
36,192,118442,1,0,0:0:0:0:
109,192,118442,1,0,0:0:0:0:
475,192,118442,1,0,0:0:0:0:
182,192,118549,1,0,0:0:0:0:
402,192,118549,1,0,0:0:0:0:
36,192,118656,1,0,0:0:0:0:
109,192,118656,1,0,0:0:0:0:
329,192,118656,1,0,0:0:0:0:
475,192,118656,1,0,0:0:0:0:
182,192,118763,1,0,0:0:0:0:
256,192,118763,1,0,0:0:0:0:
402,192,118763,1,0,0:0:0:0:
36,192,118870,1,0,0:0:0:0:
109,192,118870,1,0,0:0:0:0:
329,192,118870,1,0,0:0:0:0:
256,192,118977,1,0,0:0:0:0:
475,192,118977,1,0,0:0:0:0:
36,192,119084,1,0,0:0:0:0:
402,192,119084,1,0,0:0:0:0:
182,192,119084,1,0,0:0:0:0:
109,192,119084,1,0,0:0:0:0:
329,192,119191,1,0,0:0:0:0:
256,192,119191,1,0,0:0:0:0:
402,192,119297,1,0,0:0:0:0:
475,192,119297,1,0,0:0:0:0:
36,192,119297,1,0,0:0:0:0:
182,192,119297,1,0,0:0:0:0:
329,192,119405,1,0,0:0:0:0:
109,192,119405,1,0,0:0:0:0:
475,192,119512,1,0,0:0:0:0:
402,192,119512,1,0,0:0:0:0:
182,192,119512,1,0,0:0:0:0:
36,192,119512,1,0,0:0:0:0:
329,192,119618,1,0,0:0:0:0:
256,192,119618,1,0,0:0:0:0:
109,192,119618,1,0,0:0:0:0:
475,192,119725,1,0,0:0:0:0:
402,192,119725,1,0,0:0:0:0:
182,192,119725,1,0,0:0:0:0:
256,192,119833,1,0,0:0:0:0:
36,192,119833,1,0,0:0:0:0:
475,192,119939,1,0,0:0:0:0:
109,192,119939,1,0,0:0:0:0:
329,192,119939,1,0,0:0:0:0:
402,192,119939,1,0,0:0:0:0:
182,192,120046,1,0,0:0:0:0:
256,192,120046,1,0,0:0:0:0:
109,192,120154,1,0,0:0:0:0:
36,192,120154,1,0,0:0:0:0:
475,192,120154,1,0,0:0:0:0:
329,192,120154,1,0,0:0:0:0:
182,192,120260,1,0,0:0:0:0:
402,192,120260,1,0,0:0:0:0:
36,192,120367,1,0,0:0:0:0:
256,192,120367,1,0,0:0:0:0:
475,192,120367,1,0,0:0:0:0:
109,192,120475,1,0,0:0:0:0:
329,192,120475,1,0,0:0:0:0:
182,192,120581,1,0,0:0:0:0:
402,192,120581,1,0,0:0:0:0:
475,192,120581,1,0,0:0:0:0:
36,192,120581,1,0,0:0:0:0:
109,192,120688,1,0,0:0:0:0:
329,192,120688,1,0,0:0:0:0:
36,192,120795,1,0,0:0:0:0:
256,192,120795,1,0,0:0:0:0:
475,192,120795,1,0,0:0:0:0:
402,192,120795,1,0,0:0:0:0:
182,192,120902,1,0,0:0:0:0:
329,192,120902,1,0,0:0:0:0:
36,192,121009,1,0,0:0:0:0:
475,192,121009,1,0,0:0:0:0:
109,192,121009,1,0,0:0:0:0:
256,192,121009,1,0,0:0:0:0:
182,192,121115,1,0,0:0:0:0:
402,192,121115,1,0,0:0:0:0:
36,192,121223,1,0,0:0:0:0:
109,192,121223,1,0,0:0:0:0:
329,192,121223,1,0,0:0:0:0:
475,192,121223,1,0,0:0:0:0:
182,192,121330,1,0,0:0:0:0:
256,192,121330,1,0,0:0:0:0:
402,192,121330,1,0,0:0:0:0:
36,192,121436,1,0,0:0:0:0:
475,192,121436,1,0,0:0:0:0:
329,192,121436,1,0,0:0:0:0:
109,192,121436,1,0,0:0:0:0:
182,192,121544,1,0,0:0:0:0:
402,192,121544,1,0,0:0:0:0:
256,192,121651,1,0,0:0:0:0:
475,192,121651,1,0,0:0:0:0:
36,192,121651,1,0,0:0:0:0:
109,192,121651,1,0,0:0:0:0:
329,192,121757,1,0,0:0:0:0:
182,192,121757,1,0,0:0:0:0:
36,192,121865,1,0,0:0:0:0:
402,192,121865,1,0,0:0:0:0:
256,192,121865,1,0,0:0:0:0:
475,192,121865,1,0,0:0:0:0:
109,192,121972,1,0,0:0:0:0:
182,192,121972,1,0,0:0:0:0:
329,192,121972,1,0,0:0:0:0:
36,192,122078,1,0,0:0:0:0:
256,192,122078,1,0,0:0:0:0:
402,192,122078,1,0,0:0:0:0:
475,192,122078,1,0,0:0:0:0:
109,192,122185,1,0,0:0:0:0:
329,192,122185,1,0,0:0:0:0:
182,192,122293,1,0,0:0:0:0:
36,192,122293,1,0,0:0:0:0:
475,192,122293,1,0,0:0:0:0:
402,192,122293,1,0,0:0:0:0:
109,192,122399,1,0,0:0:0:0:
256,192,122399,1,0,0:0:0:0:
36,192,122506,1,0,0:0:0:0:
182,192,122506,1,0,0:0:0:0:
329,192,122506,1,0,0:0:0:0:
109,192,122614,1,0,0:0:0:0:
256,192,122614,1,0,0:0:0:0:
402,192,122614,1,0,0:0:0:0:
36,192,122720,1,0,0:0:0:0:
475,192,122720,1,0,0:0:0:0:
182,192,122720,1,0,0:0:0:0:
329,192,122720,1,0,0:0:0:0:
36,192,123175,1,0,0:0:0:0:
329,192,123175,1,0,0:0:0:0:
402,192,123175,1,0,0:0:0:0:
182,192,123175,1,0,0:0:0:0:
36,192,123603,1,0,0:0:0:0:
402,192,123603,1,0,0:0:0:0:
475,192,123603,1,0,0:0:0:0:
182,192,123603,1,0,0:0:0:0:
256,192,123924,1,0,0:0:0:0:
475,192,123924,1,0,0:0:0:0:
36,192,124030,1,0,0:0:0:0:
182,192,124030,1,0,0:0:0:0:
256,192,124245,1,0,0:0:0:0:
475,192,124245,1,0,0:0:0:0:
36,192,124458,1,0,0:0:0:0:
256,192,124458,1,0,0:0:0:0:
329,192,124458,1,0,0:0:0:0:
182,192,124458,1,0,0:0:0:0:
256,192,124672,1,0,0:0:0:0:
329,192,124672,1,0,0:0:0:0:
36,192,124885,1,0,0:0:0:0:
402,192,124885,1,0,0:0:0:0:
329,192,124885,1,0,0:0:0:0:
182,192,124885,1,0,0:0:0:0:
329,192,125100,1,0,0:0:0:0:
402,192,125100,1,0,0:0:0:0:
36,192,125314,1,0,0:0:0:0:
475,192,125314,1,0,0:0:0:0:
402,192,125314,1,0,0:0:0:0:
182,192,125314,1,0,0:0:0:0:
256,192,125635,1,0,0:0:0:0:
475,192,125635,1,0,0:0:0:0:
36,192,125742,1,0,0:0:0:0:
182,192,125742,1,0,0:0:0:0:
256,192,125848,1,0,0:0:0:0:
475,192,125848,1,0,0:0:0:0:
36,192,125955,1,0,0:0:0:0:
182,192,126026,1,0,0:0:0:0:
475,192,126098,1,0,0:0:0:0:
36,192,126169,1,0,0:0:0:0:
256,192,126169,1,0,0:0:0:0:
329,192,126169,1,0,0:0:0:0:
182,192,126169,1,0,0:0:0:0:
182,192,126384,1,0,0:0:0:0:
109,192,126490,1,0,0:0:0:0:
36,192,126597,1,0,0:0:0:0:
329,192,126597,1,0,0:0:0:0:
402,192,126597,1,0,0:0:0:0:
182,192,126597,1,0,0:0:0:0:
36,192,126811,1,0,0:0:0:0:
109,192,126918,1,0,0:0:0:0:
182,192,127025,1,0,0:0:0:0:
475,192,127025,1,0,0:0:0:0:
402,192,127025,1,0,0:0:0:0:
36,192,127025,1,0,0:0:0:0:
182,192,127239,1,0,0:0:0:0:
109,192,127345,1,0,0:0:0:0:
256,192,127345,1,0,0:0:0:0:
475,192,127345,1,0,0:0:0:0:
36,192,127453,1,0,0:0:0:0:
182,192,127453,1,0,0:0:0:0:
36,192,127666,1,0,0:0:0:0:
475,192,127666,1,0,0:0:0:0:
256,192,127666,1,0,0:0:0:0:
109,192,127774,1,0,0:0:0:0:
182,192,127881,1,0,0:0:0:0:
329,192,127881,1,0,0:0:0:0:
475,192,127881,1,0,0:0:0:0:
36,192,127881,1,0,0:0:0:0:
182,192,128095,1,0,0:0:0:0:
109,192,128095,1,0,0:0:0:0:
475,192,128095,1,0,0:0:0:0:
329,192,128095,1,0,0:0:0:0:
256,192,128308,1,0,0:0:0:0:
182,192,128308,1,0,0:0:0:0:
36,192,128308,1,0,0:0:0:0:
402,192,128308,1,0,0:0:0:0:
329,192,128522,1,0,0:0:0:0:
256,192,128522,1,0,0:0:0:0:
109,192,128522,1,0,0:0:0:0:
475,192,128522,1,0,0:0:0:0:
402,192,128736,1,0,0:0:0:0:
329,192,128736,1,0,0:0:0:0:
182,192,128736,1,0,0:0:0:0:
36,192,128736,1,0,0:0:0:0:
475,192,128950,1,0,0:0:0:0:
256,192,128950,1,0,0:0:0:0:
329,192,128950,1,0,0:0:0:0:
109,192,128950,1,0,0:0:0:0:
36,192,129164,1,0,0:0:0:0:
182,192,129164,1,0,0:0:0:0:
256,192,129164,1,0,0:0:0:0:
402,192,129164,1,0,0:0:0:0:
109,192,129378,1,0,0:0:0:0:
182,192,129378,1,0,0:0:0:0:
329,192,129378,1,0,0:0:0:0:
475,192,129378,1,0,0:0:0:0:
36,192,129592,1,0,0:0:0:0:
475,192,129592,1,0,0:0:0:0:
109,192,129592,1,0,0:0:0:0:
402,192,129592,1,0,0:0:0:0:
329,192,129592,1,0,0:0:0:0:
256,192,129699,1,0,0:0:0:0:
182,192,129805,1,0,0:0:0:0:
402,192,129805,1,0,0:0:0:0:
36,192,129805,1,0,0:0:0:0:
329,192,129913,1,0,0:0:0:0:
109,192,129913,1,0,0:0:0:0:
256,192,130020,1,0,0:0:0:0:
36,192,130020,1,0,0:0:0:0:
475,192,130020,1,0,0:0:0:0:
182,192,130126,1,0,0:0:0:0:
329,192,130234,1,0,0:0:0:0:
475,192,130234,1,0,0:0:0:0:
109,192,130234,1,0,0:0:0:0:
36,192,130234,1,0,0:0:0:0:
256,192,130340,1,0,0:0:0:0:
182,192,130447,1,0,0:0:0:0:
36,192,130447,1,0,0:0:0:0:
402,192,130447,1,0,0:0:0:0:
475,192,130447,1,0,0:0:0:0:
329,192,130555,1,0,0:0:0:0:
256,192,130661,1,0,0:0:0:0:
36,192,130661,1,0,0:0:0:0:
475,192,130661,1,0,0:0:0:0:
402,192,130768,1,0,0:0:0:0:
329,192,130875,1,0,0:0:0:0:
182,192,130875,1,0,0:0:0:0:
36,192,130875,1,0,0:0:0:0:
475,192,130875,1,0,0:0:0:0:
256,192,130875,1,0,0:0:0:0:
109,192,130982,1,0,0:0:0:0:
36,192,131089,1,0,0:0:0:0:
256,192,131089,1,0,0:0:0:0:
475,192,131089,1,0,0:0:0:0:
329,192,131196,1,0,0:0:0:0:
109,192,131303,1,0,0:0:0:0:
36,192,131303,1,0,0:0:0:0:
475,192,131303,1,0,0:0:0:0:
402,192,131303,1,0,0:0:0:0:
182,192,131303,1,0,0:0:0:0:
256,192,131410,1,0,0:0:0:0:
475,192,131517,1,0,0:0:0:0:
109,192,131517,1,0,0:0:0:0:
329,192,131517,1,0,0:0:0:0:
402,192,131624,1,0,0:0:0:0:
182,192,131624,1,0,0:0:0:0:
36,192,131731,1,0,0:0:0:0:
475,192,131731,1,0,0:0:0:0:
256,192,131731,1,0,0:0:0:0:
329,192,131838,1,0,0:0:0:0:
402,192,131945,1,0,0:0:0:0:
36,192,131945,1,0,0:0:0:0:
182,192,131945,1,0,0:0:0:0:
475,192,131945,1,0,0:0:0:0:
256,192,132052,1,0,0:0:0:0:
109,192,132158,1,0,0:0:0:0:
36,192,132158,1,0,0:0:0:0:
329,192,132158,1,0,0:0:0:0:
475,192,132158,1,0,0:0:0:0:
182,192,132265,1,0,0:0:0:0:
36,192,132373,1,0,0:0:0:0:
475,192,132373,1,0,0:0:0:0:
256,192,132373,1,0,0:0:0:0:
109,192,132479,1,0,0:0:0:0:
475,192,132586,1,0,0:0:0:0:
36,192,132586,1,0,0:0:0:0:
182,192,132586,1,0,0:0:0:0:
329,192,132586,1,0,0:0:0:0:
256,192,132586,1,0,0:0:0:0:
402,192,132694,1,0,0:0:0:0:
36,192,132800,1,0,0:0:0:0:
256,192,132800,1,0,0:0:0:0:
475,192,132800,1,0,0:0:0:0:
182,192,132907,1,0,0:0:0:0:
36,192,133015,1,0,0:0:0:0:
109,192,133015,1,0,0:0:0:0:
402,192,133015,1,0,0:0:0:0:
475,192,133015,1,0,0:0:0:0:
329,192,133015,1,0,0:0:0:0:
256,192,133121,1,0,0:0:0:0:
182,192,133228,1,0,0:0:0:0:
402,192,133228,1,0,0:0:0:0:
36,192,133228,1,0,0:0:0:0:
329,192,133335,1,0,0:0:0:0:
109,192,133335,1,0,0:0:0:0:
36,192,133442,1,0,0:0:0:0:
475,192,133442,1,0,0:0:0:0:
256,192,133442,1,0,0:0:0:0:
402,192,133549,1,0,0:0:0:0:
329,192,133656,1,0,0:0:0:0:
36,192,133656,1,0,0:0:0:0:
109,192,133656,1,0,0:0:0:0:
182,192,133656,1,0,0:0:0:0:
402,192,133763,1,0,0:0:0:0:
475,192,133870,1,0,0:0:0:0:
36,192,133870,1,0,0:0:0:0:
182,192,133870,1,0,0:0:0:0:
329,192,133870,1,0,0:0:0:0:
109,192,133870,1,0,0:0:0:0:
256,192,133976,1,0,0:0:0:0:
329,192,134084,1,0,0:0:0:0:
109,192,134084,1,0,0:0:0:0:
475,192,134084,1,0,0:0:0:0:
182,192,134191,1,0,0:0:0:0:
402,192,134191,1,0,0:0:0:0:
475,192,134297,1,0,0:0:0:0:
36,192,134297,1,0,0:0:0:0:
256,192,134297,1,0,0:0:0:0:
329,192,134297,1,0,0:0:0:0:
109,192,134405,1,0,0:0:0:0:
182,192,134512,1,0,0:0:0:0:
475,192,134512,1,0,0:0:0:0:
329,192,134512,1,0,0:0:0:0:
109,192,134618,1,0,0:0:0:0:
36,192,134725,1,0,0:0:0:0:
475,192,134725,1,0,0:0:0:0:
402,192,134725,1,0,0:0:0:0:
256,192,134725,1,0,0:0:0:0:
329,192,134725,1,0,0:0:0:0:
182,192,134833,1,0,0:0:0:0:
109,192,134939,1,0,0:0:0:0:
329,192,134939,1,0,0:0:0:0:
475,192,134939,1,0,0:0:0:0:
256,192,135046,1,0,0:0:0:0:
36,192,135046,1,0,0:0:0:0:
182,192,135154,1,0,0:0:0:0:
402,192,135154,1,0,0:0:0:0:
475,192,135154,1,0,0:0:0:0:
329,192,135260,1,0,0:0:0:0:
256,192,135367,1,0,0:0:0:0:
475,192,135367,1,0,0:0:0:0:
36,192,135367,1,0,0:0:0:0:
109,192,135367,1,0,0:0:0:0:
402,192,135475,1,0,0:0:0:0:
329,192,135581,1,0,0:0:0:0:
36,192,135581,1,0,0:0:0:0:
256,192,135581,1,0,0:0:0:0:
475,192,135581,1,0,0:0:0:0:
182,192,135581,1,0,0:0:0:0:
402,192,135688,1,0,0:0:0:0:
109,192,135688,1,0,0:0:0:0:
182,192,135795,1,0,0:0:0:0:
256,192,135795,1,0,0:0:0:0:
475,192,135795,1,0,0:0:0:0:
109,192,135866,1,0,0:0:0:0:
329,192,135902,1,0,0:0:0:0:
36,192,135937,1,0,0:0:0:0:
182,192,136009,1,0,0:0:0:0:
402,192,136009,1,0,0:0:0:0:
475,192,136009,1,0,0:0:0:0:
109,192,136080,1,0,0:0:0:0:
256,192,136115,1,0,0:0:0:0:
36,192,136152,1,0,0:0:0:0:
182,192,136223,1,0,0:0:0:0:
329,192,136223,1,0,0:0:0:0:
475,192,136223,1,0,0:0:0:0:
109,192,136294,1,0,0:0:0:0:
402,192,136330,1,0,0:0:0:0:
36,192,136365,1,0,0:0:0:0:
475,192,136436,1,0,0:0:0:0:
182,192,136436,1,0,0:0:0:0:
329,192,136436,1,0,0:0:0:0:
256,192,136544,1,0,0:0:0:0:
182,192,136651,1,0,0:0:0:0:
402,192,136651,1,0,0:0:0:0:
36,192,136651,1,0,0:0:0:0:
329,192,136757,1,0,0:0:0:0:
109,192,136757,1,0,0:0:0:0:
256,192,136865,1,0,0:0:0:0:
36,192,136865,1,0,0:0:0:0:
475,192,136865,1,0,0:0:0:0:
182,192,136972,1,0,0:0:0:0:
402,192,136972,1,0,0:0:0:0:
329,192,137078,1,0,0:0:0:0:
475,192,137078,1,0,0:0:0:0:
109,192,137078,1,0,0:0:0:0:
36,192,137078,1,0,0:0:0:0:
256,192,137185,1,0,0:0:0:0:
182,192,137185,1,0,0:0:0:0:
36,192,137293,1,0,0:0:0:0:
402,192,137293,1,0,0:0:0:0:
475,192,137293,1,0,0:0:0:0:
109,192,137293,1,0,0:0:0:0:
329,192,137399,1,0,0:0:0:0:
256,192,137506,1,0,0:0:0:0:
36,192,137506,1,0,0:0:0:0:
475,192,137506,1,0,0:0:0:0:
109,192,137506,1,0,0:0:0:0:
402,192,137613,1,0,0:0:0:0:
329,192,137720,1,0,0:0:0:0:
182,192,137720,1,0,0:0:0:0:
36,192,137720,1,0,0:0:0:0:
475,192,137720,1,0,0:0:0:0:
256,192,137720,1,0,0:0:0:0:
109,192,137827,1,0,0:0:0:0:
36,192,137934,1,0,0:0:0:0:
256,192,137934,1,0,0:0:0:0:
475,192,137934,1,0,0:0:0:0:
402,192,137934,1,0,0:0:0:0:
329,192,138041,1,0,0:0:0:0:
109,192,138148,1,0,0:0:0:0:
36,192,138148,1,0,0:0:0:0:
475,192,138148,1,0,0:0:0:0:
402,192,138148,1,0,0:0:0:0:
182,192,138148,1,0,0:0:0:0:
256,192,138255,1,0,0:0:0:0:
109,192,138362,1,0,0:0:0:0:
329,192,138362,1,0,0:0:0:0:
475,192,138362,1,0,0:0:0:0:
182,192,138469,1,0,0:0:0:0:
402,192,138469,1,0,0:0:0:0:
36,192,138575,1,0,0:0:0:0:
256,192,138575,1,0,0:0:0:0:
475,192,138575,1,0,0:0:0:0:
109,192,138683,1,0,0:0:0:0:
329,192,138683,1,0,0:0:0:0:
36,192,138790,1,0,0:0:0:0:
182,192,138790,1,0,0:0:0:0:
475,192,138790,1,0,0:0:0:0:
402,192,138790,1,0,0:0:0:0:
256,192,138896,1,0,0:0:0:0:
109,192,139004,1,0,0:0:0:0:
36,192,139004,1,0,0:0:0:0:
329,192,139004,1,0,0:0:0:0:
475,192,139004,1,0,0:0:0:0:
182,192,139111,1,0,0:0:0:0:
36,192,139217,1,0,0:0:0:0:
475,192,139217,1,0,0:0:0:0:
256,192,139217,1,0,0:0:0:0:
402,192,139217,1,0,0:0:0:0:
109,192,139325,1,0,0:0:0:0:
475,192,139431,1,0,0:0:0:0:
36,192,139431,1,0,0:0:0:0:
182,192,139431,1,0,0:0:0:0:
256,192,139431,1,0,0:0:0:0:
329,192,139431,1,0,0:0:0:0:
402,192,139538,1,0,0:0:0:0:
36,192,139645,1,0,0:0:0:0:
475,192,139645,1,0,0:0:0:0:
109,192,139645,1,0,0:0:0:0:
329,192,139645,1,0,0:0:0:0:
182,192,139752,1,0,0:0:0:0:
256,192,139752,1,0,0:0:0:0:
36,192,139859,1,0,0:0:0:0:
109,192,139859,1,0,0:0:0:0:
402,192,139859,1,0,0:0:0:0:
475,192,139859,1,0,0:0:0:0:
329,192,139859,1,0,0:0:0:0:
256,192,139966,1,0,0:0:0:0:
182,192,140073,1,0,0:0:0:0:
402,192,140073,1,0,0:0:0:0:
36,192,140073,1,0,0:0:0:0:
329,192,140180,1,0,0:0:0:0:
109,192,140180,1,0,0:0:0:0:
36,192,140287,1,0,0:0:0:0:
475,192,140287,1,0,0:0:0:0:
256,192,140287,1,0,0:0:0:0:
182,192,140287,1,0,0:0:0:0:
402,192,140394,1,0,0:0:0:0:
329,192,140501,1,0,0:0:0:0:
36,192,140501,1,0,0:0:0:0:
182,192,140501,1,0,0:0:0:0:
402,192,140608,1,0,0:0:0:0:
475,192,140715,1,0,0:0:0:0:
36,192,140715,1,0,0:0:0:0:
182,192,140715,1,0,0:0:0:0:
329,192,140715,1,0,0:0:0:0:
109,192,140715,1,0,0:0:0:0:
256,192,140822,1,0,0:0:0:0:
329,192,140929,1,0,0:0:0:0:
109,192,140929,1,0,0:0:0:0:
475,192,140929,1,0,0:0:0:0:
182,192,141035,1,0,0:0:0:0:
402,192,141035,1,0,0:0:0:0:
475,192,141143,1,0,0:0:0:0:
36,192,141143,1,0,0:0:0:0:
256,192,141143,1,0,0:0:0:0:
329,192,141143,1,0,0:0:0:0:
109,192,141249,1,0,0:0:0:0:
182,192,141356,1,0,0:0:0:0:
475,192,141356,1,0,0:0:0:0:
329,192,141356,1,0,0:0:0:0:
402,192,141356,1,0,0:0:0:0:
109,192,141464,1,0,0:0:0:0:
36,192,141570,1,0,0:0:0:0:
475,192,141570,1,0,0:0:0:0:
402,192,141570,1,0,0:0:0:0:
256,192,141570,1,0,0:0:0:0:
329,192,141570,1,0,0:0:0:0:
182,192,141677,1,0,0:0:0:0:
109,192,141785,1,0,0:0:0:0:
329,192,141785,1,0,0:0:0:0:
475,192,141785,1,0,0:0:0:0:
256,192,141891,1,0,0:0:0:0:
36,192,141891,1,0,0:0:0:0:
182,192,141998,1,0,0:0:0:0:
402,192,141998,1,0,0:0:0:0:
475,192,141998,1,0,0:0:0:0:
329,192,142105,1,0,0:0:0:0:
256,192,142212,1,0,0:0:0:0:
475,192,142212,1,0,0:0:0:0:
36,192,142212,1,0,0:0:0:0:
109,192,142212,1,0,0:0:0:0:
402,192,142319,1,0,0:0:0:0:
329,192,142426,1,0,0:0:0:0:
36,192,142426,1,0,0:0:0:0:
475,192,142426,1,0,0:0:0:0:
109,192,142426,1,0,0:0:0:0:
182,192,142533,1,0,0:0:0:0:
256,192,142640,1,0,0:0:0:0:
329,192,142747,1,0,0:0:0:0:
402,192,142854,1,0,0:0:0:0:
475,192,142854,1,0,0:0:0:0:
36,192,142854,1,0,0:0:0:0:
182,192,142854,1,0,0:0:0:0:
109,192,142854,1,0,0:0:0:0:
256,192,142961,1,0,0:0:0:0:
329,192,142961,1,0,0:0:0:0:
475,192,143067,1,0,0:0:0:0:
182,192,143067,1,0,0:0:0:0:
109,192,143067,1,0,0:0:0:0:
36,192,143067,1,0,0:0:0:0:
329,192,143175,1,0,0:0:0:0:
402,192,143175,1,0,0:0:0:0:
475,192,143282,1,0,0:0:0:0:
256,192,143282,1,0,0:0:0:0:
109,192,143282,1,0,0:0:0:0:
36,192,143282,1,0,0:0:0:0:
182,192,143388,1,0,0:0:0:0:
402,192,143388,1,0,0:0:0:0:
36,192,143495,1,0,0:0:0:0:
329,192,143495,1,0,0:0:0:0:
256,192,143495,1,0,0:0:0:0:
182,192,143603,1,0,0:0:0:0:
475,192,143603,1,0,0:0:0:0:
36,192,143709,1,0,0:0:0:0:
402,192,143709,1,0,0:0:0:0:
256,192,143709,1,0,0:0:0:0:
182,192,143816,1,0,0:0:0:0:
36,192,143924,1,0,0:0:0:0:
329,192,143924,1,0,0:0:0:0:
402,192,143924,1,0,0:0:0:0:
475,192,143924,1,0,0:0:0:0:
256,192,143924,1,0,0:0:0:0:
182,192,144030,1,0,0:0:0:0:
475,192,144137,1,0,0:0:0:0:
402,192,144137,1,0,0:0:0:0:
36,192,144137,1,0,0:0:0:0:
109,192,144137,1,0,0:0:0:0:
256,192,144137,1,0,0:0:0:0:
329,192,144245,1,0,0:0:0:0:
475,192,144351,1,0,0:0:0:0:
182,192,144351,1,0,0:0:0:0:
256,192,144351,1,0,0:0:0:0:
329,192,144458,1,0,0:0:0:0:
475,192,144565,1,0,0:0:0:0:
109,192,144565,1,0,0:0:0:0:
36,192,144565,1,0,0:0:0:0:
329,192,144672,1,0,0:0:0:0:
475,192,144779,1,0,0:0:0:0:
36,192,144779,1,0,0:0:0:0:
109,192,144779,1,0,0:0:0:0:
182,192,144779,1,0,0:0:0:0:
329,192,144885,1,0,0:0:0:0:
182,192,144885,1,0,0:0:0:0:
256,192,144885,1,0,0:0:0:0:
36,192,144993,1,0,0:0:0:0:
109,192,144993,1,0,0:0:0:0:
402,192,144993,1,0,0:0:0:0:
475,192,144993,1,0,0:0:0:0:
329,192,144993,1,0,0:0:0:0:
182,192,145100,1,0,0:0:0:0:
36,192,145206,1,0,0:0:0:0:
475,192,145206,1,0,0:0:0:0:
329,192,145206,1,0,0:0:0:0:
182,192,145314,1,0,0:0:0:0:
36,192,145421,1,0,0:0:0:0:
402,192,145421,1,0,0:0:0:0:
256,192,145421,1,0,0:0:0:0:
182,192,145527,1,0,0:0:0:0:
36,192,145635,1,0,0:0:0:0:
329,192,145635,1,0,0:0:0:0:
402,192,145635,1,0,0:0:0:0:
475,192,145635,1,0,0:0:0:0:
182,192,145742,1,0,0:0:0:0:
329,192,145742,1,0,0:0:0:0:
256,192,145742,1,0,0:0:0:0:
475,192,145848,1,0,0:0:0:0:
402,192,145848,1,0,0:0:0:0:
36,192,145848,1,0,0:0:0:0:
109,192,145848,1,0,0:0:0:0:
182,192,145848,1,0,0:0:0:0:
329,192,145955,1,0,0:0:0:0:
475,192,146063,1,0,0:0:0:0:
256,192,146063,1,0,0:0:0:0:
109,192,146063,1,0,0:0:0:0:
329,192,146169,1,0,0:0:0:0:
475,192,146276,1,0,0:0:0:0:
36,192,146276,128,0,146597:0:0:0:0:
182,192,146276,128,0,146597:0:0:0:0:
109,192,146276,1,0,0:0:0:0:
256,192,146276,1,0,0:0:0:0:
329,192,146384,1,0,0:0:0:0:
475,192,146490,1,0,0:0:0:0:
329,192,146597,1,0,0:0:0:0:
475,192,146704,1,0,0:0:0:0:
36,192,146704,1,0,0:0:0:0:
109,192,146704,1,0,0:0:0:0:
256,192,146704,1,0,0:0:0:0:
402,192,146704,1,0,0:0:0:0:
182,192,146811,1,0,0:0:0:0:
329,192,146811,1,0,0:0:0:0:
36,192,146918,1,0,0:0:0:0:
256,192,146918,1,0,0:0:0:0:
475,192,146918,1,0,0:0:0:0:
182,192,147025,1,0,0:0:0:0:
402,192,147025,1,0,0:0:0:0:
36,192,147132,1,0,0:0:0:0:
329,192,147132,1,0,0:0:0:0:
256,192,147132,1,0,0:0:0:0:
182,192,147239,1,0,0:0:0:0:
36,192,147345,1,0,0:0:0:0:
402,192,147345,1,0,0:0:0:0:
475,192,147345,1,0,0:0:0:0:
329,192,147345,1,0,0:0:0:0:
256,192,147345,1,0,0:0:0:0:
182,192,147453,1,0,0:0:0:0:
475,192,147560,1,0,0:0:0:0:
256,192,147560,1,0,0:0:0:0:
402,192,147560,1,0,0:0:0:0:
109,192,147560,1,0,0:0:0:0:
36,192,147560,1,0,0:0:0:0:
329,192,147666,1,0,0:0:0:0:
475,192,147774,1,0,0:0:0:0:
109,192,147774,1,0,0:0:0:0:
256,192,147774,1,0,0:0:0:0:
329,192,147881,1,0,0:0:0:0:
475,192,147987,1,0,0:0:0:0:
36,192,147987,1,0,0:0:0:0:
182,192,147987,1,0,0:0:0:0:
329,192,148095,1,0,0:0:0:0:
475,192,148202,1,0,0:0:0:0:
36,192,148202,1,0,0:0:0:0:
182,192,148202,1,0,0:0:0:0:
256,192,148202,1,0,0:0:0:0:
329,192,148308,1,0,0:0:0:0:
109,192,148308,1,0,0:0:0:0:
256,192,148308,1,0,0:0:0:0:
475,192,148415,1,0,0:0:0:0:
329,192,148415,1,0,0:0:0:0:
402,192,148415,1,0,0:0:0:0:
182,192,148415,1,0,0:0:0:0:
36,192,148415,1,0,0:0:0:0:
475,192,148629,1,0,0:0:0:0:
256,192,148629,1,0,0:0:0:0:
36,192,148629,1,0,0:0:0:0:
182,192,148736,1,0,0:0:0:0:
402,192,148736,1,0,0:0:0:0:
36,192,148843,1,0,0:0:0:0:
256,192,148843,1,0,0:0:0:0:
475,192,148843,1,0,0:0:0:0:
109,192,148843,1,0,0:0:0:0:
329,192,148843,1,0,0:0:0:0:
256,192,149057,1,0,0:0:0:0:
475,192,149057,1,0,0:0:0:0:
36,192,149057,1,0,0:0:0:0:
109,192,149164,1,0,0:0:0:0:
329,192,149164,1,0,0:0:0:0:
36,192,149271,1,0,0:0:0:0:
402,192,149271,1,0,0:0:0:0:
475,192,149271,1,0,0:0:0:0:
182,192,149271,1,0,0:0:0:0:
256,192,149271,1,0,0:0:0:0:
109,192,149378,1,0,0:0:0:0:
329,192,149378,1,0,0:0:0:0:
182,192,149485,1,0,0:0:0:0:
402,192,149485,1,0,0:0:0:0:
475,192,149485,1,0,0:0:0:0:
36,192,149592,1,0,0:0:0:0:
256,192,149592,1,0,0:0:0:0:
109,192,149699,1,0,0:0:0:0:
329,192,149699,1,0,0:0:0:0:
475,192,149699,1,0,0:0:0:0:
182,192,149805,1,0,0:0:0:0:
256,192,149913,1,0,0:0:0:0:
475,192,149913,1,0,0:0:0:0:
36,192,149913,1,0,0:0:0:0:
109,192,150020,1,0,0:0:0:0:
402,192,150020,1,0,0:0:0:0:
36,192,150126,1,0,0:0:0:0:
182,192,150126,1,0,0:0:0:0:
329,192,150126,1,0,0:0:0:0:
256,192,150126,1,0,0:0:0:0:
475,192,150126,1,0,0:0:0:0:
256,192,150340,1,0,0:0:0:0:
475,192,150340,1,0,0:0:0:0:
402,192,150447,1,0,0:0:0:0:
329,192,150447,1,0,0:0:0:0:
36,192,150447,1,0,0:0:0:0:
109,192,150447,1,0,0:0:0:0:
182,192,150555,1,0,0:0:0:0:
36,192,150661,1,0,0:0:0:0:
109,192,150661,1,0,0:0:0:0:
475,192,150768,1,0,0:0:0:0:
256,192,150768,1,0,0:0:0:0:
402,192,150875,1,0,0:0:0:0:
182,192,150875,1,0,0:0:0:0:
329,192,150982,1,0,0:0:0:0:
256,192,150982,1,0,0:0:0:0:
109,192,150982,1,0,0:0:0:0:
36,192,150982,1,0,0:0:0:0:
475,192,151089,1,0,0:0:0:0:
402,192,151089,1,0,0:0:0:0:
256,192,151303,1,0,0:0:0:0:
329,192,151303,1,0,0:0:0:0:
36,192,151303,1,0,0:0:0:0:
109,192,151303,1,0,0:0:0:0:
182,192,151410,1,0,0:0:0:0:
475,192,151517,1,0,0:0:0:0:
402,192,151517,1,0,0:0:0:0:
109,192,151517,1,0,0:0:0:0:
36,192,151517,1,0,0:0:0:0:
329,192,151624,1,0,0:0:0:0:
256,192,151731,1,0,0:0:0:0:
475,192,151731,1,0,0:0:0:0:
182,192,151731,1,0,0:0:0:0:
402,192,151838,1,0,0:0:0:0:
109,192,151838,1,0,0:0:0:0:
36,192,151838,1,0,0:0:0:0:
329,192,151945,1,0,0:0:0:0:
256,192,151945,1,0,0:0:0:0:
475,192,152052,1,0,0:0:0:0:
402,192,152158,1,0,0:0:0:0:
256,192,152158,1,0,0:0:0:0:
36,192,152158,1,0,0:0:0:0:
109,192,152158,1,0,0:0:0:0:
182,192,152265,1,0,0:0:0:0:
329,192,152373,1,0,0:0:0:0:
475,192,152373,1,0,0:0:0:0:
36,192,152373,1,0,0:0:0:0:
109,192,152373,1,0,0:0:0:0:
256,192,152586,1,0,0:0:0:0:
402,192,152586,1,0,0:0:0:0:
182,192,152586,1,0,0:0:0:0:
329,192,152694,1,0,0:0:0:0:
475,192,152694,1,0,0:0:0:0:
36,192,152694,1,0,0:0:0:0:
109,192,152694,1,0,0:0:0:0:
36,192,152907,1,0,0:0:0:0:
182,192,152907,1,0,0:0:0:0:
475,192,152907,1,0,0:0:0:0:
402,192,152907,1,0,0:0:0:0:
475,192,153121,1,0,0:0:0:0:
36,192,153121,1,0,0:0:0:0:
109,192,153121,1,0,0:0:0:0:
402,192,153121,1,0,0:0:0:0:
182,192,153228,1,0,0:0:0:0:
329,192,153228,1,0,0:0:0:0:
36,192,153335,1,0,0:0:0:0:
475,192,153335,1,0,0:0:0:0:
402,192,153335,1,0,0:0:0:0:
109,192,153335,1,0,0:0:0:0:
182,192,153442,1,0,0:0:0:0:
329,192,153442,1,0,0:0:0:0:
36,192,153549,1,0,0:0:0:0:
475,192,153549,1,0,0:0:0:0:
109,192,153549,1,0,0:0:0:0:
256,192,153549,1,0,0:0:0:0:
402,192,153656,1,0,0:0:0:0:
182,192,153656,1,0,0:0:0:0:
329,192,153763,1,0,0:0:0:0:
109,192,153763,1,0,0:0:0:0:
475,192,153763,1,0,0:0:0:0:
36,192,153870,1,0,0:0:0:0:
256,192,153870,1,0,0:0:0:0:
475,192,153976,1,0,0:0:0:0:
402,192,153976,1,0,0:0:0:0:
182,192,153976,1,0,0:0:0:0:
329,192,154084,1,0,0:0:0:0:
256,192,154191,1,0,0:0:0:0:
36,192,154191,1,0,0:0:0:0:
109,192,154297,1,0,0:0:0:0:
329,192,154297,1,0,0:0:0:0:
36,192,154405,1,0,0:0:0:0:
182,192,154405,1,0,0:0:0:0:
402,192,154405,1,0,0:0:0:0:
475,192,154405,1,0,0:0:0:0:
329,192,154512,1,0,0:0:0:0:
256,192,154618,1,0,0:0:0:0:
36,192,154618,1,0,0:0:0:0:
109,192,154618,1,0,0:0:0:0:
475,192,154618,1,0,0:0:0:0:
329,192,154725,1,0,0:0:0:0:
475,192,154833,1,0,0:0:0:0:
402,192,154833,1,0,0:0:0:0:
36,192,154833,1,0,0:0:0:0:
109,192,154833,1,0,0:0:0:0:
182,192,154939,1,0,0:0:0:0:
256,192,155046,1,0,0:0:0:0:
475,192,155046,1,0,0:0:0:0:
36,192,155046,1,0,0:0:0:0:
402,192,155046,1,0,0:0:0:0:
182,192,155154,1,0,0:0:0:0:
329,192,155154,1,0,0:0:0:0:
36,192,155260,1,0,0:0:0:0:
109,192,155260,1,0,0:0:0:0:
256,192,155260,1,0,0:0:0:0:
475,192,155260,1,0,0:0:0:0:
402,192,155367,1,0,0:0:0:0:
182,192,155367,1,0,0:0:0:0:
109,192,155475,1,0,0:0:0:0:
329,192,155475,1,0,0:0:0:0:
36,192,155475,1,0,0:0:0:0:
256,192,155581,1,0,0:0:0:0:
475,192,155581,1,0,0:0:0:0:
182,192,155688,1,0,0:0:0:0:
402,192,155688,1,0,0:0:0:0:
36,192,155688,1,0,0:0:0:0:
109,192,155795,1,0,0:0:0:0:
256,192,155795,1,0,0:0:0:0:
329,192,155795,1,0,0:0:0:0:
475,192,155902,1,0,0:0:0:0:
402,192,155902,1,0,0:0:0:0:
182,192,155902,1,0,0:0:0:0:
256,192,156009,1,0,0:0:0:0:
109,192,156009,1,0,0:0:0:0:
36,192,156115,1,0,0:0:0:0:
182,192,156115,1,0,0:0:0:0:
329,192,156115,1,0,0:0:0:0:
402,192,156115,1,0,0:0:0:0:
475,192,156115,1,0,0:0:0:0:
256,192,156330,1,0,0:0:0:0:
329,192,156330,1,0,0:0:0:0:
402,192,156330,1,0,0:0:0:0:
109,192,156330,1,0,0:0:0:0:
182,192,156544,1,0,0:0:0:0:
256,192,156544,1,0,0:0:0:0:
329,192,156544,1,0,0:0:0:0:
475,192,156544,1,0,0:0:0:0:
36,192,156544,1,0,0:0:0:0:
36,192,156757,1,0,0:0:0:0:
475,192,156757,1,0,0:0:0:0:
109,192,156757,1,0,0:0:0:0:
402,192,156757,1,0,0:0:0:0:
329,192,156865,1,0,0:0:0:0:
182,192,156865,1,0,0:0:0:0:
36,192,156972,1,0,0:0:0:0:
109,192,156972,1,0,0:0:0:0:
256,192,156972,1,0,0:0:0:0:
475,192,156972,1,0,0:0:0:0:
402,192,156972,1,0,0:0:0:0:
182,192,157078,1,0,0:0:0:0:
329,192,157078,1,0,0:0:0:0:
256,192,157185,1,0,0:0:0:0:
402,192,157185,1,0,0:0:0:0:
36,192,157185,1,0,0:0:0:0:
109,192,157293,1,0,0:0:0:0:
329,192,157293,1,0,0:0:0:0:
475,192,157293,1,0,0:0:0:0:
182,192,157399,1,0,0:0:0:0:
402,192,157399,1,0,0:0:0:0:
36,192,157399,1,0,0:0:0:0:
109,192,157506,1,0,0:0:0:0:
256,192,157506,1,0,0:0:0:0:
475,192,157506,1,0,0:0:0:0:
36,192,157613,1,0,0:0:0:0:
182,192,157613,1,0,0:0:0:0:
329,192,157613,1,0,0:0:0:0:
109,192,157720,1,0,0:0:0:0:
256,192,157720,1,0,0:0:0:0:
402,192,157720,1,0,0:0:0:0:
36,192,157827,1,0,0:0:0:0:
182,192,157827,1,0,0:0:0:0:
329,192,157827,1,0,0:0:0:0:
475,192,157827,1,0,0:0:0:0:
402,192,157934,1,0,0:0:0:0:
109,192,157934,1,0,0:0:0:0:
475,192,158041,1,0,0:0:0:0:
256,192,158041,1,0,0:0:0:0:
36,192,158041,1,0,0:0:0:0:
182,192,158148,1,0,0:0:0:0:
402,192,158148,1,0,0:0:0:0:
109,192,158255,1,0,0:0:0:0:
36,192,158255,1,0,0:0:0:0:
329,192,158255,1,0,0:0:0:0:
475,192,158255,1,0,0:0:0:0:
182,192,158362,1,0,0:0:0:0:
256,192,158362,1,0,0:0:0:0:
402,192,158362,1,0,0:0:0:0:
475,192,158469,1,0,0:0:0:0:
36,192,158469,1,0,0:0:0:0:
329,192,158469,1,0,0:0:0:0:
109,192,158575,1,0,0:0:0:0:
182,192,158575,1,0,0:0:0:0:
402,192,158575,1,0,0:0:0:0:
256,192,158683,1,0,0:0:0:0:
329,192,158683,1,0,0:0:0:0:
36,192,158683,1,0,0:0:0:0:
475,192,158683,1,0,0:0:0:0:
109,192,158790,1,0,0:0:0:0:
182,192,158790,1,0,0:0:0:0:
36,192,158896,1,0,0:0:0:0:
329,192,158896,1,0,0:0:0:0:
402,192,158896,1,0,0:0:0:0:
475,192,158896,1,0,0:0:0:0:
182,192,159004,1,0,0:0:0:0:
256,192,159004,1,0,0:0:0:0:
36,192,159111,1,0,0:0:0:0:
109,192,159111,1,0,0:0:0:0:
402,192,159111,1,0,0:0:0:0:
475,192,159111,1,0,0:0:0:0:
256,192,159217,1,0,0:0:0:0:
329,192,159217,1,0,0:0:0:0:
36,192,159325,1,0,0:0:0:0:
109,192,159325,1,0,0:0:0:0:
182,192,159325,1,0,0:0:0:0:
475,192,159325,1,0,0:0:0:0:
402,192,159431,1,0,0:0:0:0:
329,192,159431,1,0,0:0:0:0:
36,192,159538,1,0,0:0:0:0:
109,192,159538,1,0,0:0:0:0:
475,192,159538,1,0,0:0:0:0:
256,192,159538,1,0,0:0:0:0:
182,192,159538,1,0,0:0:0:0:
329,192,159645,1,0,0:0:0:0:
402,192,159645,1,0,0:0:0:0:
475,192,159752,1,0,0:0:0:0:
182,192,159752,1,0,0:0:0:0:
109,192,159752,1,0,0:0:0:0:
36,192,159752,1,0,0:0:0:0:
256,192,159859,1,0,0:0:0:0:
329,192,159859,1,0,0:0:0:0:
36,192,159966,1,0,0:0:0:0:
402,192,159966,1,0,0:0:0:0:
475,192,159966,1,0,0:0:0:0:
109,192,159966,1,0,0:0:0:0:
182,192,160073,1,0,0:0:0:0:
256,192,160073,1,0,0:0:0:0:
329,192,160180,1,0,0:0:0:0:
402,192,160180,1,0,0:0:0:0:
475,192,160180,1,0,0:0:0:0:
36,192,160180,1,0,0:0:0:0:
109,192,160287,1,0,0:0:0:0:
182,192,160287,1,0,0:0:0:0:
36,192,160394,1,0,0:0:0:0:
256,192,160394,1,0,0:0:0:0:
329,192,160394,1,0,0:0:0:0:
475,192,160394,1,0,0:0:0:0:
182,192,160501,1,0,0:0:0:0:
402,192,160501,1,0,0:0:0:0:
36,192,160608,1,0,0:0:0:0:
109,192,160608,1,0,0:0:0:0:
329,192,160608,1,0,0:0:0:0:
182,192,160715,1,0,0:0:0:0:
256,192,160715,1,0,0:0:0:0:
402,192,160715,1,0,0:0:0:0:
36,192,160822,1,0,0:0:0:0:
329,192,160822,1,0,0:0:0:0:
109,192,160822,1,0,0:0:0:0:
475,192,160822,1,0,0:0:0:0:
182,192,160929,1,0,0:0:0:0:
402,192,160929,1,0,0:0:0:0:
256,192,161035,1,0,0:0:0:0:
36,192,161035,1,0,0:0:0:0:
475,192,161035,1,0,0:0:0:0:
109,192,161143,1,0,0:0:0:0:
402,192,161143,1,0,0:0:0:0:
36,192,161249,1,0,0:0:0:0:
182,192,161249,1,0,0:0:0:0:
475,192,161249,1,0,0:0:0:0:
329,192,161249,1,0,0:0:0:0:
109,192,161356,1,0,0:0:0:0:
256,192,161356,1,0,0:0:0:0:
36,192,161464,1,0,0:0:0:0:
182,192,161464,1,0,0:0:0:0:
402,192,161464,1,0,0:0:0:0:
475,192,161464,1,0,0:0:0:0:
109,192,161570,1,0,0:0:0:0:
256,192,161570,1,0,0:0:0:0:
329,192,161570,1,0,0:0:0:0:
36,192,161677,1,0,0:0:0:0:
475,192,161677,1,0,0:0:0:0:
182,192,161785,1,0,0:0:0:0:
256,192,161785,1,0,0:0:0:0:
402,192,161785,1,0,0:0:0:0:
329,192,161891,1,0,0:0:0:0:
475,192,161891,1,0,0:0:0:0:
36,192,161891,1,0,0:0:0:0:
109,192,161891,1,0,0:0:0:0:
402,192,161998,1,0,0:0:0:0:
182,192,161998,1,0,0:0:0:0:
109,192,162105,1,0,0:0:0:0:
36,192,162105,1,0,0:0:0:0:
256,192,162105,1,0,0:0:0:0:
475,192,162105,1,0,0:0:0:0:
182,192,162212,1,0,0:0:0:0:
402,192,162212,1,0,0:0:0:0:
36,192,162319,1,0,0:0:0:0:
109,192,162319,1,0,0:0:0:0:
329,192,162319,1,0,0:0:0:0:
475,192,162319,1,0,0:0:0:0:
402,192,162426,1,0,0:0:0:0:
182,192,162426,1,0,0:0:0:0:
256,192,162426,1,0,0:0:0:0:
475,192,162533,1,0,0:0:0:0:
36,192,162533,1,0,0:0:0:0:
329,192,162640,1,0,0:0:0:0:
256,192,162640,1,0,0:0:0:0:
109,192,162640,1,0,0:0:0:0:
36,192,162747,1,0,0:0:0:0:
402,192,162747,1,0,0:0:0:0:
182,192,162747,1,0,0:0:0:0:
475,192,162747,1,0,0:0:0:0:
109,192,162854,1,0,0:0:0:0:
329,192,162854,1,0,0:0:0:0:
36,192,162961,1,0,0:0:0:0:
475,192,162961,1,0,0:0:0:0:
256,192,162961,1,0,0:0:0:0:
182,192,162961,1,0,0:0:0:0:
109,192,163067,1,0,0:0:0:0:
329,192,163067,1,0,0:0:0:0:
182,192,163175,1,0,0:0:0:0:
402,192,163175,1,0,0:0:0:0:
36,192,163175,1,0,0:0:0:0:
475,192,163175,1,0,0:0:0:0:
109,192,163282,1,0,0:0:0:0:
256,192,163282,1,0,0:0:0:0:
36,192,163388,1,0,0:0:0:0:
182,192,163388,1,0,0:0:0:0:
329,192,163388,1,0,0:0:0:0:
475,192,163388,1,0,0:0:0:0:
402,192,163495,1,0,0:0:0:0:
256,192,163495,1,0,0:0:0:0:
36,192,163603,1,0,0:0:0:0:
475,192,163603,1,0,0:0:0:0:
329,192,163603,1,0,0:0:0:0:
109,192,163603,1,0,0:0:0:0:
402,192,163709,1,0,0:0:0:0:
182,192,163709,1,0,0:0:0:0:
36,192,163816,1,0,0:0:0:0:
475,192,163816,1,0,0:0:0:0:
109,192,163816,1,0,0:0:0:0:
256,192,163816,1,0,0:0:0:0:
182,192,163924,1,0,0:0:0:0:
329,192,163924,1,0,0:0:0:0:
36,192,164030,1,0,0:0:0:0:
109,192,164030,1,0,0:0:0:0:
402,192,164030,1,0,0:0:0:0:
475,192,164030,1,0,0:0:0:0:
182,192,164137,1,0,0:0:0:0:
329,192,164137,1,0,0:0:0:0:
36,192,164245,1,0,0:0:0:0:
256,192,164245,1,0,0:0:0:0:
475,192,164245,1,0,0:0:0:0:
109,192,164351,1,0,0:0:0:0:
402,192,164351,1,0,0:0:0:0:
329,192,164458,1,0,0:0:0:0:
182,192,164458,1,0,0:0:0:0:
256,192,164458,1,0,0:0:0:0:
109,192,164565,1,0,0:0:0:0:
402,192,164565,1,0,0:0:0:0:
329,192,164672,1,0,0:0:0:0:
256,192,164672,1,0,0:0:0:0:
36,192,164672,1,0,0:0:0:0:
475,192,164672,1,0,0:0:0:0:
109,192,164779,1,0,0:0:0:0:
182,192,164779,1,0,0:0:0:0:
36,192,164885,1,0,0:0:0:0:
475,192,164885,1,0,0:0:0:0:
329,192,164885,1,0,0:0:0:0:
402,192,164885,1,0,0:0:0:0:
256,192,164993,1,0,0:0:0:0:
109,192,164993,1,0,0:0:0:0:
402,192,165100,1,0,0:0:0:0:
182,192,165100,1,0,0:0:0:0:
36,192,165100,1,0,0:0:0:0:
475,192,165100,1,0,0:0:0:0:
329,192,165206,1,0,0:0:0:0:
256,192,165206,1,0,0:0:0:0:
36,192,165314,1,0,0:0:0:0:
109,192,165314,1,0,0:0:0:0:
182,192,165314,1,0,0:0:0:0:
475,192,165314,1,0,0:0:0:0:
402,192,165421,1,0,0:0:0:0:
329,192,165421,1,0,0:0:0:0:
36,192,165527,1,0,0:0:0:0:
109,192,165527,1,0,0:0:0:0:
475,192,165527,1,0,0:0:0:0:
256,192,165527,1,0,0:0:0:0:
182,192,165635,1,0,0:0:0:0:
402,192,165635,1,0,0:0:0:0:
36,192,165742,1,0,0:0:0:0:
109,192,165742,1,0,0:0:0:0:
329,192,165742,1,0,0:0:0:0:
475,192,165742,1,0,0:0:0:0:
182,192,165848,1,0,0:0:0:0:
256,192,165848,1,0,0:0:0:0:
402,192,165848,1,0,0:0:0:0:
36,192,165955,1,0,0:0:0:0:
109,192,165955,1,0,0:0:0:0:
329,192,165955,1,0,0:0:0:0:
256,192,166063,1,0,0:0:0:0:
475,192,166063,1,0,0:0:0:0:
36,192,166169,1,0,0:0:0:0:
402,192,166169,1,0,0:0:0:0:
182,192,166169,1,0,0:0:0:0:
109,192,166169,1,0,0:0:0:0:
329,192,166276,1,0,0:0:0:0:
256,192,166276,1,0,0:0:0:0:
402,192,166384,1,0,0:0:0:0:
475,192,166384,1,0,0:0:0:0:
36,192,166384,1,0,0:0:0:0:
182,192,166384,1,0,0:0:0:0:
329,192,166490,1,0,0:0:0:0:
109,192,166490,1,0,0:0:0:0:
475,192,166597,1,0,0:0:0:0:
402,192,166597,1,0,0:0:0:0:
182,192,166597,1,0,0:0:0:0:
36,192,166597,1,0,0:0:0:0:
329,192,166704,1,0,0:0:0:0:
256,192,166704,1,0,0:0:0:0:
109,192,166704,1,0,0:0:0:0:
475,192,166811,1,0,0:0:0:0:
402,192,166811,1,0,0:0:0:0:
182,192,166811,1,0,0:0:0:0:
256,192,166918,1,0,0:0:0:0:
36,192,166918,1,0,0:0:0:0:
475,192,167025,1,0,0:0:0:0:
109,192,167025,1,0,0:0:0:0:
329,192,167025,1,0,0:0:0:0:
402,192,167025,1,0,0:0:0:0:
182,192,167132,1,0,0:0:0:0:
256,192,167132,1,0,0:0:0:0:
109,192,167239,1,0,0:0:0:0:
36,192,167239,1,0,0:0:0:0:
475,192,167239,1,0,0:0:0:0:
329,192,167239,1,0,0:0:0:0:
402,192,167345,1,0,0:0:0:0:
256,192,167345,1,0,0:0:0:0:
36,192,167453,1,0,0:0:0:0:
329,192,167453,1,0,0:0:0:0:
182,192,167453,1,0,0:0:0:0:
256,192,167560,1,0,0:0:0:0:
109,192,167560,1,0,0:0:0:0:
475,192,167560,1,0,0:0:0:0:
402,192,167666,1,0,0:0:0:0:
36,192,167666,1,0,0:0:0:0:
182,192,167666,1,0,0:0:0:0:
256,192,167774,1,0,0:0:0:0:
329,192,167774,1,0,0:0:0:0:
36,192,167881,1,0,0:0:0:0:
402,192,167881,1,0,0:0:0:0:
475,192,167881,1,0,0:0:0:0:
109,192,167881,1,0,0:0:0:0:
256,192,167987,1,0,0:0:0:0:
182,192,167987,1,0,0:0:0:0:
36,192,168095,1,0,0:0:0:0:
329,192,168095,1,0,0:0:0:0:
109,192,168095,1,0,0:0:0:0:
402,192,168095,1,0,0:0:0:0:
475,192,168095,1,0,0:0:0:0:
256,192,168202,1,0,0:0:0:0:
182,192,168202,1,0,0:0:0:0:
36,192,168308,1,0,0:0:0:0:
109,192,168308,1,0,0:0:0:0:
475,192,168308,1,0,0:0:0:0:
329,192,168308,1,0,0:0:0:0:
256,192,168415,1,0,0:0:0:0:
402,192,168415,1,0,0:0:0:0:
36,192,168522,1,0,0:0:0:0:
475,192,168522,1,0,0:0:0:0:
109,192,168522,1,0,0:0:0:0:
182,192,168522,1,0,0:0:0:0:
329,192,168629,1,0,0:0:0:0:
402,192,168629,1,0,0:0:0:0:
475,192,168736,1,0,0:0:0:0:
182,192,168736,1,0,0:0:0:0:
36,192,168736,1,0,0:0:0:0:
109,192,168843,1,0,0:0:0:0:
256,192,168843,1,0,0:0:0:0:
402,192,168843,1,0,0:0:0:0:
36,192,168950,1,0,0:0:0:0:
182,192,168950,1,0,0:0:0:0:
329,192,168950,1,0,0:0:0:0:
475,192,168950,1,0,0:0:0:0:
402,192,169057,1,0,0:0:0:0:
256,192,169164,1,0,0:0:0:0:
475,192,169164,1,0,0:0:0:0:
109,192,169164,1,0,0:0:0:0:
36,192,169164,1,0,0:0:0:0:
329,192,169271,1,0,0:0:0:0:
402,192,169378,1,0,0:0:0:0:
182,192,169378,1,0,0:0:0:0:
475,192,169378,1,0,0:0:0:0:
36,192,169378,1,0,0:0:0:0:
256,192,169485,1,0,0:0:0:0:
109,192,169592,1,0,0:0:0:0:
329,192,169592,1,0,0:0:0:0:
36,192,169592,1,0,0:0:0:0:
475,192,169592,1,0,0:0:0:0:
182,192,169699,1,0,0:0:0:0:
256,192,169805,1,0,0:0:0:0:
36,192,169805,1,0,0:0:0:0:
402,192,169805,1,0,0:0:0:0:
475,192,169805,1,0,0:0:0:0:
109,192,169913,1,0,0:0:0:0:
182,192,169913,1,0,0:0:0:0:
475,192,170020,1,0,0:0:0:0:
329,192,170020,1,0,0:0:0:0:
256,192,170020,1,0,0:0:0:0:
36,192,170020,1,0,0:0:0:0:
182,192,170126,1,0,0:0:0:0:
402,192,170126,1,0,0:0:0:0:
36,192,170234,1,0,0:0:0:0:
109,192,170234,1,0,0:0:0:0:
256,192,170234,1,0,0:0:0:0:
475,192,170234,1,0,0:0:0:0:
402,192,170340,1,0,0:0:0:0:
329,192,170340,1,0,0:0:0:0:
256,192,170447,1,0,0:0:0:0:
182,192,170447,1,0,0:0:0:0:
36,192,170447,1,0,0:0:0:0:
475,192,170447,1,0,0:0:0:0:
109,192,170555,1,0,0:0:0:0:
329,192,170555,1,0,0:0:0:0:
36,192,170661,1,0,0:0:0:0:
182,192,170661,1,0,0:0:0:0:
256,192,170661,1,0,0:0:0:0:
402,192,170661,1,0,0:0:0:0:
475,192,170661,1,0,0:0:0:0:
329,192,170768,1,0,0:0:0:0:
402,192,170875,1,0,0:0:0:0:
182,192,170875,1,0,0:0:0:0:
36,192,170875,1,0,0:0:0:0:
475,192,170875,1,0,0:0:0:0:
256,192,170982,1,0,0:0:0:0:
329,192,171089,1,0,0:0:0:0:
109,192,171089,1,0,0:0:0:0:
36,192,171089,1,0,0:0:0:0:
475,192,171089,1,0,0:0:0:0:
182,192,171196,1,0,0:0:0:0:
256,192,171196,1,0,0:0:0:0:
402,192,171303,1,0,0:0:0:0:
475,192,171303,1,0,0:0:0:0:
36,192,171303,1,0,0:0:0:0:
109,192,171303,1,0,0:0:0:0:
256,192,171410,1,0,0:0:0:0:
329,192,171410,1,0,0:0:0:0:
36,192,171517,1,0,0:0:0:0:
475,192,171517,1,0,0:0:0:0:
402,192,171517,1,0,0:0:0:0:
182,192,171517,1,0,0:0:0:0:
329,192,171624,1,0,0:0:0:0:
109,192,171624,1,0,0:0:0:0:
36,192,171731,1,0,0:0:0:0:
256,192,171731,1,0,0:0:0:0:
475,192,171731,1,0,0:0:0:0:
182,192,171731,1,0,0:0:0:0:
329,192,171838,1,0,0:0:0:0:
402,192,171838,1,0,0:0:0:0:
36,192,171945,1,0,0:0:0:0:
109,192,171945,1,0,0:0:0:0:
256,192,171945,1,0,0:0:0:0:
475,192,171945,1,0,0:0:0:0:
182,192,172052,1,0,0:0:0:0:
402,192,172052,1,0,0:0:0:0:
109,192,172158,1,0,0:0:0:0:
36,192,172158,1,0,0:0:0:0:
329,192,172158,1,0,0:0:0:0:
256,192,172158,1,0,0:0:0:0:
402,192,172265,1,0,0:0:0:0:
475,192,172265,1,0,0:0:0:0:
36,192,172373,1,0,0:0:0:0:
182,192,172373,1,0,0:0:0:0:
329,192,172373,1,0,0:0:0:0:
256,192,172373,1,0,0:0:0:0:
109,192,172479,1,0,0:0:0:0:
475,192,172479,1,0,0:0:0:0:
36,192,172586,1,0,0:0:0:0:
182,192,172586,1,0,0:0:0:0:
402,192,172586,1,0,0:0:0:0:
256,192,172586,1,0,0:0:0:0:
329,192,172694,1,0,0:0:0:0:
109,192,172694,1,0,0:0:0:0:
36,192,172800,1,0,0:0:0:0:
182,192,172800,1,0,0:0:0:0:
256,192,172800,1,0,0:0:0:0:
475,192,172800,1,0,0:0:0:0:
402,192,172907,1,0,0:0:0:0:
329,192,172907,1,0,0:0:0:0:
475,192,173015,1,0,0:0:0:0:
182,192,173015,1,0,0:0:0:0:
109,192,173015,1,0,0:0:0:0:
36,192,173015,1,0,0:0:0:0:
256,192,173121,1,0,0:0:0:0:
329,192,173121,1,0,0:0:0:0:
402,192,173228,1,0,0:0:0:0:
475,192,173228,1,0,0:0:0:0:
109,192,173228,1,0,0:0:0:0:
36,192,173228,1,0,0:0:0:0:
182,192,173335,1,0,0:0:0:0:
256,192,173335,1,0,0:0:0:0:
329,192,173335,1,0,0:0:0:0:
36,192,173442,1,0,0:0:0:0:
109,192,173442,1,0,0:0:0:0:
402,192,173442,1,0,0:0:0:0:
475,192,173442,1,0,0:0:0:0:
182,192,173549,1,0,0:0:0:0:
256,192,173549,1,0,0:0:0:0:
329,192,173549,1,0,0:0:0:0:
36,192,173763,1,0,0:0:0:0:
402,192,173763,1,0,0:0:0:0:
109,192,173763,1,0,0:0:0:0:
256,192,173763,1,0,0:0:0:0:
109,192,173976,1,0,0:0:0:0:
182,192,173976,1,0,0:0:0:0:
329,192,173976,1,0,0:0:0:0:
475,192,173976,1,0,0:0:0:0:
182,192,174191,1,0,0:0:0:0:
256,192,174191,1,0,0:0:0:0:
402,192,174191,1,0,0:0:0:0:
36,192,174191,1,0,0:0:0:0:
109,192,174405,1,0,0:0:0:0:
256,192,174405,1,0,0:0:0:0:
329,192,174405,1,0,0:0:0:0:
36,192,174512,1,0,0:0:0:0:
182,192,174512,1,0,0:0:0:0:
402,192,174512,1,0,0:0:0:0:
475,192,174512,1,0,0:0:0:0:
329,192,174565,1,0,0:0:0:0:
256,192,174618,1,0,0:0:0:0:
182,192,174672,1,0,0:0:0:0:
109,192,174725,1,0,0:0:0:0:
402,192,174725,1,0,0:0:0:0:
475,192,174725,1,0,0:0:0:0:
36,192,174725,1,0,0:0:0:0:
329,192,174779,1,0,0:0:0:0:
256,192,174833,1,0,0:0:0:0:
182,192,174885,1,0,0:0:0:0:
109,192,174939,1,0,0:0:0:0:
36,192,174939,1,0,0:0:0:0:
475,192,174939,1,0,0:0:0:0:
329,192,174939,1,0,0:0:0:0:
256,192,175046,1,0,0:0:0:0:
402,192,175046,1,0,0:0:0:0:
329,192,175154,1,0,0:0:0:0:
182,192,175154,1,0,0:0:0:0:
36,192,175154,1,0,0:0:0:0:
109,192,175260,1,0,0:0:0:0:
256,192,175260,1,0,0:0:0:0:
36,192,175367,1,0,0:0:0:0:
182,192,175367,1,0,0:0:0:0:
402,192,175367,1,0,0:0:0:0:
475,192,175367,1,0,0:0:0:0:
109,192,175475,1,0,0:0:0:0:
329,192,175475,1,0,0:0:0:0:
182,192,175581,1,0,0:0:0:0:
402,192,175581,1,0,0:0:0:0:
475,192,175581,1,0,0:0:0:0:
256,192,175688,1,0,0:0:0:0:
36,192,175688,1,0,0:0:0:0:
475,192,175795,1,0,0:0:0:0:
109,192,175795,1,0,0:0:0:0:
329,192,175795,1,0,0:0:0:0:
182,192,175902,1,0,0:0:0:0:
402,192,175902,1,0,0:0:0:0:
475,192,176009,1,0,0:0:0:0:
36,192,176009,1,0,0:0:0:0:
256,192,176009,1,0,0:0:0:0:
109,192,176080,1,0,0:0:0:0:
402,192,176080,1,0,0:0:0:0:
182,192,176152,1,0,0:0:0:0:
329,192,176152,1,0,0:0:0:0:
36,192,176223,1,0,0:0:0:0:
475,192,176223,1,0,0:0:0:0:
256,192,176223,1,0,0:0:0:0:
182,192,176330,1,0,0:0:0:0:
402,192,176330,1,0,0:0:0:0:
109,192,176436,1,0,0:0:0:0:
329,192,176436,1,0,0:0:0:0:
36,192,176436,1,0,0:0:0:0:
256,192,176544,1,0,0:0:0:0:
402,192,176544,1,0,0:0:0:0:
36,192,176651,1,0,0:0:0:0:
475,192,176651,1,0,0:0:0:0:
329,192,176651,1,0,0:0:0:0:
182,192,176651,1,0,0:0:0:0:
256,192,176757,1,0,0:0:0:0:
109,192,176757,1,0,0:0:0:0:
182,192,176865,1,0,0:0:0:0:
329,192,176865,1,0,0:0:0:0:
475,192,176865,1,0,0:0:0:0:
402,192,176972,1,0,0:0:0:0:
256,192,176972,1,0,0:0:0:0:
475,192,177078,1,0,0:0:0:0:
329,192,177078,1,0,0:0:0:0:
109,192,177078,1,0,0:0:0:0:
36,192,177078,1,0,0:0:0:0:
402,192,177185,1,0,0:0:0:0:
182,192,177185,1,0,0:0:0:0:
329,192,177293,1,0,0:0:0:0:
109,192,177293,1,0,0:0:0:0:
36,192,177293,1,0,0:0:0:0:
256,192,177399,1,0,0:0:0:0:
475,192,177399,1,0,0:0:0:0:
36,192,177506,1,0,0:0:0:0:
402,192,177506,1,0,0:0:0:0:
182,192,177506,1,0,0:0:0:0:
329,192,177613,1,0,0:0:0:0:
109,192,177613,1,0,0:0:0:0:
36,192,177720,1,0,0:0:0:0:
475,192,177720,1,0,0:0:0:0:
256,192,177720,1,0,0:0:0:0:
402,192,177792,1,0,0:0:0:0:
109,192,177792,1,0,0:0:0:0:
329,192,177863,1,0,0:0:0:0:
182,192,177863,1,0,0:0:0:0:
475,192,177934,1,0,0:0:0:0:
36,192,177934,1,0,0:0:0:0:
256,192,177934,1,0,0:0:0:0:
329,192,178041,1,0,0:0:0:0:
109,192,178041,1,0,0:0:0:0:
402,192,178148,1,0,0:0:0:0:
182,192,178148,1,0,0:0:0:0:
475,192,178148,1,0,0:0:0:0:
256,192,178255,1,0,0:0:0:0:
109,192,178255,1,0,0:0:0:0:
475,192,178362,1,0,0:0:0:0:
36,192,178362,1,0,0:0:0:0:
182,192,178362,1,0,0:0:0:0:
329,192,178362,1,0,0:0:0:0:
109,192,178469,1,0,0:0:0:0:
402,192,178469,1,0,0:0:0:0:
182,192,178575,1,0,0:0:0:0:
329,192,178575,1,0,0:0:0:0:
256,192,178575,1,0,0:0:0:0:
109,192,178683,1,0,0:0:0:0:
402,192,178683,1,0,0:0:0:0:
36,192,178790,1,0,0:0:0:0:
475,192,178790,1,0,0:0:0:0:
256,192,178790,1,0,0:0:0:0:
182,192,178896,1,0,0:0:0:0:
402,192,178896,1,0,0:0:0:0:
109,192,179004,1,0,0:0:0:0:
329,192,179004,1,0,0:0:0:0:
36,192,179004,1,0,0:0:0:0:
182,192,179111,1,0,0:0:0:0:
402,192,179111,1,0,0:0:0:0:
256,192,179217,1,0,0:0:0:0:
475,192,179217,1,0,0:0:0:0:
36,192,179217,1,0,0:0:0:0:
182,192,179325,1,0,0:0:0:0:
329,192,179325,1,0,0:0:0:0:
109,192,179431,1,0,0:0:0:0:
36,192,179431,1,0,0:0:0:0:
475,192,179431,1,0,0:0:0:0:
402,192,179431,1,0,0:0:0:0:
182,192,179538,1,0,0:0:0:0:
329,192,179538,1,0,0:0:0:0:
256,192,179645,1,0,0:0:0:0:
36,192,179645,1,0,0:0:0:0:
475,192,179645,1,0,0:0:0:0:
109,192,179752,1,0,0:0:0:0:
329,192,179752,1,0,0:0:0:0:
182,192,179859,1,0,0:0:0:0:
402,192,179859,1,0,0:0:0:0:
475,192,179859,1,0,0:0:0:0:
109,192,179966,1,0,0:0:0:0:
329,192,179966,1,0,0:0:0:0:
36,192,180073,1,0,0:0:0:0:
256,192,180073,1,0,0:0:0:0:
475,192,180073,1,0,0:0:0:0:
182,192,180180,1,0,0:0:0:0:
402,192,180180,1,0,0:0:0:0:
109,192,180287,1,0,0:0:0:0:
36,192,180287,1,0,0:0:0:0:
329,192,180287,1,0,0:0:0:0:
475,192,180287,1,0,0:0:0:0:
182,192,180358,1,0,0:0:0:0:
256,192,180358,1,0,0:0:0:0:
402,192,180429,1,0,0:0:0:0:
475,192,180429,1,0,0:0:0:0:
36,192,180501,1,0,0:0:0:0:
329,192,180501,1,0,0:0:0:0:
256,192,180501,1,0,0:0:0:0:
109,192,180501,1,0,0:0:0:0:
182,192,180608,1,0,0:0:0:0:
402,192,180608,1,0,0:0:0:0:
256,192,180715,1,0,0:0:0:0:
475,192,180715,1,0,0:0:0:0:
36,192,180715,1,0,0:0:0:0:
109,192,180822,1,0,0:0:0:0:
329,192,180822,1,0,0:0:0:0:
182,192,180822,1,0,0:0:0:0:
36,192,180929,1,0,0:0:0:0:
475,192,180929,1,0,0:0:0:0:
402,192,180929,1,0,0:0:0:0:
256,192,180929,1,0,0:0:0:0:
109,192,181035,1,0,0:0:0:0:
182,192,181035,1,0,0:0:0:0:
36,192,181143,1,0,0:0:0:0:
402,192,181143,1,0,0:0:0:0:
475,192,181143,1,0,0:0:0:0:
329,192,181143,1,0,0:0:0:0:
256,192,181249,1,0,0:0:0:0:
182,192,181249,1,0,0:0:0:0:
475,192,181356,1,0,0:0:0:0:
109,192,181356,1,0,0:0:0:0:
36,192,181356,1,0,0:0:0:0:
402,192,181356,1,0,0:0:0:0:
329,192,181464,1,0,0:0:0:0:
256,192,181464,1,0,0:0:0:0:
36,192,181570,1,0,0:0:0:0:
109,192,181570,1,0,0:0:0:0:
475,192,181570,1,0,0:0:0:0:
182,192,181570,1,0,0:0:0:0:
329,192,181677,1,0,0:0:0:0:
402,192,181677,1,0,0:0:0:0:
36,192,181785,1,0,0:0:0:0:
109,192,181785,1,0,0:0:0:0:
475,192,181785,1,0,0:0:0:0:
182,192,181785,1,0,0:0:0:0:
402,192,181891,1,0,0:0:0:0:
256,192,181891,1,0,0:0:0:0:
36,192,181998,1,0,0:0:0:0:
182,192,181998,1,0,0:0:0:0:
329,192,181998,1,0,0:0:0:0:
256,192,182105,1,0,0:0:0:0:
109,192,182105,1,0,0:0:0:0:
402,192,182212,1,0,0:0:0:0:
475,192,182212,1,0,0:0:0:0:
36,192,182212,1,0,0:0:0:0:
182,192,182212,1,0,0:0:0:0:
329,192,182319,1,0,0:0:0:0:
109,192,182319,1,0,0:0:0:0:
475,192,182426,1,0,0:0:0:0:
402,192,182426,1,0,0:0:0:0:
182,192,182426,1,0,0:0:0:0:
36,192,182533,1,0,0:0:0:0:
256,192,182533,1,0,0:0:0:0:
329,192,182640,1,0,0:0:0:0:
109,192,182640,1,0,0:0:0:0:
475,192,182640,1,0,0:0:0:0:
402,192,182747,1,0,0:0:0:0:
182,192,182747,1,0,0:0:0:0:
256,192,182854,1,0,0:0:0:0:
36,192,182854,1,0,0:0:0:0:
475,192,182854,1,0,0:0:0:0:
402,192,182925,1,0,0:0:0:0:
109,192,182925,1,0,0:0:0:0:
329,192,182996,1,0,0:0:0:0:
182,192,182996,1,0,0:0:0:0:
256,192,183067,1,0,0:0:0:0:
475,192,183067,1,0,0:0:0:0:
36,192,183067,1,0,0:0:0:0:
402,192,183175,1,0,0:0:0:0:
182,192,183175,1,0,0:0:0:0:
36,192,183282,1,0,0:0:0:0:
329,192,183282,1,0,0:0:0:0:
109,192,183282,1,0,0:0:0:0:
402,192,183388,1,0,0:0:0:0:
256,192,183388,1,0,0:0:0:0:
329,192,183495,1,0,0:0:0:0:
182,192,183495,1,0,0:0:0:0:
36,192,183495,1,0,0:0:0:0:
475,192,183495,1,0,0:0:0:0:
109,192,183603,1,0,0:0:0:0:
256,192,183603,1,0,0:0:0:0:
475,192,183709,1,0,0:0:0:0:
329,192,183709,1,0,0:0:0:0:
182,192,183709,1,0,0:0:0:0:
256,192,183816,1,0,0:0:0:0:
402,192,183816,1,0,0:0:0:0:
109,192,183924,1,0,0:0:0:0:
36,192,183924,1,0,0:0:0:0:
475,192,183924,1,0,0:0:0:0:
329,192,183924,1,0,0:0:0:0:
182,192,184030,1,0,0:0:0:0:
402,192,184030,1,0,0:0:0:0:
36,192,184137,1,0,0:0:0:0:
109,192,184137,1,0,0:0:0:0:
329,192,184137,1,0,0:0:0:0:
475,192,184245,1,0,0:0:0:0:
256,192,184245,1,0,0:0:0:0:
182,192,184351,1,0,0:0:0:0:
402,192,184351,1,0,0:0:0:0:
36,192,184351,1,0,0:0:0:0:
109,192,184458,1,0,0:0:0:0:
329,192,184458,1,0,0:0:0:0:
256,192,184565,1,0,0:0:0:0:
475,192,184565,1,0,0:0:0:0:
36,192,184565,1,0,0:0:0:0:
109,192,184636,1,0,0:0:0:0:
402,192,184636,1,0,0:0:0:0:
182,192,184707,1,0,0:0:0:0:
329,192,184707,1,0,0:0:0:0:
256,192,184779,1,0,0:0:0:0:
36,192,184779,1,0,0:0:0:0:
475,192,184779,1,0,0:0:0:0:
109,192,184885,1,0,0:0:0:0:
329,192,184885,1,0,0:0:0:0:
475,192,184993,1,0,0:0:0:0:
182,192,184993,1,0,0:0:0:0:
402,192,184993,1,0,0:0:0:0:
109,192,185100,1,0,0:0:0:0:
256,192,185100,1,0,0:0:0:0:
182,192,185206,1,0,0:0:0:0:
329,192,185206,1,0,0:0:0:0:
475,192,185206,1,0,0:0:0:0:
36,192,185206,1,0,0:0:0:0:
402,192,185314,1,0,0:0:0:0:
109,192,185314,1,0,0:0:0:0:
256,192,185421,1,0,0:0:0:0:
329,192,185421,1,0,0:0:0:0:
182,192,185421,1,0,0:0:0:0:
402,192,185527,1,0,0:0:0:0:
109,192,185527,1,0,0:0:0:0:
256,192,185635,1,0,0:0:0:0:
475,192,185635,1,0,0:0:0:0:
36,192,185635,1,0,0:0:0:0:
402,192,185742,1,0,0:0:0:0:
182,192,185742,1,0,0:0:0:0:
36,192,185848,1,0,0:0:0:0:
329,192,185848,1,0,0:0:0:0:
109,192,185848,1,0,0:0:0:0:
402,192,185955,1,0,0:0:0:0:
182,192,185955,1,0,0:0:0:0:
36,192,186063,1,0,0:0:0:0:
475,192,186063,1,0,0:0:0:0:
256,192,186063,1,0,0:0:0:0:
329,192,186169,1,0,0:0:0:0:
182,192,186169,1,0,0:0:0:0:
475,192,186276,1,0,0:0:0:0:
402,192,186276,1,0,0:0:0:0:
109,192,186276,1,0,0:0:0:0:
36,192,186276,1,0,0:0:0:0:
329,192,186384,1,0,0:0:0:0:
182,192,186384,1,0,0:0:0:0:
475,192,186490,1,0,0:0:0:0:
36,192,186490,1,0,0:0:0:0:
256,192,186490,1,0,0:0:0:0:
329,192,186597,1,0,0:0:0:0:
109,192,186597,1,0,0:0:0:0:
475,192,186704,1,0,0:0:0:0:
402,192,186704,1,0,0:0:0:0:
182,192,186704,1,0,0:0:0:0:
329,192,186811,1,0,0:0:0:0:
109,192,186811,1,0,0:0:0:0:
475,192,186918,1,0,0:0:0:0:
256,192,186918,1,0,0:0:0:0:
36,192,186918,1,0,0:0:0:0:
402,192,187025,1,0,0:0:0:0:
182,192,187025,1,0,0:0:0:0:
329,192,187132,1,0,0:0:0:0:
475,192,187132,1,0,0:0:0:0:
109,192,187132,1,0,0:0:0:0:
36,192,187132,1,0,0:0:0:0:
256,192,187203,1,0,0:0:0:0:
182,192,187203,1,0,0:0:0:0:
475,192,187275,1,0,0:0:0:0:
402,192,187275,1,0,0:0:0:0:
256,192,187345,1,0,0:0:0:0:
109,192,187345,1,0,0:0:0:0:
36,192,187345,1,0,0:0:0:0:
329,192,187345,1,0,0:0:0:0:
402,192,187453,1,0,0:0:0:0:
182,192,187453,1,0,0:0:0:0:
36,192,187560,1,0,0:0:0:0:
475,192,187560,1,0,0:0:0:0:
256,192,187560,1,0,0:0:0:0:
182,192,187666,1,0,0:0:0:0:
329,192,187666,1,0,0:0:0:0:
109,192,187666,1,0,0:0:0:0:
256,192,187774,1,0,0:0:0:0:
36,192,187774,1,0,0:0:0:0:
475,192,187774,1,0,0:0:0:0:
329,192,187881,1,0,0:0:0:0:
402,192,187881,1,0,0:0:0:0:
36,192,187987,1,0,0:0:0:0:
182,192,187987,1,0,0:0:0:0:
475,192,187987,1,0,0:0:0:0:
109,192,187987,1,0,0:0:0:0:
329,192,188095,1,0,0:0:0:0:
256,192,188095,1,0,0:0:0:0:
475,192,188202,1,0,0:0:0:0:
109,192,188202,1,0,0:0:0:0:
36,192,188202,1,0,0:0:0:0:
402,192,188202,1,0,0:0:0:0:
256,192,188308,1,0,0:0:0:0:
182,192,188308,1,0,0:0:0:0:
36,192,188415,1,0,0:0:0:0:
329,192,188415,1,0,0:0:0:0:
475,192,188415,1,0,0:0:0:0:
402,192,188415,1,0,0:0:0:0:
109,192,188522,1,0,0:0:0:0:
182,192,188522,1,0,0:0:0:0:
36,192,188629,1,0,0:0:0:0:
329,192,188629,1,0,0:0:0:0:
475,192,188629,1,0,0:0:0:0:
402,192,188629,1,0,0:0:0:0:
256,192,188629,1,0,0:0:0:0:
109,192,188843,1,0,0:0:0:0:
182,192,188843,1,0,0:0:0:0:
329,192,188843,1,0,0:0:0:0:
475,192,188843,1,0,0:0:0:0:
182,192,189057,1,0,0:0:0:0:
256,192,189057,1,0,0:0:0:0:
402,192,189057,1,0,0:0:0:0:
36,192,189057,1,0,0:0:0:0:
109,192,189164,1,0,0:0:0:0:
329,192,189164,1,0,0:0:0:0:
475,192,189164,1,0,0:0:0:0:
36,192,189271,1,0,0:0:0:0:
182,192,189271,1,0,0:0:0:0:
256,192,189271,1,0,0:0:0:0:
402,192,189271,1,0,0:0:0:0:
109,192,189378,1,0,0:0:0:0:
329,192,189378,1,0,0:0:0:0:
475,192,189378,1,0,0:0:0:0:
36,192,189485,1,0,0:0:0:0:
256,192,189485,1,0,0:0:0:0:
182,192,189485,1,0,0:0:0:0:
402,192,189485,1,0,0:0:0:0:
109,192,189699,1,0,0:0:0:0:
256,192,189699,1,0,0:0:0:0:
329,192,189699,1,0,0:0:0:0:
475,192,189699,1,0,0:0:0:0:
329,192,189913,1,0,0:0:0:0:
402,192,189913,1,0,0:0:0:0:
182,192,189913,1,0,0:0:0:0:
36,192,189913,1,0,0:0:0:0:
109,192,190020,1,0,0:0:0:0:
256,192,190020,1,0,0:0:0:0:
475,192,190020,1,0,0:0:0:0:
36,192,190126,1,0,0:0:0:0:
182,192,190126,1,0,0:0:0:0:
329,192,190126,1,0,0:0:0:0:
402,192,190126,1,0,0:0:0:0:
109,192,190234,1,0,0:0:0:0:
256,192,190234,1,0,0:0:0:0:
475,192,190234,1,0,0:0:0:0:
36,192,190340,1,0,0:0:0:0:
182,192,190340,1,0,0:0:0:0:
329,192,190340,1,0,0:0:0:0:
402,192,190340,1,0,0:0:0:0:
109,192,190555,1,0,0:0:0:0:
256,192,190555,1,0,0:0:0:0:
402,192,190555,1,0,0:0:0:0:
475,192,190555,1,0,0:0:0:0:
36,192,190768,1,0,0:0:0:0:
182,192,190768,1,0,0:0:0:0:
329,192,190768,1,0,0:0:0:0:
475,192,190768,1,0,0:0:0:0:
109,192,190875,1,0,0:0:0:0:
256,192,190875,1,0,0:0:0:0:
402,192,190875,1,0,0:0:0:0:
36,192,190982,1,0,0:0:0:0:
182,192,190982,1,0,0:0:0:0:
329,192,190982,1,0,0:0:0:0:
475,192,190982,1,0,0:0:0:0:
109,192,191089,1,0,0:0:0:0:
256,192,191089,1,0,0:0:0:0:
402,192,191089,1,0,0:0:0:0:
36,192,191196,1,0,0:0:0:0:
182,192,191196,1,0,0:0:0:0:
329,192,191196,1,0,0:0:0:0:
475,192,191196,1,0,0:0:0:0:
109,192,191410,1,0,0:0:0:0:
36,192,191410,1,0,0:0:0:0:
256,192,191410,1,0,0:0:0:0:
402,192,191410,1,0,0:0:0:0:
475,192,191410,1,0,0:0:0:0:
36,192,191624,1,0,0:0:0:0:
182,192,191624,1,0,0:0:0:0:
256,192,191624,1,0,0:0:0:0:
329,192,191624,1,0,0:0:0:0:
475,192,191624,1,0,0:0:0:0:
36,192,192052,1,0,0:0:0:0:
182,192,192052,1,0,0:0:0:0:
36,192,192265,1,0,0:0:0:0:
182,192,192265,1,0,0:0:0:0:
109,192,192479,1,0,0:0:0:0:
256,192,192479,1,0,0:0:0:0:
109,192,192694,1,0,0:0:0:0:
256,192,192694,1,0,0:0:0:0:
182,192,192907,1,0,0:0:0:0:
329,192,192907,1,0,0:0:0:0:
256,192,193228,1,0,0:0:0:0:
402,192,193228,1,0,0:0:0:0:
36,192,193549,1,0,0:0:0:0:
109,192,193549,1,0,0:0:0:0:
182,192,193549,1,0,0:0:0:0:
329,192,193549,1,0,0:0:0:0:
402,192,193549,1,0,0:0:0:0:
475,192,193549,1,0,0:0:0:0:
