osu file format v14

[General]
AudioFilename: nameless - Milk Crown on Sonnetica140.mp3
AudioLeadIn: 0
PreviewTime: 47150
Countdown: 0
SampleSet: None
StackLeniency: 0.7
Mode: 3
LetterboxInBreaks: 0
SpecialStyle: 0
WidescreenStoryboard: 0

[Editor]
Bookmarks: 1476,12231,22988,33744,47190,56601,65507,76264,81641,87020,96431,101831,112587,117965,124016,136116,137461,152251
DistanceSpacing: 1.5
BeatDivisor: 4
GridSize: 8
TimelineZoom: 3.100005

[Metadata]
Title:Milk Crown on Sonnetica
TitleUnicode:ミルククラウン・オン・ソーネチカ
Artist:nameless
ArtistUnicode:nameless
Creator:Applequestria
Version:For Kawawa [1.4x Rate]
Source:
Tags:utaite ユジー yuzy vocaloid hatsune miku
BeatmapID:4536951
BeatmapSetID:747695

[Difficulty]
HPDrainRate:8
CircleSize:7
OverallDifficulty:8
ApproachRate:5
SliderMultiplier:1.4
SliderTickRate:1

[Events]
//Background and Video events
0,0,"nameless - Milk Crown on Sonnetica.jpg",0,0
//Break Periods
//Storyboard Layer 0 (Background)
//Storyboard Layer 1 (Fail)
//Storyboard Layer 2 (Pass)
//Storyboard Layer 3 (Foreground)
//Storyboard Layer 4 (Overlay)
//Storyboard Sound Samples

[TimingPoints]
1476,168.067226890756,4,2,0,10,1,0
47190,-100,4,2,0,10,0,1
56601,168.067226890756,3,2,0,10,1,0
57105,168.067226890756,4,2,0,10,1,0
57777,168.067226890756,3,2,0,10,1,0
59289,168.067226890756,4,2,0,10,1,0
59961,168.067226890756,3,2,0,10,1,0
63491,168.067226890756,4,2,0,10,1,0
87020,-100,4,2,0,10,0,1
96431,-100,4,2,0,10,0,0
96453,168.067226890756,4,2,0,10,1,0
124016,-100,4,2,0,10,0,1
136117,-100,4,2,0,10,0,0
137461,-100,4,2,0,10,0,1
150906,-100,4,2,0,10,0,0

[HitObjects]
182,192,1476,5,0,0:0:0:0:
329,192,1476,1,0,0:0:0:0:
475,192,1476,1,0,0:0:0:0:
36,192,1476,1,0,0:0:0:0:
36,192,1644,1,0,0:0:0:0:
329,192,1644,1,0,0:0:0:0:
475,192,1644,1,0,0:0:0:0:
329,192,1727,1,0,0:0:0:0:
475,192,1727,1,0,0:0:0:0:
182,192,1811,1,0,0:0:0:0:
256,192,1896,1,0,0:0:0:0:
402,192,1896,1,0,0:0:0:0:
36,192,1979,1,0,0:0:0:0:
182,192,2064,1,0,0:0:0:0:
329,192,2064,1,0,0:0:0:0:
475,192,2064,1,0,0:0:0:0:
182,192,2231,1,0,0:0:0:0:
256,192,2231,1,0,0:0:0:0:
402,192,2231,1,0,0:0:0:0:
36,192,2316,1,0,0:0:0:0:
475,192,2400,1,0,0:0:0:0:
329,192,2400,1,0,0:0:0:0:
182,192,2484,1,0,0:0:0:0:
402,192,2484,1,0,0:0:0:0:
256,192,2484,1,0,0:0:0:0:
475,192,2568,1,0,0:0:0:0:
329,192,2568,1,0,0:0:0:0:
36,192,2652,1,0,0:0:0:0:
402,192,2652,1,0,0:0:0:0:
256,192,2652,1,0,0:0:0:0:
475,192,2736,1,0,0:0:0:0:
329,192,2736,1,0,0:0:0:0:
182,192,2820,1,0,0:0:0:0:
329,192,2820,1,0,0:0:0:0:
475,192,2820,1,0,0:0:0:0:
402,192,2904,1,0,0:0:0:0:
256,192,2904,1,0,0:0:0:0:
36,192,2988,1,0,0:0:0:0:
329,192,2988,1,0,0:0:0:0:
475,192,2988,1,0,0:0:0:0:
329,192,3072,1,0,0:0:0:0:
475,192,3072,1,0,0:0:0:0:
182,192,3156,1,0,0:0:0:0:
256,192,3240,1,0,0:0:0:0:
402,192,3240,1,0,0:0:0:0:
36,192,3324,1,0,0:0:0:0:
182,192,3408,1,0,0:0:0:0:
329,192,3408,1,0,0:0:0:0:
475,192,3408,1,0,0:0:0:0:
182,192,3576,1,0,0:0:0:0:
329,192,3576,1,0,0:0:0:0:
475,192,3576,1,0,0:0:0:0:
36,192,3660,1,0,0:0:0:0:
256,192,3744,1,0,0:0:0:0:
402,192,3744,1,0,0:0:0:0:
182,192,3829,1,0,0:0:0:0:
329,192,3829,1,0,0:0:0:0:
475,192,3829,1,0,0:0:0:0:
36,192,3996,1,0,0:0:0:0:
256,192,3996,1,0,0:0:0:0:
402,192,3996,1,0,0:0:0:0:
329,192,4164,5,0,0:0:0:0:
36,192,4164,1,0,0:0:0:0:
182,192,4164,1,0,0:0:0:0:
109,192,4249,1,0,0:0:0:0:
256,192,4249,1,0,0:0:0:0:
475,192,4333,1,0,0:0:0:0:
182,192,4333,1,0,0:0:0:0:
36,192,4333,1,0,0:0:0:0:
182,192,4416,1,0,0:0:0:0:
36,192,4416,1,0,0:0:0:0:
329,192,4501,1,0,0:0:0:0:
256,192,4584,1,0,0:0:0:0:
109,192,4584,1,0,0:0:0:0:
475,192,4669,1,0,0:0:0:0:
329,192,4753,1,0,0:0:0:0:
182,192,4753,1,0,0:0:0:0:
36,192,4753,1,0,0:0:0:0:
329,192,4921,1,0,0:0:0:0:
256,192,4921,1,0,0:0:0:0:
109,192,4921,1,0,0:0:0:0:
475,192,5005,1,0,0:0:0:0:
36,192,5089,1,0,0:0:0:0:
182,192,5089,1,0,0:0:0:0:
329,192,5173,1,0,0:0:0:0:
109,192,5173,1,0,0:0:0:0:
256,192,5173,1,0,0:0:0:0:
36,192,5257,1,0,0:0:0:0:
182,192,5257,1,0,0:0:0:0:
475,192,5341,1,0,0:0:0:0:
256,192,5341,1,0,0:0:0:0:
109,192,5341,1,0,0:0:0:0:
182,192,5425,1,0,0:0:0:0:
36,192,5425,1,0,0:0:0:0:
329,192,5509,1,0,0:0:0:0:
182,192,5509,1,0,0:0:0:0:
36,192,5509,1,0,0:0:0:0:
109,192,5593,1,0,0:0:0:0:
256,192,5593,1,0,0:0:0:0:
475,192,5677,1,0,0:0:0:0:
182,192,5677,1,0,0:0:0:0:
36,192,5677,1,0,0:0:0:0:
182,192,5761,1,0,0:0:0:0:
36,192,5761,1,0,0:0:0:0:
329,192,5845,1,0,0:0:0:0:
256,192,5929,1,0,0:0:0:0:
109,192,5929,1,0,0:0:0:0:
475,192,6013,1,0,0:0:0:0:
329,192,6097,1,0,0:0:0:0:
182,192,6097,1,0,0:0:0:0:
36,192,6097,1,0,0:0:0:0:
329,192,6265,1,0,0:0:0:0:
182,192,6265,1,0,0:0:0:0:
36,192,6265,1,0,0:0:0:0:
475,192,6349,1,0,0:0:0:0:
256,192,6434,1,0,0:0:0:0:
109,192,6434,1,0,0:0:0:0:
329,192,6517,1,0,0:0:0:0:
182,192,6517,1,0,0:0:0:0:
36,192,6517,1,0,0:0:0:0:
475,192,6686,1,0,0:0:0:0:
256,192,6686,1,0,0:0:0:0:
109,192,6686,1,0,0:0:0:0:
36,192,6854,1,0,0:0:0:0:
109,192,6854,1,0,0:0:0:0:
475,192,6854,1,0,0:0:0:0:
256,192,6854,1,0,0:0:0:0:
329,192,6854,1,0,0:0:0:0:
402,192,6938,1,0,0:0:0:0:
182,192,6938,1,0,0:0:0:0:
329,192,7021,1,0,0:0:0:0:
109,192,7021,1,0,0:0:0:0:
256,192,7106,1,0,0:0:0:0:
36,192,7106,1,0,0:0:0:0:
182,192,7190,1,0,0:0:0:0:
475,192,7190,1,0,0:0:0:0:
402,192,7190,1,0,0:0:0:0:
109,192,7274,1,0,0:0:0:0:
329,192,7274,1,0,0:0:0:0:
36,192,7358,1,0,0:0:0:0:
256,192,7358,1,0,0:0:0:0:
182,192,7441,1,0,0:0:0:0:
475,192,7441,1,0,0:0:0:0:
402,192,7441,1,0,0:0:0:0:
36,192,7526,1,0,0:0:0:0:
109,192,7526,1,0,0:0:0:0:
475,192,7610,1,0,0:0:0:0:
402,192,7610,1,0,0:0:0:0:
182,192,7610,1,0,0:0:0:0:
182,192,7778,1,0,0:0:0:0:
475,192,7778,1,0,0:0:0:0:
402,192,7778,1,0,0:0:0:0:
36,192,7862,1,0,0:0:0:0:
109,192,7862,1,0,0:0:0:0:
329,192,7862,1,0,0:0:0:0:
182,192,7946,1,0,0:0:0:0:
402,192,7946,1,0,0:0:0:0:
256,192,8030,1,0,0:0:0:0:
36,192,8030,1,0,0:0:0:0:
475,192,8030,1,0,0:0:0:0:
109,192,8114,1,0,0:0:0:0:
329,192,8114,1,0,0:0:0:0:
36,192,8198,1,0,0:0:0:0:
475,192,8198,1,0,0:0:0:0:
402,192,8198,1,0,0:0:0:0:
182,192,8198,1,0,0:0:0:0:
256,192,8198,1,0,0:0:0:0:
329,192,8282,1,0,0:0:0:0:
109,192,8282,1,0,0:0:0:0:
402,192,8366,1,0,0:0:0:0:
182,192,8366,1,0,0:0:0:0:
475,192,8450,1,0,0:0:0:0:
256,192,8450,1,0,0:0:0:0:
109,192,8534,1,0,0:0:0:0:
36,192,8534,1,0,0:0:0:0:
329,192,8534,1,0,0:0:0:0:
182,192,8619,1,0,0:0:0:0:
402,192,8619,1,0,0:0:0:0:
256,192,8702,1,0,0:0:0:0:
475,192,8702,1,0,0:0:0:0:
109,192,8786,1,0,0:0:0:0:
36,192,8786,1,0,0:0:0:0:
329,192,8786,1,0,0:0:0:0:
402,192,8870,1,0,0:0:0:0:
475,192,8870,1,0,0:0:0:0:
329,192,8954,1,0,0:0:0:0:
109,192,8954,1,0,0:0:0:0:
36,192,8954,1,0,0:0:0:0:
36,192,9122,1,0,0:0:0:0:
109,192,9122,1,0,0:0:0:0:
329,192,9122,1,0,0:0:0:0:
182,192,9206,1,0,0:0:0:0:
256,192,9206,1,0,0:0:0:0:
402,192,9206,1,0,0:0:0:0:
475,192,9206,1,0,0:0:0:0:
36,192,9374,1,0,0:0:0:0:
109,192,9374,1,0,0:0:0:0:
329,192,9374,1,0,0:0:0:0:
256,192,9543,1,0,0:0:0:0:
402,192,9543,1,0,0:0:0:0:
182,192,9543,1,0,0:0:0:0:
36,192,9543,1,0,0:0:0:0:
475,192,9543,1,0,0:0:0:0:
109,192,9626,1,0,0:0:0:0:
329,192,9626,1,0,0:0:0:0:
182,192,9711,1,0,0:0:0:0:
402,192,9711,1,0,0:0:0:0:
256,192,9795,1,0,0:0:0:0:
475,192,9795,1,0,0:0:0:0:
329,192,9879,1,0,0:0:0:0:
36,192,9879,1,0,0:0:0:0:
109,192,9879,1,0,0:0:0:0:
402,192,9963,1,0,0:0:0:0:
182,192,9963,1,0,0:0:0:0:
475,192,10047,1,0,0:0:0:0:
256,192,10047,1,0,0:0:0:0:
329,192,10131,1,0,0:0:0:0:
36,192,10131,1,0,0:0:0:0:
109,192,10131,1,0,0:0:0:0:
475,192,10215,1,0,0:0:0:0:
402,192,10215,1,0,0:0:0:0:
109,192,10299,1,0,0:0:0:0:
182,192,10299,1,0,0:0:0:0:
329,192,10299,1,0,0:0:0:0:
329,192,10467,1,0,0:0:0:0:
109,192,10467,1,0,0:0:0:0:
36,192,10467,1,0,0:0:0:0:
475,192,10551,1,0,0:0:0:0:
402,192,10551,1,0,0:0:0:0:
182,192,10551,1,0,0:0:0:0:
109,192,10635,1,0,0:0:0:0:
329,192,10635,1,0,0:0:0:0:
36,192,10719,1,0,0:0:0:0:
256,192,10719,1,0,0:0:0:0:
475,192,10719,1,0,0:0:0:0:
182,192,10803,1,0,0:0:0:0:
402,192,10803,1,0,0:0:0:0:
36,192,10887,1,0,0:0:0:0:
109,192,10887,1,0,0:0:0:0:
329,192,10887,1,0,0:0:0:0:
475,192,10887,1,0,0:0:0:0:
182,192,10971,1,0,0:0:0:0:
256,192,10971,1,0,0:0:0:0:
402,192,10971,1,0,0:0:0:0:
36,192,11055,1,0,0:0:0:0:
109,192,11055,1,0,0:0:0:0:
475,192,11055,1,0,0:0:0:0:
329,192,11055,1,0,0:0:0:0:
182,192,11139,1,0,0:0:0:0:
256,192,11139,1,0,0:0:0:0:
402,192,11139,1,0,0:0:0:0:
109,192,11307,1,0,0:0:0:0:
329,192,11307,1,0,0:0:0:0:
475,192,11307,1,0,0:0:0:0:
182,192,11307,1,0,0:0:0:0:
36,192,11476,1,0,0:0:0:0:
256,192,11476,1,0,0:0:0:0:
402,192,11476,1,0,0:0:0:0:
109,192,11476,1,0,0:0:0:0:
109,192,11644,1,0,0:0:0:0:
329,192,11644,1,0,0:0:0:0:
475,192,11644,1,0,0:0:0:0:
182,192,11644,1,0,0:0:0:0:
256,192,11811,1,0,0:0:0:0:
182,192,11811,1,0,0:0:0:0:
402,192,11811,1,0,0:0:0:0:
475,192,11896,1,0,0:0:0:0:
329,192,11896,1,0,0:0:0:0:
36,192,11896,1,0,0:0:0:0:
109,192,11896,1,0,0:0:0:0:
475,192,12064,1,0,0:0:0:0:
36,192,12064,1,0,0:0:0:0:
182,192,12064,1,0,0:0:0:0:
402,192,12064,1,0,0:0:0:0:
256,192,12148,1,0,0:0:0:0:
109,192,12148,1,0,0:0:0:0:
329,192,12148,1,0,0:0:0:0:
475,192,12231,1,0,0:0:0:0:
402,192,12231,1,0,0:0:0:0:
182,192,12231,1,0,0:0:0:0:
36,192,12231,1,0,0:0:0:0:
329,192,12316,1,0,0:0:0:0:
109,192,12316,1,0,0:0:0:0:
256,192,12400,1,0,0:0:0:0:
36,192,12400,1,0,0:0:0:0:
475,192,12400,1,0,0:0:0:0:
402,192,12484,1,0,0:0:0:0:
182,192,12484,1,0,0:0:0:0:
36,192,12568,1,0,0:0:0:0:
475,192,12568,1,0,0:0:0:0:
109,192,12568,1,0,0:0:0:0:
329,192,12568,1,0,0:0:0:0:
402,192,12652,1,0,0:0:0:0:
256,192,12652,1,0,0:0:0:0:
36,192,12736,1,0,0:0:0:0:
329,192,12736,1,0,0:0:0:0:
182,192,12736,1,0,0:0:0:0:
402,192,12820,1,0,0:0:0:0:
256,192,12820,1,0,0:0:0:0:
109,192,12904,1,0,0:0:0:0:
36,192,12904,1,0,0:0:0:0:
475,192,12904,1,0,0:0:0:0:
329,192,12904,1,0,0:0:0:0:
182,192,12988,1,0,0:0:0:0:
402,192,12988,1,0,0:0:0:0:
256,192,13072,1,0,0:0:0:0:
475,192,13072,1,0,0:0:0:0:
36,192,13072,1,0,0:0:0:0:
109,192,13156,1,0,0:0:0:0:
329,192,13156,1,0,0:0:0:0:
475,192,13240,1,0,0:0:0:0:
36,192,13240,1,0,0:0:0:0:
402,192,13240,1,0,0:0:0:0:
182,192,13240,1,0,0:0:0:0:
109,192,13324,1,0,0:0:0:0:
256,192,13324,1,0,0:0:0:0:
475,192,13408,1,0,0:0:0:0:
182,192,13408,1,0,0:0:0:0:
329,192,13408,1,0,0:0:0:0:
109,192,13492,1,0,0:0:0:0:
256,192,13492,1,0,0:0:0:0:
36,192,13576,1,0,0:0:0:0:
182,192,13576,1,0,0:0:0:0:
475,192,13576,1,0,0:0:0:0:
402,192,13576,1,0,0:0:0:0:
109,192,13660,1,0,0:0:0:0:
329,192,13660,1,0,0:0:0:0:
36,192,13744,1,0,0:0:0:0:
182,192,13744,1,0,0:0:0:0:
256,192,13744,1,0,0:0:0:0:
475,192,13744,1,0,0:0:0:0:
109,192,13829,1,0,0:0:0:0:
402,192,13829,1,0,0:0:0:0:
36,192,13912,1,0,0:0:0:0:
182,192,13912,1,0,0:0:0:0:
329,192,13912,1,0,0:0:0:0:
256,192,13912,1,0,0:0:0:0:
109,192,13996,1,0,0:0:0:0:
475,192,13996,1,0,0:0:0:0:
36,192,14081,1,0,0:0:0:0:
182,192,14081,1,0,0:0:0:0:
256,192,14081,1,0,0:0:0:0:
329,192,14081,1,0,0:0:0:0:
109,192,14164,1,0,0:0:0:0:
402,192,14164,1,0,0:0:0:0:
329,192,14249,1,0,0:0:0:0:
475,192,14249,1,0,0:0:0:0:
182,192,14249,1,0,0:0:0:0:
256,192,14249,1,0,0:0:0:0:
402,192,14333,1,0,0:0:0:0:
109,192,14333,1,0,0:0:0:0:
475,192,14416,1,0,0:0:0:0:
329,192,14416,1,0,0:0:0:0:
256,192,14416,1,0,0:0:0:0:
36,192,14416,1,0,0:0:0:0:
402,192,14501,1,0,0:0:0:0:
182,192,14501,1,0,0:0:0:0:
109,192,14501,1,0,0:0:0:0:
475,192,14584,1,0,0:0:0:0:
329,192,14584,1,0,0:0:0:0:
256,192,14584,1,0,0:0:0:0:
36,192,14584,1,0,0:0:0:0:
402,192,14669,1,0,0:0:0:0:
182,192,14669,1,0,0:0:0:0:
329,192,14753,1,0,0:0:0:0:
475,192,14753,1,0,0:0:0:0:
36,192,14753,1,0,0:0:0:0:
109,192,14753,1,0,0:0:0:0:
402,192,14836,1,0,0:0:0:0:
182,192,14836,1,0,0:0:0:0:
475,192,14921,1,0,0:0:0:0:
329,192,14921,1,0,0:0:0:0:
36,192,14921,1,0,0:0:0:0:
256,192,14921,1,0,0:0:0:0:
109,192,15005,1,0,0:0:0:0:
182,192,15005,1,0,0:0:0:0:
402,192,15005,1,0,0:0:0:0:
36,192,15089,1,0,0:0:0:0:
329,192,15089,1,0,0:0:0:0:
256,192,15089,1,0,0:0:0:0:
475,192,15089,1,0,0:0:0:0:
109,192,15173,1,0,0:0:0:0:
182,192,15173,1,0,0:0:0:0:
402,192,15173,1,0,0:0:0:0:
36,192,15257,1,0,0:0:0:0:
256,192,15257,1,0,0:0:0:0:
329,192,15257,1,0,0:0:0:0:
475,192,15257,1,0,0:0:0:0:
402,192,15341,1,0,0:0:0:0:
109,192,15341,1,0,0:0:0:0:
256,192,15425,1,0,0:0:0:0:
182,192,15425,1,0,0:0:0:0:
329,192,15425,1,0,0:0:0:0:
109,192,15509,1,0,0:0:0:0:
402,192,15509,1,0,0:0:0:0:
256,192,15593,1,0,0:0:0:0:
182,192,15593,1,0,0:0:0:0:
36,192,15593,1,0,0:0:0:0:
475,192,15593,1,0,0:0:0:0:
109,192,15677,1,0,0:0:0:0:
329,192,15677,1,0,0:0:0:0:
402,192,15677,1,0,0:0:0:0:
36,192,15761,1,0,0:0:0:0:
182,192,15761,1,0,0:0:0:0:
256,192,15761,1,0,0:0:0:0:
475,192,15761,1,0,0:0:0:0:
402,192,15845,1,0,0:0:0:0:
329,192,15845,1,0,0:0:0:0:
109,192,15845,1,0,0:0:0:0:
36,192,15929,1,0,0:0:0:0:
182,192,15929,1,0,0:0:0:0:
256,192,15929,1,0,0:0:0:0:
475,192,15929,1,0,0:0:0:0:
109,192,16013,1,0,0:0:0:0:
402,192,16013,1,0,0:0:0:0:
182,192,16097,1,0,0:0:0:0:
256,192,16097,1,0,0:0:0:0:
329,192,16097,1,0,0:0:0:0:
109,192,16181,1,0,0:0:0:0:
402,192,16181,1,0,0:0:0:0:
36,192,16265,1,0,0:0:0:0:
182,192,16265,1,0,0:0:0:0:
256,192,16265,1,0,0:0:0:0:
475,192,16265,1,0,0:0:0:0:
109,192,16349,1,0,0:0:0:0:
329,192,16349,1,0,0:0:0:0:
182,192,16434,1,0,0:0:0:0:
475,192,16434,1,0,0:0:0:0:
402,192,16434,1,0,0:0:0:0:
36,192,16517,1,0,0:0:0:0:
256,192,16517,1,0,0:0:0:0:
109,192,16601,1,0,0:0:0:0:
329,192,16601,1,0,0:0:0:0:
475,192,16601,1,0,0:0:0:0:
182,192,16686,1,0,0:0:0:0:
402,192,16686,1,0,0:0:0:0:
36,192,16769,1,0,0:0:0:0:
256,192,16769,1,0,0:0:0:0:
475,192,16769,1,0,0:0:0:0:
109,192,16854,1,0,0:0:0:0:
329,192,16854,1,0,0:0:0:0:
182,192,16938,1,0,0:0:0:0:
402,192,16938,1,0,0:0:0:0:
475,192,16938,1,0,0:0:0:0:
36,192,16938,1,0,0:0:0:0:
256,192,17021,1,0,0:0:0:0:
329,192,17021,1,0,0:0:0:0:
109,192,17106,1,0,0:0:0:0:
36,192,17106,1,0,0:0:0:0:
475,192,17106,1,0,0:0:0:0:
402,192,17106,1,0,0:0:0:0:
182,192,17190,1,0,0:0:0:0:
256,192,17190,1,0,0:0:0:0:
36,192,17274,1,0,0:0:0:0:
109,192,17274,1,0,0:0:0:0:
402,192,17274,1,0,0:0:0:0:
475,192,17274,1,0,0:0:0:0:
256,192,17358,1,0,0:0:0:0:
329,192,17358,1,0,0:0:0:0:
109,192,17441,1,0,0:0:0:0:
36,192,17441,1,0,0:0:0:0:
475,192,17441,1,0,0:0:0:0:
402,192,17441,1,0,0:0:0:0:
182,192,17526,1,0,0:0:0:0:
256,192,17526,1,0,0:0:0:0:
36,192,17610,1,0,0:0:0:0:
109,192,17610,1,0,0:0:0:0:
475,192,17610,1,0,0:0:0:0:
329,192,17610,1,0,0:0:0:0:
182,192,17694,1,0,0:0:0:0:
402,192,17694,1,0,0:0:0:0:
36,192,17778,1,0,0:0:0:0:
256,192,17778,1,0,0:0:0:0:
475,192,17778,1,0,0:0:0:0:
109,192,17862,1,0,0:0:0:0:
329,192,17862,1,0,0:0:0:0:
36,192,17946,1,0,0:0:0:0:
182,192,17946,1,0,0:0:0:0:
256,192,17946,1,0,0:0:0:0:
402,192,17946,1,0,0:0:0:0:
475,192,17946,1,0,0:0:0:0:
109,192,18030,1,0,0:0:0:0:
329,192,18030,1,0,0:0:0:0:
36,192,18114,1,0,0:0:0:0:
256,192,18114,1,0,0:0:0:0:
475,192,18114,1,0,0:0:0:0:
182,192,18198,1,0,0:0:0:0:
402,192,18198,1,0,0:0:0:0:
36,192,18282,1,0,0:0:0:0:
109,192,18282,1,0,0:0:0:0:
256,192,18282,1,0,0:0:0:0:
475,192,18282,1,0,0:0:0:0:
329,192,18338,1,0,0:0:0:0:
182,192,18338,1,0,0:0:0:0:
402,192,18394,1,0,0:0:0:0:
109,192,18394,1,0,0:0:0:0:
36,192,18450,1,0,0:0:0:0:
256,192,18450,1,0,0:0:0:0:
475,192,18450,1,0,0:0:0:0:
329,192,18534,1,0,0:0:0:0:
182,192,18534,1,0,0:0:0:0:
36,192,18619,1,0,0:0:0:0:
475,192,18619,1,0,0:0:0:0:
109,192,18619,1,0,0:0:0:0:
402,192,18619,1,0,0:0:0:0:
182,192,18702,1,0,0:0:0:0:
329,192,18702,1,0,0:0:0:0:
256,192,18786,1,0,0:0:0:0:
36,192,18786,1,0,0:0:0:0:
475,192,18786,1,0,0:0:0:0:
109,192,18870,1,0,0:0:0:0:
402,192,18870,1,0,0:0:0:0:
36,192,18954,1,0,0:0:0:0:
182,192,18954,1,0,0:0:0:0:
256,192,18954,1,0,0:0:0:0:
475,192,18954,1,0,0:0:0:0:
329,192,18954,1,0,0:0:0:0:
109,192,19039,1,0,0:0:0:0:
402,192,19039,1,0,0:0:0:0:
36,192,19122,1,0,0:0:0:0:
256,192,19122,1,0,0:0:0:0:
475,192,19122,1,0,0:0:0:0:
182,192,19206,1,0,0:0:0:0:
402,192,19206,1,0,0:0:0:0:
109,192,19291,1,0,0:0:0:0:
36,192,19291,1,0,0:0:0:0:
256,192,19291,1,0,0:0:0:0:
475,192,19291,1,0,0:0:0:0:
329,192,19291,1,0,0:0:0:0:
182,192,19374,1,0,0:0:0:0:
402,192,19374,1,0,0:0:0:0:
36,192,19459,1,0,0:0:0:0:
256,192,19459,1,0,0:0:0:0:
475,192,19459,1,0,0:0:0:0:
109,192,19543,1,0,0:0:0:0:
329,192,19543,1,0,0:0:0:0:
36,192,19626,1,0,0:0:0:0:
475,192,19626,1,0,0:0:0:0:
402,192,19626,1,0,0:0:0:0:
182,192,19626,1,0,0:0:0:0:
329,192,19711,1,0,0:0:0:0:
109,192,19711,1,0,0:0:0:0:
475,192,19795,1,0,0:0:0:0:
36,192,19795,1,0,0:0:0:0:
402,192,19795,1,0,0:0:0:0:
256,192,19795,1,0,0:0:0:0:
329,192,19879,1,0,0:0:0:0:
182,192,19879,1,0,0:0:0:0:
109,192,19879,1,0,0:0:0:0:
36,192,19963,1,0,0:0:0:0:
256,192,19963,1,0,0:0:0:0:
402,192,19963,1,0,0:0:0:0:
475,192,19963,1,0,0:0:0:0:
182,192,20047,1,0,0:0:0:0:
329,192,20047,1,0,0:0:0:0:
256,192,20131,1,0,0:0:0:0:
36,192,20131,1,0,0:0:0:0:
475,192,20131,1,0,0:0:0:0:
109,192,20215,1,0,0:0:0:0:
402,192,20215,1,0,0:0:0:0:
36,192,20299,1,0,0:0:0:0:
182,192,20299,1,0,0:0:0:0:
475,192,20299,1,0,0:0:0:0:
256,192,20299,1,0,0:0:0:0:
109,192,20383,1,0,0:0:0:0:
329,192,20383,1,0,0:0:0:0:
182,192,20467,1,0,0:0:0:0:
402,192,20467,1,0,0:0:0:0:
475,192,20467,1,0,0:0:0:0:
36,192,20551,1,0,0:0:0:0:
256,192,20551,1,0,0:0:0:0:
109,192,20635,1,0,0:0:0:0:
329,192,20635,1,0,0:0:0:0:
475,192,20635,1,0,0:0:0:0:
182,192,20719,1,0,0:0:0:0:
402,192,20719,1,0,0:0:0:0:
36,192,20803,1,0,0:0:0:0:
256,192,20803,1,0,0:0:0:0:
475,192,20803,1,0,0:0:0:0:
109,192,20887,1,0,0:0:0:0:
329,192,20887,1,0,0:0:0:0:
36,192,20971,1,0,0:0:0:0:
182,192,20971,1,0,0:0:0:0:
402,192,20971,1,0,0:0:0:0:
109,192,21055,1,0,0:0:0:0:
256,192,21055,1,0,0:0:0:0:
475,192,21055,1,0,0:0:0:0:
36,192,21139,1,0,0:0:0:0:
182,192,21139,1,0,0:0:0:0:
329,192,21139,1,0,0:0:0:0:
109,192,21224,1,0,0:0:0:0:
256,192,21224,1,0,0:0:0:0:
475,192,21224,1,0,0:0:0:0:
36,192,21307,1,0,0:0:0:0:
182,192,21307,1,0,0:0:0:0:
402,192,21307,1,0,0:0:0:0:
109,192,21391,1,0,0:0:0:0:
329,192,21391,1,0,0:0:0:0:
475,192,21391,1,0,0:0:0:0:
36,192,21476,1,0,0:0:0:0:
402,192,21476,1,0,0:0:0:0:
256,192,21476,1,0,0:0:0:0:
182,192,21559,1,0,0:0:0:0:
329,192,21559,1,0,0:0:0:0:
475,192,21559,1,0,0:0:0:0:
36,192,21644,1,0,0:0:0:0:
109,192,21644,1,0,0:0:0:0:
256,192,21644,1,0,0:0:0:0:
402,192,21644,1,0,0:0:0:0:
36,192,21727,1,0,0:0:0:0:
36,192,21896,1,0,0:0:0:0:
36,192,22064,1,0,0:0:0:0:
36,192,22231,1,0,0:0:0:0:
182,192,22231,1,0,0:0:0:0:
36,192,22316,1,0,0:0:0:0:
109,192,22316,1,0,0:0:0:0:
256,192,22316,1,0,0:0:0:0:
475,192,22316,1,0,0:0:0:0:
402,192,22316,1,0,0:0:0:0:
182,192,22736,1,0,0:0:0:0:
329,192,22736,1,0,0:0:0:0:
182,192,22904,1,0,0:0:0:0:
329,192,22904,1,0,0:0:0:0:
36,192,22988,1,0,0:0:0:0:
109,192,22988,1,0,0:0:0:0:
256,192,22988,1,0,0:0:0:0:
475,192,22988,1,0,0:0:0:0:
402,192,22988,1,0,0:0:0:0:
182,192,23072,1,0,0:0:0:0:
329,192,23072,1,0,0:0:0:0:
36,192,23156,1,0,0:0:0:0:
256,192,23156,1,0,0:0:0:0:
402,192,23156,1,0,0:0:0:0:
475,192,23156,1,0,0:0:0:0:
109,192,23240,1,0,0:0:0:0:
329,192,23240,1,0,0:0:0:0:
36,192,23324,1,0,0:0:0:0:
182,192,23324,1,0,0:0:0:0:
475,192,23324,1,0,0:0:0:0:
402,192,23324,1,0,0:0:0:0:
329,192,23408,1,0,0:0:0:0:
256,192,23408,1,0,0:0:0:0:
36,192,23492,1,0,0:0:0:0:
109,192,23492,1,0,0:0:0:0:
182,192,23492,1,0,0:0:0:0:
475,192,23492,1,0,0:0:0:0:
329,192,23576,1,0,0:0:0:0:
402,192,23576,1,0,0:0:0:0:
36,192,23660,1,0,0:0:0:0:
109,192,23660,1,0,0:0:0:0:
256,192,23660,1,0,0:0:0:0:
475,192,23660,1,0,0:0:0:0:
182,192,23744,1,0,0:0:0:0:
329,192,23744,1,0,0:0:0:0:
36,192,23829,1,0,0:0:0:0:
109,192,23829,1,0,0:0:0:0:
475,192,23829,1,0,0:0:0:0:
256,192,23829,1,0,0:0:0:0:
182,192,23912,1,0,0:0:0:0:
402,192,23912,1,0,0:0:0:0:
36,192,23996,1,0,0:0:0:0:
109,192,23996,1,0,0:0:0:0:
329,192,23996,1,0,0:0:0:0:
475,192,23996,1,0,0:0:0:0:
182,192,24081,1,0,0:0:0:0:
256,192,24081,1,0,0:0:0:0:
329,192,24164,1,0,0:0:0:0:
475,192,24164,1,0,0:0:0:0:
402,192,24164,1,0,0:0:0:0:
36,192,24164,1,0,0:0:0:0:
109,192,24249,1,0,0:0:0:0:
182,192,24249,1,0,0:0:0:0:
36,192,24333,1,0,0:0:0:0:
256,192,24333,1,0,0:0:0:0:
475,192,24333,1,0,0:0:0:0:
402,192,24333,1,0,0:0:0:0:
109,192,24416,1,0,0:0:0:0:
329,192,24416,1,0,0:0:0:0:
402,192,24501,1,0,0:0:0:0:
475,192,24501,1,0,0:0:0:0:
36,192,24501,1,0,0:0:0:0:
182,192,24501,1,0,0:0:0:0:
256,192,24584,1,0,0:0:0:0:
109,192,24584,1,0,0:0:0:0:
402,192,24669,1,0,0:0:0:0:
475,192,24669,1,0,0:0:0:0:
36,192,24669,1,0,0:0:0:0:
182,192,24669,1,0,0:0:0:0:
329,192,24669,1,0,0:0:0:0:
109,192,24753,1,0,0:0:0:0:
36,192,24836,1,0,0:0:0:0:
475,192,24836,1,0,0:0:0:0:
402,192,24836,1,0,0:0:0:0:
256,192,24836,1,0,0:0:0:0:
182,192,24921,1,0,0:0:0:0:
329,192,24921,1,0,0:0:0:0:
36,192,25005,1,0,0:0:0:0:
256,192,25005,1,0,0:0:0:0:
475,192,25005,1,0,0:0:0:0:
109,192,25005,1,0,0:0:0:0:
329,192,25089,1,0,0:0:0:0:
182,192,25089,1,0,0:0:0:0:
256,192,25173,1,0,0:0:0:0:
402,192,25173,1,0,0:0:0:0:
475,192,25173,1,0,0:0:0:0:
36,192,25173,1,0,0:0:0:0:
182,192,25257,1,0,0:0:0:0:
109,192,25341,1,0,0:0:0:0:
329,192,25341,1,0,0:0:0:0:
475,192,25341,1,0,0:0:0:0:
36,192,25341,1,0,0:0:0:0:
256,192,25425,1,0,0:0:0:0:
182,192,25425,1,0,0:0:0:0:
36,192,25509,1,0,0:0:0:0:
475,192,25509,1,0,0:0:0:0:
402,192,25509,1,0,0:0:0:0:
109,192,25509,1,0,0:0:0:0:
256,192,25593,1,0,0:0:0:0:
329,192,25593,1,0,0:0:0:0:
36,192,25677,1,0,0:0:0:0:
402,192,25677,1,0,0:0:0:0:
475,192,25677,1,0,0:0:0:0:
182,192,25677,1,0,0:0:0:0:
109,192,25761,1,0,0:0:0:0:
329,192,25761,1,0,0:0:0:0:
475,192,25845,1,0,0:0:0:0:
256,192,25845,1,0,0:0:0:0:
36,192,25845,1,0,0:0:0:0:
402,192,25845,1,0,0:0:0:0:
329,192,25929,1,0,0:0:0:0:
182,192,25929,1,0,0:0:0:0:
475,192,26013,1,0,0:0:0:0:
402,192,26013,1,0,0:0:0:0:
256,192,26013,1,0,0:0:0:0:
36,192,26013,1,0,0:0:0:0:
109,192,26097,1,0,0:0:0:0:
182,192,26097,1,0,0:0:0:0:
36,192,26181,1,0,0:0:0:0:
475,192,26181,1,0,0:0:0:0:
402,192,26181,1,0,0:0:0:0:
329,192,26181,1,0,0:0:0:0:
182,192,26265,1,0,0:0:0:0:
256,192,26265,1,0,0:0:0:0:
36,192,26349,1,0,0:0:0:0:
475,192,26349,1,0,0:0:0:0:
109,192,26349,1,0,0:0:0:0:
329,192,26349,1,0,0:0:0:0:
182,192,26434,1,0,0:0:0:0:
402,192,26434,1,0,0:0:0:0:
475,192,26517,1,0,0:0:0:0:
109,192,26517,1,0,0:0:0:0:
36,192,26517,1,0,0:0:0:0:
256,192,26517,1,0,0:0:0:0:
329,192,26601,1,0,0:0:0:0:
182,192,26601,1,0,0:0:0:0:
256,192,26686,1,0,0:0:0:0:
475,192,26686,1,0,0:0:0:0:
36,192,26686,1,0,0:0:0:0:
109,192,26686,1,0,0:0:0:0:
329,192,26769,1,0,0:0:0:0:
402,192,26769,1,0,0:0:0:0:
109,192,26854,1,0,0:0:0:0:
182,192,26854,1,0,0:0:0:0:
475,192,26854,1,0,0:0:0:0:
36,192,26854,1,0,0:0:0:0:
256,192,26938,1,0,0:0:0:0:
329,192,26938,1,0,0:0:0:0:
402,192,27021,1,0,0:0:0:0:
182,192,27021,1,0,0:0:0:0:
475,192,27021,1,0,0:0:0:0:
36,192,27021,1,0,0:0:0:0:
329,192,27106,1,0,0:0:0:0:
256,192,27106,1,0,0:0:0:0:
36,192,27190,1,0,0:0:0:0:
182,192,27190,1,0,0:0:0:0:
402,192,27190,1,0,0:0:0:0:
475,192,27190,1,0,0:0:0:0:
109,192,27274,1,0,0:0:0:0:
256,192,27274,1,0,0:0:0:0:
182,192,27358,1,0,0:0:0:0:
329,192,27358,1,0,0:0:0:0:
36,192,27358,1,0,0:0:0:0:
402,192,27358,1,0,0:0:0:0:
475,192,27358,1,0,0:0:0:0:
109,192,27441,1,0,0:0:0:0:
402,192,27526,1,0,0:0:0:0:
256,192,27526,1,0,0:0:0:0:
36,192,27526,1,0,0:0:0:0:
475,192,27526,1,0,0:0:0:0:
329,192,27610,1,0,0:0:0:0:
182,192,27610,1,0,0:0:0:0:
475,192,27694,1,0,0:0:0:0:
109,192,27694,1,0,0:0:0:0:
36,192,27694,1,0,0:0:0:0:
256,192,27694,1,0,0:0:0:0:
182,192,27778,1,0,0:0:0:0:
329,192,27778,1,0,0:0:0:0:
475,192,27862,1,0,0:0:0:0:
36,192,27862,1,0,0:0:0:0:
256,192,27862,1,0,0:0:0:0:
402,192,27862,1,0,0:0:0:0:
182,192,27946,1,0,0:0:0:0:
475,192,28030,1,0,0:0:0:0:
36,192,28030,1,0,0:0:0:0:
109,192,28030,1,0,0:0:0:0:
329,192,28030,1,0,0:0:0:0:
182,192,28114,1,0,0:0:0:0:
256,192,28114,1,0,0:0:0:0:
109,192,28198,1,0,0:0:0:0:
36,192,28198,1,0,0:0:0:0:
475,192,28198,1,0,0:0:0:0:
402,192,28198,1,0,0:0:0:0:
256,192,28282,1,0,0:0:0:0:
329,192,28282,1,0,0:0:0:0:
36,192,28366,1,0,0:0:0:0:
109,192,28366,1,0,0:0:0:0:
402,192,28366,1,0,0:0:0:0:
475,192,28366,1,0,0:0:0:0:
329,192,28450,1,0,0:0:0:0:
182,192,28450,1,0,0:0:0:0:
402,192,28534,1,0,0:0:0:0:
475,192,28534,1,0,0:0:0:0:
36,192,28534,1,0,0:0:0:0:
256,192,28534,1,0,0:0:0:0:
329,192,28619,1,0,0:0:0:0:
109,192,28619,1,0,0:0:0:0:
475,192,28702,1,0,0:0:0:0:
402,192,28702,1,0,0:0:0:0:
36,192,28702,1,0,0:0:0:0:
182,192,28702,1,0,0:0:0:0:
256,192,28786,1,0,0:0:0:0:
329,192,28786,1,0,0:0:0:0:
182,192,28870,1,0,0:0:0:0:
475,192,28870,1,0,0:0:0:0:
36,192,28870,1,0,0:0:0:0:
109,192,28870,1,0,0:0:0:0:
402,192,28954,1,0,0:0:0:0:
329,192,28954,1,0,0:0:0:0:
256,192,29039,1,0,0:0:0:0:
475,192,29039,1,0,0:0:0:0:
36,192,29039,1,0,0:0:0:0:
109,192,29039,1,0,0:0:0:0:
329,192,29122,1,0,0:0:0:0:
182,192,29122,1,0,0:0:0:0:
475,192,29206,1,0,0:0:0:0:
256,192,29206,1,0,0:0:0:0:
36,192,29206,1,0,0:0:0:0:
109,192,29206,1,0,0:0:0:0:
402,192,29291,1,0,0:0:0:0:
182,192,29291,1,0,0:0:0:0:
329,192,29374,1,0,0:0:0:0:
475,192,29374,1,0,0:0:0:0:
36,192,29374,1,0,0:0:0:0:
109,192,29374,1,0,0:0:0:0:
256,192,29459,1,0,0:0:0:0:
182,192,29459,1,0,0:0:0:0:
402,192,29543,1,0,0:0:0:0:
36,192,29543,1,0,0:0:0:0:
329,192,29543,1,0,0:0:0:0:
475,192,29543,1,0,0:0:0:0:
182,192,29626,1,0,0:0:0:0:
109,192,29626,1,0,0:0:0:0:
475,192,29711,1,0,0:0:0:0:
402,192,29711,1,0,0:0:0:0:
36,192,29711,1,0,0:0:0:0:
256,192,29711,1,0,0:0:0:0:
329,192,29795,1,0,0:0:0:0:
109,192,29795,1,0,0:0:0:0:
36,192,29879,1,0,0:0:0:0:
182,192,29879,1,0,0:0:0:0:
402,192,29879,1,0,0:0:0:0:
475,192,29879,1,0,0:0:0:0:
109,192,29963,1,0,0:0:0:0:
256,192,29963,1,0,0:0:0:0:
182,192,30047,1,0,0:0:0:0:
329,192,30047,1,0,0:0:0:0:
36,192,30047,1,0,0:0:0:0:
402,192,30047,1,0,0:0:0:0:
475,192,30047,1,0,0:0:0:0:
109,192,30131,1,0,0:0:0:0:
402,192,30215,1,0,0:0:0:0:
256,192,30215,1,0,0:0:0:0:
36,192,30215,1,0,0:0:0:0:
475,192,30215,1,0,0:0:0:0:
329,192,30299,1,0,0:0:0:0:
182,192,30299,1,0,0:0:0:0:
475,192,30383,1,0,0:0:0:0:
109,192,30383,1,0,0:0:0:0:
36,192,30383,1,0,0:0:0:0:
256,192,30383,1,0,0:0:0:0:
182,192,30467,1,0,0:0:0:0:
329,192,30467,1,0,0:0:0:0:
475,192,30551,1,0,0:0:0:0:
36,192,30551,1,0,0:0:0:0:
256,192,30551,1,0,0:0:0:0:
402,192,30551,1,0,0:0:0:0:
109,192,30635,1,0,0:0:0:0:
475,192,30719,1,0,0:0:0:0:
329,192,30719,1,0,0:0:0:0:
182,192,30719,1,0,0:0:0:0:
402,192,30719,1,0,0:0:0:0:
36,192,30803,1,0,0:0:0:0:
109,192,30803,1,0,0:0:0:0:
182,192,30887,1,0,0:0:0:0:
329,192,30887,1,0,0:0:0:0:
256,192,30887,1,0,0:0:0:0:
475,192,30971,1,0,0:0:0:0:
402,192,30971,1,0,0:0:0:0:
36,192,31055,1,0,0:0:0:0:
109,192,31055,1,0,0:0:0:0:
182,192,31055,1,0,0:0:0:0:
329,192,31055,1,0,0:0:0:0:
256,192,31139,1,0,0:0:0:0:
402,192,31139,1,0,0:0:0:0:
36,192,31224,1,0,0:0:0:0:
475,192,31224,1,0,0:0:0:0:
329,192,31224,1,0,0:0:0:0:
109,192,31224,1,0,0:0:0:0:
182,192,31307,1,0,0:0:0:0:
402,192,31307,1,0,0:0:0:0:
475,192,31391,1,0,0:0:0:0:
256,192,31391,1,0,0:0:0:0:
36,192,31391,1,0,0:0:0:0:
109,192,31391,1,0,0:0:0:0:
329,192,31476,1,0,0:0:0:0:
402,192,31476,1,0,0:0:0:0:
109,192,31559,1,0,0:0:0:0:
36,192,31559,1,0,0:0:0:0:
475,192,31559,1,0,0:0:0:0:
182,192,31559,1,0,0:0:0:0:
256,192,31644,1,0,0:0:0:0:
329,192,31644,1,0,0:0:0:0:
36,192,31727,1,0,0:0:0:0:
402,192,31727,1,0,0:0:0:0:
475,192,31727,1,0,0:0:0:0:
182,192,31727,1,0,0:0:0:0:
109,192,31811,1,0,0:0:0:0:
256,192,31811,1,0,0:0:0:0:
182,192,31896,1,0,0:0:0:0:
402,192,31896,1,0,0:0:0:0:
475,192,31896,1,0,0:0:0:0:
36,192,31896,1,0,0:0:0:0:
109,192,31979,1,0,0:0:0:0:
329,192,31979,1,0,0:0:0:0:
475,192,32064,1,0,0:0:0:0:
402,192,32064,1,0,0:0:0:0:
36,192,32064,1,0,0:0:0:0:
256,192,32064,1,0,0:0:0:0:
182,192,32064,1,0,0:0:0:0:
109,192,32148,1,0,0:0:0:0:
36,192,32231,1,0,0:0:0:0:
329,192,32231,1,0,0:0:0:0:
402,192,32231,1,0,0:0:0:0:
475,192,32231,1,0,0:0:0:0:
182,192,32316,1,0,0:0:0:0:
256,192,32316,1,0,0:0:0:0:
36,192,32400,1,0,0:0:0:0:
329,192,32400,1,0,0:0:0:0:
475,192,32400,1,0,0:0:0:0:
109,192,32400,1,0,0:0:0:0:
182,192,32484,1,0,0:0:0:0:
36,192,32568,1,0,0:0:0:0:
256,192,32568,1,0,0:0:0:0:
475,192,32568,1,0,0:0:0:0:
182,192,32652,1,0,0:0:0:0:
402,192,32652,1,0,0:0:0:0:
36,192,32736,1,0,0:0:0:0:
475,192,32736,1,0,0:0:0:0:
109,192,32736,1,0,0:0:0:0:
329,192,32736,1,0,0:0:0:0:
182,192,32820,1,0,0:0:0:0:
402,192,32904,1,0,0:0:0:0:
256,192,32904,1,0,0:0:0:0:
36,192,32904,1,0,0:0:0:0:
109,192,32988,1,0,0:0:0:0:
182,192,32988,1,0,0:0:0:0:
329,192,32988,1,0,0:0:0:0:
475,192,32988,1,0,0:0:0:0:
182,192,33156,1,0,0:0:0:0:
256,192,33156,1,0,0:0:0:0:
402,192,33156,1,0,0:0:0:0:
36,192,33156,1,0,0:0:0:0:
475,192,33324,1,0,0:0:0:0:
109,192,33324,1,0,0:0:0:0:
256,192,33324,1,0,0:0:0:0:
36,192,33408,1,0,0:0:0:0:
402,192,33408,1,0,0:0:0:0:
182,192,33408,1,0,0:0:0:0:
329,192,33408,1,0,0:0:0:0:
36,192,33576,1,0,0:0:0:0:
109,192,33576,1,0,0:0:0:0:
402,192,33576,1,0,0:0:0:0:
475,192,33576,1,0,0:0:0:0:
329,192,33660,1,0,0:0:0:0:
182,192,33660,1,0,0:0:0:0:
36,192,33744,1,0,0:0:0:0:
256,192,33744,1,0,0:0:0:0:
402,192,33744,1,0,0:0:0:0:
475,192,33744,1,0,0:0:0:0:
109,192,33744,1,0,0:0:0:0:
182,192,33829,1,0,0:0:0:0:
329,192,33829,1,0,0:0:0:0:
109,192,33912,1,0,0:0:0:0:
36,192,33912,1,0,0:0:0:0:
256,192,33912,1,0,0:0:0:0:
475,192,33912,1,0,0:0:0:0:
402,192,33996,1,0,0:0:0:0:
36,192,34081,1,0,0:0:0:0:
182,192,34081,1,0,0:0:0:0:
329,192,34081,1,0,0:0:0:0:
256,192,34081,1,0,0:0:0:0:
109,192,34164,1,0,0:0:0:0:
475,192,34164,1,0,0:0:0:0:
36,192,34249,1,0,0:0:0:0:
182,192,34249,1,0,0:0:0:0:
402,192,34249,1,0,0:0:0:0:
256,192,34249,1,0,0:0:0:0:
329,192,34333,1,0,0:0:0:0:
109,192,34333,1,0,0:0:0:0:
36,192,34416,1,0,0:0:0:0:
256,192,34416,1,0,0:0:0:0:
475,192,34416,1,0,0:0:0:0:
109,192,34501,1,0,0:0:0:0:
329,192,34501,1,0,0:0:0:0:
182,192,34584,1,0,0:0:0:0:
402,192,34584,1,0,0:0:0:0:
475,192,34584,1,0,0:0:0:0:
36,192,34584,1,0,0:0:0:0:
256,192,34669,1,0,0:0:0:0:
329,192,34753,1,0,0:0:0:0:
402,192,34753,1,0,0:0:0:0:
109,192,34753,1,0,0:0:0:0:
36,192,34753,1,0,0:0:0:0:
182,192,34836,1,0,0:0:0:0:
36,192,34921,1,0,0:0:0:0:
329,192,34921,1,0,0:0:0:0:
256,192,34921,1,0,0:0:0:0:
475,192,34921,1,0,0:0:0:0:
182,192,35005,1,0,0:0:0:0:
475,192,35089,1,0,0:0:0:0:
36,192,35089,1,0,0:0:0:0:
109,192,35089,1,0,0:0:0:0:
329,192,35089,1,0,0:0:0:0:
256,192,35089,1,0,0:0:0:0:
182,192,35173,1,0,0:0:0:0:
402,192,35173,1,0,0:0:0:0:
109,192,35257,1,0,0:0:0:0:
36,192,35257,1,0,0:0:0:0:
256,192,35257,1,0,0:0:0:0:
475,192,35257,1,0,0:0:0:0:
329,192,35341,1,0,0:0:0:0:
36,192,35425,1,0,0:0:0:0:
182,192,35425,1,0,0:0:0:0:
402,192,35425,1,0,0:0:0:0:
475,192,35425,1,0,0:0:0:0:
109,192,35509,1,0,0:0:0:0:
256,192,35509,1,0,0:0:0:0:
36,192,35593,1,0,0:0:0:0:
182,192,35593,1,0,0:0:0:0:
329,192,35593,1,0,0:0:0:0:
475,192,35593,1,0,0:0:0:0:
402,192,35677,1,0,0:0:0:0:
109,192,35677,1,0,0:0:0:0:
36,192,35761,1,0,0:0:0:0:
475,192,35761,1,0,0:0:0:0:
256,192,35761,1,0,0:0:0:0:
109,192,35845,1,0,0:0:0:0:
329,192,35845,1,0,0:0:0:0:
182,192,35929,1,0,0:0:0:0:
402,192,35929,1,0,0:0:0:0:
475,192,35929,1,0,0:0:0:0:
36,192,35929,1,0,0:0:0:0:
256,192,36013,1,0,0:0:0:0:
329,192,36097,1,0,0:0:0:0:
402,192,36097,1,0,0:0:0:0:
109,192,36097,1,0,0:0:0:0:
36,192,36097,1,0,0:0:0:0:
182,192,36181,1,0,0:0:0:0:
256,192,36265,1,0,0:0:0:0:
36,192,36265,1,0,0:0:0:0:
475,192,36265,1,0,0:0:0:0:
329,192,36265,1,0,0:0:0:0:
182,192,36349,1,0,0:0:0:0:
109,192,36434,1,0,0:0:0:0:
36,192,36434,1,0,0:0:0:0:
256,192,36434,1,0,0:0:0:0:
475,192,36434,1,0,0:0:0:0:
329,192,36434,1,0,0:0:0:0:
182,192,36517,1,0,0:0:0:0:
402,192,36517,1,0,0:0:0:0:
109,192,36601,1,0,0:0:0:0:
36,192,36601,1,0,0:0:0:0:
256,192,36601,1,0,0:0:0:0:
329,192,36601,1,0,0:0:0:0:
475,192,36686,1,0,0:0:0:0:
36,192,36769,1,0,0:0:0:0:
182,192,36769,1,0,0:0:0:0:
402,192,36769,1,0,0:0:0:0:
256,192,36769,1,0,0:0:0:0:
109,192,36854,1,0,0:0:0:0:
329,192,36854,1,0,0:0:0:0:
36,192,36938,1,0,0:0:0:0:
182,192,36938,1,0,0:0:0:0:
256,192,36938,1,0,0:0:0:0:
475,192,36938,1,0,0:0:0:0:
402,192,37021,1,0,0:0:0:0:
109,192,37021,1,0,0:0:0:0:
36,192,37106,1,0,0:0:0:0:
256,192,37106,1,0,0:0:0:0:
329,192,37106,1,0,0:0:0:0:
475,192,37106,1,0,0:0:0:0:
182,192,37190,1,0,0:0:0:0:
36,192,37274,1,0,0:0:0:0:
109,192,37274,1,0,0:0:0:0:
329,192,37274,1,0,0:0:0:0:
475,192,37274,1,0,0:0:0:0:
256,192,37358,1,0,0:0:0:0:
36,192,37441,1,0,0:0:0:0:
182,192,37441,1,0,0:0:0:0:
402,192,37441,1,0,0:0:0:0:
475,192,37441,1,0,0:0:0:0:
256,192,37526,1,0,0:0:0:0:
329,192,37610,1,0,0:0:0:0:
475,192,37610,1,0,0:0:0:0:
36,192,37610,1,0,0:0:0:0:
109,192,37610,1,0,0:0:0:0:
182,192,37694,1,0,0:0:0:0:
402,192,37694,1,0,0:0:0:0:
36,192,37778,1,0,0:0:0:0:
256,192,37778,1,0,0:0:0:0:
475,192,37778,1,0,0:0:0:0:
109,192,37862,1,0,0:0:0:0:
329,192,37862,1,0,0:0:0:0:
402,192,37862,1,0,0:0:0:0:
182,192,37946,1,0,0:0:0:0:
256,192,37946,1,0,0:0:0:0:
475,192,37946,1,0,0:0:0:0:
36,192,38030,1,0,0:0:0:0:
109,192,38030,1,0,0:0:0:0:
329,192,38030,1,0,0:0:0:0:
402,192,38114,1,0,0:0:0:0:
475,192,38114,1,0,0:0:0:0:
182,192,38114,1,0,0:0:0:0:
256,192,38198,1,0,0:0:0:0:
329,192,38198,1,0,0:0:0:0:
36,192,38198,1,0,0:0:0:0:
109,192,38282,1,0,0:0:0:0:
182,192,38282,1,0,0:0:0:0:
475,192,38282,1,0,0:0:0:0:
36,192,38366,1,0,0:0:0:0:
329,192,38366,1,0,0:0:0:0:
256,192,38366,1,0,0:0:0:0:
402,192,38366,1,0,0:0:0:0:
182,192,38450,1,0,0:0:0:0:
36,192,38534,1,0,0:0:0:0:
109,192,38534,1,0,0:0:0:0:
329,192,38534,1,0,0:0:0:0:
182,192,38619,1,0,0:0:0:0:
256,192,38619,1,0,0:0:0:0:
475,192,38619,1,0,0:0:0:0:
329,192,38702,1,0,0:0:0:0:
402,192,38702,1,0,0:0:0:0:
109,192,38702,1,0,0:0:0:0:
475,192,38786,1,0,0:0:0:0:
36,192,38786,1,0,0:0:0:0:
256,192,38786,1,0,0:0:0:0:
182,192,38870,1,0,0:0:0:0:
329,192,38870,1,0,0:0:0:0:
475,192,38954,1,0,0:0:0:0:
36,192,38954,1,0,0:0:0:0:
109,192,38954,1,0,0:0:0:0:
402,192,38954,1,0,0:0:0:0:
182,192,39039,1,0,0:0:0:0:
329,192,39039,1,0,0:0:0:0:
109,192,39122,1,0,0:0:0:0:
36,192,39122,1,0,0:0:0:0:
256,192,39122,1,0,0:0:0:0:
475,192,39122,1,0,0:0:0:0:
402,192,39122,1,0,0:0:0:0:
329,192,39206,1,0,0:0:0:0:
182,192,39206,1,0,0:0:0:0:
256,192,39291,1,0,0:0:0:0:
475,192,39291,1,0,0:0:0:0:
109,192,39291,1,0,0:0:0:0:
36,192,39291,1,0,0:0:0:0:
402,192,39374,1,0,0:0:0:0:
329,192,39459,1,0,0:0:0:0:
256,192,39459,1,0,0:0:0:0:
36,192,39459,1,0,0:0:0:0:
182,192,39459,1,0,0:0:0:0:
475,192,39543,1,0,0:0:0:0:
109,192,39543,1,0,0:0:0:0:
402,192,39626,1,0,0:0:0:0:
256,192,39626,1,0,0:0:0:0:
36,192,39626,1,0,0:0:0:0:
182,192,39626,1,0,0:0:0:0:
109,192,39711,1,0,0:0:0:0:
329,192,39711,1,0,0:0:0:0:
475,192,39795,1,0,0:0:0:0:
256,192,39795,1,0,0:0:0:0:
36,192,39795,1,0,0:0:0:0:
329,192,39879,1,0,0:0:0:0:
109,192,39879,1,0,0:0:0:0:
475,192,39963,1,0,0:0:0:0:
36,192,39963,1,0,0:0:0:0:
182,192,39963,1,0,0:0:0:0:
402,192,39963,1,0,0:0:0:0:
256,192,40047,1,0,0:0:0:0:
109,192,40131,1,0,0:0:0:0:
36,192,40131,1,0,0:0:0:0:
329,192,40131,1,0,0:0:0:0:
402,192,40131,1,0,0:0:0:0:
109,192,40299,1,0,0:0:0:0:
329,192,40299,1,0,0:0:0:0:
256,192,40299,1,0,0:0:0:0:
475,192,40299,1,0,0:0:0:0:
182,192,40383,1,0,0:0:0:0:
402,192,40383,1,0,0:0:0:0:
329,192,40467,1,0,0:0:0:0:
256,192,40467,1,0,0:0:0:0:
109,192,40467,1,0,0:0:0:0:
475,192,40467,1,0,0:0:0:0:
36,192,40467,1,0,0:0:0:0:
402,192,40551,1,0,0:0:0:0:
182,192,40551,1,0,0:0:0:0:
256,192,40635,1,0,0:0:0:0:
475,192,40635,1,0,0:0:0:0:
109,192,40635,1,0,0:0:0:0:
36,192,40635,1,0,0:0:0:0:
329,192,40719,1,0,0:0:0:0:
402,192,40803,1,0,0:0:0:0:
475,192,40803,1,0,0:0:0:0:
36,192,40803,1,0,0:0:0:0:
182,192,40803,1,0,0:0:0:0:
256,192,40887,1,0,0:0:0:0:
109,192,40887,1,0,0:0:0:0:
329,192,40971,1,0,0:0:0:0:
475,192,40971,1,0,0:0:0:0:
36,192,40971,1,0,0:0:0:0:
182,192,40971,1,0,0:0:0:0:
109,192,41055,1,0,0:0:0:0:
402,192,41055,1,0,0:0:0:0:
256,192,41139,1,0,0:0:0:0:
475,192,41139,1,0,0:0:0:0:
36,192,41139,1,0,0:0:0:0:
329,192,41224,1,0,0:0:0:0:
109,192,41224,1,0,0:0:0:0:
475,192,41307,1,0,0:0:0:0:
36,192,41307,1,0,0:0:0:0:
182,192,41307,1,0,0:0:0:0:
402,192,41307,1,0,0:0:0:0:
109,192,41391,1,0,0:0:0:0:
329,192,41391,1,0,0:0:0:0:
36,192,41476,1,0,0:0:0:0:
256,192,41476,1,0,0:0:0:0:
475,192,41476,1,0,0:0:0:0:
402,192,41559,1,0,0:0:0:0:
182,192,41559,1,0,0:0:0:0:
109,192,41644,1,0,0:0:0:0:
329,192,41644,1,0,0:0:0:0:
36,192,41644,1,0,0:0:0:0:
256,192,41727,1,0,0:0:0:0:
182,192,41727,1,0,0:0:0:0:
402,192,41727,1,0,0:0:0:0:
36,192,41811,1,0,0:0:0:0:
475,192,41811,1,0,0:0:0:0:
329,192,41811,1,0,0:0:0:0:
109,192,41811,1,0,0:0:0:0:
182,192,41896,1,0,0:0:0:0:
256,192,41896,1,0,0:0:0:0:
36,192,41979,1,0,0:0:0:0:
109,192,41979,1,0,0:0:0:0:
402,192,41979,1,0,0:0:0:0:
475,192,41979,1,0,0:0:0:0:
329,192,42064,1,0,0:0:0:0:
36,192,42148,1,0,0:0:0:0:
182,192,42148,1,0,0:0:0:0:
256,192,42148,1,0,0:0:0:0:
475,192,42148,1,0,0:0:0:0:
109,192,42231,1,0,0:0:0:0:
402,192,42231,1,0,0:0:0:0:
36,192,42316,1,0,0:0:0:0:
182,192,42316,1,0,0:0:0:0:
329,192,42316,1,0,0:0:0:0:
256,192,42316,1,0,0:0:0:0:
402,192,42400,1,0,0:0:0:0:
256,192,42484,1,0,0:0:0:0:
182,192,42484,1,0,0:0:0:0:
109,192,42484,1,0,0:0:0:0:
475,192,42484,1,0,0:0:0:0:
36,192,42568,1,0,0:0:0:0:
329,192,42568,1,0,0:0:0:0:
109,192,42652,1,0,0:0:0:0:
182,192,42652,1,0,0:0:0:0:
402,192,42652,1,0,0:0:0:0:
475,192,42652,1,0,0:0:0:0:
256,192,42736,1,0,0:0:0:0:
475,192,42820,1,0,0:0:0:0:
36,192,42820,1,0,0:0:0:0:
182,192,42820,1,0,0:0:0:0:
329,192,42820,1,0,0:0:0:0:
109,192,42904,1,0,0:0:0:0:
402,192,42904,1,0,0:0:0:0:
475,192,42988,1,0,0:0:0:0:
36,192,42988,1,0,0:0:0:0:
182,192,42988,1,0,0:0:0:0:
256,192,42988,1,0,0:0:0:0:
402,192,43072,1,0,0:0:0:0:
36,192,43156,1,0,0:0:0:0:
109,192,43156,1,0,0:0:0:0:
329,192,43156,1,0,0:0:0:0:
256,192,43156,1,0,0:0:0:0:
182,192,43240,1,0,0:0:0:0:
475,192,43240,1,0,0:0:0:0:
109,192,43324,1,0,0:0:0:0:
36,192,43324,1,0,0:0:0:0:
256,192,43324,1,0,0:0:0:0:
402,192,43324,1,0,0:0:0:0:
329,192,43408,1,0,0:0:0:0:
36,192,43492,1,0,0:0:0:0:
256,192,43492,1,0,0:0:0:0:
182,192,43492,1,0,0:0:0:0:
475,192,43492,1,0,0:0:0:0:
109,192,43576,1,0,0:0:0:0:
402,192,43576,1,0,0:0:0:0:
256,192,43660,1,0,0:0:0:0:
36,192,43660,1,0,0:0:0:0:
182,192,43660,1,0,0:0:0:0:
329,192,43660,1,0,0:0:0:0:
402,192,43744,1,0,0:0:0:0:
256,192,43829,1,0,0:0:0:0:
109,192,43829,1,0,0:0:0:0:
182,192,43829,1,0,0:0:0:0:
475,192,43829,1,0,0:0:0:0:
36,192,43912,1,0,0:0:0:0:
329,192,43912,1,0,0:0:0:0:
402,192,43996,1,0,0:0:0:0:
109,192,43996,1,0,0:0:0:0:
182,192,43996,1,0,0:0:0:0:
475,192,43996,1,0,0:0:0:0:
256,192,44081,1,0,0:0:0:0:
36,192,44164,1,0,0:0:0:0:
182,192,44164,1,0,0:0:0:0:
329,192,44164,1,0,0:0:0:0:
475,192,44164,1,0,0:0:0:0:
109,192,44249,1,0,0:0:0:0:
402,192,44249,1,0,0:0:0:0:
36,192,44333,1,0,0:0:0:0:
182,192,44333,1,0,0:0:0:0:
256,192,44333,1,0,0:0:0:0:
475,192,44333,1,0,0:0:0:0:
329,192,44416,1,0,0:0:0:0:
402,192,44501,1,0,0:0:0:0:
475,192,44501,1,0,0:0:0:0:
36,192,44501,1,0,0:0:0:0:
109,192,44501,1,0,0:0:0:0:
182,192,44501,1,0,0:0:0:0:
256,192,44584,1,0,0:0:0:0:
329,192,44669,1,0,0:0:0:0:
402,192,44669,1,0,0:0:0:0:
475,192,44669,1,0,0:0:0:0:
36,192,44669,1,0,0:0:0:0:
109,192,44669,1,0,0:0:0:0:
182,192,44753,1,0,0:0:0:0:
256,192,44836,1,0,0:0:0:0:
329,192,44836,1,0,0:0:0:0:
402,192,44836,1,0,0:0:0:0:
475,192,44836,1,0,0:0:0:0:
36,192,44836,1,0,0:0:0:0:
182,192,44921,1,0,0:0:0:0:
36,192,45005,1,0,0:0:0:0:
109,192,45005,1,0,0:0:0:0:
402,192,45005,1,0,0:0:0:0:
475,192,45005,1,0,0:0:0:0:
329,192,45005,1,0,0:0:0:0:
256,192,45089,1,0,0:0:0:0:
182,192,45173,1,0,0:0:0:0:
109,192,45173,1,0,0:0:0:0:
36,192,45173,1,0,0:0:0:0:
402,192,45173,1,0,0:0:0:0:
475,192,45173,1,0,0:0:0:0:
256,192,45257,1,0,0:0:0:0:
36,192,45341,1,0,0:0:0:0:
475,192,45341,1,0,0:0:0:0:
109,192,45341,1,0,0:0:0:0:
182,192,45341,1,0,0:0:0:0:
402,192,45341,1,0,0:0:0:0:
329,192,45425,1,0,0:0:0:0:
182,192,45509,1,0,0:0:0:0:
109,192,45509,1,0,0:0:0:0:
36,192,45509,1,0,0:0:0:0:
256,192,45509,1,0,0:0:0:0:
475,192,45509,1,0,0:0:0:0:
329,192,45593,1,0,0:0:0:0:
402,192,45677,1,0,0:0:0:0:
475,192,45677,1,0,0:0:0:0:
36,192,45677,1,0,0:0:0:0:
109,192,45677,1,0,0:0:0:0:
182,192,45677,1,0,0:0:0:0:
256,192,45761,1,0,0:0:0:0:
36,192,45845,1,0,0:0:0:0:
329,192,45845,1,0,0:0:0:0:
402,192,45845,1,0,0:0:0:0:
475,192,45845,1,0,0:0:0:0:
109,192,45845,1,0,0:0:0:0:
36,192,45929,1,0,0:0:0:0:
182,192,46013,1,0,0:0:0:0:
329,192,46013,1,0,0:0:0:0:
36,192,46097,1,0,0:0:0:0:
182,192,46097,1,0,0:0:0:0:
329,192,46097,1,0,0:0:0:0:
256,192,46181,1,0,0:0:0:0:
402,192,46181,1,0,0:0:0:0:
36,192,46265,1,0,0:0:0:0:
329,192,46265,1,0,0:0:0:0:
475,192,46265,1,0,0:0:0:0:
182,192,46434,1,0,0:0:0:0:
329,192,46434,1,0,0:0:0:0:
36,192,46434,1,0,0:0:0:0:
36,192,46517,1,0,0:0:0:0:
109,192,46517,1,0,0:0:0:0:
256,192,46517,1,0,0:0:0:0:
475,192,46517,1,0,0:0:0:0:
402,192,46517,1,0,0:0:0:0:
182,192,46601,1,0,0:0:0:0:
329,192,46601,1,0,0:0:0:0:
109,192,46686,1,0,0:0:0:0:
36,192,46686,1,0,0:0:0:0:
402,192,46686,1,0,0:0:0:0:
475,192,46686,1,0,0:0:0:0:
182,192,46769,1,0,0:0:0:0:
329,192,46769,1,0,0:0:0:0:
256,192,46854,1,0,0:0:0:0:
36,192,46854,1,0,0:0:0:0:
475,192,46854,1,0,0:0:0:0:
109,192,46938,1,0,0:0:0:0:
402,192,46938,1,0,0:0:0:0:
182,192,47021,1,0,0:0:0:0:
256,192,47021,1,0,0:0:0:0:
329,192,47021,1,0,0:0:0:0:
109,192,47106,1,0,0:0:0:0:
402,192,47106,1,0,0:0:0:0:
36,192,47190,1,0,0:0:0:0:
475,192,47190,1,0,0:0:0:0:
329,192,47190,1,0,0:0:0:0:
256,192,47190,1,0,0:0:0:0:
182,192,47190,1,0,0:0:0:0:
402,192,47274,1,0,0:0:0:0:
109,192,47274,1,0,0:0:0:0:
475,192,47358,1,0,0:0:0:0:
256,192,47358,1,0,0:0:0:0:
36,192,47358,1,0,0:0:0:0:
182,192,47441,1,0,0:0:0:0:
402,192,47441,1,0,0:0:0:0:
109,192,47526,1,0,0:0:0:0:
36,192,47526,1,0,0:0:0:0:
329,192,47526,1,0,0:0:0:0:
475,192,47526,1,0,0:0:0:0:
182,192,47610,1,0,0:0:0:0:
256,192,47610,1,0,0:0:0:0:
402,192,47610,1,0,0:0:0:0:
475,192,47694,1,0,0:0:0:0:
36,192,47694,1,0,0:0:0:0:
329,192,47694,1,0,0:0:0:0:
109,192,47778,1,0,0:0:0:0:
182,192,47778,1,0,0:0:0:0:
402,192,47778,1,0,0:0:0:0:
256,192,47862,1,0,0:0:0:0:
329,192,47862,1,0,0:0:0:0:
36,192,47862,1,0,0:0:0:0:
475,192,47862,1,0,0:0:0:0:
109,192,47946,1,0,0:0:0:0:
182,192,47946,1,0,0:0:0:0:
36,192,48030,1,0,0:0:0:0:
329,192,48030,1,0,0:0:0:0:
402,192,48030,1,0,0:0:0:0:
475,192,48030,1,0,0:0:0:0:
182,192,48114,1,0,0:0:0:0:
256,192,48114,1,0,0:0:0:0:
36,192,48198,1,0,0:0:0:0:
109,192,48198,1,0,0:0:0:0:
402,192,48198,1,0,0:0:0:0:
475,192,48198,1,0,0:0:0:0:
256,192,48282,1,0,0:0:0:0:
329,192,48282,1,0,0:0:0:0:
36,192,48366,1,0,0:0:0:0:
109,192,48366,1,0,0:0:0:0:
182,192,48366,1,0,0:0:0:0:
475,192,48366,1,0,0:0:0:0:
402,192,48450,1,0,0:0:0:0:
329,192,48450,1,0,0:0:0:0:
36,192,48534,1,0,0:0:0:0:
109,192,48534,1,0,0:0:0:0:
475,192,48534,1,0,0:0:0:0:
256,192,48534,1,0,0:0:0:0:
182,192,48534,1,0,0:0:0:0:
329,192,48619,1,0,0:0:0:0:
402,192,48619,1,0,0:0:0:0:
475,192,48702,1,0,0:0:0:0:
182,192,48702,1,0,0:0:0:0:
109,192,48702,1,0,0:0:0:0:
36,192,48702,1,0,0:0:0:0:
256,192,48786,1,0,0:0:0:0:
329,192,48786,1,0,0:0:0:0:
36,192,48870,1,0,0:0:0:0:
402,192,48870,1,0,0:0:0:0:
475,192,48870,1,0,0:0:0:0:
109,192,48870,1,0,0:0:0:0:
182,192,48954,1,0,0:0:0:0:
256,192,48954,1,0,0:0:0:0:
329,192,49039,1,0,0:0:0:0:
402,192,49039,1,0,0:0:0:0:
475,192,49039,1,0,0:0:0:0:
36,192,49039,1,0,0:0:0:0:
109,192,49122,1,0,0:0:0:0:
182,192,49122,1,0,0:0:0:0:
36,192,49206,1,0,0:0:0:0:
256,192,49206,1,0,0:0:0:0:
329,192,49206,1,0,0:0:0:0:
475,192,49206,1,0,0:0:0:0:
182,192,49291,1,0,0:0:0:0:
402,192,49291,1,0,0:0:0:0:
36,192,49374,1,0,0:0:0:0:
109,192,49374,1,0,0:0:0:0:
329,192,49374,1,0,0:0:0:0:
182,192,49459,1,0,0:0:0:0:
256,192,49459,1,0,0:0:0:0:
402,192,49459,1,0,0:0:0:0:
36,192,49543,1,0,0:0:0:0:
329,192,49543,1,0,0:0:0:0:
109,192,49543,1,0,0:0:0:0:
475,192,49543,1,0,0:0:0:0:
182,192,49626,1,0,0:0:0:0:
402,192,49626,1,0,0:0:0:0:
256,192,49711,1,0,0:0:0:0:
36,192,49711,1,0,0:0:0:0:
475,192,49711,1,0,0:0:0:0:
109,192,49795,1,0,0:0:0:0:
402,192,49795,1,0,0:0:0:0:
36,192,49879,1,0,0:0:0:0:
182,192,49879,1,0,0:0:0:0:
475,192,49879,1,0,0:0:0:0:
329,192,49879,1,0,0:0:0:0:
109,192,49963,1,0,0:0:0:0:
256,192,49963,1,0,0:0:0:0:
36,192,50047,1,0,0:0:0:0:
182,192,50047,1,0,0:0:0:0:
402,192,50047,1,0,0:0:0:0:
475,192,50047,1,0,0:0:0:0:
109,192,50131,1,0,0:0:0:0:
256,192,50131,1,0,0:0:0:0:
329,192,50131,1,0,0:0:0:0:
36,192,50215,1,0,0:0:0:0:
475,192,50215,1,0,0:0:0:0:
182,192,50299,1,0,0:0:0:0:
256,192,50299,1,0,0:0:0:0:
402,192,50299,1,0,0:0:0:0:
329,192,50383,1,0,0:0:0:0:
475,192,50383,1,0,0:0:0:0:
36,192,50383,1,0,0:0:0:0:
109,192,50383,1,0,0:0:0:0:
402,192,50467,1,0,0:0:0:0:
182,192,50467,1,0,0:0:0:0:
109,192,50551,1,0,0:0:0:0:
36,192,50551,1,0,0:0:0:0:
256,192,50551,1,0,0:0:0:0:
475,192,50551,1,0,0:0:0:0:
182,192,50635,1,0,0:0:0:0:
402,192,50635,1,0,0:0:0:0:
36,192,50719,1,0,0:0:0:0:
109,192,50719,1,0,0:0:0:0:
329,192,50719,1,0,0:0:0:0:
475,192,50719,1,0,0:0:0:0:
402,192,50803,1,0,0:0:0:0:
182,192,50803,1,0,0:0:0:0:
256,192,50803,1,0,0:0:0:0:
475,192,50887,1,0,0:0:0:0:
36,192,50887,1,0,0:0:0:0:
329,192,50971,1,0,0:0:0:0:
256,192,50971,1,0,0:0:0:0:
109,192,50971,1,0,0:0:0:0:
36,192,51055,1,0,0:0:0:0:
402,192,51055,1,0,0:0:0:0:
182,192,51055,1,0,0:0:0:0:
475,192,51055,1,0,0:0:0:0:
109,192,51139,1,0,0:0:0:0:
329,192,51139,1,0,0:0:0:0:
36,192,51224,1,0,0:0:0:0:
475,192,51224,1,0,0:0:0:0:
256,192,51224,1,0,0:0:0:0:
182,192,51224,1,0,0:0:0:0:
109,192,51307,1,0,0:0:0:0:
329,192,51307,1,0,0:0:0:0:
182,192,51391,1,0,0:0:0:0:
402,192,51391,1,0,0:0:0:0:
36,192,51391,1,0,0:0:0:0:
475,192,51391,1,0,0:0:0:0:
109,192,51476,1,0,0:0:0:0:
256,192,51476,1,0,0:0:0:0:
36,192,51559,1,0,0:0:0:0:
182,192,51559,1,0,0:0:0:0:
329,192,51559,1,0,0:0:0:0:
475,192,51559,1,0,0:0:0:0:
402,192,51644,1,0,0:0:0:0:
256,192,51644,1,0,0:0:0:0:
36,192,51727,1,0,0:0:0:0:
475,192,51727,1,0,0:0:0:0:
329,192,51727,1,0,0:0:0:0:
109,192,51727,1,0,0:0:0:0:
402,192,51811,1,0,0:0:0:0:
182,192,51811,1,0,0:0:0:0:
36,192,51896,1,0,0:0:0:0:
475,192,51896,1,0,0:0:0:0:
109,192,51896,1,0,0:0:0:0:
256,192,51896,1,0,0:0:0:0:
182,192,51979,1,0,0:0:0:0:
329,192,51979,1,0,0:0:0:0:
36,192,52064,1,0,0:0:0:0:
109,192,52064,1,0,0:0:0:0:
402,192,52064,1,0,0:0:0:0:
475,192,52064,1,0,0:0:0:0:
182,192,52148,1,0,0:0:0:0:
329,192,52148,1,0,0:0:0:0:
36,192,52231,1,0,0:0:0:0:
256,192,52231,1,0,0:0:0:0:
475,192,52231,1,0,0:0:0:0:
109,192,52316,1,0,0:0:0:0:
402,192,52316,1,0,0:0:0:0:
329,192,52400,1,0,0:0:0:0:
182,192,52400,1,0,0:0:0:0:
256,192,52400,1,0,0:0:0:0:
109,192,52484,1,0,0:0:0:0:
402,192,52484,1,0,0:0:0:0:
329,192,52568,1,0,0:0:0:0:
256,192,52568,1,0,0:0:0:0:
36,192,52568,1,0,0:0:0:0:
475,192,52568,1,0,0:0:0:0:
109,192,52652,1,0,0:0:0:0:
182,192,52652,1,0,0:0:0:0:
36,192,52736,1,0,0:0:0:0:
475,192,52736,1,0,0:0:0:0:
329,192,52736,1,0,0:0:0:0:
402,192,52736,1,0,0:0:0:0:
256,192,52820,1,0,0:0:0:0:
182,192,52820,1,0,0:0:0:0:
402,192,52904,1,0,0:0:0:0:
109,192,52904,1,0,0:0:0:0:
36,192,52904,1,0,0:0:0:0:
475,192,52904,1,0,0:0:0:0:
329,192,52988,1,0,0:0:0:0:
256,192,52988,1,0,0:0:0:0:
36,192,53072,1,0,0:0:0:0:
109,192,53072,1,0,0:0:0:0:
182,192,53072,1,0,0:0:0:0:
475,192,53072,1,0,0:0:0:0:
402,192,53156,1,0,0:0:0:0:
329,192,53156,1,0,0:0:0:0:
36,192,53240,1,0,0:0:0:0:
109,192,53240,1,0,0:0:0:0:
475,192,53240,1,0,0:0:0:0:
256,192,53240,1,0,0:0:0:0:
182,192,53324,1,0,0:0:0:0:
402,192,53324,1,0,0:0:0:0:
36,192,53408,1,0,0:0:0:0:
109,192,53408,1,0,0:0:0:0:
329,192,53408,1,0,0:0:0:0:
475,192,53408,1,0,0:0:0:0:
182,192,53492,1,0,0:0:0:0:
256,192,53492,1,0,0:0:0:0:
402,192,53492,1,0,0:0:0:0:
36,192,53576,1,0,0:0:0:0:
109,192,53576,1,0,0:0:0:0:
329,192,53576,1,0,0:0:0:0:
256,192,53660,1,0,0:0:0:0:
475,192,53660,1,0,0:0:0:0:
36,192,53744,1,0,0:0:0:0:
402,192,53744,1,0,0:0:0:0:
182,192,53744,1,0,0:0:0:0:
109,192,53744,1,0,0:0:0:0:
329,192,53829,1,0,0:0:0:0:
256,192,53829,1,0,0:0:0:0:
402,192,53912,1,0,0:0:0:0:
475,192,53912,1,0,0:0:0:0:
36,192,53912,1,0,0:0:0:0:
182,192,53912,1,0,0:0:0:0:
329,192,53996,1,0,0:0:0:0:
109,192,53996,1,0,0:0:0:0:
475,192,54081,1,0,0:0:0:0:
402,192,54081,1,0,0:0:0:0:
182,192,54081,1,0,0:0:0:0:
36,192,54081,1,0,0:0:0:0:
329,192,54164,1,0,0:0:0:0:
256,192,54164,1,0,0:0:0:0:
109,192,54164,1,0,0:0:0:0:
475,192,54249,1,0,0:0:0:0:
402,192,54249,1,0,0:0:0:0:
182,192,54249,1,0,0:0:0:0:
256,192,54333,1,0,0:0:0:0:
36,192,54333,1,0,0:0:0:0:
475,192,54416,1,0,0:0:0:0:
109,192,54416,1,0,0:0:0:0:
329,192,54416,1,0,0:0:0:0:
402,192,54416,1,0,0:0:0:0:
182,192,54501,1,0,0:0:0:0:
256,192,54501,1,0,0:0:0:0:
109,192,54584,1,0,0:0:0:0:
36,192,54584,1,0,0:0:0:0:
475,192,54584,1,0,0:0:0:0:
329,192,54584,1,0,0:0:0:0:
182,192,54669,1,0,0:0:0:0:
402,192,54669,1,0,0:0:0:0:
36,192,54753,1,0,0:0:0:0:
256,192,54753,1,0,0:0:0:0:
475,192,54753,1,0,0:0:0:0:
109,192,54836,1,0,0:0:0:0:
329,192,54836,1,0,0:0:0:0:
182,192,54921,1,0,0:0:0:0:
402,192,54921,1,0,0:0:0:0:
475,192,54921,1,0,0:0:0:0:
36,192,54921,1,0,0:0:0:0:
109,192,55005,1,0,0:0:0:0:
329,192,55005,1,0,0:0:0:0:
36,192,55089,1,0,0:0:0:0:
256,192,55089,1,0,0:0:0:0:
475,192,55089,1,0,0:0:0:0:
402,192,55089,1,0,0:0:0:0:
182,192,55173,1,0,0:0:0:0:
329,192,55173,1,0,0:0:0:0:
36,192,55257,1,0,0:0:0:0:
475,192,55257,1,0,0:0:0:0:
109,192,55257,1,0,0:0:0:0:
256,192,55257,1,0,0:0:0:0:
182,192,55341,1,0,0:0:0:0:
402,192,55341,1,0,0:0:0:0:
36,192,55425,1,0,0:0:0:0:
109,192,55425,1,0,0:0:0:0:
329,192,55425,1,0,0:0:0:0:
475,192,55425,1,0,0:0:0:0:
182,192,55509,1,0,0:0:0:0:
256,192,55509,1,0,0:0:0:0:
402,192,55509,1,0,0:0:0:0:
36,192,55593,1,0,0:0:0:0:
475,192,55593,1,0,0:0:0:0:
329,192,55593,1,0,0:0:0:0:
109,192,55593,1,0,0:0:0:0:
182,192,55677,1,0,0:0:0:0:
402,192,55677,1,0,0:0:0:0:
256,192,55761,1,0,0:0:0:0:
475,192,55761,1,0,0:0:0:0:
36,192,55761,1,0,0:0:0:0:
109,192,55761,1,0,0:0:0:0:
329,192,55845,1,0,0:0:0:0:
182,192,55845,1,0,0:0:0:0:
36,192,55929,1,0,0:0:0:0:
402,192,55929,1,0,0:0:0:0:
256,192,55929,1,0,0:0:0:0:
475,192,55929,1,0,0:0:0:0:
109,192,56013,1,0,0:0:0:0:
182,192,56013,1,0,0:0:0:0:
329,192,56013,1,0,0:0:0:0:
36,192,56097,1,0,0:0:0:0:
256,192,56097,1,0,0:0:0:0:
402,192,56097,1,0,0:0:0:0:
475,192,56097,1,0,0:0:0:0:
109,192,56181,1,0,0:0:0:0:
329,192,56181,1,0,0:0:0:0:
182,192,56265,1,0,0:0:0:0:
36,192,56265,1,0,0:0:0:0:
475,192,56265,1,0,0:0:0:0:
402,192,56265,1,0,0:0:0:0:
109,192,56349,1,0,0:0:0:0:
256,192,56349,1,0,0:0:0:0:
36,192,56434,1,0,0:0:0:0:
182,192,56434,1,0,0:0:0:0:
329,192,56434,1,0,0:0:0:0:
109,192,56517,1,0,0:0:0:0:
256,192,56517,1,0,0:0:0:0:
402,192,56517,1,0,0:0:0:0:
36,192,56601,1,0,0:0:0:0:
475,192,56601,1,0,0:0:0:0:
182,192,56601,1,0,0:0:0:0:
329,192,56601,1,0,0:0:0:0:
256,192,56769,1,0,0:0:0:0:
475,192,56769,1,0,0:0:0:0:
36,192,56769,1,0,0:0:0:0:
109,192,56769,1,0,0:0:0:0:
182,192,56853,1,0,0:0:0:0:
402,192,56853,1,0,0:0:0:0:
329,192,56937,1,0,0:0:0:0:
109,192,56937,1,0,0:0:0:0:
36,192,56937,1,0,0:0:0:0:
256,192,57021,1,0,0:0:0:0:
182,192,57021,1,0,0:0:0:0:
36,192,57105,1,0,0:0:0:0:
329,192,57105,1,0,0:0:0:0:
475,192,57105,1,0,0:0:0:0:
402,192,57105,1,0,0:0:0:0:
109,192,57189,1,0,0:0:0:0:
182,192,57189,1,0,0:0:0:0:
36,192,57273,1,0,0:0:0:0:
256,192,57273,1,0,0:0:0:0:
475,192,57273,1,0,0:0:0:0:
109,192,57356,1,0,0:0:0:0:
329,192,57356,1,0,0:0:0:0:
182,192,57441,1,0,0:0:0:0:
475,192,57441,1,0,0:0:0:0:
402,192,57441,1,0,0:0:0:0:
256,192,57525,1,0,0:0:0:0:
329,192,57525,1,0,0:0:0:0:
36,192,57609,1,0,0:0:0:0:
182,192,57609,1,0,0:0:0:0:
475,192,57609,1,0,0:0:0:0:
109,192,57609,1,0,0:0:0:0:
329,192,57693,1,0,0:0:0:0:
256,192,57777,1,0,0:0:0:0:
475,192,57777,1,0,0:0:0:0:
109,192,57777,1,0,0:0:0:0:
36,192,57777,1,0,0:0:0:0:
182,192,57861,1,0,0:0:0:0:
402,192,57861,1,0,0:0:0:0:
475,192,57945,1,0,0:0:0:0:
109,192,57945,1,0,0:0:0:0:
329,192,57945,1,0,0:0:0:0:
36,192,58029,1,0,0:0:0:0:
256,192,58029,1,0,0:0:0:0:
475,192,58113,1,0,0:0:0:0:
182,192,58113,1,0,0:0:0:0:
402,192,58113,1,0,0:0:0:0:
109,192,58197,1,0,0:0:0:0:
329,192,58197,1,0,0:0:0:0:
36,192,58281,1,0,0:0:0:0:
256,192,58281,1,0,0:0:0:0:
402,192,58281,1,0,0:0:0:0:
475,192,58281,1,0,0:0:0:0:
182,192,58365,1,0,0:0:0:0:
109,192,58449,1,0,0:0:0:0:
329,192,58449,1,0,0:0:0:0:
402,192,58449,1,0,0:0:0:0:
36,192,58449,1,0,0:0:0:0:
256,192,58533,1,0,0:0:0:0:
182,192,58617,1,0,0:0:0:0:
109,192,58617,1,0,0:0:0:0:
402,192,58617,1,0,0:0:0:0:
475,192,58617,1,0,0:0:0:0:
329,192,58701,1,0,0:0:0:0:
36,192,58785,1,0,0:0:0:0:
256,192,58785,1,0,0:0:0:0:
402,192,58785,1,0,0:0:0:0:
475,192,58785,1,0,0:0:0:0:
109,192,58785,1,0,0:0:0:0:
256,192,58954,1,0,0:0:0:0:
475,192,58954,1,0,0:0:0:0:
36,192,58954,1,0,0:0:0:0:
109,192,58954,1,0,0:0:0:0:
182,192,59037,1,0,0:0:0:0:
402,192,59037,1,0,0:0:0:0:
329,192,59121,1,0,0:0:0:0:
109,192,59121,1,0,0:0:0:0:
36,192,59121,1,0,0:0:0:0:
256,192,59206,1,0,0:0:0:0:
182,192,59206,1,0,0:0:0:0:
36,192,59289,1,0,0:0:0:0:
329,192,59289,1,0,0:0:0:0:
475,192,59289,1,0,0:0:0:0:
402,192,59289,1,0,0:0:0:0:
109,192,59373,1,0,0:0:0:0:
182,192,59373,1,0,0:0:0:0:
36,192,59457,1,0,0:0:0:0:
256,192,59457,1,0,0:0:0:0:
475,192,59457,1,0,0:0:0:0:
109,192,59541,1,0,0:0:0:0:
329,192,59541,1,0,0:0:0:0:
182,192,59625,1,0,0:0:0:0:
475,192,59625,1,0,0:0:0:0:
402,192,59625,1,0,0:0:0:0:
256,192,59709,1,0,0:0:0:0:
329,192,59709,1,0,0:0:0:0:
36,192,59793,1,0,0:0:0:0:
182,192,59793,1,0,0:0:0:0:
475,192,59793,1,0,0:0:0:0:
109,192,59793,1,0,0:0:0:0:
329,192,59877,1,0,0:0:0:0:
256,192,59961,1,0,0:0:0:0:
475,192,59961,1,0,0:0:0:0:
109,192,59961,1,0,0:0:0:0:
36,192,59961,1,0,0:0:0:0:
182,192,60045,1,0,0:0:0:0:
402,192,60045,1,0,0:0:0:0:
475,192,60129,1,0,0:0:0:0:
109,192,60129,1,0,0:0:0:0:
329,192,60129,1,0,0:0:0:0:
36,192,60213,1,0,0:0:0:0:
256,192,60213,1,0,0:0:0:0:
475,192,60297,1,0,0:0:0:0:
182,192,60297,1,0,0:0:0:0:
402,192,60297,1,0,0:0:0:0:
109,192,60381,1,0,0:0:0:0:
329,192,60381,1,0,0:0:0:0:
36,192,60465,1,0,0:0:0:0:
402,192,60465,1,0,0:0:0:0:
475,192,60465,1,0,0:0:0:0:
256,192,60465,1,0,0:0:0:0:
182,192,60549,1,0,0:0:0:0:
329,192,60634,1,0,0:0:0:0:
475,192,60634,1,0,0:0:0:0:
109,192,60634,1,0,0:0:0:0:
36,192,60634,1,0,0:0:0:0:
256,192,60717,1,0,0:0:0:0:
402,192,60801,1,0,0:0:0:0:
36,192,60801,1,0,0:0:0:0:
182,192,60801,1,0,0:0:0:0:
475,192,60801,1,0,0:0:0:0:
329,192,60886,1,0,0:0:0:0:
402,192,60969,1,0,0:0:0:0:
475,192,60969,1,0,0:0:0:0:
36,192,60969,1,0,0:0:0:0:
109,192,60969,1,0,0:0:0:0:
256,192,60969,1,0,0:0:0:0:
182,192,61138,1,0,0:0:0:0:
36,192,61138,1,0,0:0:0:0:
402,192,61138,1,0,0:0:0:0:
475,192,61138,1,0,0:0:0:0:
109,192,61221,1,0,0:0:0:0:
329,192,61221,1,0,0:0:0:0:
36,192,61306,1,0,0:0:0:0:
256,192,61306,1,0,0:0:0:0:
475,192,61306,1,0,0:0:0:0:
182,192,61390,1,0,0:0:0:0:
402,192,61390,1,0,0:0:0:0:
36,192,61474,1,0,0:0:0:0:
109,192,61474,1,0,0:0:0:0:
329,192,61474,1,0,0:0:0:0:
475,192,61474,1,0,0:0:0:0:
256,192,61558,1,0,0:0:0:0:
109,192,61641,1,0,0:0:0:0:
182,192,61641,1,0,0:0:0:0:
402,192,61641,1,0,0:0:0:0:
475,192,61641,1,0,0:0:0:0:
329,192,61726,1,0,0:0:0:0:
182,192,61810,1,0,0:0:0:0:
256,192,61810,1,0,0:0:0:0:
475,192,61810,1,0,0:0:0:0:
36,192,61810,1,0,0:0:0:0:
402,192,61894,1,0,0:0:0:0:
329,192,61978,1,0,0:0:0:0:
475,192,61978,1,0,0:0:0:0:
109,192,61978,1,0,0:0:0:0:
36,192,61978,1,0,0:0:0:0:
329,192,62146,1,0,0:0:0:0:
475,192,62146,1,0,0:0:0:0:
109,192,62146,1,0,0:0:0:0:
36,192,62146,1,0,0:0:0:0:
402,192,62230,1,0,0:0:0:0:
182,192,62230,1,0,0:0:0:0:
475,192,62314,1,0,0:0:0:0:
256,192,62314,1,0,0:0:0:0:
36,192,62314,1,0,0:0:0:0:
329,192,62398,1,0,0:0:0:0:
109,192,62398,1,0,0:0:0:0:
475,192,62482,1,0,0:0:0:0:
402,192,62482,1,0,0:0:0:0:
182,192,62482,1,0,0:0:0:0:
36,192,62482,1,0,0:0:0:0:
256,192,62566,1,0,0:0:0:0:
402,192,62650,1,0,0:0:0:0:
329,192,62650,1,0,0:0:0:0:
109,192,62650,1,0,0:0:0:0:
36,192,62650,1,0,0:0:0:0:
182,192,62734,1,0,0:0:0:0:
329,192,62819,1,0,0:0:0:0:
256,192,62819,1,0,0:0:0:0:
36,192,62819,1,0,0:0:0:0:
475,192,62819,1,0,0:0:0:0:
109,192,62902,1,0,0:0:0:0:
182,192,62986,1,0,0:0:0:0:
36,192,62986,1,0,0:0:0:0:
402,192,62986,1,0,0:0:0:0:
475,192,62986,1,0,0:0:0:0:
109,192,63070,1,0,0:0:0:0:
329,192,63070,1,0,0:0:0:0:
475,192,63154,1,0,0:0:0:0:
256,192,63154,1,0,0:0:0:0:
36,192,63154,1,0,0:0:0:0:
182,192,63239,1,0,0:0:0:0:
402,192,63239,1,0,0:0:0:0:
36,192,63322,1,0,0:0:0:0:
109,192,63322,1,0,0:0:0:0:
329,192,63322,1,0,0:0:0:0:
182,192,63406,1,0,0:0:0:0:
256,192,63406,1,0,0:0:0:0:
475,192,63491,1,0,0:0:0:0:
36,192,63491,1,0,0:0:0:0:
109,192,63491,1,0,0:0:0:0:
329,192,63491,1,0,0:0:0:0:
402,192,63574,1,0,0:0:0:0:
182,192,63574,1,0,0:0:0:0:
36,192,63659,1,0,0:0:0:0:
256,192,63659,1,0,0:0:0:0:
475,192,63659,1,0,0:0:0:0:
329,192,63742,1,0,0:0:0:0:
109,192,63742,1,0,0:0:0:0:
475,192,63826,1,0,0:0:0:0:
402,192,63826,1,0,0:0:0:0:
182,192,63826,1,0,0:0:0:0:
329,192,63911,1,0,0:0:0:0:
256,192,63911,1,0,0:0:0:0:
36,192,63994,1,0,0:0:0:0:
475,192,63994,1,0,0:0:0:0:
402,192,63994,1,0,0:0:0:0:
182,192,63994,1,0,0:0:0:0:
329,192,64079,1,0,0:0:0:0:
109,192,64079,1,0,0:0:0:0:
36,192,64163,1,0,0:0:0:0:
475,192,64163,1,0,0:0:0:0:
182,192,64163,1,0,0:0:0:0:
256,192,64163,1,0,0:0:0:0:
109,192,64246,1,0,0:0:0:0:
329,192,64246,1,0,0:0:0:0:
402,192,64246,1,0,0:0:0:0:
36,192,64331,1,0,0:0:0:0:
182,192,64331,1,0,0:0:0:0:
256,192,64331,1,0,0:0:0:0:
475,192,64331,1,0,0:0:0:0:
109,192,64415,1,0,0:0:0:0:
402,192,64415,1,0,0:0:0:0:
329,192,64415,1,0,0:0:0:0:
182,192,64583,1,0,0:0:0:0:
256,192,64583,1,0,0:0:0:0:
475,192,64583,1,0,0:0:0:0:
36,192,64583,1,0,0:0:0:0:
109,192,64751,1,0,0:0:0:0:
182,192,64751,1,0,0:0:0:0:
402,192,64751,1,0,0:0:0:0:
256,192,64835,1,0,0:0:0:0:
475,192,64835,1,0,0:0:0:0:
36,192,64835,1,0,0:0:0:0:
329,192,64835,1,0,0:0:0:0:
402,192,65003,1,0,0:0:0:0:
256,192,65003,1,0,0:0:0:0:
329,192,65171,1,0,0:0:0:0:
182,192,65171,1,0,0:0:0:0:
36,192,65171,1,0,0:0:0:0:
475,192,65171,1,0,0:0:0:0:
256,192,65339,1,0,0:0:0:0:
109,192,65339,1,0,0:0:0:0:
182,192,65423,1,0,0:0:0:0:
329,192,65423,1,0,0:0:0:0:
36,192,65507,1,0,0:0:0:0:
109,192,65507,1,0,0:0:0:0:
256,192,65507,1,0,0:0:0:0:
402,192,65507,1,0,0:0:0:0:
475,192,65507,1,0,0:0:0:0:
182,192,65591,1,0,0:0:0:0:
329,192,65591,1,0,0:0:0:0:
36,192,65675,1,0,0:0:0:0:
256,192,65675,1,0,0:0:0:0:
402,192,65675,1,0,0:0:0:0:
475,192,65675,1,0,0:0:0:0:
109,192,65759,1,0,0:0:0:0:
329,192,65759,1,0,0:0:0:0:
36,192,65844,1,0,0:0:0:0:
182,192,65844,1,0,0:0:0:0:
475,192,65844,1,0,0:0:0:0:
402,192,65844,1,0,0:0:0:0:
329,192,65927,1,0,0:0:0:0:
256,192,65927,1,0,0:0:0:0:
36,192,66011,1,0,0:0:0:0:
109,192,66011,1,0,0:0:0:0:
182,192,66011,1,0,0:0:0:0:
475,192,66011,1,0,0:0:0:0:
329,192,66096,1,0,0:0:0:0:
402,192,66096,1,0,0:0:0:0:
36,192,66179,1,0,0:0:0:0:
109,192,66179,1,0,0:0:0:0:
256,192,66179,1,0,0:0:0:0:
475,192,66179,1,0,0:0:0:0:
182,192,66264,1,0,0:0:0:0:
329,192,66264,1,0,0:0:0:0:
36,192,66348,1,0,0:0:0:0:
109,192,66348,1,0,0:0:0:0:
475,192,66348,1,0,0:0:0:0:
256,192,66348,1,0,0:0:0:0:
182,192,66431,1,0,0:0:0:0:
402,192,66431,1,0,0:0:0:0:
36,192,66516,1,0,0:0:0:0:
109,192,66516,1,0,0:0:0:0:
329,192,66516,1,0,0:0:0:0:
475,192,66516,1,0,0:0:0:0:
182,192,66599,1,0,0:0:0:0:
256,192,66599,1,0,0:0:0:0:
329,192,66684,1,0,0:0:0:0:
475,192,66684,1,0,0:0:0:0:
402,192,66684,1,0,0:0:0:0:
36,192,66684,1,0,0:0:0:0:
109,192,66768,1,0,0:0:0:0:
182,192,66768,1,0,0:0:0:0:
36,192,66851,1,0,0:0:0:0:
256,192,66851,1,0,0:0:0:0:
475,192,66851,1,0,0:0:0:0:
402,192,66851,1,0,0:0:0:0:
109,192,66936,1,0,0:0:0:0:
329,192,66936,1,0,0:0:0:0:
402,192,67020,1,0,0:0:0:0:
475,192,67020,1,0,0:0:0:0:
36,192,67020,1,0,0:0:0:0:
182,192,67020,1,0,0:0:0:0:
256,192,67104,1,0,0:0:0:0:
109,192,67104,1,0,0:0:0:0:
402,192,67188,1,0,0:0:0:0:
475,192,67188,1,0,0:0:0:0:
36,192,67188,1,0,0:0:0:0:
182,192,67188,1,0,0:0:0:0:
329,192,67188,1,0,0:0:0:0:
109,192,67272,1,0,0:0:0:0:
36,192,67356,1,0,0:0:0:0:
475,192,67356,1,0,0:0:0:0:
402,192,67356,1,0,0:0:0:0:
256,192,67356,1,0,0:0:0:0:
182,192,67440,1,0,0:0:0:0:
329,192,67440,1,0,0:0:0:0:
36,192,67524,1,0,0:0:0:0:
256,192,67524,1,0,0:0:0:0:
475,192,67524,1,0,0:0:0:0:
109,192,67524,1,0,0:0:0:0:
329,192,67608,1,0,0:0:0:0:
182,192,67608,1,0,0:0:0:0:
256,192,67692,1,0,0:0:0:0:
402,192,67692,1,0,0:0:0:0:
475,192,67692,1,0,0:0:0:0:
36,192,67692,1,0,0:0:0:0:
182,192,67776,1,0,0:0:0:0:
109,192,67860,1,0,0:0:0:0:
329,192,67860,1,0,0:0:0:0:
475,192,67860,1,0,0:0:0:0:
36,192,67860,1,0,0:0:0:0:
256,192,67944,1,0,0:0:0:0:
182,192,67944,1,0,0:0:0:0:
36,192,68028,1,0,0:0:0:0:
475,192,68028,1,0,0:0:0:0:
402,192,68028,1,0,0:0:0:0:
109,192,68028,1,0,0:0:0:0:
256,192,68112,1,0,0:0:0:0:
329,192,68112,1,0,0:0:0:0:
36,192,68196,1,0,0:0:0:0:
402,192,68196,1,0,0:0:0:0:
475,192,68196,1,0,0:0:0:0:
182,192,68196,1,0,0:0:0:0:
109,192,68280,1,0,0:0:0:0:
329,192,68280,1,0,0:0:0:0:
475,192,68364,1,0,0:0:0:0:
256,192,68364,1,0,0:0:0:0:
36,192,68364,1,0,0:0:0:0:
402,192,68364,1,0,0:0:0:0:
329,192,68449,1,0,0:0:0:0:
182,192,68449,1,0,0:0:0:0:
475,192,68532,1,0,0:0:0:0:
402,192,68532,1,0,0:0:0:0:
256,192,68532,1,0,0:0:0:0:
36,192,68532,1,0,0:0:0:0:
109,192,68616,1,0,0:0:0:0:
182,192,68616,1,0,0:0:0:0:
36,192,68701,1,0,0:0:0:0:
475,192,68701,1,0,0:0:0:0:
402,192,68701,1,0,0:0:0:0:
329,192,68701,1,0,0:0:0:0:
182,192,68784,1,0,0:0:0:0:
256,192,68784,1,0,0:0:0:0:
36,192,68869,1,0,0:0:0:0:
475,192,68869,1,0,0:0:0:0:
109,192,68869,1,0,0:0:0:0:
329,192,68869,1,0,0:0:0:0:
182,192,68953,1,0,0:0:0:0:
402,192,68953,1,0,0:0:0:0:
475,192,69036,1,0,0:0:0:0:
109,192,69036,1,0,0:0:0:0:
36,192,69036,1,0,0:0:0:0:
256,192,69036,1,0,0:0:0:0:
329,192,69121,1,0,0:0:0:0:
182,192,69121,1,0,0:0:0:0:
256,192,69205,1,0,0:0:0:0:
475,192,69205,1,0,0:0:0:0:
36,192,69205,1,0,0:0:0:0:
109,192,69205,1,0,0:0:0:0:
329,192,69289,1,0,0:0:0:0:
402,192,69289,1,0,0:0:0:0:
109,192,69373,1,0,0:0:0:0:
182,192,69373,1,0,0:0:0:0:
475,192,69373,1,0,0:0:0:0:
36,192,69373,1,0,0:0:0:0:
256,192,69456,1,0,0:0:0:0:
329,192,69456,1,0,0:0:0:0:
402,192,69541,1,0,0:0:0:0:
182,192,69541,1,0,0:0:0:0:
475,192,69541,1,0,0:0:0:0:
36,192,69541,1,0,0:0:0:0:
329,192,69625,1,0,0:0:0:0:
256,192,69625,1,0,0:0:0:0:
36,192,69709,1,0,0:0:0:0:
182,192,69709,1,0,0:0:0:0:
402,192,69709,1,0,0:0:0:0:
475,192,69709,1,0,0:0:0:0:
109,192,69793,1,0,0:0:0:0:
256,192,69793,1,0,0:0:0:0:
182,192,69877,1,0,0:0:0:0:
329,192,69877,1,0,0:0:0:0:
36,192,69877,1,0,0:0:0:0:
402,192,69877,1,0,0:0:0:0:
475,192,69877,1,0,0:0:0:0:
109,192,69961,1,0,0:0:0:0:
402,192,70045,1,0,0:0:0:0:
256,192,70045,1,0,0:0:0:0:
36,192,70045,1,0,0:0:0:0:
475,192,70045,1,0,0:0:0:0:
329,192,70129,1,0,0:0:0:0:
182,192,70129,1,0,0:0:0:0:
475,192,70213,1,0,0:0:0:0:
109,192,70213,1,0,0:0:0:0:
36,192,70213,1,0,0:0:0:0:
256,192,70213,1,0,0:0:0:0:
182,192,70297,1,0,0:0:0:0:
329,192,70297,1,0,0:0:0:0:
475,192,70381,1,0,0:0:0:0:
36,192,70381,1,0,0:0:0:0:
256,192,70381,1,0,0:0:0:0:
402,192,70381,1,0,0:0:0:0:
182,192,70465,1,0,0:0:0:0:
475,192,70549,1,0,0:0:0:0:
36,192,70549,1,0,0:0:0:0:
109,192,70549,1,0,0:0:0:0:
329,192,70549,1,0,0:0:0:0:
182,192,70634,1,0,0:0:0:0:
256,192,70634,1,0,0:0:0:0:
109,192,70717,1,0,0:0:0:0:
36,192,70717,1,0,0:0:0:0:
475,192,70717,1,0,0:0:0:0:
402,192,70717,1,0,0:0:0:0:
256,192,70801,1,0,0:0:0:0:
329,192,70801,1,0,0:0:0:0:
36,192,70885,1,0,0:0:0:0:
109,192,70885,1,0,0:0:0:0:
402,192,70885,1,0,0:0:0:0:
475,192,70885,1,0,0:0:0:0:
329,192,70969,1,0,0:0:0:0:
182,192,70969,1,0,0:0:0:0:
402,192,71054,1,0,0:0:0:0:
475,192,71054,1,0,0:0:0:0:
36,192,71054,1,0,0:0:0:0:
256,192,71054,1,0,0:0:0:0:
329,192,71137,1,0,0:0:0:0:
109,192,71137,1,0,0:0:0:0:
475,192,71221,1,0,0:0:0:0:
402,192,71221,1,0,0:0:0:0:
36,192,71221,1,0,0:0:0:0:
182,192,71221,1,0,0:0:0:0:
256,192,71306,1,0,0:0:0:0:
329,192,71306,1,0,0:0:0:0:
182,192,71389,1,0,0:0:0:0:
475,192,71389,1,0,0:0:0:0:
36,192,71389,1,0,0:0:0:0:
109,192,71389,1,0,0:0:0:0:
402,192,71474,1,0,0:0:0:0:
329,192,71474,1,0,0:0:0:0:
256,192,71558,1,0,0:0:0:0:
475,192,71558,1,0,0:0:0:0:
36,192,71558,1,0,0:0:0:0:
109,192,71558,1,0,0:0:0:0:
329,192,71641,1,0,0:0:0:0:
182,192,71641,1,0,0:0:0:0:
475,192,71726,1,0,0:0:0:0:
256,192,71726,1,0,0:0:0:0:
36,192,71726,1,0,0:0:0:0:
109,192,71726,1,0,0:0:0:0:
402,192,71810,1,0,0:0:0:0:
182,192,71810,1,0,0:0:0:0:
329,192,71894,1,0,0:0:0:0:
475,192,71894,1,0,0:0:0:0:
36,192,71894,1,0,0:0:0:0:
109,192,71894,1,0,0:0:0:0:
256,192,71978,1,0,0:0:0:0:
182,192,71978,1,0,0:0:0:0:
402,192,72062,1,0,0:0:0:0:
36,192,72062,1,0,0:0:0:0:
329,192,72062,1,0,0:0:0:0:
475,192,72062,1,0,0:0:0:0:
182,192,72146,1,0,0:0:0:0:
109,192,72146,1,0,0:0:0:0:
475,192,72230,1,0,0:0:0:0:
402,192,72230,1,0,0:0:0:0:
36,192,72230,1,0,0:0:0:0:
256,192,72230,1,0,0:0:0:0:
329,192,72314,1,0,0:0:0:0:
109,192,72314,1,0,0:0:0:0:
36,192,72398,1,0,0:0:0:0:
182,192,72398,1,0,0:0:0:0:
402,192,72398,1,0,0:0:0:0:
475,192,72398,1,0,0:0:0:0:
109,192,72482,1,0,0:0:0:0:
256,192,72482,1,0,0:0:0:0:
182,192,72566,1,0,0:0:0:0:
329,192,72566,1,0,0:0:0:0:
36,192,72566,1,0,0:0:0:0:
402,192,72566,1,0,0:0:0:0:
475,192,72566,1,0,0:0:0:0:
109,192,72650,1,0,0:0:0:0:
402,192,72734,1,0,0:0:0:0:
256,192,72734,1,0,0:0:0:0:
36,192,72734,1,0,0:0:0:0:
475,192,72734,1,0,0:0:0:0:
329,192,72818,1,0,0:0:0:0:
182,192,72818,1,0,0:0:0:0:
475,192,72902,1,0,0:0:0:0:
109,192,72902,1,0,0:0:0:0:
36,192,72902,1,0,0:0:0:0:
256,192,72902,1,0,0:0:0:0:
182,192,72986,1,0,0:0:0:0:
329,192,72986,1,0,0:0:0:0:
475,192,73070,1,0,0:0:0:0:
36,192,73070,1,0,0:0:0:0:
256,192,73070,1,0,0:0:0:0:
402,192,73070,1,0,0:0:0:0:
109,192,73154,1,0,0:0:0:0:
475,192,73239,1,0,0:0:0:0:
329,192,73239,1,0,0:0:0:0:
182,192,73239,1,0,0:0:0:0:
402,192,73239,1,0,0:0:0:0:
36,192,73322,1,0,0:0:0:0:
109,192,73322,1,0,0:0:0:0:
182,192,73406,1,0,0:0:0:0:
329,192,73406,1,0,0:0:0:0:
256,192,73406,1,0,0:0:0:0:
475,192,73491,1,0,0:0:0:0:
402,192,73491,1,0,0:0:0:0:
36,192,73574,1,0,0:0:0:0:
109,192,73574,1,0,0:0:0:0:
182,192,73574,1,0,0:0:0:0:
329,192,73574,1,0,0:0:0:0:
256,192,73659,1,0,0:0:0:0:
402,192,73659,1,0,0:0:0:0:
36,192,73742,1,0,0:0:0:0:
475,192,73742,1,0,0:0:0:0:
329,192,73742,1,0,0:0:0:0:
109,192,73742,1,0,0:0:0:0:
182,192,73826,1,0,0:0:0:0:
402,192,73826,1,0,0:0:0:0:
475,192,73911,1,0,0:0:0:0:
256,192,73911,1,0,0:0:0:0:
36,192,73911,1,0,0:0:0:0:
109,192,73911,1,0,0:0:0:0:
329,192,73994,1,0,0:0:0:0:
402,192,73994,1,0,0:0:0:0:
109,192,74079,1,0,0:0:0:0:
36,192,74079,1,0,0:0:0:0:
475,192,74079,1,0,0:0:0:0:
182,192,74079,1,0,0:0:0:0:
256,192,74163,1,0,0:0:0:0:
329,192,74163,1,0,0:0:0:0:
36,192,74246,1,0,0:0:0:0:
402,192,74246,1,0,0:0:0:0:
475,192,74246,1,0,0:0:0:0:
182,192,74246,1,0,0:0:0:0:
109,192,74331,1,0,0:0:0:0:
256,192,74331,1,0,0:0:0:0:
182,192,74415,1,0,0:0:0:0:
402,192,74415,1,0,0:0:0:0:
475,192,74415,1,0,0:0:0:0:
36,192,74415,1,0,0:0:0:0:
109,192,74499,1,0,0:0:0:0:
329,192,74499,1,0,0:0:0:0:
475,192,74583,1,0,0:0:0:0:
402,192,74583,1,0,0:0:0:0:
36,192,74583,1,0,0:0:0:0:
256,192,74583,1,0,0:0:0:0:
182,192,74583,1,0,0:0:0:0:
109,192,74667,1,0,0:0:0:0:
36,192,74751,1,0,0:0:0:0:
329,192,74751,1,0,0:0:0:0:
402,192,74751,1,0,0:0:0:0:
475,192,74751,1,0,0:0:0:0:
182,192,74835,1,0,0:0:0:0:
256,192,74835,1,0,0:0:0:0:
36,192,74919,1,0,0:0:0:0:
329,192,74919,1,0,0:0:0:0:
475,192,74919,1,0,0:0:0:0:
109,192,74919,1,0,0:0:0:0:
182,192,75003,1,0,0:0:0:0:
36,192,75087,1,0,0:0:0:0:
256,192,75087,1,0,0:0:0:0:
475,192,75087,1,0,0:0:0:0:
182,192,75171,1,0,0:0:0:0:
402,192,75171,1,0,0:0:0:0:
329,192,75255,1,0,0:0:0:0:
109,192,75255,1,0,0:0:0:0:
36,192,75255,1,0,0:0:0:0:
182,192,75339,1,0,0:0:0:0:
256,192,75339,1,0,0:0:0:0:
402,192,75339,1,0,0:0:0:0:
36,192,75423,1,0,0:0:0:0:
109,192,75423,1,0,0:0:0:0:
329,192,75423,1,0,0:0:0:0:
475,192,75423,1,0,0:0:0:0:
109,192,75591,1,0,0:0:0:0:
182,192,75591,1,0,0:0:0:0:
329,192,75591,1,0,0:0:0:0:
475,192,75591,1,0,0:0:0:0:
109,192,75759,1,0,0:0:0:0:
256,192,75759,1,0,0:0:0:0:
402,192,75759,1,0,0:0:0:0:
36,192,75759,1,0,0:0:0:0:
329,192,75844,1,0,0:0:0:0:
182,192,75844,1,0,0:0:0:0:
475,192,75844,1,0,0:0:0:0:
36,192,75927,1,0,0:0:0:0:
402,192,75927,1,0,0:0:0:0:
109,192,75927,1,0,0:0:0:0:
256,192,75927,1,0,0:0:0:0:
329,192,76011,1,0,0:0:0:0:
182,192,76011,1,0,0:0:0:0:
36,192,76096,1,0,0:0:0:0:
475,192,76096,1,0,0:0:0:0:
256,192,76096,1,0,0:0:0:0:
182,192,76179,1,0,0:0:0:0:
329,192,76179,1,0,0:0:0:0:
36,192,76264,1,0,0:0:0:0:
109,192,76264,1,0,0:0:0:0:
256,192,76264,1,0,0:0:0:0:
475,192,76264,1,0,0:0:0:0:
402,192,76264,1,0,0:0:0:0:
182,192,76348,1,0,0:0:0:0:
329,192,76348,1,0,0:0:0:0:
475,192,76431,1,0,0:0:0:0:
402,192,76431,1,0,0:0:0:0:
256,192,76431,1,0,0:0:0:0:
329,192,76516,1,0,0:0:0:0:
36,192,76516,1,0,0:0:0:0:
109,192,76516,1,0,0:0:0:0:
182,192,76599,1,0,0:0:0:0:
402,192,76599,1,0,0:0:0:0:
256,192,76684,1,0,0:0:0:0:
109,192,76684,1,0,0:0:0:0:
36,192,76684,1,0,0:0:0:0:
182,192,76768,1,0,0:0:0:0:
402,192,76768,1,0,0:0:0:0:
475,192,76768,1,0,0:0:0:0:
109,192,76851,1,0,0:0:0:0:
329,192,76851,1,0,0:0:0:0:
36,192,76936,1,0,0:0:0:0:
256,192,76936,1,0,0:0:0:0:
475,192,76936,1,0,0:0:0:0:
402,192,76936,1,0,0:0:0:0:
329,192,77020,1,0,0:0:0:0:
182,192,77020,1,0,0:0:0:0:
36,192,77104,1,0,0:0:0:0:
109,192,77104,1,0,0:0:0:0:
256,192,77104,1,0,0:0:0:0:
182,192,77188,1,0,0:0:0:0:
475,192,77188,1,0,0:0:0:0:
402,192,77188,1,0,0:0:0:0:
329,192,77272,1,0,0:0:0:0:
109,192,77272,1,0,0:0:0:0:
256,192,77356,1,0,0:0:0:0:
402,192,77356,1,0,0:0:0:0:
475,192,77356,1,0,0:0:0:0:
329,192,77440,1,0,0:0:0:0:
109,192,77440,1,0,0:0:0:0:
36,192,77440,1,0,0:0:0:0:
402,192,77524,1,0,0:0:0:0:
182,192,77524,1,0,0:0:0:0:
475,192,77608,1,0,0:0:0:0:
256,192,77608,1,0,0:0:0:0:
36,192,77608,1,0,0:0:0:0:
109,192,77608,1,0,0:0:0:0:
329,192,77692,1,0,0:0:0:0:
182,192,77692,1,0,0:0:0:0:
256,192,77776,1,0,0:0:0:0:
402,192,77776,1,0,0:0:0:0:
475,192,77776,1,0,0:0:0:0:
109,192,77860,1,0,0:0:0:0:
36,192,77860,1,0,0:0:0:0:
329,192,77860,1,0,0:0:0:0:
402,192,77944,1,0,0:0:0:0:
182,192,77944,1,0,0:0:0:0:
36,192,78028,1,0,0:0:0:0:
109,192,78028,1,0,0:0:0:0:
256,192,78028,1,0,0:0:0:0:
475,192,78112,1,0,0:0:0:0:
402,192,78112,1,0,0:0:0:0:
182,192,78112,1,0,0:0:0:0:
256,192,78196,1,0,0:0:0:0:
109,192,78196,1,0,0:0:0:0:
329,192,78280,1,0,0:0:0:0:
182,192,78280,1,0,0:0:0:0:
36,192,78280,1,0,0:0:0:0:
109,192,78364,1,0,0:0:0:0:
475,192,78364,1,0,0:0:0:0:
256,192,78364,1,0,0:0:0:0:
182,192,78449,1,0,0:0:0:0:
36,192,78449,1,0,0:0:0:0:
402,192,78449,1,0,0:0:0:0:
109,192,78532,1,0,0:0:0:0:
475,192,78532,1,0,0:0:0:0:
329,192,78532,1,0,0:0:0:0:
402,192,78616,1,0,0:0:0:0:
36,192,78616,1,0,0:0:0:0:
182,192,78616,1,0,0:0:0:0:
256,192,78616,1,0,0:0:0:0:
109,192,78784,1,0,0:0:0:0:
256,192,78784,1,0,0:0:0:0:
329,192,78784,1,0,0:0:0:0:
475,192,78784,1,0,0:0:0:0:
36,192,78953,1,0,0:0:0:0:
256,192,78953,1,0,0:0:0:0:
475,192,78953,1,0,0:0:0:0:
109,192,78953,1,0,0:0:0:0:
402,192,78953,1,0,0:0:0:0:
182,192,79036,1,0,0:0:0:0:
329,192,79036,1,0,0:0:0:0:
475,192,79121,1,0,0:0:0:0:
402,192,79121,1,0,0:0:0:0:
256,192,79121,1,0,0:0:0:0:
329,192,79205,1,0,0:0:0:0:
36,192,79205,1,0,0:0:0:0:
109,192,79205,1,0,0:0:0:0:
182,192,79289,1,0,0:0:0:0:
402,192,79289,1,0,0:0:0:0:
256,192,79373,1,0,0:0:0:0:
109,192,79373,1,0,0:0:0:0:
36,192,79373,1,0,0:0:0:0:
182,192,79456,1,0,0:0:0:0:
402,192,79456,1,0,0:0:0:0:
475,192,79456,1,0,0:0:0:0:
109,192,79541,1,0,0:0:0:0:
329,192,79541,1,0,0:0:0:0:
36,192,79625,1,0,0:0:0:0:
256,192,79625,1,0,0:0:0:0:
475,192,79625,1,0,0:0:0:0:
402,192,79625,1,0,0:0:0:0:
329,192,79709,1,0,0:0:0:0:
182,192,79709,1,0,0:0:0:0:
36,192,79793,1,0,0:0:0:0:
109,192,79793,1,0,0:0:0:0:
256,192,79793,1,0,0:0:0:0:
182,192,79877,1,0,0:0:0:0:
475,192,79877,1,0,0:0:0:0:
402,192,79877,1,0,0:0:0:0:
329,192,79961,1,0,0:0:0:0:
109,192,79961,1,0,0:0:0:0:
256,192,80045,1,0,0:0:0:0:
402,192,80045,1,0,0:0:0:0:
475,192,80045,1,0,0:0:0:0:
329,192,80129,1,0,0:0:0:0:
109,192,80129,1,0,0:0:0:0:
36,192,80129,1,0,0:0:0:0:
402,192,80213,1,0,0:0:0:0:
182,192,80213,1,0,0:0:0:0:
475,192,80297,1,0,0:0:0:0:
256,192,80297,1,0,0:0:0:0:
36,192,80297,1,0,0:0:0:0:
109,192,80297,1,0,0:0:0:0:
329,192,80381,1,0,0:0:0:0:
182,192,80381,1,0,0:0:0:0:
256,192,80465,1,0,0:0:0:0:
402,192,80465,1,0,0:0:0:0:
475,192,80465,1,0,0:0:0:0:
109,192,80549,1,0,0:0:0:0:
36,192,80549,1,0,0:0:0:0:
329,192,80549,1,0,0:0:0:0:
402,192,80634,1,0,0:0:0:0:
182,192,80634,1,0,0:0:0:0:
36,192,80717,1,0,0:0:0:0:
109,192,80717,1,0,0:0:0:0:
256,192,80717,1,0,0:0:0:0:
475,192,80801,1,0,0:0:0:0:
402,192,80801,1,0,0:0:0:0:
182,192,80801,1,0,0:0:0:0:
329,192,80885,1,0,0:0:0:0:
109,192,80885,1,0,0:0:0:0:
475,192,80969,1,0,0:0:0:0:
36,192,80969,1,0,0:0:0:0:
256,192,80969,1,0,0:0:0:0:
402,192,80969,1,0,0:0:0:0:
182,192,81137,1,0,0:0:0:0:
475,192,81137,1,0,0:0:0:0:
329,192,81137,1,0,0:0:0:0:
109,192,81137,1,0,0:0:0:0:
182,192,81306,1,0,0:0:0:0:
256,192,81306,1,0,0:0:0:0:
36,192,81306,1,0,0:0:0:0:
402,192,81306,1,0,0:0:0:0:
36,192,81474,1,0,0:0:0:0:
475,192,81474,1,0,0:0:0:0:
109,192,81516,1,0,0:0:0:0:
402,192,81516,1,0,0:0:0:0:
182,192,81558,1,0,0:0:0:0:
329,192,81558,1,0,0:0:0:0:
109,192,81599,1,0,0:0:0:0:
402,192,81599,1,0,0:0:0:0:
36,192,81641,1,0,0:0:0:0:
256,192,81641,1,0,0:0:0:0:
475,192,81641,1,0,0:0:0:0:
256,192,81810,1,0,0:0:0:0:
475,192,81810,1,0,0:0:0:0:
109,192,81810,1,0,0:0:0:0:
182,192,81894,1,0,0:0:0:0:
402,192,81894,1,0,0:0:0:0:
36,192,81978,1,0,0:0:0:0:
109,192,81978,1,0,0:0:0:0:
329,192,81978,1,0,0:0:0:0:
475,192,81978,1,0,0:0:0:0:
182,192,82146,1,0,0:0:0:0:
402,192,82146,1,0,0:0:0:0:
36,192,82146,1,0,0:0:0:0:
109,192,82230,1,0,0:0:0:0:
329,192,82230,1,0,0:0:0:0:
36,192,82314,1,0,0:0:0:0:
256,192,82314,1,0,0:0:0:0:
475,192,82314,1,0,0:0:0:0:
402,192,82314,1,0,0:0:0:0:
256,192,82482,1,0,0:0:0:0:
36,192,82482,1,0,0:0:0:0:
402,192,82482,1,0,0:0:0:0:
329,192,82566,1,0,0:0:0:0:
109,192,82566,1,0,0:0:0:0:
475,192,82650,1,0,0:0:0:0:
402,192,82650,1,0,0:0:0:0:
182,192,82650,1,0,0:0:0:0:
36,192,82650,1,0,0:0:0:0:
329,192,82818,1,0,0:0:0:0:
109,192,82818,1,0,0:0:0:0:
475,192,82818,1,0,0:0:0:0:
402,192,82902,1,0,0:0:0:0:
182,192,82902,1,0,0:0:0:0:
475,192,82986,1,0,0:0:0:0:
256,192,82986,1,0,0:0:0:0:
36,192,82986,1,0,0:0:0:0:
109,192,82986,1,0,0:0:0:0:
329,192,83154,1,0,0:0:0:0:
475,192,83154,1,0,0:0:0:0:
109,192,83154,1,0,0:0:0:0:
256,192,83239,1,0,0:0:0:0:
402,192,83239,1,0,0:0:0:0:
36,192,83322,1,0,0:0:0:0:
182,192,83322,1,0,0:0:0:0:
329,192,83322,1,0,0:0:0:0:
475,192,83322,1,0,0:0:0:0:
256,192,83491,1,0,0:0:0:0:
402,192,83491,1,0,0:0:0:0:
36,192,83491,1,0,0:0:0:0:
329,192,83574,1,0,0:0:0:0:
182,192,83574,1,0,0:0:0:0:
36,192,83659,1,0,0:0:0:0:
256,192,83659,1,0,0:0:0:0:
475,192,83659,1,0,0:0:0:0:
109,192,83659,1,0,0:0:0:0:
182,192,83826,1,0,0:0:0:0:
36,192,83826,1,0,0:0:0:0:
402,192,83826,1,0,0:0:0:0:
256,192,83911,1,0,0:0:0:0:
109,192,83911,1,0,0:0:0:0:
475,192,83994,1,0,0:0:0:0:
329,192,83994,1,0,0:0:0:0:
182,192,83994,1,0,0:0:0:0:
36,192,83994,1,0,0:0:0:0:
256,192,84163,1,0,0:0:0:0:
109,192,84163,1,0,0:0:0:0:
475,192,84163,1,0,0:0:0:0:
182,192,84246,1,0,0:0:0:0:
329,192,84246,1,0,0:0:0:0:
475,192,84331,1,0,0:0:0:0:
256,192,84331,1,0,0:0:0:0:
36,192,84331,1,0,0:0:0:0:
402,192,84331,1,0,0:0:0:0:
109,192,84415,1,0,0:0:0:0:
329,192,84415,1,0,0:0:0:0:
402,192,84499,1,0,0:0:0:0:
475,192,84499,1,0,0:0:0:0:
182,192,84499,1,0,0:0:0:0:
256,192,84583,1,0,0:0:0:0:
36,192,84583,1,0,0:0:0:0:
329,192,84583,1,0,0:0:0:0:
182,192,84667,1,0,0:0:0:0:
109,192,84667,1,0,0:0:0:0:
402,192,84667,1,0,0:0:0:0:
256,192,84751,1,0,0:0:0:0:
475,192,84751,1,0,0:0:0:0:
36,192,84751,1,0,0:0:0:0:
109,192,84835,1,0,0:0:0:0:
329,192,84835,1,0,0:0:0:0:
402,192,84835,1,0,0:0:0:0:
182,192,84919,1,0,0:0:0:0:
256,192,84919,1,0,0:0:0:0:
475,192,84919,1,0,0:0:0:0:
36,192,85003,1,0,0:0:0:0:
109,192,85003,1,0,0:0:0:0:
329,192,85003,1,0,0:0:0:0:
402,192,85003,1,0,0:0:0:0:
182,192,85087,1,0,0:0:0:0:
256,192,85171,1,0,0:0:0:0:
329,192,85171,1,0,0:0:0:0:
475,192,85171,1,0,0:0:0:0:
36,192,85171,1,0,0:0:0:0:
109,192,85255,1,0,0:0:0:0:
182,192,85339,1,0,0:0:0:0:
256,192,85339,1,0,0:0:0:0:
402,192,85339,1,0,0:0:0:0:
475,192,85339,1,0,0:0:0:0:
109,192,85423,1,0,0:0:0:0:
36,192,85507,1,0,0:0:0:0:
256,192,85507,1,0,0:0:0:0:
475,192,85507,1,0,0:0:0:0:
402,192,85507,1,0,0:0:0:0:
182,192,85591,1,0,0:0:0:0:
329,192,85591,1,0,0:0:0:0:
109,192,85675,1,0,0:0:0:0:
36,192,85675,1,0,0:0:0:0:
402,192,85675,1,0,0:0:0:0:
475,192,85675,1,0,0:0:0:0:
256,192,85675,1,0,0:0:0:0:
36,192,85759,1,0,0:0:0:0:
329,192,85844,1,0,0:0:0:0:
182,192,85844,1,0,0:0:0:0:
36,192,85927,1,0,0:0:0:0:
329,192,85927,1,0,0:0:0:0:
182,192,85927,1,0,0:0:0:0:
36,192,86096,1,0,0:0:0:0:
329,192,86096,1,0,0:0:0:0:
182,192,86096,1,0,0:0:0:0:
36,192,86264,1,0,0:0:0:0:
256,192,86264,1,0,0:0:0:0:
402,192,86264,1,0,0:0:0:0:
475,192,86348,1,0,0:0:0:0:
36,192,86348,1,0,0:0:0:0:
109,192,86348,1,0,0:0:0:0:
329,192,86348,1,0,0:0:0:0:
182,192,86431,1,0,0:0:0:0:
402,192,86431,1,0,0:0:0:0:
36,192,86516,1,0,0:0:0:0:
475,192,86516,1,0,0:0:0:0:
109,192,86516,1,0,0:0:0:0:
256,192,86516,1,0,0:0:0:0:
182,192,86599,1,0,0:0:0:0:
329,192,86599,1,0,0:0:0:0:
36,192,86684,1,0,0:0:0:0:
109,192,86684,1,0,0:0:0:0:
402,192,86684,1,0,0:0:0:0:
475,192,86684,1,0,0:0:0:0:
329,192,86768,1,0,0:0:0:0:
182,192,86768,1,0,0:0:0:0:
36,192,86851,1,0,0:0:0:0:
256,192,86851,1,0,0:0:0:0:
475,192,86851,1,0,0:0:0:0:
109,192,86936,1,0,0:0:0:0:
402,192,86936,1,0,0:0:0:0:
36,192,87020,1,0,0:0:0:0:
182,192,87020,1,0,0:0:0:0:
256,192,87020,1,0,0:0:0:0:
329,192,87020,1,0,0:0:0:0:
475,192,87020,1,0,0:0:0:0:
402,192,87104,1,0,0:0:0:0:
109,192,87104,1,0,0:0:0:0:
475,192,87188,1,0,0:0:0:0:
256,192,87188,1,0,0:0:0:0:
36,192,87188,1,0,0:0:0:0:
182,192,87272,1,0,0:0:0:0:
402,192,87272,1,0,0:0:0:0:
109,192,87356,1,0,0:0:0:0:
36,192,87356,1,0,0:0:0:0:
329,192,87356,1,0,0:0:0:0:
475,192,87356,1,0,0:0:0:0:
182,192,87440,1,0,0:0:0:0:
256,192,87440,1,0,0:0:0:0:
402,192,87440,1,0,0:0:0:0:
475,192,87524,1,0,0:0:0:0:
36,192,87524,1,0,0:0:0:0:
329,192,87524,1,0,0:0:0:0:
109,192,87608,1,0,0:0:0:0:
182,192,87608,1,0,0:0:0:0:
402,192,87608,1,0,0:0:0:0:
256,192,87692,1,0,0:0:0:0:
329,192,87692,1,0,0:0:0:0:
36,192,87692,1,0,0:0:0:0:
475,192,87692,1,0,0:0:0:0:
109,192,87776,1,0,0:0:0:0:
182,192,87776,1,0,0:0:0:0:
36,192,87860,1,0,0:0:0:0:
329,192,87860,1,0,0:0:0:0:
402,192,87860,1,0,0:0:0:0:
475,192,87860,1,0,0:0:0:0:
182,192,87944,1,0,0:0:0:0:
256,192,87944,1,0,0:0:0:0:
36,192,88028,1,0,0:0:0:0:
109,192,88028,1,0,0:0:0:0:
402,192,88028,1,0,0:0:0:0:
475,192,88028,1,0,0:0:0:0:
329,192,88112,1,0,0:0:0:0:
182,192,88112,1,0,0:0:0:0:
36,192,88196,1,0,0:0:0:0:
109,192,88196,1,0,0:0:0:0:
475,192,88196,1,0,0:0:0:0:
256,192,88196,1,0,0:0:0:0:
402,192,88280,1,0,0:0:0:0:
329,192,88280,1,0,0:0:0:0:
36,192,88364,1,0,0:0:0:0:
109,192,88364,1,0,0:0:0:0:
475,192,88364,1,0,0:0:0:0:
256,192,88364,1,0,0:0:0:0:
182,192,88364,1,0,0:0:0:0:
329,192,88449,1,0,0:0:0:0:
402,192,88449,1,0,0:0:0:0:
475,192,88532,1,0,0:0:0:0:
182,192,88532,1,0,0:0:0:0:
109,192,88532,1,0,0:0:0:0:
36,192,88532,1,0,0:0:0:0:
256,192,88616,1,0,0:0:0:0:
329,192,88616,1,0,0:0:0:0:
36,192,88701,1,0,0:0:0:0:
402,192,88701,1,0,0:0:0:0:
475,192,88701,1,0,0:0:0:0:
109,192,88701,1,0,0:0:0:0:
182,192,88784,1,0,0:0:0:0:
256,192,88784,1,0,0:0:0:0:
329,192,88869,1,0,0:0:0:0:
402,192,88869,1,0,0:0:0:0:
475,192,88869,1,0,0:0:0:0:
36,192,88869,1,0,0:0:0:0:
109,192,88953,1,0,0:0:0:0:
182,192,88953,1,0,0:0:0:0:
36,192,89036,1,0,0:0:0:0:
256,192,89036,1,0,0:0:0:0:
329,192,89036,1,0,0:0:0:0:
475,192,89036,1,0,0:0:0:0:
182,192,89121,1,0,0:0:0:0:
402,192,89121,1,0,0:0:0:0:
36,192,89205,1,0,0:0:0:0:
109,192,89205,1,0,0:0:0:0:
329,192,89205,1,0,0:0:0:0:
182,192,89289,1,0,0:0:0:0:
256,192,89289,1,0,0:0:0:0:
402,192,89289,1,0,0:0:0:0:
36,192,89373,1,0,0:0:0:0:
329,192,89373,1,0,0:0:0:0:
109,192,89373,1,0,0:0:0:0:
475,192,89373,1,0,0:0:0:0:
182,192,89456,1,0,0:0:0:0:
402,192,89456,1,0,0:0:0:0:
256,192,89541,1,0,0:0:0:0:
36,192,89541,1,0,0:0:0:0:
475,192,89541,1,0,0:0:0:0:
109,192,89625,1,0,0:0:0:0:
402,192,89625,1,0,0:0:0:0:
36,192,89709,1,0,0:0:0:0:
182,192,89709,1,0,0:0:0:0:
475,192,89709,1,0,0:0:0:0:
329,192,89709,1,0,0:0:0:0:
109,192,89793,1,0,0:0:0:0:
256,192,89793,1,0,0:0:0:0:
36,192,89877,1,0,0:0:0:0:
182,192,89877,1,0,0:0:0:0:
402,192,89877,1,0,0:0:0:0:
475,192,89877,1,0,0:0:0:0:
109,192,89961,1,0,0:0:0:0:
256,192,89961,1,0,0:0:0:0:
329,192,89961,1,0,0:0:0:0:
36,192,90045,1,0,0:0:0:0:
475,192,90045,1,0,0:0:0:0:
182,192,90129,1,0,0:0:0:0:
256,192,90129,1,0,0:0:0:0:
402,192,90129,1,0,0:0:0:0:
329,192,90213,1,0,0:0:0:0:
475,192,90213,1,0,0:0:0:0:
36,192,90213,1,0,0:0:0:0:
109,192,90213,1,0,0:0:0:0:
402,192,90297,1,0,0:0:0:0:
182,192,90297,1,0,0:0:0:0:
109,192,90381,1,0,0:0:0:0:
36,192,90381,1,0,0:0:0:0:
256,192,90381,1,0,0:0:0:0:
475,192,90381,1,0,0:0:0:0:
182,192,90465,1,0,0:0:0:0:
402,192,90465,1,0,0:0:0:0:
36,192,90549,1,0,0:0:0:0:
109,192,90549,1,0,0:0:0:0:
329,192,90549,1,0,0:0:0:0:
475,192,90549,1,0,0:0:0:0:
402,192,90634,1,0,0:0:0:0:
182,192,90634,1,0,0:0:0:0:
256,192,90634,1,0,0:0:0:0:
475,192,90717,1,0,0:0:0:0:
36,192,90717,1,0,0:0:0:0:
329,192,90801,1,0,0:0:0:0:
256,192,90801,1,0,0:0:0:0:
109,192,90801,1,0,0:0:0:0:
36,192,90885,1,0,0:0:0:0:
402,192,90885,1,0,0:0:0:0:
182,192,90885,1,0,0:0:0:0:
475,192,90885,1,0,0:0:0:0:
109,192,90969,1,0,0:0:0:0:
329,192,90969,1,0,0:0:0:0:
36,192,91054,1,0,0:0:0:0:
475,192,91054,1,0,0:0:0:0:
256,192,91054,1,0,0:0:0:0:
182,192,91054,1,0,0:0:0:0:
109,192,91137,1,0,0:0:0:0:
329,192,91137,1,0,0:0:0:0:
182,192,91221,1,0,0:0:0:0:
402,192,91221,1,0,0:0:0:0:
36,192,91221,1,0,0:0:0:0:
475,192,91221,1,0,0:0:0:0:
109,192,91306,1,0,0:0:0:0:
256,192,91306,1,0,0:0:0:0:
36,192,91389,1,0,0:0:0:0:
182,192,91389,1,0,0:0:0:0:
329,192,91389,1,0,0:0:0:0:
475,192,91389,1,0,0:0:0:0:
402,192,91474,1,0,0:0:0:0:
256,192,91474,1,0,0:0:0:0:
36,192,91558,1,0,0:0:0:0:
475,192,91558,1,0,0:0:0:0:
329,192,91558,1,0,0:0:0:0:
109,192,91558,1,0,0:0:0:0:
402,192,91641,1,0,0:0:0:0:
182,192,91641,1,0,0:0:0:0:
36,192,91726,1,0,0:0:0:0:
475,192,91726,1,0,0:0:0:0:
109,192,91726,1,0,0:0:0:0:
256,192,91726,1,0,0:0:0:0:
182,192,91810,1,0,0:0:0:0:
329,192,91810,1,0,0:0:0:0:
36,192,91894,1,0,0:0:0:0:
109,192,91894,1,0,0:0:0:0:
402,192,91894,1,0,0:0:0:0:
475,192,91894,1,0,0:0:0:0:
182,192,91978,1,0,0:0:0:0:
329,192,91978,1,0,0:0:0:0:
36,192,92062,1,0,0:0:0:0:
256,192,92062,1,0,0:0:0:0:
475,192,92062,1,0,0:0:0:0:
109,192,92146,1,0,0:0:0:0:
402,192,92146,1,0,0:0:0:0:
329,192,92230,1,0,0:0:0:0:
182,192,92230,1,0,0:0:0:0:
256,192,92230,1,0,0:0:0:0:
109,192,92314,1,0,0:0:0:0:
402,192,92314,1,0,0:0:0:0:
329,192,92398,1,0,0:0:0:0:
256,192,92398,1,0,0:0:0:0:
36,192,92398,1,0,0:0:0:0:
475,192,92398,1,0,0:0:0:0:
109,192,92482,1,0,0:0:0:0:
182,192,92482,1,0,0:0:0:0:
36,192,92566,1,0,0:0:0:0:
475,192,92566,1,0,0:0:0:0:
329,192,92566,1,0,0:0:0:0:
402,192,92566,1,0,0:0:0:0:
256,192,92650,1,0,0:0:0:0:
109,192,92650,1,0,0:0:0:0:
402,192,92734,1,0,0:0:0:0:
36,192,92734,1,0,0:0:0:0:
475,192,92734,1,0,0:0:0:0:
182,192,92734,1,0,0:0:0:0:
329,192,92818,1,0,0:0:0:0:
256,192,92818,1,0,0:0:0:0:
36,192,92902,1,0,0:0:0:0:
109,192,92902,1,0,0:0:0:0:
182,192,92902,1,0,0:0:0:0:
475,192,92902,1,0,0:0:0:0:
402,192,92986,1,0,0:0:0:0:
329,192,92986,1,0,0:0:0:0:
256,192,93070,1,0,0:0:0:0:
36,192,93070,1,0,0:0:0:0:
109,192,93070,1,0,0:0:0:0:
475,192,93070,1,0,0:0:0:0:
182,192,93154,1,0,0:0:0:0:
402,192,93154,1,0,0:0:0:0:
36,192,93239,1,0,0:0:0:0:
109,192,93239,1,0,0:0:0:0:
329,192,93239,1,0,0:0:0:0:
475,192,93239,1,0,0:0:0:0:
182,192,93322,1,0,0:0:0:0:
256,192,93322,1,0,0:0:0:0:
402,192,93322,1,0,0:0:0:0:
36,192,93406,1,0,0:0:0:0:
109,192,93406,1,0,0:0:0:0:
329,192,93406,1,0,0:0:0:0:
256,192,93491,1,0,0:0:0:0:
475,192,93491,1,0,0:0:0:0:
36,192,93574,1,0,0:0:0:0:
402,192,93574,1,0,0:0:0:0:
182,192,93574,1,0,0:0:0:0:
109,192,93574,1,0,0:0:0:0:
329,192,93659,1,0,0:0:0:0:
256,192,93659,1,0,0:0:0:0:
402,192,93742,1,0,0:0:0:0:
475,192,93742,1,0,0:0:0:0:
36,192,93742,1,0,0:0:0:0:
182,192,93742,1,0,0:0:0:0:
329,192,93826,1,0,0:0:0:0:
109,192,93826,1,0,0:0:0:0:
475,192,93911,1,0,0:0:0:0:
402,192,93911,1,0,0:0:0:0:
182,192,93911,1,0,0:0:0:0:
36,192,93911,1,0,0:0:0:0:
329,192,93994,1,0,0:0:0:0:
256,192,93994,1,0,0:0:0:0:
109,192,93994,1,0,0:0:0:0:
475,192,94079,1,0,0:0:0:0:
402,192,94079,1,0,0:0:0:0:
182,192,94079,1,0,0:0:0:0:
256,192,94163,1,0,0:0:0:0:
36,192,94163,1,0,0:0:0:0:
475,192,94246,1,0,0:0:0:0:
109,192,94246,1,0,0:0:0:0:
329,192,94246,1,0,0:0:0:0:
402,192,94246,1,0,0:0:0:0:
182,192,94331,1,0,0:0:0:0:
256,192,94331,1,0,0:0:0:0:
109,192,94415,1,0,0:0:0:0:
36,192,94415,1,0,0:0:0:0:
475,192,94415,1,0,0:0:0:0:
329,192,94415,1,0,0:0:0:0:
182,192,94499,1,0,0:0:0:0:
402,192,94499,1,0,0:0:0:0:
36,192,94583,1,0,0:0:0:0:
256,192,94583,1,0,0:0:0:0:
475,192,94583,1,0,0:0:0:0:
109,192,94667,1,0,0:0:0:0:
329,192,94667,1,0,0:0:0:0:
182,192,94751,1,0,0:0:0:0:
402,192,94751,1,0,0:0:0:0:
475,192,94751,1,0,0:0:0:0:
36,192,94751,1,0,0:0:0:0:
109,192,94835,1,0,0:0:0:0:
329,192,94835,1,0,0:0:0:0:
36,192,94919,1,0,0:0:0:0:
256,192,94919,1,0,0:0:0:0:
475,192,94919,1,0,0:0:0:0:
402,192,94919,1,0,0:0:0:0:
182,192,95003,1,0,0:0:0:0:
329,192,95003,1,0,0:0:0:0:
36,192,95087,1,0,0:0:0:0:
475,192,95087,1,0,0:0:0:0:
109,192,95087,1,0,0:0:0:0:
256,192,95087,1,0,0:0:0:0:
182,192,95171,1,0,0:0:0:0:
402,192,95171,1,0,0:0:0:0:
36,192,95255,1,0,0:0:0:0:
109,192,95255,1,0,0:0:0:0:
329,192,95255,1,0,0:0:0:0:
475,192,95255,1,0,0:0:0:0:
182,192,95339,1,0,0:0:0:0:
256,192,95339,1,0,0:0:0:0:
402,192,95339,1,0,0:0:0:0:
36,192,95423,1,0,0:0:0:0:
475,192,95423,1,0,0:0:0:0:
329,192,95423,1,0,0:0:0:0:
109,192,95423,1,0,0:0:0:0:
182,192,95507,1,0,0:0:0:0:
402,192,95507,1,0,0:0:0:0:
256,192,95591,1,0,0:0:0:0:
475,192,95591,1,0,0:0:0:0:
36,192,95591,1,0,0:0:0:0:
109,192,95591,1,0,0:0:0:0:
329,192,95675,1,0,0:0:0:0:
182,192,95675,1,0,0:0:0:0:
36,192,95759,1,0,0:0:0:0:
402,192,95759,1,0,0:0:0:0:
256,192,95759,1,0,0:0:0:0:
475,192,95759,1,0,0:0:0:0:
109,192,95844,1,0,0:0:0:0:
182,192,95844,1,0,0:0:0:0:
329,192,95844,1,0,0:0:0:0:
36,192,95927,1,0,0:0:0:0:
256,192,95927,1,0,0:0:0:0:
402,192,95927,1,0,0:0:0:0:
475,192,95927,1,0,0:0:0:0:
109,192,96011,1,0,0:0:0:0:
329,192,96011,1,0,0:0:0:0:
182,192,96096,1,0,0:0:0:0:
36,192,96096,1,0,0:0:0:0:
475,192,96096,1,0,0:0:0:0:
402,192,96096,1,0,0:0:0:0:
109,192,96179,1,0,0:0:0:0:
256,192,96179,1,0,0:0:0:0:
36,192,96264,1,0,0:0:0:0:
182,192,96264,1,0,0:0:0:0:
329,192,96264,1,0,0:0:0:0:
109,192,96348,1,0,0:0:0:0:
256,192,96348,1,0,0:0:0:0:
402,192,96348,1,0,0:0:0:0:
36,192,96431,1,0,0:0:0:0:
475,192,96431,1,0,0:0:0:0:
182,192,96431,1,0,0:0:0:0:
329,192,96431,1,0,0:0:0:0:
36,192,96789,1,0,0:0:0:0:
329,192,96789,1,0,0:0:0:0:
402,192,96789,1,0,0:0:0:0:
182,192,96789,1,0,0:0:0:0:
36,192,97125,1,0,0:0:0:0:
402,192,97125,1,0,0:0:0:0:
475,192,97125,1,0,0:0:0:0:
182,192,97125,1,0,0:0:0:0:
256,192,97377,1,0,0:0:0:0:
475,192,97377,1,0,0:0:0:0:
36,192,97461,1,0,0:0:0:0:
182,192,97461,1,0,0:0:0:0:
256,192,97629,1,0,0:0:0:0:
475,192,97629,1,0,0:0:0:0:
36,192,97797,1,0,0:0:0:0:
256,192,97797,1,0,0:0:0:0:
329,192,97797,1,0,0:0:0:0:
182,192,97797,1,0,0:0:0:0:
256,192,97965,1,0,0:0:0:0:
329,192,97965,1,0,0:0:0:0:
36,192,98133,1,0,0:0:0:0:
402,192,98133,1,0,0:0:0:0:
329,192,98133,1,0,0:0:0:0:
182,192,98133,1,0,0:0:0:0:
329,192,98301,1,0,0:0:0:0:
402,192,98301,1,0,0:0:0:0:
36,192,98469,1,0,0:0:0:0:
475,192,98469,1,0,0:0:0:0:
402,192,98469,1,0,0:0:0:0:
182,192,98469,1,0,0:0:0:0:
256,192,98721,1,0,0:0:0:0:
475,192,98721,1,0,0:0:0:0:
36,192,98806,1,0,0:0:0:0:
182,192,98806,1,0,0:0:0:0:
256,192,98889,1,0,0:0:0:0:
475,192,98889,1,0,0:0:0:0:
36,192,98974,1,0,0:0:0:0:
182,192,99029,1,0,0:0:0:0:
475,192,99086,1,0,0:0:0:0:
36,192,99141,1,0,0:0:0:0:
256,192,99141,1,0,0:0:0:0:
329,192,99141,1,0,0:0:0:0:
182,192,99141,1,0,0:0:0:0:
182,192,99310,1,0,0:0:0:0:
109,192,99394,1,0,0:0:0:0:
36,192,99478,1,0,0:0:0:0:
329,192,99478,1,0,0:0:0:0:
402,192,99478,1,0,0:0:0:0:
182,192,99478,1,0,0:0:0:0:
36,192,99646,1,0,0:0:0:0:
109,192,99730,1,0,0:0:0:0:
182,192,99814,1,0,0:0:0:0:
475,192,99814,1,0,0:0:0:0:
402,192,99814,1,0,0:0:0:0:
36,192,99814,1,0,0:0:0:0:
182,192,99982,1,0,0:0:0:0:
109,192,100066,1,0,0:0:0:0:
256,192,100066,1,0,0:0:0:0:
475,192,100066,1,0,0:0:0:0:
36,192,100150,1,0,0:0:0:0:
182,192,100150,1,0,0:0:0:0:
36,192,100318,1,0,0:0:0:0:
475,192,100318,1,0,0:0:0:0:
256,192,100318,1,0,0:0:0:0:
109,192,100402,1,0,0:0:0:0:
182,192,100486,1,0,0:0:0:0:
329,192,100486,1,0,0:0:0:0:
475,192,100486,1,0,0:0:0:0:
36,192,100486,1,0,0:0:0:0:
182,192,100654,1,0,0:0:0:0:
109,192,100654,1,0,0:0:0:0:
475,192,100654,1,0,0:0:0:0:
329,192,100654,1,0,0:0:0:0:
256,192,100822,1,0,0:0:0:0:
182,192,100822,1,0,0:0:0:0:
36,192,100822,1,0,0:0:0:0:
402,192,100822,1,0,0:0:0:0:
329,192,100990,1,0,0:0:0:0:
256,192,100990,1,0,0:0:0:0:
109,192,100990,1,0,0:0:0:0:
475,192,100990,1,0,0:0:0:0:
402,192,101159,1,0,0:0:0:0:
329,192,101159,1,0,0:0:0:0:
182,192,101159,1,0,0:0:0:0:
36,192,101159,1,0,0:0:0:0:
475,192,101326,1,0,0:0:0:0:
256,192,101326,1,0,0:0:0:0:
329,192,101326,1,0,0:0:0:0:
109,192,101326,1,0,0:0:0:0:
36,192,101494,1,0,0:0:0:0:
182,192,101494,1,0,0:0:0:0:
256,192,101494,1,0,0:0:0:0:
402,192,101494,1,0,0:0:0:0:
109,192,101663,1,0,0:0:0:0:
182,192,101663,1,0,0:0:0:0:
329,192,101663,1,0,0:0:0:0:
475,192,101663,1,0,0:0:0:0:
36,192,101831,1,0,0:0:0:0:
475,192,101831,1,0,0:0:0:0:
109,192,101831,1,0,0:0:0:0:
402,192,101831,1,0,0:0:0:0:
329,192,101831,1,0,0:0:0:0:
256,192,101915,1,0,0:0:0:0:
182,192,101999,1,0,0:0:0:0:
402,192,101999,1,0,0:0:0:0:
36,192,101999,1,0,0:0:0:0:
329,192,102083,1,0,0:0:0:0:
109,192,102083,1,0,0:0:0:0:
256,192,102167,1,0,0:0:0:0:
36,192,102167,1,0,0:0:0:0:
475,192,102167,1,0,0:0:0:0:
182,192,102251,1,0,0:0:0:0:
329,192,102335,1,0,0:0:0:0:
475,192,102335,1,0,0:0:0:0:
109,192,102335,1,0,0:0:0:0:
36,192,102335,1,0,0:0:0:0:
256,192,102419,1,0,0:0:0:0:
182,192,102503,1,0,0:0:0:0:
36,192,102503,1,0,0:0:0:0:
402,192,102503,1,0,0:0:0:0:
475,192,102503,1,0,0:0:0:0:
329,192,102587,1,0,0:0:0:0:
256,192,102671,1,0,0:0:0:0:
36,192,102671,1,0,0:0:0:0:
475,192,102671,1,0,0:0:0:0:
402,192,102755,1,0,0:0:0:0:
329,192,102839,1,0,0:0:0:0:
182,192,102839,1,0,0:0:0:0:
36,192,102839,1,0,0:0:0:0:
475,192,102839,1,0,0:0:0:0:
256,192,102839,1,0,0:0:0:0:
109,192,102923,1,0,0:0:0:0:
36,192,103007,1,0,0:0:0:0:
256,192,103007,1,0,0:0:0:0:
475,192,103007,1,0,0:0:0:0:
329,192,103091,1,0,0:0:0:0:
109,192,103175,1,0,0:0:0:0:
36,192,103175,1,0,0:0:0:0:
475,192,103175,1,0,0:0:0:0:
402,192,103175,1,0,0:0:0:0:
182,192,103175,1,0,0:0:0:0:
256,192,103259,1,0,0:0:0:0:
475,192,103344,1,0,0:0:0:0:
109,192,103344,1,0,0:0:0:0:
329,192,103344,1,0,0:0:0:0:
402,192,103427,1,0,0:0:0:0:
182,192,103427,1,0,0:0:0:0:
36,192,103511,1,0,0:0:0:0:
475,192,103511,1,0,0:0:0:0:
256,192,103511,1,0,0:0:0:0:
329,192,103596,1,0,0:0:0:0:
402,192,103679,1,0,0:0:0:0:
36,192,103679,1,0,0:0:0:0:
182,192,103679,1,0,0:0:0:0:
475,192,103679,1,0,0:0:0:0:
256,192,103764,1,0,0:0:0:0:
109,192,103847,1,0,0:0:0:0:
36,192,103847,1,0,0:0:0:0:
329,192,103847,1,0,0:0:0:0:
475,192,103847,1,0,0:0:0:0:
182,192,103931,1,0,0:0:0:0:
36,192,104016,1,0,0:0:0:0:
475,192,104016,1,0,0:0:0:0:
256,192,104016,1,0,0:0:0:0:
109,192,104099,1,0,0:0:0:0:
475,192,104184,1,0,0:0:0:0:
36,192,104184,1,0,0:0:0:0:
182,192,104184,1,0,0:0:0:0:
329,192,104184,1,0,0:0:0:0:
256,192,104184,1,0,0:0:0:0:
402,192,104268,1,0,0:0:0:0:
36,192,104351,1,0,0:0:0:0:
256,192,104351,1,0,0:0:0:0:
475,192,104351,1,0,0:0:0:0:
182,192,104436,1,0,0:0:0:0:
36,192,104520,1,0,0:0:0:0:
109,192,104520,1,0,0:0:0:0:
402,192,104520,1,0,0:0:0:0:
475,192,104520,1,0,0:0:0:0:
329,192,104520,1,0,0:0:0:0:
256,192,104604,1,0,0:0:0:0:
182,192,104688,1,0,0:0:0:0:
402,192,104688,1,0,0:0:0:0:
36,192,104688,1,0,0:0:0:0:
329,192,104772,1,0,0:0:0:0:
109,192,104772,1,0,0:0:0:0:
36,192,104856,1,0,0:0:0:0:
475,192,104856,1,0,0:0:0:0:
256,192,104856,1,0,0:0:0:0:
402,192,104940,1,0,0:0:0:0:
329,192,105024,1,0,0:0:0:0:
36,192,105024,1,0,0:0:0:0:
109,192,105024,1,0,0:0:0:0:
182,192,105024,1,0,0:0:0:0:
402,192,105108,1,0,0:0:0:0:
475,192,105192,1,0,0:0:0:0:
36,192,105192,1,0,0:0:0:0:
182,192,105192,1,0,0:0:0:0:
329,192,105192,1,0,0:0:0:0:
109,192,105192,1,0,0:0:0:0:
256,192,105276,1,0,0:0:0:0:
329,192,105360,1,0,0:0:0:0:
109,192,105360,1,0,0:0:0:0:
475,192,105360,1,0,0:0:0:0:
182,192,105444,1,0,0:0:0:0:
402,192,105444,1,0,0:0:0:0:
475,192,105528,1,0,0:0:0:0:
36,192,105528,1,0,0:0:0:0:
256,192,105528,1,0,0:0:0:0:
329,192,105528,1,0,0:0:0:0:
109,192,105612,1,0,0:0:0:0:
182,192,105696,1,0,0:0:0:0:
475,192,105696,1,0,0:0:0:0:
329,192,105696,1,0,0:0:0:0:
109,192,105780,1,0,0:0:0:0:
36,192,105864,1,0,0:0:0:0:
475,192,105864,1,0,0:0:0:0:
402,192,105864,1,0,0:0:0:0:
256,192,105864,1,0,0:0:0:0:
329,192,105864,1,0,0:0:0:0:
182,192,105949,1,0,0:0:0:0:
109,192,106032,1,0,0:0:0:0:
329,192,106032,1,0,0:0:0:0:
475,192,106032,1,0,0:0:0:0:
256,192,106116,1,0,0:0:0:0:
36,192,106116,1,0,0:0:0:0:
182,192,106201,1,0,0:0:0:0:
402,192,106201,1,0,0:0:0:0:
475,192,106201,1,0,0:0:0:0:
329,192,106284,1,0,0:0:0:0:
256,192,106369,1,0,0:0:0:0:
475,192,106369,1,0,0:0:0:0:
36,192,106369,1,0,0:0:0:0:
109,192,106369,1,0,0:0:0:0:
402,192,106453,1,0,0:0:0:0:
329,192,106536,1,0,0:0:0:0:
36,192,106536,1,0,0:0:0:0:
256,192,106536,1,0,0:0:0:0:
475,192,106536,1,0,0:0:0:0:
182,192,106536,1,0,0:0:0:0:
402,192,106621,1,0,0:0:0:0:
109,192,106621,1,0,0:0:0:0:
182,192,106704,1,0,0:0:0:0:
256,192,106704,1,0,0:0:0:0:
475,192,106704,1,0,0:0:0:0:
109,192,106761,1,0,0:0:0:0:
329,192,106789,1,0,0:0:0:0:
36,192,106816,1,0,0:0:0:0:
182,192,106873,1,0,0:0:0:0:
402,192,106873,1,0,0:0:0:0:
475,192,106873,1,0,0:0:0:0:
109,192,106929,1,0,0:0:0:0:
256,192,106956,1,0,0:0:0:0:
36,192,106985,1,0,0:0:0:0:
182,192,107041,1,0,0:0:0:0:
329,192,107041,1,0,0:0:0:0:
475,192,107041,1,0,0:0:0:0:
109,192,107096,1,0,0:0:0:0:
402,192,107125,1,0,0:0:0:0:
36,192,107153,1,0,0:0:0:0:
475,192,107209,1,0,0:0:0:0:
182,192,107209,1,0,0:0:0:0:
329,192,107209,1,0,0:0:0:0:
256,192,107293,1,0,0:0:0:0:
182,192,107377,1,0,0:0:0:0:
402,192,107377,1,0,0:0:0:0:
36,192,107377,1,0,0:0:0:0:
329,192,107461,1,0,0:0:0:0:
109,192,107461,1,0,0:0:0:0:
256,192,107545,1,0,0:0:0:0:
36,192,107545,1,0,0:0:0:0:
475,192,107545,1,0,0:0:0:0:
182,192,107629,1,0,0:0:0:0:
402,192,107629,1,0,0:0:0:0:
329,192,107713,1,0,0:0:0:0:
475,192,107713,1,0,0:0:0:0:
109,192,107713,1,0,0:0:0:0:
36,192,107713,1,0,0:0:0:0:
256,192,107797,1,0,0:0:0:0:
182,192,107797,1,0,0:0:0:0:
36,192,107881,1,0,0:0:0:0:
402,192,107881,1,0,0:0:0:0:
475,192,107881,1,0,0:0:0:0:
109,192,107881,1,0,0:0:0:0:
329,192,107965,1,0,0:0:0:0:
256,192,108049,1,0,0:0:0:0:
36,192,108049,1,0,0:0:0:0:
475,192,108049,1,0,0:0:0:0:
109,192,108049,1,0,0:0:0:0:
402,192,108133,1,0,0:0:0:0:
329,192,108217,1,0,0:0:0:0:
182,192,108217,1,0,0:0:0:0:
36,192,108217,1,0,0:0:0:0:
475,192,108217,1,0,0:0:0:0:
256,192,108217,1,0,0:0:0:0:
109,192,108301,1,0,0:0:0:0:
36,192,108385,1,0,0:0:0:0:
256,192,108385,1,0,0:0:0:0:
475,192,108385,1,0,0:0:0:0:
402,192,108385,1,0,0:0:0:0:
329,192,108469,1,0,0:0:0:0:
109,192,108554,1,0,0:0:0:0:
36,192,108554,1,0,0:0:0:0:
475,192,108554,1,0,0:0:0:0:
402,192,108554,1,0,0:0:0:0:
182,192,108554,1,0,0:0:0:0:
256,192,108637,1,0,0:0:0:0:
109,192,108721,1,0,0:0:0:0:
329,192,108721,1,0,0:0:0:0:
475,192,108721,1,0,0:0:0:0:
182,192,108806,1,0,0:0:0:0:
402,192,108806,1,0,0:0:0:0:
36,192,108889,1,0,0:0:0:0:
256,192,108889,1,0,0:0:0:0:
475,192,108889,1,0,0:0:0:0:
109,192,108974,1,0,0:0:0:0:
329,192,108974,1,0,0:0:0:0:
36,192,109058,1,0,0:0:0:0:
182,192,109058,1,0,0:0:0:0:
475,192,109058,1,0,0:0:0:0:
402,192,109058,1,0,0:0:0:0:
256,192,109141,1,0,0:0:0:0:
109,192,109226,1,0,0:0:0:0:
36,192,109226,1,0,0:0:0:0:
329,192,109226,1,0,0:0:0:0:
475,192,109226,1,0,0:0:0:0:
182,192,109310,1,0,0:0:0:0:
36,192,109394,1,0,0:0:0:0:
475,192,109394,1,0,0:0:0:0:
256,192,109394,1,0,0:0:0:0:
402,192,109394,1,0,0:0:0:0:
109,192,109478,1,0,0:0:0:0:
475,192,109561,1,0,0:0:0:0:
36,192,109561,1,0,0:0:0:0:
182,192,109561,1,0,0:0:0:0:
256,192,109561,1,0,0:0:0:0:
329,192,109561,1,0,0:0:0:0:
402,192,109646,1,0,0:0:0:0:
36,192,109730,1,0,0:0:0:0:
475,192,109730,1,0,0:0:0:0:
109,192,109730,1,0,0:0:0:0:
329,192,109730,1,0,0:0:0:0:
182,192,109814,1,0,0:0:0:0:
256,192,109814,1,0,0:0:0:0:
36,192,109898,1,0,0:0:0:0:
109,192,109898,1,0,0:0:0:0:
402,192,109898,1,0,0:0:0:0:
475,192,109898,1,0,0:0:0:0:
329,192,109898,1,0,0:0:0:0:
256,192,109982,1,0,0:0:0:0:
182,192,110066,1,0,0:0:0:0:
402,192,110066,1,0,0:0:0:0:
36,192,110066,1,0,0:0:0:0:
329,192,110150,1,0,0:0:0:0:
109,192,110150,1,0,0:0:0:0:
36,192,110234,1,0,0:0:0:0:
475,192,110234,1,0,0:0:0:0:
256,192,110234,1,0,0:0:0:0:
182,192,110234,1,0,0:0:0:0:
402,192,110318,1,0,0:0:0:0:
329,192,110402,1,0,0:0:0:0:
36,192,110402,1,0,0:0:0:0:
182,192,110402,1,0,0:0:0:0:
402,192,110486,1,0,0:0:0:0:
475,192,110570,1,0,0:0:0:0:
36,192,110570,1,0,0:0:0:0:
182,192,110570,1,0,0:0:0:0:
329,192,110570,1,0,0:0:0:0:
109,192,110570,1,0,0:0:0:0:
256,192,110654,1,0,0:0:0:0:
329,192,110739,1,0,0:0:0:0:
109,192,110739,1,0,0:0:0:0:
475,192,110739,1,0,0:0:0:0:
182,192,110822,1,0,0:0:0:0:
402,192,110822,1,0,0:0:0:0:
475,192,110906,1,0,0:0:0:0:
36,192,110906,1,0,0:0:0:0:
256,192,110906,1,0,0:0:0:0:
329,192,110906,1,0,0:0:0:0:
109,192,110990,1,0,0:0:0:0:
182,192,111074,1,0,0:0:0:0:
475,192,111074,1,0,0:0:0:0:
329,192,111074,1,0,0:0:0:0:
402,192,111074,1,0,0:0:0:0:
109,192,111159,1,0,0:0:0:0:
36,192,111242,1,0,0:0:0:0:
475,192,111242,1,0,0:0:0:0:
402,192,111242,1,0,0:0:0:0:
256,192,111242,1,0,0:0:0:0:
329,192,111242,1,0,0:0:0:0:
182,192,111326,1,0,0:0:0:0:
109,192,111411,1,0,0:0:0:0:
329,192,111411,1,0,0:0:0:0:
475,192,111411,1,0,0:0:0:0:
256,192,111494,1,0,0:0:0:0:
36,192,111494,1,0,0:0:0:0:
182,192,111579,1,0,0:0:0:0:
402,192,111579,1,0,0:0:0:0:
475,192,111579,1,0,0:0:0:0:
329,192,111663,1,0,0:0:0:0:
256,192,111746,1,0,0:0:0:0:
475,192,111746,1,0,0:0:0:0:
36,192,111746,1,0,0:0:0:0:
109,192,111746,1,0,0:0:0:0:
402,192,111831,1,0,0:0:0:0:
329,192,111915,1,0,0:0:0:0:
36,192,111915,1,0,0:0:0:0:
475,192,111915,1,0,0:0:0:0:
109,192,111915,1,0,0:0:0:0:
182,192,111999,1,0,0:0:0:0:
256,192,112083,1,0,0:0:0:0:
329,192,112167,1,0,0:0:0:0:
402,192,112251,1,0,0:0:0:0:
475,192,112251,1,0,0:0:0:0:
36,192,112251,1,0,0:0:0:0:
182,192,112251,1,0,0:0:0:0:
109,192,112251,1,0,0:0:0:0:
256,192,112335,1,0,0:0:0:0:
329,192,112335,1,0,0:0:0:0:
475,192,112419,1,0,0:0:0:0:
182,192,112419,1,0,0:0:0:0:
109,192,112419,1,0,0:0:0:0:
36,192,112419,1,0,0:0:0:0:
329,192,112503,1,0,0:0:0:0:
402,192,112503,1,0,0:0:0:0:
475,192,112587,1,0,0:0:0:0:
256,192,112587,1,0,0:0:0:0:
109,192,112587,1,0,0:0:0:0:
36,192,112587,1,0,0:0:0:0:
182,192,112671,1,0,0:0:0:0:
402,192,112671,1,0,0:0:0:0:
36,192,112755,1,0,0:0:0:0:
329,192,112755,1,0,0:0:0:0:
256,192,112755,1,0,0:0:0:0:
182,192,112839,1,0,0:0:0:0:
475,192,112839,1,0,0:0:0:0:
36,192,112923,1,0,0:0:0:0:
402,192,112923,1,0,0:0:0:0:
256,192,112923,1,0,0:0:0:0:
182,192,113007,1,0,0:0:0:0:
36,192,113091,1,0,0:0:0:0:
329,192,113091,1,0,0:0:0:0:
402,192,113091,1,0,0:0:0:0:
475,192,113091,1,0,0:0:0:0:
256,192,113091,1,0,0:0:0:0:
182,192,113175,1,0,0:0:0:0:
475,192,113259,1,0,0:0:0:0:
402,192,113259,1,0,0:0:0:0:
36,192,113259,1,0,0:0:0:0:
109,192,113259,1,0,0:0:0:0:
256,192,113259,1,0,0:0:0:0:
329,192,113344,1,0,0:0:0:0:
475,192,113427,1,0,0:0:0:0:
182,192,113427,1,0,0:0:0:0:
256,192,113427,1,0,0:0:0:0:
329,192,113511,1,0,0:0:0:0:
475,192,113596,1,0,0:0:0:0:
109,192,113596,1,0,0:0:0:0:
36,192,113596,1,0,0:0:0:0:
329,192,113679,1,0,0:0:0:0:
475,192,113764,1,0,0:0:0:0:
36,192,113764,1,0,0:0:0:0:
109,192,113764,1,0,0:0:0:0:
182,192,113764,1,0,0:0:0:0:
329,192,113847,1,0,0:0:0:0:
182,192,113847,1,0,0:0:0:0:
256,192,113847,1,0,0:0:0:0:
36,192,113931,1,0,0:0:0:0:
109,192,113931,1,0,0:0:0:0:
402,192,113931,1,0,0:0:0:0:
475,192,113931,1,0,0:0:0:0:
329,192,113931,1,0,0:0:0:0:
182,192,114016,1,0,0:0:0:0:
36,192,114099,1,0,0:0:0:0:
475,192,114099,1,0,0:0:0:0:
329,192,114099,1,0,0:0:0:0:
182,192,114184,1,0,0:0:0:0:
36,192,114268,1,0,0:0:0:0:
402,192,114268,1,0,0:0:0:0:
256,192,114268,1,0,0:0:0:0:
182,192,114351,1,0,0:0:0:0:
36,192,114436,1,0,0:0:0:0:
329,192,114436,1,0,0:0:0:0:
402,192,114436,1,0,0:0:0:0:
475,192,114436,1,0,0:0:0:0:
182,192,114520,1,0,0:0:0:0:
329,192,114520,1,0,0:0:0:0:
256,192,114520,1,0,0:0:0:0:
475,192,114604,1,0,0:0:0:0:
402,192,114604,1,0,0:0:0:0:
36,192,114604,1,0,0:0:0:0:
109,192,114604,1,0,0:0:0:0:
182,192,114604,1,0,0:0:0:0:
329,192,114688,1,0,0:0:0:0:
475,192,114772,1,0,0:0:0:0:
256,192,114772,1,0,0:0:0:0:
109,192,114772,1,0,0:0:0:0:
329,192,114856,1,0,0:0:0:0:
475,192,114940,1,0,0:0:0:0:
36,192,114940,128,0,115192:0:0:0:0:
182,192,114940,128,0,115192:0:0:0:0:
109,192,114940,1,0,0:0:0:0:
256,192,114940,1,0,0:0:0:0:
329,192,115024,1,0,0:0:0:0:
475,192,115108,1,0,0:0:0:0:
329,192,115192,1,0,0:0:0:0:
475,192,115276,1,0,0:0:0:0:
36,192,115276,1,0,0:0:0:0:
109,192,115276,1,0,0:0:0:0:
256,192,115276,1,0,0:0:0:0:
402,192,115276,1,0,0:0:0:0:
182,192,115360,1,0,0:0:0:0:
329,192,115360,1,0,0:0:0:0:
36,192,115444,1,0,0:0:0:0:
256,192,115444,1,0,0:0:0:0:
475,192,115444,1,0,0:0:0:0:
182,192,115528,1,0,0:0:0:0:
402,192,115528,1,0,0:0:0:0:
36,192,115612,1,0,0:0:0:0:
329,192,115612,1,0,0:0:0:0:
256,192,115612,1,0,0:0:0:0:
182,192,115696,1,0,0:0:0:0:
36,192,115780,1,0,0:0:0:0:
402,192,115780,1,0,0:0:0:0:
475,192,115780,1,0,0:0:0:0:
329,192,115780,1,0,0:0:0:0:
256,192,115780,1,0,0:0:0:0:
182,192,115864,1,0,0:0:0:0:
475,192,115949,1,0,0:0:0:0:
256,192,115949,1,0,0:0:0:0:
402,192,115949,1,0,0:0:0:0:
109,192,115949,1,0,0:0:0:0:
36,192,115949,1,0,0:0:0:0:
329,192,116032,1,0,0:0:0:0:
475,192,116116,1,0,0:0:0:0:
109,192,116116,1,0,0:0:0:0:
256,192,116116,1,0,0:0:0:0:
329,192,116201,1,0,0:0:0:0:
475,192,116284,1,0,0:0:0:0:
36,192,116284,1,0,0:0:0:0:
182,192,116284,1,0,0:0:0:0:
329,192,116369,1,0,0:0:0:0:
475,192,116453,1,0,0:0:0:0:
36,192,116453,1,0,0:0:0:0:
182,192,116453,1,0,0:0:0:0:
256,192,116453,1,0,0:0:0:0:
329,192,116536,1,0,0:0:0:0:
109,192,116536,1,0,0:0:0:0:
256,192,116536,1,0,0:0:0:0:
475,192,116621,1,0,0:0:0:0:
329,192,116621,1,0,0:0:0:0:
402,192,116621,1,0,0:0:0:0:
182,192,116621,1,0,0:0:0:0:
36,192,116621,1,0,0:0:0:0:
475,192,116789,1,0,0:0:0:0:
256,192,116789,1,0,0:0:0:0:
36,192,116789,1,0,0:0:0:0:
182,192,116873,1,0,0:0:0:0:
402,192,116873,1,0,0:0:0:0:
36,192,116956,1,0,0:0:0:0:
256,192,116956,1,0,0:0:0:0:
475,192,116956,1,0,0:0:0:0:
109,192,116956,1,0,0:0:0:0:
329,192,116956,1,0,0:0:0:0:
256,192,117125,1,0,0:0:0:0:
475,192,117125,1,0,0:0:0:0:
36,192,117125,1,0,0:0:0:0:
109,192,117209,1,0,0:0:0:0:
329,192,117209,1,0,0:0:0:0:
36,192,117293,1,0,0:0:0:0:
402,192,117293,1,0,0:0:0:0:
475,192,117293,1,0,0:0:0:0:
182,192,117293,1,0,0:0:0:0:
256,192,117293,1,0,0:0:0:0:
109,192,117377,1,0,0:0:0:0:
329,192,117377,1,0,0:0:0:0:
182,192,117461,1,0,0:0:0:0:
402,192,117461,1,0,0:0:0:0:
475,192,117461,1,0,0:0:0:0:
36,192,117545,1,0,0:0:0:0:
256,192,117545,1,0,0:0:0:0:
109,192,117629,1,0,0:0:0:0:
329,192,117629,1,0,0:0:0:0:
475,192,117629,1,0,0:0:0:0:
182,192,117713,1,0,0:0:0:0:
256,192,117797,1,0,0:0:0:0:
475,192,117797,1,0,0:0:0:0:
36,192,117797,1,0,0:0:0:0:
109,192,117881,1,0,0:0:0:0:
402,192,117881,1,0,0:0:0:0:
36,192,117965,1,0,0:0:0:0:
182,192,117965,1,0,0:0:0:0:
329,192,117965,1,0,0:0:0:0:
256,192,117965,1,0,0:0:0:0:
475,192,117965,1,0,0:0:0:0:
256,192,118133,1,0,0:0:0:0:
475,192,118133,1,0,0:0:0:0:
402,192,118217,1,0,0:0:0:0:
329,192,118217,1,0,0:0:0:0:
36,192,118217,1,0,0:0:0:0:
109,192,118217,1,0,0:0:0:0:
182,192,118301,1,0,0:0:0:0:
36,192,118385,1,0,0:0:0:0:
109,192,118385,1,0,0:0:0:0:
475,192,118469,1,0,0:0:0:0:
256,192,118469,1,0,0:0:0:0:
402,192,118554,1,0,0:0:0:0:
182,192,118554,1,0,0:0:0:0:
329,192,118637,1,0,0:0:0:0:
256,192,118637,1,0,0:0:0:0:
109,192,118637,1,0,0:0:0:0:
36,192,118637,1,0,0:0:0:0:
475,192,118721,1,0,0:0:0:0:
402,192,118721,1,0,0:0:0:0:
256,192,118889,1,0,0:0:0:0:
329,192,118889,1,0,0:0:0:0:
36,192,118889,1,0,0:0:0:0:
109,192,118889,1,0,0:0:0:0:
182,192,118974,1,0,0:0:0:0:
475,192,119058,1,0,0:0:0:0:
402,192,119058,1,0,0:0:0:0:
109,192,119058,1,0,0:0:0:0:
36,192,119058,1,0,0:0:0:0:
329,192,119141,1,0,0:0:0:0:
256,192,119226,1,0,0:0:0:0:
475,192,119226,1,0,0:0:0:0:
182,192,119226,1,0,0:0:0:0:
402,192,119310,1,0,0:0:0:0:
109,192,119310,1,0,0:0:0:0:
36,192,119310,1,0,0:0:0:0:
329,192,119394,1,0,0:0:0:0:
256,192,119394,1,0,0:0:0:0:
475,192,119478,1,0,0:0:0:0:
402,192,119561,1,0,0:0:0:0:
256,192,119561,1,0,0:0:0:0:
36,192,119561,1,0,0:0:0:0:
109,192,119561,1,0,0:0:0:0:
182,192,119646,1,0,0:0:0:0:
329,192,119730,1,0,0:0:0:0:
475,192,119730,1,0,0:0:0:0:
36,192,119730,1,0,0:0:0:0:
109,192,119730,1,0,0:0:0:0:
256,192,119898,1,0,0:0:0:0:
402,192,119898,1,0,0:0:0:0:
182,192,119898,1,0,0:0:0:0:
329,192,119982,1,0,0:0:0:0:
475,192,119982,1,0,0:0:0:0:
36,192,119982,1,0,0:0:0:0:
109,192,119982,1,0,0:0:0:0:
36,192,120150,1,0,0:0:0:0:
182,192,120150,1,0,0:0:0:0:
475,192,120150,1,0,0:0:0:0:
402,192,120150,1,0,0:0:0:0:
475,192,120318,1,0,0:0:0:0:
36,192,120318,1,0,0:0:0:0:
109,192,120318,1,0,0:0:0:0:
402,192,120318,1,0,0:0:0:0:
182,192,120402,1,0,0:0:0:0:
329,192,120402,1,0,0:0:0:0:
36,192,120486,1,0,0:0:0:0:
475,192,120486,1,0,0:0:0:0:
402,192,120486,1,0,0:0:0:0:
109,192,120486,1,0,0:0:0:0:
182,192,120570,1,0,0:0:0:0:
329,192,120570,1,0,0:0:0:0:
36,192,120654,1,0,0:0:0:0:
475,192,120654,1,0,0:0:0:0:
109,192,120654,1,0,0:0:0:0:
256,192,120654,1,0,0:0:0:0:
402,192,120739,1,0,0:0:0:0:
182,192,120739,1,0,0:0:0:0:
329,192,120822,1,0,0:0:0:0:
109,192,120822,1,0,0:0:0:0:
475,192,120822,1,0,0:0:0:0:
36,192,120906,1,0,0:0:0:0:
256,192,120906,1,0,0:0:0:0:
475,192,120990,1,0,0:0:0:0:
402,192,120990,1,0,0:0:0:0:
182,192,120990,1,0,0:0:0:0:
329,192,121074,1,0,0:0:0:0:
256,192,121159,1,0,0:0:0:0:
36,192,121159,1,0,0:0:0:0:
109,192,121242,1,0,0:0:0:0:
329,192,121242,1,0,0:0:0:0:
36,192,121326,1,0,0:0:0:0:
182,192,121326,1,0,0:0:0:0:
402,192,121326,1,0,0:0:0:0:
475,192,121326,1,0,0:0:0:0:
329,192,121411,1,0,0:0:0:0:
256,192,121494,1,0,0:0:0:0:
36,192,121494,1,0,0:0:0:0:
109,192,121494,1,0,0:0:0:0:
475,192,121494,1,0,0:0:0:0:
329,192,121579,1,0,0:0:0:0:
475,192,121663,1,0,0:0:0:0:
402,192,121663,1,0,0:0:0:0:
36,192,121663,1,0,0:0:0:0:
109,192,121663,1,0,0:0:0:0:
182,192,121746,1,0,0:0:0:0:
256,192,121831,1,0,0:0:0:0:
475,192,121831,1,0,0:0:0:0:
36,192,121831,1,0,0:0:0:0:
402,192,121831,1,0,0:0:0:0:
182,192,121915,1,0,0:0:0:0:
329,192,121915,1,0,0:0:0:0:
36,192,121999,1,0,0:0:0:0:
109,192,121999,1,0,0:0:0:0:
256,192,121999,1,0,0:0:0:0:
475,192,121999,1,0,0:0:0:0:
402,192,122083,1,0,0:0:0:0:
182,192,122083,1,0,0:0:0:0:
109,192,122167,1,0,0:0:0:0:
329,192,122167,1,0,0:0:0:0:
36,192,122167,1,0,0:0:0:0:
256,192,122251,1,0,0:0:0:0:
475,192,122251,1,0,0:0:0:0:
182,192,122335,1,0,0:0:0:0:
402,192,122335,1,0,0:0:0:0:
36,192,122335,1,0,0:0:0:0:
109,192,122419,1,0,0:0:0:0:
256,192,122419,1,0,0:0:0:0:
329,192,122419,1,0,0:0:0:0:
475,192,122503,1,0,0:0:0:0:
402,192,122503,1,0,0:0:0:0:
182,192,122503,1,0,0:0:0:0:
256,192,122587,1,0,0:0:0:0:
109,192,122587,1,0,0:0:0:0:
36,192,122671,1,0,0:0:0:0:
182,192,122671,1,0,0:0:0:0:
329,192,122671,1,0,0:0:0:0:
402,192,122671,1,0,0:0:0:0:
475,192,122671,1,0,0:0:0:0:
256,192,122839,1,0,0:0:0:0:
329,192,122839,1,0,0:0:0:0:
402,192,122839,1,0,0:0:0:0:
109,192,122839,1,0,0:0:0:0:
182,192,123007,1,0,0:0:0:0:
256,192,123007,1,0,0:0:0:0:
329,192,123007,1,0,0:0:0:0:
475,192,123007,1,0,0:0:0:0:
36,192,123007,1,0,0:0:0:0:
36,192,123175,1,0,0:0:0:0:
475,192,123175,1,0,0:0:0:0:
109,192,123175,1,0,0:0:0:0:
402,192,123175,1,0,0:0:0:0:
329,192,123259,1,0,0:0:0:0:
182,192,123259,1,0,0:0:0:0:
36,192,123344,1,0,0:0:0:0:
109,192,123344,1,0,0:0:0:0:
256,192,123344,1,0,0:0:0:0:
475,192,123344,1,0,0:0:0:0:
402,192,123344,1,0,0:0:0:0:
182,192,123427,1,0,0:0:0:0:
329,192,123427,1,0,0:0:0:0:
256,192,123511,1,0,0:0:0:0:
402,192,123511,1,0,0:0:0:0:
36,192,123511,1,0,0:0:0:0:
109,192,123596,1,0,0:0:0:0:
329,192,123596,1,0,0:0:0:0:
475,192,123596,1,0,0:0:0:0:
182,192,123679,1,0,0:0:0:0:
402,192,123679,1,0,0:0:0:0:
36,192,123679,1,0,0:0:0:0:
109,192,123764,1,0,0:0:0:0:
256,192,123764,1,0,0:0:0:0:
475,192,123764,1,0,0:0:0:0:
36,192,123847,1,0,0:0:0:0:
182,192,123847,1,0,0:0:0:0:
329,192,123847,1,0,0:0:0:0:
109,192,123931,1,0,0:0:0:0:
256,192,123931,1,0,0:0:0:0:
402,192,123931,1,0,0:0:0:0:
36,192,124016,1,0,0:0:0:0:
182,192,124016,1,0,0:0:0:0:
329,192,124016,1,0,0:0:0:0:
475,192,124016,1,0,0:0:0:0:
402,192,124099,1,0,0:0:0:0:
109,192,124099,1,0,0:0:0:0:
475,192,124184,1,0,0:0:0:0:
256,192,124184,1,0,0:0:0:0:
36,192,124184,1,0,0:0:0:0:
182,192,124268,1,0,0:0:0:0:
402,192,124268,1,0,0:0:0:0:
109,192,124351,1,0,0:0:0:0:
36,192,124351,1,0,0:0:0:0:
329,192,124351,1,0,0:0:0:0:
475,192,124351,1,0,0:0:0:0:
182,192,124436,1,0,0:0:0:0:
256,192,124436,1,0,0:0:0:0:
402,192,124436,1,0,0:0:0:0:
475,192,124520,1,0,0:0:0:0:
36,192,124520,1,0,0:0:0:0:
329,192,124520,1,0,0:0:0:0:
109,192,124604,1,0,0:0:0:0:
182,192,124604,1,0,0:0:0:0:
402,192,124604,1,0,0:0:0:0:
256,192,124688,1,0,0:0:0:0:
329,192,124688,1,0,0:0:0:0:
36,192,124688,1,0,0:0:0:0:
475,192,124688,1,0,0:0:0:0:
109,192,124772,1,0,0:0:0:0:
182,192,124772,1,0,0:0:0:0:
36,192,124856,1,0,0:0:0:0:
329,192,124856,1,0,0:0:0:0:
402,192,124856,1,0,0:0:0:0:
475,192,124856,1,0,0:0:0:0:
182,192,124940,1,0,0:0:0:0:
256,192,124940,1,0,0:0:0:0:
36,192,125024,1,0,0:0:0:0:
109,192,125024,1,0,0:0:0:0:
402,192,125024,1,0,0:0:0:0:
475,192,125024,1,0,0:0:0:0:
256,192,125108,1,0,0:0:0:0:
329,192,125108,1,0,0:0:0:0:
36,192,125192,1,0,0:0:0:0:
109,192,125192,1,0,0:0:0:0:
182,192,125192,1,0,0:0:0:0:
475,192,125192,1,0,0:0:0:0:
402,192,125276,1,0,0:0:0:0:
329,192,125276,1,0,0:0:0:0:
36,192,125360,1,0,0:0:0:0:
109,192,125360,1,0,0:0:0:0:
475,192,125360,1,0,0:0:0:0:
256,192,125360,1,0,0:0:0:0:
182,192,125360,1,0,0:0:0:0:
329,192,125444,1,0,0:0:0:0:
402,192,125444,1,0,0:0:0:0:
475,192,125528,1,0,0:0:0:0:
182,192,125528,1,0,0:0:0:0:
109,192,125528,1,0,0:0:0:0:
36,192,125528,1,0,0:0:0:0:
256,192,125612,1,0,0:0:0:0:
329,192,125612,1,0,0:0:0:0:
36,192,125696,1,0,0:0:0:0:
402,192,125696,1,0,0:0:0:0:
475,192,125696,1,0,0:0:0:0:
109,192,125696,1,0,0:0:0:0:
182,192,125780,1,0,0:0:0:0:
256,192,125780,1,0,0:0:0:0:
329,192,125864,1,0,0:0:0:0:
402,192,125864,1,0,0:0:0:0:
475,192,125864,1,0,0:0:0:0:
36,192,125864,1,0,0:0:0:0:
109,192,125949,1,0,0:0:0:0:
182,192,125949,1,0,0:0:0:0:
36,192,126032,1,0,0:0:0:0:
256,192,126032,1,0,0:0:0:0:
329,192,126032,1,0,0:0:0:0:
475,192,126032,1,0,0:0:0:0:
182,192,126116,1,0,0:0:0:0:
402,192,126116,1,0,0:0:0:0:
36,192,126201,1,0,0:0:0:0:
109,192,126201,1,0,0:0:0:0:
329,192,126201,1,0,0:0:0:0:
182,192,126284,1,0,0:0:0:0:
256,192,126284,1,0,0:0:0:0:
402,192,126284,1,0,0:0:0:0:
36,192,126369,1,0,0:0:0:0:
329,192,126369,1,0,0:0:0:0:
109,192,126369,1,0,0:0:0:0:
475,192,126369,1,0,0:0:0:0:
182,192,126453,1,0,0:0:0:0:
402,192,126453,1,0,0:0:0:0:
256,192,126536,1,0,0:0:0:0:
36,192,126536,1,0,0:0:0:0:
475,192,126536,1,0,0:0:0:0:
109,192,126621,1,0,0:0:0:0:
402,192,126621,1,0,0:0:0:0:
36,192,126704,1,0,0:0:0:0:
182,192,126704,1,0,0:0:0:0:
475,192,126704,1,0,0:0:0:0:
329,192,126704,1,0,0:0:0:0:
109,192,126789,1,0,0:0:0:0:
256,192,126789,1,0,0:0:0:0:
36,192,126873,1,0,0:0:0:0:
182,192,126873,1,0,0:0:0:0:
402,192,126873,1,0,0:0:0:0:
475,192,126873,1,0,0:0:0:0:
109,192,126956,1,0,0:0:0:0:
256,192,126956,1,0,0:0:0:0:
329,192,126956,1,0,0:0:0:0:
36,192,127041,1,0,0:0:0:0:
475,192,127041,1,0,0:0:0:0:
182,192,127125,1,0,0:0:0:0:
256,192,127125,1,0,0:0:0:0:
402,192,127125,1,0,0:0:0:0:
329,192,127209,1,0,0:0:0:0:
475,192,127209,1,0,0:0:0:0:
36,192,127209,1,0,0:0:0:0:
109,192,127209,1,0,0:0:0:0:
402,192,127293,1,0,0:0:0:0:
182,192,127293,1,0,0:0:0:0:
109,192,127377,1,0,0:0:0:0:
36,192,127377,1,0,0:0:0:0:
256,192,127377,1,0,0:0:0:0:
475,192,127377,1,0,0:0:0:0:
182,192,127461,1,0,0:0:0:0:
402,192,127461,1,0,0:0:0:0:
36,192,127545,1,0,0:0:0:0:
109,192,127545,1,0,0:0:0:0:
329,192,127545,1,0,0:0:0:0:
475,192,127545,1,0,0:0:0:0:
402,192,127629,1,0,0:0:0:0:
182,192,127629,1,0,0:0:0:0:
256,192,127629,1,0,0:0:0:0:
475,192,127713,1,0,0:0:0:0:
36,192,127713,1,0,0:0:0:0:
329,192,127797,1,0,0:0:0:0:
256,192,127797,1,0,0:0:0:0:
109,192,127797,1,0,0:0:0:0:
36,192,127881,1,0,0:0:0:0:
402,192,127881,1,0,0:0:0:0:
182,192,127881,1,0,0:0:0:0:
475,192,127881,1,0,0:0:0:0:
109,192,127965,1,0,0:0:0:0:
329,192,127965,1,0,0:0:0:0:
36,192,128049,1,0,0:0:0:0:
475,192,128049,1,0,0:0:0:0:
256,192,128049,1,0,0:0:0:0:
182,192,128049,1,0,0:0:0:0:
109,192,128133,1,0,0:0:0:0:
329,192,128133,1,0,0:0:0:0:
182,192,128217,1,0,0:0:0:0:
402,192,128217,1,0,0:0:0:0:
36,192,128217,1,0,0:0:0:0:
475,192,128217,1,0,0:0:0:0:
109,192,128301,1,0,0:0:0:0:
256,192,128301,1,0,0:0:0:0:
36,192,128385,1,0,0:0:0:0:
182,192,128385,1,0,0:0:0:0:
329,192,128385,1,0,0:0:0:0:
475,192,128385,1,0,0:0:0:0:
402,192,128469,1,0,0:0:0:0:
256,192,128469,1,0,0:0:0:0:
36,192,128554,1,0,0:0:0:0:
475,192,128554,1,0,0:0:0:0:
329,192,128554,1,0,0:0:0:0:
109,192,128554,1,0,0:0:0:0:
402,192,128637,1,0,0:0:0:0:
182,192,128637,1,0,0:0:0:0:
36,192,128721,1,0,0:0:0:0:
475,192,128721,1,0,0:0:0:0:
109,192,128721,1,0,0:0:0:0:
256,192,128721,1,0,0:0:0:0:
182,192,128806,1,0,0:0:0:0:
329,192,128806,1,0,0:0:0:0:
36,192,128889,1,0,0:0:0:0:
109,192,128889,1,0,0:0:0:0:
402,192,128889,1,0,0:0:0:0:
475,192,128889,1,0,0:0:0:0:
182,192,128974,1,0,0:0:0:0:
329,192,128974,1,0,0:0:0:0:
36,192,129058,1,0,0:0:0:0:
256,192,129058,1,0,0:0:0:0:
475,192,129058,1,0,0:0:0:0:
109,192,129141,1,0,0:0:0:0:
402,192,129141,1,0,0:0:0:0:
329,192,129226,1,0,0:0:0:0:
182,192,129226,1,0,0:0:0:0:
256,192,129226,1,0,0:0:0:0:
109,192,129310,1,0,0:0:0:0:
402,192,129310,1,0,0:0:0:0:
329,192,129394,1,0,0:0:0:0:
256,192,129394,1,0,0:0:0:0:
36,192,129394,1,0,0:0:0:0:
475,192,129394,1,0,0:0:0:0:
109,192,129478,1,0,0:0:0:0:
182,192,129478,1,0,0:0:0:0:
36,192,129561,1,0,0:0:0:0:
475,192,129561,1,0,0:0:0:0:
329,192,129561,1,0,0:0:0:0:
402,192,129561,1,0,0:0:0:0:
256,192,129646,1,0,0:0:0:0:
109,192,129646,1,0,0:0:0:0:
402,192,129730,1,0,0:0:0:0:
182,192,129730,1,0,0:0:0:0:
36,192,129730,1,0,0:0:0:0:
475,192,129730,1,0,0:0:0:0:
329,192,129814,1,0,0:0:0:0:
256,192,129814,1,0,0:0:0:0:
36,192,129898,1,0,0:0:0:0:
109,192,129898,1,0,0:0:0:0:
182,192,129898,1,0,0:0:0:0:
475,192,129898,1,0,0:0:0:0:
402,192,129982,1,0,0:0:0:0:
329,192,129982,1,0,0:0:0:0:
36,192,130066,1,0,0:0:0:0:
109,192,130066,1,0,0:0:0:0:
475,192,130066,1,0,0:0:0:0:
256,192,130066,1,0,0:0:0:0:
182,192,130150,1,0,0:0:0:0:
402,192,130150,1,0,0:0:0:0:
36,192,130234,1,0,0:0:0:0:
109,192,130234,1,0,0:0:0:0:
329,192,130234,1,0,0:0:0:0:
475,192,130234,1,0,0:0:0:0:
182,192,130318,1,0,0:0:0:0:
256,192,130318,1,0,0:0:0:0:
402,192,130318,1,0,0:0:0:0:
36,192,130402,1,0,0:0:0:0:
109,192,130402,1,0,0:0:0:0:
329,192,130402,1,0,0:0:0:0:
256,192,130486,1,0,0:0:0:0:
475,192,130486,1,0,0:0:0:0:
36,192,130570,1,0,0:0:0:0:
402,192,130570,1,0,0:0:0:0:
182,192,130570,1,0,0:0:0:0:
109,192,130570,1,0,0:0:0:0:
329,192,130654,1,0,0:0:0:0:
256,192,130654,1,0,0:0:0:0:
402,192,130739,1,0,0:0:0:0:
475,192,130739,1,0,0:0:0:0:
36,192,130739,1,0,0:0:0:0:
182,192,130739,1,0,0:0:0:0:
329,192,130822,1,0,0:0:0:0:
109,192,130822,1,0,0:0:0:0:
475,192,130906,1,0,0:0:0:0:
402,192,130906,1,0,0:0:0:0:
182,192,130906,1,0,0:0:0:0:
36,192,130906,1,0,0:0:0:0:
329,192,130990,1,0,0:0:0:0:
256,192,130990,1,0,0:0:0:0:
109,192,130990,1,0,0:0:0:0:
475,192,131074,1,0,0:0:0:0:
402,192,131074,1,0,0:0:0:0:
182,192,131074,1,0,0:0:0:0:
256,192,131159,1,0,0:0:0:0:
36,192,131159,1,0,0:0:0:0:
475,192,131242,1,0,0:0:0:0:
109,192,131242,1,0,0:0:0:0:
329,192,131242,1,0,0:0:0:0:
402,192,131242,1,0,0:0:0:0:
182,192,131326,1,0,0:0:0:0:
256,192,131326,1,0,0:0:0:0:
109,192,131411,1,0,0:0:0:0:
36,192,131411,1,0,0:0:0:0:
475,192,131411,1,0,0:0:0:0:
329,192,131411,1,0,0:0:0:0:
402,192,131494,1,0,0:0:0:0:
256,192,131494,1,0,0:0:0:0:
36,192,131579,1,0,0:0:0:0:
329,192,131579,1,0,0:0:0:0:
182,192,131579,1,0,0:0:0:0:
256,192,131663,1,0,0:0:0:0:
109,192,131663,1,0,0:0:0:0:
475,192,131663,1,0,0:0:0:0:
402,192,131746,1,0,0:0:0:0:
36,192,131746,1,0,0:0:0:0:
182,192,131746,1,0,0:0:0:0:
256,192,131831,1,0,0:0:0:0:
329,192,131831,1,0,0:0:0:0:
36,192,131915,1,0,0:0:0:0:
402,192,131915,1,0,0:0:0:0:
475,192,131915,1,0,0:0:0:0:
109,192,131915,1,0,0:0:0:0:
256,192,131999,1,0,0:0:0:0:
182,192,131999,1,0,0:0:0:0:
36,192,132083,1,0,0:0:0:0:
329,192,132083,1,0,0:0:0:0:
109,192,132083,1,0,0:0:0:0:
402,192,132083,1,0,0:0:0:0:
475,192,132083,1,0,0:0:0:0:
256,192,132167,1,0,0:0:0:0:
182,192,132167,1,0,0:0:0:0:
36,192,132251,1,0,0:0:0:0:
109,192,132251,1,0,0:0:0:0:
475,192,132251,1,0,0:0:0:0:
329,192,132251,1,0,0:0:0:0:
256,192,132335,1,0,0:0:0:0:
402,192,132335,1,0,0:0:0:0:
36,192,132419,1,0,0:0:0:0:
475,192,132419,1,0,0:0:0:0:
109,192,132419,1,0,0:0:0:0:
182,192,132419,1,0,0:0:0:0:
329,192,132503,1,0,0:0:0:0:
402,192,132503,1,0,0:0:0:0:
475,192,132587,1,0,0:0:0:0:
182,192,132587,1,0,0:0:0:0:
36,192,132587,1,0,0:0:0:0:
109,192,132671,1,0,0:0:0:0:
256,192,132671,1,0,0:0:0:0:
402,192,132671,1,0,0:0:0:0:
36,192,132755,1,0,0:0:0:0:
182,192,132755,1,0,0:0:0:0:
329,192,132755,1,0,0:0:0:0:
475,192,132755,1,0,0:0:0:0:
402,192,132839,1,0,0:0:0:0:
256,192,132923,1,0,0:0:0:0:
475,192,132923,1,0,0:0:0:0:
109,192,132923,1,0,0:0:0:0:
36,192,132923,1,0,0:0:0:0:
329,192,133007,1,0,0:0:0:0:
402,192,133091,1,0,0:0:0:0:
182,192,133091,1,0,0:0:0:0:
475,192,133091,1,0,0:0:0:0:
36,192,133091,1,0,0:0:0:0:
256,192,133175,1,0,0:0:0:0:
109,192,133259,1,0,0:0:0:0:
329,192,133259,1,0,0:0:0:0:
36,192,133259,1,0,0:0:0:0:
475,192,133259,1,0,0:0:0:0:
182,192,133344,1,0,0:0:0:0:
256,192,133427,1,0,0:0:0:0:
36,192,133427,1,0,0:0:0:0:
402,192,133427,1,0,0:0:0:0:
475,192,133427,1,0,0:0:0:0:
109,192,133511,1,0,0:0:0:0:
182,192,133511,1,0,0:0:0:0:
475,192,133596,1,0,0:0:0:0:
329,192,133596,1,0,0:0:0:0:
256,192,133596,1,0,0:0:0:0:
36,192,133596,1,0,0:0:0:0:
182,192,133679,1,0,0:0:0:0:
402,192,133679,1,0,0:0:0:0:
36,192,133764,1,0,0:0:0:0:
109,192,133764,1,0,0:0:0:0:
256,192,133764,1,0,0:0:0:0:
475,192,133764,1,0,0:0:0:0:
402,192,133847,1,0,0:0:0:0:
329,192,133847,1,0,0:0:0:0:
256,192,133931,1,0,0:0:0:0:
182,192,133931,1,0,0:0:0:0:
36,192,133931,1,0,0:0:0:0:
475,192,133931,1,0,0:0:0:0:
109,192,134016,1,0,0:0:0:0:
329,192,134016,1,0,0:0:0:0:
36,192,134099,1,0,0:0:0:0:
182,192,134099,1,0,0:0:0:0:
256,192,134099,1,0,0:0:0:0:
402,192,134099,1,0,0:0:0:0:
475,192,134099,1,0,0:0:0:0:
329,192,134184,1,0,0:0:0:0:
402,192,134268,1,0,0:0:0:0:
182,192,134268,1,0,0:0:0:0:
36,192,134268,1,0,0:0:0:0:
475,192,134268,1,0,0:0:0:0:
256,192,134351,1,0,0:0:0:0:
329,192,134436,1,0,0:0:0:0:
109,192,134436,1,0,0:0:0:0:
36,192,134436,1,0,0:0:0:0:
475,192,134436,1,0,0:0:0:0:
182,192,134520,1,0,0:0:0:0:
256,192,134520,1,0,0:0:0:0:
402,192,134604,1,0,0:0:0:0:
475,192,134604,1,0,0:0:0:0:
36,192,134604,1,0,0:0:0:0:
109,192,134604,1,0,0:0:0:0:
256,192,134688,1,0,0:0:0:0:
329,192,134688,1,0,0:0:0:0:
36,192,134772,1,0,0:0:0:0:
475,192,134772,1,0,0:0:0:0:
402,192,134772,1,0,0:0:0:0:
182,192,134772,1,0,0:0:0:0:
329,192,134856,1,0,0:0:0:0:
109,192,134856,1,0,0:0:0:0:
36,192,134940,1,0,0:0:0:0:
256,192,134940,1,0,0:0:0:0:
475,192,134940,1,0,0:0:0:0:
182,192,134940,1,0,0:0:0:0:
329,192,135024,1,0,0:0:0:0:
402,192,135024,1,0,0:0:0:0:
36,192,135108,1,0,0:0:0:0:
109,192,135108,1,0,0:0:0:0:
256,192,135108,1,0,0:0:0:0:
475,192,135108,1,0,0:0:0:0:
182,192,135192,1,0,0:0:0:0:
402,192,135192,1,0,0:0:0:0:
109,192,135276,1,0,0:0:0:0:
36,192,135276,1,0,0:0:0:0:
329,192,135276,1,0,0:0:0:0:
256,192,135276,1,0,0:0:0:0:
402,192,135360,1,0,0:0:0:0:
475,192,135360,1,0,0:0:0:0:
36,192,135444,1,0,0:0:0:0:
182,192,135444,1,0,0:0:0:0:
329,192,135444,1,0,0:0:0:0:
256,192,135444,1,0,0:0:0:0:
109,192,135528,1,0,0:0:0:0:
475,192,135528,1,0,0:0:0:0:
36,192,135612,1,0,0:0:0:0:
182,192,135612,1,0,0:0:0:0:
402,192,135612,1,0,0:0:0:0:
256,192,135612,1,0,0:0:0:0:
329,192,135696,1,0,0:0:0:0:
109,192,135696,1,0,0:0:0:0:
36,192,135780,1,0,0:0:0:0:
182,192,135780,1,0,0:0:0:0:
256,192,135780,1,0,0:0:0:0:
475,192,135780,1,0,0:0:0:0:
402,192,135864,1,0,0:0:0:0:
329,192,135864,1,0,0:0:0:0:
475,192,135949,1,0,0:0:0:0:
182,192,135949,1,0,0:0:0:0:
109,192,135949,1,0,0:0:0:0:
36,192,135949,1,0,0:0:0:0:
256,192,136032,1,0,0:0:0:0:
329,192,136032,1,0,0:0:0:0:
402,192,136116,1,0,0:0:0:0:
475,192,136116,1,0,0:0:0:0:
109,192,136116,1,0,0:0:0:0:
36,192,136116,1,0,0:0:0:0:
182,192,136201,1,0,0:0:0:0:
256,192,136201,1,0,0:0:0:0:
329,192,136201,1,0,0:0:0:0:
36,192,136284,1,0,0:0:0:0:
109,192,136284,1,0,0:0:0:0:
402,192,136284,1,0,0:0:0:0:
475,192,136284,1,0,0:0:0:0:
182,192,136369,1,0,0:0:0:0:
256,192,136369,1,0,0:0:0:0:
329,192,136369,1,0,0:0:0:0:
36,192,136536,1,0,0:0:0:0:
402,192,136536,1,0,0:0:0:0:
109,192,136536,1,0,0:0:0:0:
256,192,136536,1,0,0:0:0:0:
109,192,136704,1,0,0:0:0:0:
182,192,136704,1,0,0:0:0:0:
329,192,136704,1,0,0:0:0:0:
475,192,136704,1,0,0:0:0:0:
182,192,136873,1,0,0:0:0:0:
256,192,136873,1,0,0:0:0:0:
402,192,136873,1,0,0:0:0:0:
36,192,136873,1,0,0:0:0:0:
109,192,137041,1,0,0:0:0:0:
256,192,137041,1,0,0:0:0:0:
329,192,137041,1,0,0:0:0:0:
36,192,137125,1,0,0:0:0:0:
182,192,137125,1,0,0:0:0:0:
402,192,137125,1,0,0:0:0:0:
475,192,137125,1,0,0:0:0:0:
329,192,137167,1,0,0:0:0:0:
256,192,137209,1,0,0:0:0:0:
182,192,137251,1,0,0:0:0:0:
109,192,137293,1,0,0:0:0:0:
402,192,137293,1,0,0:0:0:0:
475,192,137293,1,0,0:0:0:0:
36,192,137293,1,0,0:0:0:0:
329,192,137335,1,0,0:0:0:0:
256,192,137377,1,0,0:0:0:0:
182,192,137419,1,0,0:0:0:0:
109,192,137461,1,0,0:0:0:0:
36,192,137461,1,0,0:0:0:0:
475,192,137461,1,0,0:0:0:0:
329,192,137461,1,0,0:0:0:0:
256,192,137545,1,0,0:0:0:0:
402,192,137545,1,0,0:0:0:0:
329,192,137629,1,0,0:0:0:0:
182,192,137629,1,0,0:0:0:0:
36,192,137629,1,0,0:0:0:0:
109,192,137713,1,0,0:0:0:0:
256,192,137713,1,0,0:0:0:0:
36,192,137797,1,0,0:0:0:0:
182,192,137797,1,0,0:0:0:0:
402,192,137797,1,0,0:0:0:0:
475,192,137797,1,0,0:0:0:0:
109,192,137881,1,0,0:0:0:0:
329,192,137881,1,0,0:0:0:0:
182,192,137965,1,0,0:0:0:0:
402,192,137965,1,0,0:0:0:0:
475,192,137965,1,0,0:0:0:0:
256,192,138049,1,0,0:0:0:0:
36,192,138049,1,0,0:0:0:0:
475,192,138133,1,0,0:0:0:0:
109,192,138133,1,0,0:0:0:0:
329,192,138133,1,0,0:0:0:0:
182,192,138217,1,0,0:0:0:0:
402,192,138217,1,0,0:0:0:0:
475,192,138301,1,0,0:0:0:0:
36,192,138301,1,0,0:0:0:0:
256,192,138301,1,0,0:0:0:0:
109,192,138357,1,0,0:0:0:0:
402,192,138357,1,0,0:0:0:0:
182,192,138414,1,0,0:0:0:0:
329,192,138414,1,0,0:0:0:0:
36,192,138469,1,0,0:0:0:0:
475,192,138469,1,0,0:0:0:0:
256,192,138469,1,0,0:0:0:0:
182,192,138554,1,0,0:0:0:0:
402,192,138554,1,0,0:0:0:0:
109,192,138637,1,0,0:0:0:0:
329,192,138637,1,0,0:0:0:0:
36,192,138637,1,0,0:0:0:0:
256,192,138721,1,0,0:0:0:0:
402,192,138721,1,0,0:0:0:0:
36,192,138806,1,0,0:0:0:0:
475,192,138806,1,0,0:0:0:0:
329,192,138806,1,0,0:0:0:0:
182,192,138806,1,0,0:0:0:0:
256,192,138889,1,0,0:0:0:0:
109,192,138889,1,0,0:0:0:0:
182,192,138974,1,0,0:0:0:0:
329,192,138974,1,0,0:0:0:0:
475,192,138974,1,0,0:0:0:0:
402,192,139058,1,0,0:0:0:0:
256,192,139058,1,0,0:0:0:0:
475,192,139141,1,0,0:0:0:0:
329,192,139141,1,0,0:0:0:0:
109,192,139141,1,0,0:0:0:0:
36,192,139141,1,0,0:0:0:0:
402,192,139226,1,0,0:0:0:0:
182,192,139226,1,0,0:0:0:0:
329,192,139310,1,0,0:0:0:0:
109,192,139310,1,0,0:0:0:0:
36,192,139310,1,0,0:0:0:0:
256,192,139394,1,0,0:0:0:0:
475,192,139394,1,0,0:0:0:0:
36,192,139478,1,0,0:0:0:0:
402,192,139478,1,0,0:0:0:0:
182,192,139478,1,0,0:0:0:0:
329,192,139561,1,0,0:0:0:0:
109,192,139561,1,0,0:0:0:0:
36,192,139646,1,0,0:0:0:0:
475,192,139646,1,0,0:0:0:0:
256,192,139646,1,0,0:0:0:0:
402,192,139702,1,0,0:0:0:0:
109,192,139702,1,0,0:0:0:0:
329,192,139758,1,0,0:0:0:0:
182,192,139758,1,0,0:0:0:0:
475,192,139814,1,0,0:0:0:0:
36,192,139814,1,0,0:0:0:0:
256,192,139814,1,0,0:0:0:0:
329,192,139898,1,0,0:0:0:0:
109,192,139898,1,0,0:0:0:0:
402,192,139982,1,0,0:0:0:0:
182,192,139982,1,0,0:0:0:0:
475,192,139982,1,0,0:0:0:0:
256,192,140066,1,0,0:0:0:0:
109,192,140066,1,0,0:0:0:0:
475,192,140150,1,0,0:0:0:0:
36,192,140150,1,0,0:0:0:0:
182,192,140150,1,0,0:0:0:0:
329,192,140150,1,0,0:0:0:0:
109,192,140234,1,0,0:0:0:0:
402,192,140234,1,0,0:0:0:0:
182,192,140318,1,0,0:0:0:0:
329,192,140318,1,0,0:0:0:0:
256,192,140318,1,0,0:0:0:0:
109,192,140402,1,0,0:0:0:0:
402,192,140402,1,0,0:0:0:0:
36,192,140486,1,0,0:0:0:0:
475,192,140486,1,0,0:0:0:0:
256,192,140486,1,0,0:0:0:0:
182,192,140570,1,0,0:0:0:0:
402,192,140570,1,0,0:0:0:0:
109,192,140654,1,0,0:0:0:0:
329,192,140654,1,0,0:0:0:0:
36,192,140654,1,0,0:0:0:0:
182,192,140739,1,0,0:0:0:0:
402,192,140739,1,0,0:0:0:0:
256,192,140822,1,0,0:0:0:0:
475,192,140822,1,0,0:0:0:0:
36,192,140822,1,0,0:0:0:0:
182,192,140906,1,0,0:0:0:0:
329,192,140906,1,0,0:0:0:0:
109,192,140990,1,0,0:0:0:0:
36,192,140990,1,0,0:0:0:0:
475,192,140990,1,0,0:0:0:0:
402,192,140990,1,0,0:0:0:0:
182,192,141074,1,0,0:0:0:0:
329,192,141074,1,0,0:0:0:0:
256,192,141159,1,0,0:0:0:0:
36,192,141159,1,0,0:0:0:0:
475,192,141159,1,0,0:0:0:0:
109,192,141242,1,0,0:0:0:0:
329,192,141242,1,0,0:0:0:0:
182,192,141326,1,0,0:0:0:0:
402,192,141326,1,0,0:0:0:0:
475,192,141326,1,0,0:0:0:0:
109,192,141411,1,0,0:0:0:0:
329,192,141411,1,0,0:0:0:0:
36,192,141494,1,0,0:0:0:0:
256,192,141494,1,0,0:0:0:0:
475,192,141494,1,0,0:0:0:0:
182,192,141579,1,0,0:0:0:0:
402,192,141579,1,0,0:0:0:0:
109,192,141663,1,0,0:0:0:0:
36,192,141663,1,0,0:0:0:0:
329,192,141663,1,0,0:0:0:0:
475,192,141663,1,0,0:0:0:0:
182,192,141719,1,0,0:0:0:0:
256,192,141719,1,0,0:0:0:0:
402,192,141774,1,0,0:0:0:0:
475,192,141774,1,0,0:0:0:0:
36,192,141831,1,0,0:0:0:0:
329,192,141831,1,0,0:0:0:0:
256,192,141831,1,0,0:0:0:0:
109,192,141831,1,0,0:0:0:0:
182,192,141915,1,0,0:0:0:0:
402,192,141915,1,0,0:0:0:0:
256,192,141999,1,0,0:0:0:0:
475,192,141999,1,0,0:0:0:0:
36,192,141999,1,0,0:0:0:0:
109,192,142083,1,0,0:0:0:0:
329,192,142083,1,0,0:0:0:0:
182,192,142083,1,0,0:0:0:0:
36,192,142167,1,0,0:0:0:0:
475,192,142167,1,0,0:0:0:0:
402,192,142167,1,0,0:0:0:0:
256,192,142167,1,0,0:0:0:0:
109,192,142251,1,0,0:0:0:0:
182,192,142251,1,0,0:0:0:0:
36,192,142335,1,0,0:0:0:0:
402,192,142335,1,0,0:0:0:0:
475,192,142335,1,0,0:0:0:0:
329,192,142335,1,0,0:0:0:0:
256,192,142419,1,0,0:0:0:0:
182,192,142419,1,0,0:0:0:0:
475,192,142503,1,0,0:0:0:0:
109,192,142503,1,0,0:0:0:0:
36,192,142503,1,0,0:0:0:0:
402,192,142503,1,0,0:0:0:0:
329,192,142587,1,0,0:0:0:0:
256,192,142587,1,0,0:0:0:0:
36,192,142671,1,0,0:0:0:0:
109,192,142671,1,0,0:0:0:0:
475,192,142671,1,0,0:0:0:0:
182,192,142671,1,0,0:0:0:0:
329,192,142755,1,0,0:0:0:0:
402,192,142755,1,0,0:0:0:0:
36,192,142839,1,0,0:0:0:0:
109,192,142839,1,0,0:0:0:0:
475,192,142839,1,0,0:0:0:0:
182,192,142839,1,0,0:0:0:0:
402,192,142923,1,0,0:0:0:0:
256,192,142923,1,0,0:0:0:0:
36,192,143007,1,0,0:0:0:0:
182,192,143007,1,0,0:0:0:0:
329,192,143007,1,0,0:0:0:0:
256,192,143091,1,0,0:0:0:0:
109,192,143091,1,0,0:0:0:0:
402,192,143175,1,0,0:0:0:0:
475,192,143175,1,0,0:0:0:0:
36,192,143175,1,0,0:0:0:0:
182,192,143175,1,0,0:0:0:0:
329,192,143259,1,0,0:0:0:0:
109,192,143259,1,0,0:0:0:0:
475,192,143344,1,0,0:0:0:0:
402,192,143344,1,0,0:0:0:0:
182,192,143344,1,0,0:0:0:0:
36,192,143427,1,0,0:0:0:0:
256,192,143427,1,0,0:0:0:0:
329,192,143511,1,0,0:0:0:0:
109,192,143511,1,0,0:0:0:0:
475,192,143511,1,0,0:0:0:0:
402,192,143596,1,0,0:0:0:0:
182,192,143596,1,0,0:0:0:0:
256,192,143679,1,0,0:0:0:0:
36,192,143679,1,0,0:0:0:0:
475,192,143679,1,0,0:0:0:0:
402,192,143736,1,0,0:0:0:0:
109,192,143736,1,0,0:0:0:0:
329,192,143791,1,0,0:0:0:0:
182,192,143791,1,0,0:0:0:0:
256,192,143847,1,0,0:0:0:0:
475,192,143847,1,0,0:0:0:0:
36,192,143847,1,0,0:0:0:0:
402,192,143931,1,0,0:0:0:0:
182,192,143931,1,0,0:0:0:0:
36,192,144016,1,0,0:0:0:0:
329,192,144016,1,0,0:0:0:0:
109,192,144016,1,0,0:0:0:0:
402,192,144099,1,0,0:0:0:0:
256,192,144099,1,0,0:0:0:0:
329,192,144184,1,0,0:0:0:0:
182,192,144184,1,0,0:0:0:0:
36,192,144184,1,0,0:0:0:0:
475,192,144184,1,0,0:0:0:0:
109,192,144268,1,0,0:0:0:0:
256,192,144268,1,0,0:0:0:0:
475,192,144351,1,0,0:0:0:0:
329,192,144351,1,0,0:0:0:0:
182,192,144351,1,0,0:0:0:0:
256,192,144436,1,0,0:0:0:0:
402,192,144436,1,0,0:0:0:0:
109,192,144520,1,0,0:0:0:0:
36,192,144520,1,0,0:0:0:0:
475,192,144520,1,0,0:0:0:0:
329,192,144520,1,0,0:0:0:0:
182,192,144604,1,0,0:0:0:0:
402,192,144604,1,0,0:0:0:0:
36,192,144688,1,0,0:0:0:0:
109,192,144688,1,0,0:0:0:0:
329,192,144688,1,0,0:0:0:0:
475,192,144772,1,0,0:0:0:0:
256,192,144772,1,0,0:0:0:0:
182,192,144856,1,0,0:0:0:0:
402,192,144856,1,0,0:0:0:0:
36,192,144856,1,0,0:0:0:0:
109,192,144940,1,0,0:0:0:0:
329,192,144940,1,0,0:0:0:0:
256,192,145024,1,0,0:0:0:0:
475,192,145024,1,0,0:0:0:0:
36,192,145024,1,0,0:0:0:0:
109,192,145080,1,0,0:0:0:0:
402,192,145080,1,0,0:0:0:0:
182,192,145136,1,0,0:0:0:0:
329,192,145136,1,0,0:0:0:0:
256,192,145192,1,0,0:0:0:0:
36,192,145192,1,0,0:0:0:0:
475,192,145192,1,0,0:0:0:0:
109,192,145276,1,0,0:0:0:0:
329,192,145276,1,0,0:0:0:0:
475,192,145360,1,0,0:0:0:0:
182,192,145360,1,0,0:0:0:0:
402,192,145360,1,0,0:0:0:0:
109,192,145444,1,0,0:0:0:0:
256,192,145444,1,0,0:0:0:0:
182,192,145528,1,0,0:0:0:0:
329,192,145528,1,0,0:0:0:0:
475,192,145528,1,0,0:0:0:0:
36,192,145528,1,0,0:0:0:0:
402,192,145612,1,0,0:0:0:0:
109,192,145612,1,0,0:0:0:0:
256,192,145696,1,0,0:0:0:0:
329,192,145696,1,0,0:0:0:0:
182,192,145696,1,0,0:0:0:0:
402,192,145780,1,0,0:0:0:0:
109,192,145780,1,0,0:0:0:0:
256,192,145864,1,0,0:0:0:0:
475,192,145864,1,0,0:0:0:0:
36,192,145864,1,0,0:0:0:0:
402,192,145949,1,0,0:0:0:0:
182,192,145949,1,0,0:0:0:0:
36,192,146032,1,0,0:0:0:0:
329,192,146032,1,0,0:0:0:0:
109,192,146032,1,0,0:0:0:0:
402,192,146116,1,0,0:0:0:0:
182,192,146116,1,0,0:0:0:0:
36,192,146201,1,0,0:0:0:0:
475,192,146201,1,0,0:0:0:0:
256,192,146201,1,0,0:0:0:0:
329,192,146284,1,0,0:0:0:0:
182,192,146284,1,0,0:0:0:0:
475,192,146369,1,0,0:0:0:0:
402,192,146369,1,0,0:0:0:0:
109,192,146369,1,0,0:0:0:0:
36,192,146369,1,0,0:0:0:0:
329,192,146453,1,0,0:0:0:0:
182,192,146453,1,0,0:0:0:0:
475,192,146536,1,0,0:0:0:0:
36,192,146536,1,0,0:0:0:0:
256,192,146536,1,0,0:0:0:0:
329,192,146621,1,0,0:0:0:0:
109,192,146621,1,0,0:0:0:0:
475,192,146704,1,0,0:0:0:0:
402,192,146704,1,0,0:0:0:0:
182,192,146704,1,0,0:0:0:0:
329,192,146789,1,0,0:0:0:0:
109,192,146789,1,0,0:0:0:0:
475,192,146873,1,0,0:0:0:0:
256,192,146873,1,0,0:0:0:0:
36,192,146873,1,0,0:0:0:0:
402,192,146956,1,0,0:0:0:0:
182,192,146956,1,0,0:0:0:0:
329,192,147041,1,0,0:0:0:0:
475,192,147041,1,0,0:0:0:0:
109,192,147041,1,0,0:0:0:0:
36,192,147041,1,0,0:0:0:0:
256,192,147096,1,0,0:0:0:0:
182,192,147096,1,0,0:0:0:0:
475,192,147153,1,0,0:0:0:0:
402,192,147153,1,0,0:0:0:0:
256,192,147209,1,0,0:0:0:0:
109,192,147209,1,0,0:0:0:0:
36,192,147209,1,0,0:0:0:0:
329,192,147209,1,0,0:0:0:0:
402,192,147293,1,0,0:0:0:0:
182,192,147293,1,0,0:0:0:0:
36,192,147377,1,0,0:0:0:0:
475,192,147377,1,0,0:0:0:0:
256,192,147377,1,0,0:0:0:0:
182,192,147461,1,0,0:0:0:0:
329,192,147461,1,0,0:0:0:0:
109,192,147461,1,0,0:0:0:0:
256,192,147545,1,0,0:0:0:0:
36,192,147545,1,0,0:0:0:0:
475,192,147545,1,0,0:0:0:0:
329,192,147629,1,0,0:0:0:0:
402,192,147629,1,0,0:0:0:0:
36,192,147713,1,0,0:0:0:0:
182,192,147713,1,0,0:0:0:0:
475,192,147713,1,0,0:0:0:0:
109,192,147713,1,0,0:0:0:0:
329,192,147797,1,0,0:0:0:0:
256,192,147797,1,0,0:0:0:0:
475,192,147881,1,0,0:0:0:0:
109,192,147881,1,0,0:0:0:0:
36,192,147881,1,0,0:0:0:0:
402,192,147881,1,0,0:0:0:0:
256,192,147965,1,0,0:0:0:0:
182,192,147965,1,0,0:0:0:0:
36,192,148049,1,0,0:0:0:0:
329,192,148049,1,0,0:0:0:0:
475,192,148049,1,0,0:0:0:0:
402,192,148049,1,0,0:0:0:0:
109,192,148133,1,0,0:0:0:0:
182,192,148133,1,0,0:0:0:0:
36,192,148217,1,0,0:0:0:0:
329,192,148217,1,0,0:0:0:0:
475,192,148217,1,0,0:0:0:0:
402,192,148217,1,0,0:0:0:0:
256,192,148217,1,0,0:0:0:0:
109,192,148385,1,0,0:0:0:0:
182,192,148385,1,0,0:0:0:0:
329,192,148385,1,0,0:0:0:0:
475,192,148385,1,0,0:0:0:0:
182,192,148554,1,0,0:0:0:0:
256,192,148554,1,0,0:0:0:0:
402,192,148554,1,0,0:0:0:0:
36,192,148554,1,0,0:0:0:0:
109,192,148637,1,0,0:0:0:0:
329,192,148637,1,0,0:0:0:0:
475,192,148637,1,0,0:0:0:0:
36,192,148721,1,0,0:0:0:0:
182,192,148721,1,0,0:0:0:0:
256,192,148721,1,0,0:0:0:0:
402,192,148721,1,0,0:0:0:0:
109,192,148806,1,0,0:0:0:0:
329,192,148806,1,0,0:0:0:0:
475,192,148806,1,0,0:0:0:0:
36,192,148889,1,0,0:0:0:0:
256,192,148889,1,0,0:0:0:0:
182,192,148889,1,0,0:0:0:0:
402,192,148889,1,0,0:0:0:0:
109,192,149058,1,0,0:0:0:0:
256,192,149058,1,0,0:0:0:0:
329,192,149058,1,0,0:0:0:0:
475,192,149058,1,0,0:0:0:0:
329,192,149226,1,0,0:0:0:0:
402,192,149226,1,0,0:0:0:0:
182,192,149226,1,0,0:0:0:0:
36,192,149226,1,0,0:0:0:0:
109,192,149310,1,0,0:0:0:0:
256,192,149310,1,0,0:0:0:0:
475,192,149310,1,0,0:0:0:0:
36,192,149394,1,0,0:0:0:0:
182,192,149394,1,0,0:0:0:0:
329,192,149394,1,0,0:0:0:0:
402,192,149394,1,0,0:0:0:0:
109,192,149478,1,0,0:0:0:0:
256,192,149478,1,0,0:0:0:0:
475,192,149478,1,0,0:0:0:0:
36,192,149561,1,0,0:0:0:0:
182,192,149561,1,0,0:0:0:0:
329,192,149561,1,0,0:0:0:0:
402,192,149561,1,0,0:0:0:0:
109,192,149730,1,0,0:0:0:0:
256,192,149730,1,0,0:0:0:0:
402,192,149730,1,0,0:0:0:0:
475,192,149730,1,0,0:0:0:0:
36,192,149898,1,0,0:0:0:0:
182,192,149898,1,0,0:0:0:0:
329,192,149898,1,0,0:0:0:0:
475,192,149898,1,0,0:0:0:0:
109,192,149982,1,0,0:0:0:0:
256,192,149982,1,0,0:0:0:0:
402,192,149982,1,0,0:0:0:0:
36,192,150066,1,0,0:0:0:0:
182,192,150066,1,0,0:0:0:0:
329,192,150066,1,0,0:0:0:0:
475,192,150066,1,0,0:0:0:0:
109,192,150150,1,0,0:0:0:0:
256,192,150150,1,0,0:0:0:0:
402,192,150150,1,0,0:0:0:0:
36,192,150234,1,0,0:0:0:0:
182,192,150234,1,0,0:0:0:0:
329,192,150234,1,0,0:0:0:0:
475,192,150234,1,0,0:0:0:0:
109,192,150402,1,0,0:0:0:0:
36,192,150402,1,0,0:0:0:0:
256,192,150402,1,0,0:0:0:0:
402,192,150402,1,0,0:0:0:0:
475,192,150402,1,0,0:0:0:0:
36,192,150570,1,0,0:0:0:0:
182,192,150570,1,0,0:0:0:0:
256,192,150570,1,0,0:0:0:0:
329,192,150570,1,0,0:0:0:0:
475,192,150570,1,0,0:0:0:0:
36,192,150906,1,0,0:0:0:0:
182,192,150906,1,0,0:0:0:0:
36,192,151074,1,0,0:0:0:0:
182,192,151074,1,0,0:0:0:0:
109,192,151242,1,0,0:0:0:0:
256,192,151242,1,0,0:0:0:0:
109,192,151411,1,0,0:0:0:0:
256,192,151411,1,0,0:0:0:0:
182,192,151579,1,0,0:0:0:0:
329,192,151579,1,0,0:0:0:0:
256,192,151831,1,0,0:0:0:0:
402,192,151831,1,0,0:0:0:0:
36,192,152083,1,0,0:0:0:0:
109,192,152083,1,0,0:0:0:0:
182,192,152083,1,0,0:0:0:0:
329,192,152083,1,0,0:0:0:0:
402,192,152083,1,0,0:0:0:0:
475,192,152083,1,0,0:0:0:0:
