osu file format v14

[General]
AudioFilename: nameless - Milk Crown on Sonnetica130.mp3
AudioLeadIn: 0
PreviewTime: 50777
Countdown: 0
SampleSet: None
StackLeniency: 0.7
Mode: 3
LetterboxInBreaks: 0
SpecialStyle: 0
WidescreenStoryboard: 0

[Editor]
Bookmarks: 1586,13169,24753,36337,50817,60952,70543,82127,87918,93711,103846,109661,121245,127036,133552,146584,148032,163959
DistanceSpacing: 1.5
BeatDivisor: 4
GridSize: 8
TimelineZoom: 3.100005

[Metadata]
Title:Milk Crown on Sonnetica
TitleUnicode:ミルククラウン・オン・ソーネチカ
Artist:nameless
ArtistUnicode:nameless
Creator:Applequestria
Version:For Kawawa [1.3x Rate]
Source:
Tags:utaite ユジー yuzy vocaloid hatsune miku
BeatmapID:4536950
BeatmapSetID:747695

[Difficulty]
HPDrainRate:8
CircleSize:7
OverallDifficulty:8
ApproachRate:5
SliderMultiplier:1.4
SliderTickRate:1

[Events]
//Background and Video events
0,0,"nameless - Milk Crown on Sonnetica.jpg",0,0
//Break Periods
//Storyboard Layer 0 (Background)
//Storyboard Layer 1 (Fail)
//Storyboard Layer 2 (Pass)
//Storyboard Layer 3 (Foreground)
//Storyboard Layer 4 (Overlay)
//Storyboard Sound Samples

[TimingPoints]
1586,180.995475113122,4,2,0,10,1,0
50817,-100,4,2,0,10,0,1
60952,180.995475113122,3,2,0,10,1,0
61495,180.995475113122,4,2,0,10,1,0
62218,180.995475113122,3,2,0,10,1,0
63847,180.995475113122,4,2,0,10,1,0
64571,180.995475113122,3,2,0,10,1,0
68372,180.995475113122,4,2,0,10,1,0
93711,-100,4,2,0,10,0,1
103846,-100,4,2,0,10,0,0
103869,180.995475113122,4,2,0,10,1,0
133552,-100,4,2,0,10,0,1
146585,-100,4,2,0,10,0,0
148032,-100,4,2,0,10,0,1
162512,-100,4,2,0,10,0,0

[HitObjects]
182,192,1586,5,0,0:0:0:0:
329,192,1586,1,0,0:0:0:0:
475,192,1586,1,0,0:0:0:0:
36,192,1586,1,0,0:0:0:0:
36,192,1767,1,0,0:0:0:0:
329,192,1767,1,0,0:0:0:0:
475,192,1767,1,0,0:0:0:0:
329,192,1857,1,0,0:0:0:0:
475,192,1857,1,0,0:0:0:0:
182,192,1948,1,0,0:0:0:0:
256,192,2038,1,0,0:0:0:0:
402,192,2038,1,0,0:0:0:0:
36,192,2128,1,0,0:0:0:0:
182,192,2219,1,0,0:0:0:0:
329,192,2219,1,0,0:0:0:0:
475,192,2219,1,0,0:0:0:0:
182,192,2400,1,0,0:0:0:0:
256,192,2400,1,0,0:0:0:0:
402,192,2400,1,0,0:0:0:0:
36,192,2491,1,0,0:0:0:0:
475,192,2582,1,0,0:0:0:0:
329,192,2582,1,0,0:0:0:0:
182,192,2672,1,0,0:0:0:0:
402,192,2672,1,0,0:0:0:0:
256,192,2672,1,0,0:0:0:0:
475,192,2762,1,0,0:0:0:0:
329,192,2762,1,0,0:0:0:0:
36,192,2853,1,0,0:0:0:0:
402,192,2853,1,0,0:0:0:0:
256,192,2853,1,0,0:0:0:0:
475,192,2943,1,0,0:0:0:0:
329,192,2943,1,0,0:0:0:0:
182,192,3034,1,0,0:0:0:0:
329,192,3034,1,0,0:0:0:0:
475,192,3034,1,0,0:0:0:0:
402,192,3125,1,0,0:0:0:0:
256,192,3125,1,0,0:0:0:0:
36,192,3215,1,0,0:0:0:0:
329,192,3215,1,0,0:0:0:0:
475,192,3215,1,0,0:0:0:0:
329,192,3305,1,0,0:0:0:0:
475,192,3305,1,0,0:0:0:0:
182,192,3395,1,0,0:0:0:0:
256,192,3486,1,0,0:0:0:0:
402,192,3486,1,0,0:0:0:0:
36,192,3577,1,0,0:0:0:0:
182,192,3667,1,0,0:0:0:0:
329,192,3667,1,0,0:0:0:0:
475,192,3667,1,0,0:0:0:0:
182,192,3848,1,0,0:0:0:0:
329,192,3848,1,0,0:0:0:0:
475,192,3848,1,0,0:0:0:0:
36,192,3938,1,0,0:0:0:0:
256,192,4029,1,0,0:0:0:0:
402,192,4029,1,0,0:0:0:0:
182,192,4120,1,0,0:0:0:0:
329,192,4120,1,0,0:0:0:0:
475,192,4120,1,0,0:0:0:0:
36,192,4301,1,0,0:0:0:0:
256,192,4301,1,0,0:0:0:0:
402,192,4301,1,0,0:0:0:0:
329,192,4482,5,0,0:0:0:0:
36,192,4482,1,0,0:0:0:0:
182,192,4482,1,0,0:0:0:0:
109,192,4572,1,0,0:0:0:0:
256,192,4572,1,0,0:0:0:0:
475,192,4663,1,0,0:0:0:0:
182,192,4663,1,0,0:0:0:0:
36,192,4663,1,0,0:0:0:0:
182,192,4753,1,0,0:0:0:0:
36,192,4753,1,0,0:0:0:0:
329,192,4844,1,0,0:0:0:0:
256,192,4934,1,0,0:0:0:0:
109,192,4934,1,0,0:0:0:0:
475,192,5025,1,0,0:0:0:0:
329,192,5115,1,0,0:0:0:0:
182,192,5115,1,0,0:0:0:0:
36,192,5115,1,0,0:0:0:0:
329,192,5296,1,0,0:0:0:0:
256,192,5296,1,0,0:0:0:0:
109,192,5296,1,0,0:0:0:0:
475,192,5387,1,0,0:0:0:0:
36,192,5477,1,0,0:0:0:0:
182,192,5477,1,0,0:0:0:0:
329,192,5568,1,0,0:0:0:0:
109,192,5568,1,0,0:0:0:0:
256,192,5568,1,0,0:0:0:0:
36,192,5658,1,0,0:0:0:0:
182,192,5658,1,0,0:0:0:0:
475,192,5748,1,0,0:0:0:0:
256,192,5748,1,0,0:0:0:0:
109,192,5748,1,0,0:0:0:0:
182,192,5839,1,0,0:0:0:0:
36,192,5839,1,0,0:0:0:0:
329,192,5930,1,0,0:0:0:0:
182,192,5930,1,0,0:0:0:0:
36,192,5930,1,0,0:0:0:0:
109,192,6020,1,0,0:0:0:0:
256,192,6020,1,0,0:0:0:0:
475,192,6111,1,0,0:0:0:0:
182,192,6111,1,0,0:0:0:0:
36,192,6111,1,0,0:0:0:0:
182,192,6202,1,0,0:0:0:0:
36,192,6202,1,0,0:0:0:0:
329,192,6292,1,0,0:0:0:0:
256,192,6382,1,0,0:0:0:0:
109,192,6382,1,0,0:0:0:0:
475,192,6472,1,0,0:0:0:0:
329,192,6563,1,0,0:0:0:0:
182,192,6563,1,0,0:0:0:0:
36,192,6563,1,0,0:0:0:0:
329,192,6744,1,0,0:0:0:0:
182,192,6744,1,0,0:0:0:0:
36,192,6744,1,0,0:0:0:0:
475,192,6835,1,0,0:0:0:0:
256,192,6925,1,0,0:0:0:0:
109,192,6925,1,0,0:0:0:0:
329,192,7015,1,0,0:0:0:0:
182,192,7015,1,0,0:0:0:0:
36,192,7015,1,0,0:0:0:0:
475,192,7197,1,0,0:0:0:0:
256,192,7197,1,0,0:0:0:0:
109,192,7197,1,0,0:0:0:0:
36,192,7378,1,0,0:0:0:0:
109,192,7378,1,0,0:0:0:0:
475,192,7378,1,0,0:0:0:0:
256,192,7378,1,0,0:0:0:0:
329,192,7378,1,0,0:0:0:0:
402,192,7468,1,0,0:0:0:0:
182,192,7468,1,0,0:0:0:0:
329,192,7558,1,0,0:0:0:0:
109,192,7558,1,0,0:0:0:0:
256,192,7649,1,0,0:0:0:0:
36,192,7649,1,0,0:0:0:0:
182,192,7740,1,0,0:0:0:0:
475,192,7740,1,0,0:0:0:0:
402,192,7740,1,0,0:0:0:0:
109,192,7830,1,0,0:0:0:0:
329,192,7830,1,0,0:0:0:0:
36,192,7921,1,0,0:0:0:0:
256,192,7921,1,0,0:0:0:0:
182,192,8011,1,0,0:0:0:0:
475,192,8011,1,0,0:0:0:0:
402,192,8011,1,0,0:0:0:0:
36,192,8102,1,0,0:0:0:0:
109,192,8102,1,0,0:0:0:0:
475,192,8192,1,0,0:0:0:0:
402,192,8192,1,0,0:0:0:0:
182,192,8192,1,0,0:0:0:0:
182,192,8373,1,0,0:0:0:0:
475,192,8373,1,0,0:0:0:0:
402,192,8373,1,0,0:0:0:0:
36,192,8464,1,0,0:0:0:0:
109,192,8464,1,0,0:0:0:0:
329,192,8464,1,0,0:0:0:0:
182,192,8554,1,0,0:0:0:0:
402,192,8554,1,0,0:0:0:0:
256,192,8645,1,0,0:0:0:0:
36,192,8645,1,0,0:0:0:0:
475,192,8645,1,0,0:0:0:0:
109,192,8735,1,0,0:0:0:0:
329,192,8735,1,0,0:0:0:0:
36,192,8825,1,0,0:0:0:0:
475,192,8825,1,0,0:0:0:0:
402,192,8825,1,0,0:0:0:0:
182,192,8825,1,0,0:0:0:0:
256,192,8825,1,0,0:0:0:0:
329,192,8916,1,0,0:0:0:0:
109,192,8916,1,0,0:0:0:0:
402,192,9007,1,0,0:0:0:0:
182,192,9007,1,0,0:0:0:0:
475,192,9097,1,0,0:0:0:0:
256,192,9097,1,0,0:0:0:0:
109,192,9188,1,0,0:0:0:0:
36,192,9188,1,0,0:0:0:0:
329,192,9188,1,0,0:0:0:0:
182,192,9278,1,0,0:0:0:0:
402,192,9278,1,0,0:0:0:0:
256,192,9368,1,0,0:0:0:0:
475,192,9368,1,0,0:0:0:0:
109,192,9459,1,0,0:0:0:0:
36,192,9459,1,0,0:0:0:0:
329,192,9459,1,0,0:0:0:0:
402,192,9549,1,0,0:0:0:0:
475,192,9549,1,0,0:0:0:0:
329,192,9640,1,0,0:0:0:0:
109,192,9640,1,0,0:0:0:0:
36,192,9640,1,0,0:0:0:0:
36,192,9821,1,0,0:0:0:0:
109,192,9821,1,0,0:0:0:0:
329,192,9821,1,0,0:0:0:0:
182,192,9912,1,0,0:0:0:0:
256,192,9912,1,0,0:0:0:0:
402,192,9912,1,0,0:0:0:0:
475,192,9912,1,0,0:0:0:0:
36,192,10092,1,0,0:0:0:0:
109,192,10092,1,0,0:0:0:0:
329,192,10092,1,0,0:0:0:0:
256,192,10274,1,0,0:0:0:0:
402,192,10274,1,0,0:0:0:0:
182,192,10274,1,0,0:0:0:0:
36,192,10274,1,0,0:0:0:0:
475,192,10274,1,0,0:0:0:0:
109,192,10364,1,0,0:0:0:0:
329,192,10364,1,0,0:0:0:0:
182,192,10455,1,0,0:0:0:0:
402,192,10455,1,0,0:0:0:0:
256,192,10545,1,0,0:0:0:0:
475,192,10545,1,0,0:0:0:0:
329,192,10635,1,0,0:0:0:0:
36,192,10635,1,0,0:0:0:0:
109,192,10635,1,0,0:0:0:0:
402,192,10726,1,0,0:0:0:0:
182,192,10726,1,0,0:0:0:0:
475,192,10817,1,0,0:0:0:0:
256,192,10817,1,0,0:0:0:0:
329,192,10907,1,0,0:0:0:0:
36,192,10907,1,0,0:0:0:0:
109,192,10907,1,0,0:0:0:0:
475,192,10998,1,0,0:0:0:0:
402,192,10998,1,0,0:0:0:0:
109,192,11088,1,0,0:0:0:0:
182,192,11088,1,0,0:0:0:0:
329,192,11088,1,0,0:0:0:0:
329,192,11269,1,0,0:0:0:0:
109,192,11269,1,0,0:0:0:0:
36,192,11269,1,0,0:0:0:0:
475,192,11359,1,0,0:0:0:0:
402,192,11359,1,0,0:0:0:0:
182,192,11359,1,0,0:0:0:0:
109,192,11450,1,0,0:0:0:0:
329,192,11450,1,0,0:0:0:0:
36,192,11541,1,0,0:0:0:0:
256,192,11541,1,0,0:0:0:0:
475,192,11541,1,0,0:0:0:0:
182,192,11631,1,0,0:0:0:0:
402,192,11631,1,0,0:0:0:0:
36,192,11722,1,0,0:0:0:0:
109,192,11722,1,0,0:0:0:0:
329,192,11722,1,0,0:0:0:0:
475,192,11722,1,0,0:0:0:0:
182,192,11812,1,0,0:0:0:0:
256,192,11812,1,0,0:0:0:0:
402,192,11812,1,0,0:0:0:0:
36,192,11902,1,0,0:0:0:0:
109,192,11902,1,0,0:0:0:0:
475,192,11902,1,0,0:0:0:0:
329,192,11902,1,0,0:0:0:0:
182,192,11993,1,0,0:0:0:0:
256,192,11993,1,0,0:0:0:0:
402,192,11993,1,0,0:0:0:0:
109,192,12174,1,0,0:0:0:0:
329,192,12174,1,0,0:0:0:0:
475,192,12174,1,0,0:0:0:0:
182,192,12174,1,0,0:0:0:0:
36,192,12355,1,0,0:0:0:0:
256,192,12355,1,0,0:0:0:0:
402,192,12355,1,0,0:0:0:0:
109,192,12355,1,0,0:0:0:0:
109,192,12536,1,0,0:0:0:0:
329,192,12536,1,0,0:0:0:0:
475,192,12536,1,0,0:0:0:0:
182,192,12536,1,0,0:0:0:0:
256,192,12717,1,0,0:0:0:0:
182,192,12717,1,0,0:0:0:0:
402,192,12717,1,0,0:0:0:0:
475,192,12808,1,0,0:0:0:0:
329,192,12808,1,0,0:0:0:0:
36,192,12808,1,0,0:0:0:0:
109,192,12808,1,0,0:0:0:0:
475,192,12988,1,0,0:0:0:0:
36,192,12988,1,0,0:0:0:0:
182,192,12988,1,0,0:0:0:0:
402,192,12988,1,0,0:0:0:0:
256,192,13079,1,0,0:0:0:0:
109,192,13079,1,0,0:0:0:0:
329,192,13079,1,0,0:0:0:0:
475,192,13169,1,0,0:0:0:0:
402,192,13169,1,0,0:0:0:0:
182,192,13169,1,0,0:0:0:0:
36,192,13169,1,0,0:0:0:0:
329,192,13260,1,0,0:0:0:0:
109,192,13260,1,0,0:0:0:0:
256,192,13351,1,0,0:0:0:0:
36,192,13351,1,0,0:0:0:0:
475,192,13351,1,0,0:0:0:0:
402,192,13441,1,0,0:0:0:0:
182,192,13441,1,0,0:0:0:0:
36,192,13532,1,0,0:0:0:0:
475,192,13532,1,0,0:0:0:0:
109,192,13532,1,0,0:0:0:0:
329,192,13532,1,0,0:0:0:0:
402,192,13622,1,0,0:0:0:0:
256,192,13622,1,0,0:0:0:0:
36,192,13712,1,0,0:0:0:0:
329,192,13712,1,0,0:0:0:0:
182,192,13712,1,0,0:0:0:0:
402,192,13803,1,0,0:0:0:0:
256,192,13803,1,0,0:0:0:0:
109,192,13894,1,0,0:0:0:0:
36,192,13894,1,0,0:0:0:0:
475,192,13894,1,0,0:0:0:0:
329,192,13894,1,0,0:0:0:0:
182,192,13984,1,0,0:0:0:0:
402,192,13984,1,0,0:0:0:0:
256,192,14075,1,0,0:0:0:0:
475,192,14075,1,0,0:0:0:0:
36,192,14075,1,0,0:0:0:0:
109,192,14165,1,0,0:0:0:0:
329,192,14165,1,0,0:0:0:0:
475,192,14255,1,0,0:0:0:0:
36,192,14255,1,0,0:0:0:0:
402,192,14255,1,0,0:0:0:0:
182,192,14255,1,0,0:0:0:0:
109,192,14346,1,0,0:0:0:0:
256,192,14346,1,0,0:0:0:0:
475,192,14436,1,0,0:0:0:0:
182,192,14436,1,0,0:0:0:0:
329,192,14436,1,0,0:0:0:0:
109,192,14527,1,0,0:0:0:0:
256,192,14527,1,0,0:0:0:0:
36,192,14618,1,0,0:0:0:0:
182,192,14618,1,0,0:0:0:0:
475,192,14618,1,0,0:0:0:0:
402,192,14618,1,0,0:0:0:0:
109,192,14708,1,0,0:0:0:0:
329,192,14708,1,0,0:0:0:0:
36,192,14798,1,0,0:0:0:0:
182,192,14798,1,0,0:0:0:0:
256,192,14798,1,0,0:0:0:0:
475,192,14798,1,0,0:0:0:0:
109,192,14889,1,0,0:0:0:0:
402,192,14889,1,0,0:0:0:0:
36,192,14979,1,0,0:0:0:0:
182,192,14979,1,0,0:0:0:0:
329,192,14979,1,0,0:0:0:0:
256,192,14979,1,0,0:0:0:0:
109,192,15070,1,0,0:0:0:0:
475,192,15070,1,0,0:0:0:0:
36,192,15161,1,0,0:0:0:0:
182,192,15161,1,0,0:0:0:0:
256,192,15161,1,0,0:0:0:0:
329,192,15161,1,0,0:0:0:0:
109,192,15251,1,0,0:0:0:0:
402,192,15251,1,0,0:0:0:0:
329,192,15342,1,0,0:0:0:0:
475,192,15342,1,0,0:0:0:0:
182,192,15342,1,0,0:0:0:0:
256,192,15342,1,0,0:0:0:0:
402,192,15432,1,0,0:0:0:0:
109,192,15432,1,0,0:0:0:0:
475,192,15522,1,0,0:0:0:0:
329,192,15522,1,0,0:0:0:0:
256,192,15522,1,0,0:0:0:0:
36,192,15522,1,0,0:0:0:0:
402,192,15613,1,0,0:0:0:0:
182,192,15613,1,0,0:0:0:0:
109,192,15613,1,0,0:0:0:0:
475,192,15703,1,0,0:0:0:0:
329,192,15703,1,0,0:0:0:0:
256,192,15703,1,0,0:0:0:0:
36,192,15703,1,0,0:0:0:0:
402,192,15794,1,0,0:0:0:0:
182,192,15794,1,0,0:0:0:0:
329,192,15885,1,0,0:0:0:0:
475,192,15885,1,0,0:0:0:0:
36,192,15885,1,0,0:0:0:0:
109,192,15885,1,0,0:0:0:0:
402,192,15975,1,0,0:0:0:0:
182,192,15975,1,0,0:0:0:0:
475,192,16065,1,0,0:0:0:0:
329,192,16065,1,0,0:0:0:0:
36,192,16065,1,0,0:0:0:0:
256,192,16065,1,0,0:0:0:0:
109,192,16156,1,0,0:0:0:0:
182,192,16156,1,0,0:0:0:0:
402,192,16156,1,0,0:0:0:0:
36,192,16246,1,0,0:0:0:0:
329,192,16246,1,0,0:0:0:0:
256,192,16246,1,0,0:0:0:0:
475,192,16246,1,0,0:0:0:0:
109,192,16337,1,0,0:0:0:0:
182,192,16337,1,0,0:0:0:0:
402,192,16337,1,0,0:0:0:0:
36,192,16428,1,0,0:0:0:0:
256,192,16428,1,0,0:0:0:0:
329,192,16428,1,0,0:0:0:0:
475,192,16428,1,0,0:0:0:0:
402,192,16518,1,0,0:0:0:0:
109,192,16518,1,0,0:0:0:0:
256,192,16608,1,0,0:0:0:0:
182,192,16608,1,0,0:0:0:0:
329,192,16608,1,0,0:0:0:0:
109,192,16699,1,0,0:0:0:0:
402,192,16699,1,0,0:0:0:0:
256,192,16789,1,0,0:0:0:0:
182,192,16789,1,0,0:0:0:0:
36,192,16789,1,0,0:0:0:0:
475,192,16789,1,0,0:0:0:0:
109,192,16880,1,0,0:0:0:0:
329,192,16880,1,0,0:0:0:0:
402,192,16880,1,0,0:0:0:0:
36,192,16971,1,0,0:0:0:0:
182,192,16971,1,0,0:0:0:0:
256,192,16971,1,0,0:0:0:0:
475,192,16971,1,0,0:0:0:0:
402,192,17061,1,0,0:0:0:0:
329,192,17061,1,0,0:0:0:0:
109,192,17061,1,0,0:0:0:0:
36,192,17152,1,0,0:0:0:0:
182,192,17152,1,0,0:0:0:0:
256,192,17152,1,0,0:0:0:0:
475,192,17152,1,0,0:0:0:0:
109,192,17242,1,0,0:0:0:0:
402,192,17242,1,0,0:0:0:0:
182,192,17332,1,0,0:0:0:0:
256,192,17332,1,0,0:0:0:0:
329,192,17332,1,0,0:0:0:0:
109,192,17423,1,0,0:0:0:0:
402,192,17423,1,0,0:0:0:0:
36,192,17513,1,0,0:0:0:0:
182,192,17513,1,0,0:0:0:0:
256,192,17513,1,0,0:0:0:0:
475,192,17513,1,0,0:0:0:0:
109,192,17604,1,0,0:0:0:0:
329,192,17604,1,0,0:0:0:0:
182,192,17695,1,0,0:0:0:0:
475,192,17695,1,0,0:0:0:0:
402,192,17695,1,0,0:0:0:0:
36,192,17785,1,0,0:0:0:0:
256,192,17785,1,0,0:0:0:0:
109,192,17875,1,0,0:0:0:0:
329,192,17875,1,0,0:0:0:0:
475,192,17875,1,0,0:0:0:0:
182,192,17966,1,0,0:0:0:0:
402,192,17966,1,0,0:0:0:0:
36,192,18056,1,0,0:0:0:0:
256,192,18056,1,0,0:0:0:0:
475,192,18056,1,0,0:0:0:0:
109,192,18147,1,0,0:0:0:0:
329,192,18147,1,0,0:0:0:0:
182,192,18238,1,0,0:0:0:0:
402,192,18238,1,0,0:0:0:0:
475,192,18238,1,0,0:0:0:0:
36,192,18238,1,0,0:0:0:0:
256,192,18328,1,0,0:0:0:0:
329,192,18328,1,0,0:0:0:0:
109,192,18418,1,0,0:0:0:0:
36,192,18418,1,0,0:0:0:0:
475,192,18418,1,0,0:0:0:0:
402,192,18418,1,0,0:0:0:0:
182,192,18509,1,0,0:0:0:0:
256,192,18509,1,0,0:0:0:0:
36,192,18599,1,0,0:0:0:0:
109,192,18599,1,0,0:0:0:0:
402,192,18599,1,0,0:0:0:0:
475,192,18599,1,0,0:0:0:0:
256,192,18690,1,0,0:0:0:0:
329,192,18690,1,0,0:0:0:0:
109,192,18780,1,0,0:0:0:0:
36,192,18780,1,0,0:0:0:0:
475,192,18780,1,0,0:0:0:0:
402,192,18780,1,0,0:0:0:0:
182,192,18871,1,0,0:0:0:0:
256,192,18871,1,0,0:0:0:0:
36,192,18962,1,0,0:0:0:0:
109,192,18962,1,0,0:0:0:0:
475,192,18962,1,0,0:0:0:0:
329,192,18962,1,0,0:0:0:0:
182,192,19052,1,0,0:0:0:0:
402,192,19052,1,0,0:0:0:0:
36,192,19142,1,0,0:0:0:0:
256,192,19142,1,0,0:0:0:0:
475,192,19142,1,0,0:0:0:0:
109,192,19233,1,0,0:0:0:0:
329,192,19233,1,0,0:0:0:0:
36,192,19323,1,0,0:0:0:0:
182,192,19323,1,0,0:0:0:0:
256,192,19323,1,0,0:0:0:0:
402,192,19323,1,0,0:0:0:0:
475,192,19323,1,0,0:0:0:0:
109,192,19414,1,0,0:0:0:0:
329,192,19414,1,0,0:0:0:0:
36,192,19505,1,0,0:0:0:0:
256,192,19505,1,0,0:0:0:0:
475,192,19505,1,0,0:0:0:0:
182,192,19595,1,0,0:0:0:0:
402,192,19595,1,0,0:0:0:0:
36,192,19685,1,0,0:0:0:0:
109,192,19685,1,0,0:0:0:0:
256,192,19685,1,0,0:0:0:0:
475,192,19685,1,0,0:0:0:0:
329,192,19745,1,0,0:0:0:0:
182,192,19745,1,0,0:0:0:0:
402,192,19806,1,0,0:0:0:0:
109,192,19806,1,0,0:0:0:0:
36,192,19866,1,0,0:0:0:0:
256,192,19866,1,0,0:0:0:0:
475,192,19866,1,0,0:0:0:0:
329,192,19957,1,0,0:0:0:0:
182,192,19957,1,0,0:0:0:0:
36,192,20048,1,0,0:0:0:0:
475,192,20048,1,0,0:0:0:0:
109,192,20048,1,0,0:0:0:0:
402,192,20048,1,0,0:0:0:0:
182,192,20138,1,0,0:0:0:0:
329,192,20138,1,0,0:0:0:0:
256,192,20228,1,0,0:0:0:0:
36,192,20228,1,0,0:0:0:0:
475,192,20228,1,0,0:0:0:0:
109,192,20318,1,0,0:0:0:0:
402,192,20318,1,0,0:0:0:0:
36,192,20409,1,0,0:0:0:0:
182,192,20409,1,0,0:0:0:0:
256,192,20409,1,0,0:0:0:0:
475,192,20409,1,0,0:0:0:0:
329,192,20409,1,0,0:0:0:0:
109,192,20500,1,0,0:0:0:0:
402,192,20500,1,0,0:0:0:0:
36,192,20590,1,0,0:0:0:0:
256,192,20590,1,0,0:0:0:0:
475,192,20590,1,0,0:0:0:0:
182,192,20681,1,0,0:0:0:0:
402,192,20681,1,0,0:0:0:0:
109,192,20772,1,0,0:0:0:0:
36,192,20772,1,0,0:0:0:0:
256,192,20772,1,0,0:0:0:0:
475,192,20772,1,0,0:0:0:0:
329,192,20772,1,0,0:0:0:0:
182,192,20862,1,0,0:0:0:0:
402,192,20862,1,0,0:0:0:0:
36,192,20952,1,0,0:0:0:0:
256,192,20952,1,0,0:0:0:0:
475,192,20952,1,0,0:0:0:0:
109,192,21043,1,0,0:0:0:0:
329,192,21043,1,0,0:0:0:0:
36,192,21133,1,0,0:0:0:0:
475,192,21133,1,0,0:0:0:0:
402,192,21133,1,0,0:0:0:0:
182,192,21133,1,0,0:0:0:0:
329,192,21224,1,0,0:0:0:0:
109,192,21224,1,0,0:0:0:0:
475,192,21315,1,0,0:0:0:0:
36,192,21315,1,0,0:0:0:0:
402,192,21315,1,0,0:0:0:0:
256,192,21315,1,0,0:0:0:0:
329,192,21405,1,0,0:0:0:0:
182,192,21405,1,0,0:0:0:0:
109,192,21405,1,0,0:0:0:0:
36,192,21495,1,0,0:0:0:0:
256,192,21495,1,0,0:0:0:0:
402,192,21495,1,0,0:0:0:0:
475,192,21495,1,0,0:0:0:0:
182,192,21586,1,0,0:0:0:0:
329,192,21586,1,0,0:0:0:0:
256,192,21676,1,0,0:0:0:0:
36,192,21676,1,0,0:0:0:0:
475,192,21676,1,0,0:0:0:0:
109,192,21767,1,0,0:0:0:0:
402,192,21767,1,0,0:0:0:0:
36,192,21857,1,0,0:0:0:0:
182,192,21857,1,0,0:0:0:0:
475,192,21857,1,0,0:0:0:0:
256,192,21857,1,0,0:0:0:0:
109,192,21948,1,0,0:0:0:0:
329,192,21948,1,0,0:0:0:0:
182,192,22038,1,0,0:0:0:0:
402,192,22038,1,0,0:0:0:0:
475,192,22038,1,0,0:0:0:0:
36,192,22128,1,0,0:0:0:0:
256,192,22128,1,0,0:0:0:0:
109,192,22219,1,0,0:0:0:0:
329,192,22219,1,0,0:0:0:0:
475,192,22219,1,0,0:0:0:0:
182,192,22310,1,0,0:0:0:0:
402,192,22310,1,0,0:0:0:0:
36,192,22400,1,0,0:0:0:0:
256,192,22400,1,0,0:0:0:0:
475,192,22400,1,0,0:0:0:0:
109,192,22491,1,0,0:0:0:0:
329,192,22491,1,0,0:0:0:0:
36,192,22582,1,0,0:0:0:0:
182,192,22582,1,0,0:0:0:0:
402,192,22582,1,0,0:0:0:0:
109,192,22672,1,0,0:0:0:0:
256,192,22672,1,0,0:0:0:0:
475,192,22672,1,0,0:0:0:0:
36,192,22762,1,0,0:0:0:0:
182,192,22762,1,0,0:0:0:0:
329,192,22762,1,0,0:0:0:0:
109,192,22853,1,0,0:0:0:0:
256,192,22853,1,0,0:0:0:0:
475,192,22853,1,0,0:0:0:0:
36,192,22943,1,0,0:0:0:0:
182,192,22943,1,0,0:0:0:0:
402,192,22943,1,0,0:0:0:0:
109,192,23034,1,0,0:0:0:0:
329,192,23034,1,0,0:0:0:0:
475,192,23034,1,0,0:0:0:0:
36,192,23125,1,0,0:0:0:0:
402,192,23125,1,0,0:0:0:0:
256,192,23125,1,0,0:0:0:0:
182,192,23215,1,0,0:0:0:0:
329,192,23215,1,0,0:0:0:0:
475,192,23215,1,0,0:0:0:0:
36,192,23305,1,0,0:0:0:0:
109,192,23305,1,0,0:0:0:0:
256,192,23305,1,0,0:0:0:0:
402,192,23305,1,0,0:0:0:0:
36,192,23395,1,0,0:0:0:0:
36,192,23577,1,0,0:0:0:0:
36,192,23758,1,0,0:0:0:0:
36,192,23938,1,0,0:0:0:0:
182,192,23938,1,0,0:0:0:0:
36,192,24029,1,0,0:0:0:0:
109,192,24029,1,0,0:0:0:0:
256,192,24029,1,0,0:0:0:0:
475,192,24029,1,0,0:0:0:0:
402,192,24029,1,0,0:0:0:0:
182,192,24482,1,0,0:0:0:0:
329,192,24482,1,0,0:0:0:0:
182,192,24663,1,0,0:0:0:0:
329,192,24663,1,0,0:0:0:0:
36,192,24753,1,0,0:0:0:0:
109,192,24753,1,0,0:0:0:0:
256,192,24753,1,0,0:0:0:0:
475,192,24753,1,0,0:0:0:0:
402,192,24753,1,0,0:0:0:0:
182,192,24844,1,0,0:0:0:0:
329,192,24844,1,0,0:0:0:0:
36,192,24934,1,0,0:0:0:0:
256,192,24934,1,0,0:0:0:0:
402,192,24934,1,0,0:0:0:0:
475,192,24934,1,0,0:0:0:0:
109,192,25025,1,0,0:0:0:0:
329,192,25025,1,0,0:0:0:0:
36,192,25115,1,0,0:0:0:0:
182,192,25115,1,0,0:0:0:0:
475,192,25115,1,0,0:0:0:0:
402,192,25115,1,0,0:0:0:0:
329,192,25205,1,0,0:0:0:0:
256,192,25205,1,0,0:0:0:0:
36,192,25296,1,0,0:0:0:0:
109,192,25296,1,0,0:0:0:0:
182,192,25296,1,0,0:0:0:0:
475,192,25296,1,0,0:0:0:0:
329,192,25387,1,0,0:0:0:0:
402,192,25387,1,0,0:0:0:0:
36,192,25477,1,0,0:0:0:0:
109,192,25477,1,0,0:0:0:0:
256,192,25477,1,0,0:0:0:0:
475,192,25477,1,0,0:0:0:0:
182,192,25568,1,0,0:0:0:0:
329,192,25568,1,0,0:0:0:0:
36,192,25658,1,0,0:0:0:0:
109,192,25658,1,0,0:0:0:0:
475,192,25658,1,0,0:0:0:0:
256,192,25658,1,0,0:0:0:0:
182,192,25748,1,0,0:0:0:0:
402,192,25748,1,0,0:0:0:0:
36,192,25839,1,0,0:0:0:0:
109,192,25839,1,0,0:0:0:0:
329,192,25839,1,0,0:0:0:0:
475,192,25839,1,0,0:0:0:0:
182,192,25930,1,0,0:0:0:0:
256,192,25930,1,0,0:0:0:0:
329,192,26020,1,0,0:0:0:0:
475,192,26020,1,0,0:0:0:0:
402,192,26020,1,0,0:0:0:0:
36,192,26020,1,0,0:0:0:0:
109,192,26111,1,0,0:0:0:0:
182,192,26111,1,0,0:0:0:0:
36,192,26202,1,0,0:0:0:0:
256,192,26202,1,0,0:0:0:0:
475,192,26202,1,0,0:0:0:0:
402,192,26202,1,0,0:0:0:0:
109,192,26292,1,0,0:0:0:0:
329,192,26292,1,0,0:0:0:0:
402,192,26382,1,0,0:0:0:0:
475,192,26382,1,0,0:0:0:0:
36,192,26382,1,0,0:0:0:0:
182,192,26382,1,0,0:0:0:0:
256,192,26472,1,0,0:0:0:0:
109,192,26472,1,0,0:0:0:0:
402,192,26563,1,0,0:0:0:0:
475,192,26563,1,0,0:0:0:0:
36,192,26563,1,0,0:0:0:0:
182,192,26563,1,0,0:0:0:0:
329,192,26563,1,0,0:0:0:0:
109,192,26654,1,0,0:0:0:0:
36,192,26744,1,0,0:0:0:0:
475,192,26744,1,0,0:0:0:0:
402,192,26744,1,0,0:0:0:0:
256,192,26744,1,0,0:0:0:0:
182,192,26835,1,0,0:0:0:0:
329,192,26835,1,0,0:0:0:0:
36,192,26925,1,0,0:0:0:0:
256,192,26925,1,0,0:0:0:0:
475,192,26925,1,0,0:0:0:0:
109,192,26925,1,0,0:0:0:0:
329,192,27015,1,0,0:0:0:0:
182,192,27015,1,0,0:0:0:0:
256,192,27106,1,0,0:0:0:0:
402,192,27106,1,0,0:0:0:0:
475,192,27106,1,0,0:0:0:0:
36,192,27106,1,0,0:0:0:0:
182,192,27197,1,0,0:0:0:0:
109,192,27287,1,0,0:0:0:0:
329,192,27287,1,0,0:0:0:0:
475,192,27287,1,0,0:0:0:0:
36,192,27287,1,0,0:0:0:0:
256,192,27378,1,0,0:0:0:0:
182,192,27378,1,0,0:0:0:0:
36,192,27468,1,0,0:0:0:0:
475,192,27468,1,0,0:0:0:0:
402,192,27468,1,0,0:0:0:0:
109,192,27468,1,0,0:0:0:0:
256,192,27558,1,0,0:0:0:0:
329,192,27558,1,0,0:0:0:0:
36,192,27649,1,0,0:0:0:0:
402,192,27649,1,0,0:0:0:0:
475,192,27649,1,0,0:0:0:0:
182,192,27649,1,0,0:0:0:0:
109,192,27740,1,0,0:0:0:0:
329,192,27740,1,0,0:0:0:0:
475,192,27830,1,0,0:0:0:0:
256,192,27830,1,0,0:0:0:0:
36,192,27830,1,0,0:0:0:0:
402,192,27830,1,0,0:0:0:0:
329,192,27921,1,0,0:0:0:0:
182,192,27921,1,0,0:0:0:0:
475,192,28011,1,0,0:0:0:0:
402,192,28011,1,0,0:0:0:0:
256,192,28011,1,0,0:0:0:0:
36,192,28011,1,0,0:0:0:0:
109,192,28102,1,0,0:0:0:0:
182,192,28102,1,0,0:0:0:0:
36,192,28192,1,0,0:0:0:0:
475,192,28192,1,0,0:0:0:0:
402,192,28192,1,0,0:0:0:0:
329,192,28192,1,0,0:0:0:0:
182,192,28282,1,0,0:0:0:0:
256,192,28282,1,0,0:0:0:0:
36,192,28373,1,0,0:0:0:0:
475,192,28373,1,0,0:0:0:0:
109,192,28373,1,0,0:0:0:0:
329,192,28373,1,0,0:0:0:0:
182,192,28464,1,0,0:0:0:0:
402,192,28464,1,0,0:0:0:0:
475,192,28554,1,0,0:0:0:0:
109,192,28554,1,0,0:0:0:0:
36,192,28554,1,0,0:0:0:0:
256,192,28554,1,0,0:0:0:0:
329,192,28645,1,0,0:0:0:0:
182,192,28645,1,0,0:0:0:0:
256,192,28735,1,0,0:0:0:0:
475,192,28735,1,0,0:0:0:0:
36,192,28735,1,0,0:0:0:0:
109,192,28735,1,0,0:0:0:0:
329,192,28825,1,0,0:0:0:0:
402,192,28825,1,0,0:0:0:0:
109,192,28916,1,0,0:0:0:0:
182,192,28916,1,0,0:0:0:0:
475,192,28916,1,0,0:0:0:0:
36,192,28916,1,0,0:0:0:0:
256,192,29007,1,0,0:0:0:0:
329,192,29007,1,0,0:0:0:0:
402,192,29097,1,0,0:0:0:0:
182,192,29097,1,0,0:0:0:0:
475,192,29097,1,0,0:0:0:0:
36,192,29097,1,0,0:0:0:0:
329,192,29188,1,0,0:0:0:0:
256,192,29188,1,0,0:0:0:0:
36,192,29278,1,0,0:0:0:0:
182,192,29278,1,0,0:0:0:0:
402,192,29278,1,0,0:0:0:0:
475,192,29278,1,0,0:0:0:0:
109,192,29368,1,0,0:0:0:0:
256,192,29368,1,0,0:0:0:0:
182,192,29459,1,0,0:0:0:0:
329,192,29459,1,0,0:0:0:0:
36,192,29459,1,0,0:0:0:0:
402,192,29459,1,0,0:0:0:0:
475,192,29459,1,0,0:0:0:0:
109,192,29549,1,0,0:0:0:0:
402,192,29640,1,0,0:0:0:0:
256,192,29640,1,0,0:0:0:0:
36,192,29640,1,0,0:0:0:0:
475,192,29640,1,0,0:0:0:0:
329,192,29731,1,0,0:0:0:0:
182,192,29731,1,0,0:0:0:0:
475,192,29821,1,0,0:0:0:0:
109,192,29821,1,0,0:0:0:0:
36,192,29821,1,0,0:0:0:0:
256,192,29821,1,0,0:0:0:0:
182,192,29912,1,0,0:0:0:0:
329,192,29912,1,0,0:0:0:0:
475,192,30002,1,0,0:0:0:0:
36,192,30002,1,0,0:0:0:0:
256,192,30002,1,0,0:0:0:0:
402,192,30002,1,0,0:0:0:0:
182,192,30092,1,0,0:0:0:0:
475,192,30183,1,0,0:0:0:0:
36,192,30183,1,0,0:0:0:0:
109,192,30183,1,0,0:0:0:0:
329,192,30183,1,0,0:0:0:0:
182,192,30274,1,0,0:0:0:0:
256,192,30274,1,0,0:0:0:0:
109,192,30364,1,0,0:0:0:0:
36,192,30364,1,0,0:0:0:0:
475,192,30364,1,0,0:0:0:0:
402,192,30364,1,0,0:0:0:0:
256,192,30455,1,0,0:0:0:0:
329,192,30455,1,0,0:0:0:0:
36,192,30545,1,0,0:0:0:0:
109,192,30545,1,0,0:0:0:0:
402,192,30545,1,0,0:0:0:0:
475,192,30545,1,0,0:0:0:0:
329,192,30635,1,0,0:0:0:0:
182,192,30635,1,0,0:0:0:0:
402,192,30726,1,0,0:0:0:0:
475,192,30726,1,0,0:0:0:0:
36,192,30726,1,0,0:0:0:0:
256,192,30726,1,0,0:0:0:0:
329,192,30817,1,0,0:0:0:0:
109,192,30817,1,0,0:0:0:0:
475,192,30907,1,0,0:0:0:0:
402,192,30907,1,0,0:0:0:0:
36,192,30907,1,0,0:0:0:0:
182,192,30907,1,0,0:0:0:0:
256,192,30998,1,0,0:0:0:0:
329,192,30998,1,0,0:0:0:0:
182,192,31088,1,0,0:0:0:0:
475,192,31088,1,0,0:0:0:0:
36,192,31088,1,0,0:0:0:0:
109,192,31088,1,0,0:0:0:0:
402,192,31178,1,0,0:0:0:0:
329,192,31178,1,0,0:0:0:0:
256,192,31269,1,0,0:0:0:0:
475,192,31269,1,0,0:0:0:0:
36,192,31269,1,0,0:0:0:0:
109,192,31269,1,0,0:0:0:0:
329,192,31359,1,0,0:0:0:0:
182,192,31359,1,0,0:0:0:0:
475,192,31450,1,0,0:0:0:0:
256,192,31450,1,0,0:0:0:0:
36,192,31450,1,0,0:0:0:0:
109,192,31450,1,0,0:0:0:0:
402,192,31541,1,0,0:0:0:0:
182,192,31541,1,0,0:0:0:0:
329,192,31631,1,0,0:0:0:0:
475,192,31631,1,0,0:0:0:0:
36,192,31631,1,0,0:0:0:0:
109,192,31631,1,0,0:0:0:0:
256,192,31722,1,0,0:0:0:0:
182,192,31722,1,0,0:0:0:0:
402,192,31812,1,0,0:0:0:0:
36,192,31812,1,0,0:0:0:0:
329,192,31812,1,0,0:0:0:0:
475,192,31812,1,0,0:0:0:0:
182,192,31902,1,0,0:0:0:0:
109,192,31902,1,0,0:0:0:0:
475,192,31993,1,0,0:0:0:0:
402,192,31993,1,0,0:0:0:0:
36,192,31993,1,0,0:0:0:0:
256,192,31993,1,0,0:0:0:0:
329,192,32084,1,0,0:0:0:0:
109,192,32084,1,0,0:0:0:0:
36,192,32174,1,0,0:0:0:0:
182,192,32174,1,0,0:0:0:0:
402,192,32174,1,0,0:0:0:0:
475,192,32174,1,0,0:0:0:0:
109,192,32265,1,0,0:0:0:0:
256,192,32265,1,0,0:0:0:0:
182,192,32355,1,0,0:0:0:0:
329,192,32355,1,0,0:0:0:0:
36,192,32355,1,0,0:0:0:0:
402,192,32355,1,0,0:0:0:0:
475,192,32355,1,0,0:0:0:0:
109,192,32445,1,0,0:0:0:0:
402,192,32536,1,0,0:0:0:0:
256,192,32536,1,0,0:0:0:0:
36,192,32536,1,0,0:0:0:0:
475,192,32536,1,0,0:0:0:0:
329,192,32626,1,0,0:0:0:0:
182,192,32626,1,0,0:0:0:0:
475,192,32717,1,0,0:0:0:0:
109,192,32717,1,0,0:0:0:0:
36,192,32717,1,0,0:0:0:0:
256,192,32717,1,0,0:0:0:0:
182,192,32808,1,0,0:0:0:0:
329,192,32808,1,0,0:0:0:0:
475,192,32898,1,0,0:0:0:0:
36,192,32898,1,0,0:0:0:0:
256,192,32898,1,0,0:0:0:0:
402,192,32898,1,0,0:0:0:0:
109,192,32988,1,0,0:0:0:0:
475,192,33079,1,0,0:0:0:0:
329,192,33079,1,0,0:0:0:0:
182,192,33079,1,0,0:0:0:0:
402,192,33079,1,0,0:0:0:0:
36,192,33169,1,0,0:0:0:0:
109,192,33169,1,0,0:0:0:0:
182,192,33260,1,0,0:0:0:0:
329,192,33260,1,0,0:0:0:0:
256,192,33260,1,0,0:0:0:0:
475,192,33351,1,0,0:0:0:0:
402,192,33351,1,0,0:0:0:0:
36,192,33441,1,0,0:0:0:0:
109,192,33441,1,0,0:0:0:0:
182,192,33441,1,0,0:0:0:0:
329,192,33441,1,0,0:0:0:0:
256,192,33532,1,0,0:0:0:0:
402,192,33532,1,0,0:0:0:0:
36,192,33622,1,0,0:0:0:0:
475,192,33622,1,0,0:0:0:0:
329,192,33622,1,0,0:0:0:0:
109,192,33622,1,0,0:0:0:0:
182,192,33712,1,0,0:0:0:0:
402,192,33712,1,0,0:0:0:0:
475,192,33803,1,0,0:0:0:0:
256,192,33803,1,0,0:0:0:0:
36,192,33803,1,0,0:0:0:0:
109,192,33803,1,0,0:0:0:0:
329,192,33894,1,0,0:0:0:0:
402,192,33894,1,0,0:0:0:0:
109,192,33984,1,0,0:0:0:0:
36,192,33984,1,0,0:0:0:0:
475,192,33984,1,0,0:0:0:0:
182,192,33984,1,0,0:0:0:0:
256,192,34075,1,0,0:0:0:0:
329,192,34075,1,0,0:0:0:0:
36,192,34165,1,0,0:0:0:0:
402,192,34165,1,0,0:0:0:0:
475,192,34165,1,0,0:0:0:0:
182,192,34165,1,0,0:0:0:0:
109,192,34255,1,0,0:0:0:0:
256,192,34255,1,0,0:0:0:0:
182,192,34346,1,0,0:0:0:0:
402,192,34346,1,0,0:0:0:0:
475,192,34346,1,0,0:0:0:0:
36,192,34346,1,0,0:0:0:0:
109,192,34436,1,0,0:0:0:0:
329,192,34436,1,0,0:0:0:0:
475,192,34527,1,0,0:0:0:0:
402,192,34527,1,0,0:0:0:0:
36,192,34527,1,0,0:0:0:0:
256,192,34527,1,0,0:0:0:0:
182,192,34527,1,0,0:0:0:0:
109,192,34618,1,0,0:0:0:0:
36,192,34708,1,0,0:0:0:0:
329,192,34708,1,0,0:0:0:0:
402,192,34708,1,0,0:0:0:0:
475,192,34708,1,0,0:0:0:0:
182,192,34798,1,0,0:0:0:0:
256,192,34798,1,0,0:0:0:0:
36,192,34889,1,0,0:0:0:0:
329,192,34889,1,0,0:0:0:0:
475,192,34889,1,0,0:0:0:0:
109,192,34889,1,0,0:0:0:0:
182,192,34979,1,0,0:0:0:0:
36,192,35070,1,0,0:0:0:0:
256,192,35070,1,0,0:0:0:0:
475,192,35070,1,0,0:0:0:0:
182,192,35161,1,0,0:0:0:0:
402,192,35161,1,0,0:0:0:0:
36,192,35251,1,0,0:0:0:0:
475,192,35251,1,0,0:0:0:0:
109,192,35251,1,0,0:0:0:0:
329,192,35251,1,0,0:0:0:0:
182,192,35342,1,0,0:0:0:0:
402,192,35432,1,0,0:0:0:0:
256,192,35432,1,0,0:0:0:0:
36,192,35432,1,0,0:0:0:0:
109,192,35522,1,0,0:0:0:0:
182,192,35522,1,0,0:0:0:0:
329,192,35522,1,0,0:0:0:0:
475,192,35522,1,0,0:0:0:0:
182,192,35703,1,0,0:0:0:0:
256,192,35703,1,0,0:0:0:0:
402,192,35703,1,0,0:0:0:0:
36,192,35703,1,0,0:0:0:0:
475,192,35885,1,0,0:0:0:0:
109,192,35885,1,0,0:0:0:0:
256,192,35885,1,0,0:0:0:0:
36,192,35975,1,0,0:0:0:0:
402,192,35975,1,0,0:0:0:0:
182,192,35975,1,0,0:0:0:0:
329,192,35975,1,0,0:0:0:0:
36,192,36156,1,0,0:0:0:0:
109,192,36156,1,0,0:0:0:0:
402,192,36156,1,0,0:0:0:0:
475,192,36156,1,0,0:0:0:0:
329,192,36246,1,0,0:0:0:0:
182,192,36246,1,0,0:0:0:0:
36,192,36337,1,0,0:0:0:0:
256,192,36337,1,0,0:0:0:0:
402,192,36337,1,0,0:0:0:0:
475,192,36337,1,0,0:0:0:0:
109,192,36337,1,0,0:0:0:0:
182,192,36428,1,0,0:0:0:0:
329,192,36428,1,0,0:0:0:0:
109,192,36518,1,0,0:0:0:0:
36,192,36518,1,0,0:0:0:0:
256,192,36518,1,0,0:0:0:0:
475,192,36518,1,0,0:0:0:0:
402,192,36608,1,0,0:0:0:0:
36,192,36699,1,0,0:0:0:0:
182,192,36699,1,0,0:0:0:0:
329,192,36699,1,0,0:0:0:0:
256,192,36699,1,0,0:0:0:0:
109,192,36789,1,0,0:0:0:0:
475,192,36789,1,0,0:0:0:0:
36,192,36880,1,0,0:0:0:0:
182,192,36880,1,0,0:0:0:0:
402,192,36880,1,0,0:0:0:0:
256,192,36880,1,0,0:0:0:0:
329,192,36971,1,0,0:0:0:0:
109,192,36971,1,0,0:0:0:0:
36,192,37061,1,0,0:0:0:0:
256,192,37061,1,0,0:0:0:0:
475,192,37061,1,0,0:0:0:0:
109,192,37152,1,0,0:0:0:0:
329,192,37152,1,0,0:0:0:0:
182,192,37242,1,0,0:0:0:0:
402,192,37242,1,0,0:0:0:0:
475,192,37242,1,0,0:0:0:0:
36,192,37242,1,0,0:0:0:0:
256,192,37332,1,0,0:0:0:0:
329,192,37423,1,0,0:0:0:0:
402,192,37423,1,0,0:0:0:0:
109,192,37423,1,0,0:0:0:0:
36,192,37423,1,0,0:0:0:0:
182,192,37513,1,0,0:0:0:0:
36,192,37604,1,0,0:0:0:0:
329,192,37604,1,0,0:0:0:0:
256,192,37604,1,0,0:0:0:0:
475,192,37604,1,0,0:0:0:0:
182,192,37695,1,0,0:0:0:0:
475,192,37785,1,0,0:0:0:0:
36,192,37785,1,0,0:0:0:0:
109,192,37785,1,0,0:0:0:0:
329,192,37785,1,0,0:0:0:0:
256,192,37785,1,0,0:0:0:0:
182,192,37875,1,0,0:0:0:0:
402,192,37875,1,0,0:0:0:0:
109,192,37966,1,0,0:0:0:0:
36,192,37966,1,0,0:0:0:0:
256,192,37966,1,0,0:0:0:0:
475,192,37966,1,0,0:0:0:0:
329,192,38056,1,0,0:0:0:0:
36,192,38147,1,0,0:0:0:0:
182,192,38147,1,0,0:0:0:0:
402,192,38147,1,0,0:0:0:0:
475,192,38147,1,0,0:0:0:0:
109,192,38238,1,0,0:0:0:0:
256,192,38238,1,0,0:0:0:0:
36,192,38328,1,0,0:0:0:0:
182,192,38328,1,0,0:0:0:0:
329,192,38328,1,0,0:0:0:0:
475,192,38328,1,0,0:0:0:0:
402,192,38418,1,0,0:0:0:0:
109,192,38418,1,0,0:0:0:0:
36,192,38509,1,0,0:0:0:0:
475,192,38509,1,0,0:0:0:0:
256,192,38509,1,0,0:0:0:0:
109,192,38599,1,0,0:0:0:0:
329,192,38599,1,0,0:0:0:0:
182,192,38690,1,0,0:0:0:0:
402,192,38690,1,0,0:0:0:0:
475,192,38690,1,0,0:0:0:0:
36,192,38690,1,0,0:0:0:0:
256,192,38780,1,0,0:0:0:0:
329,192,38871,1,0,0:0:0:0:
402,192,38871,1,0,0:0:0:0:
109,192,38871,1,0,0:0:0:0:
36,192,38871,1,0,0:0:0:0:
182,192,38962,1,0,0:0:0:0:
256,192,39052,1,0,0:0:0:0:
36,192,39052,1,0,0:0:0:0:
475,192,39052,1,0,0:0:0:0:
329,192,39052,1,0,0:0:0:0:
182,192,39142,1,0,0:0:0:0:
109,192,39233,1,0,0:0:0:0:
36,192,39233,1,0,0:0:0:0:
256,192,39233,1,0,0:0:0:0:
475,192,39233,1,0,0:0:0:0:
329,192,39233,1,0,0:0:0:0:
182,192,39323,1,0,0:0:0:0:
402,192,39323,1,0,0:0:0:0:
109,192,39414,1,0,0:0:0:0:
36,192,39414,1,0,0:0:0:0:
256,192,39414,1,0,0:0:0:0:
329,192,39414,1,0,0:0:0:0:
475,192,39505,1,0,0:0:0:0:
36,192,39595,1,0,0:0:0:0:
182,192,39595,1,0,0:0:0:0:
402,192,39595,1,0,0:0:0:0:
256,192,39595,1,0,0:0:0:0:
109,192,39685,1,0,0:0:0:0:
329,192,39685,1,0,0:0:0:0:
36,192,39776,1,0,0:0:0:0:
182,192,39776,1,0,0:0:0:0:
256,192,39776,1,0,0:0:0:0:
475,192,39776,1,0,0:0:0:0:
402,192,39866,1,0,0:0:0:0:
109,192,39866,1,0,0:0:0:0:
36,192,39957,1,0,0:0:0:0:
256,192,39957,1,0,0:0:0:0:
329,192,39957,1,0,0:0:0:0:
475,192,39957,1,0,0:0:0:0:
182,192,40048,1,0,0:0:0:0:
36,192,40138,1,0,0:0:0:0:
109,192,40138,1,0,0:0:0:0:
329,192,40138,1,0,0:0:0:0:
475,192,40138,1,0,0:0:0:0:
256,192,40228,1,0,0:0:0:0:
36,192,40318,1,0,0:0:0:0:
182,192,40318,1,0,0:0:0:0:
402,192,40318,1,0,0:0:0:0:
475,192,40318,1,0,0:0:0:0:
256,192,40409,1,0,0:0:0:0:
329,192,40500,1,0,0:0:0:0:
475,192,40500,1,0,0:0:0:0:
36,192,40500,1,0,0:0:0:0:
109,192,40500,1,0,0:0:0:0:
182,192,40590,1,0,0:0:0:0:
402,192,40590,1,0,0:0:0:0:
36,192,40681,1,0,0:0:0:0:
256,192,40681,1,0,0:0:0:0:
475,192,40681,1,0,0:0:0:0:
109,192,40772,1,0,0:0:0:0:
329,192,40772,1,0,0:0:0:0:
402,192,40772,1,0,0:0:0:0:
182,192,40862,1,0,0:0:0:0:
256,192,40862,1,0,0:0:0:0:
475,192,40862,1,0,0:0:0:0:
36,192,40952,1,0,0:0:0:0:
109,192,40952,1,0,0:0:0:0:
329,192,40952,1,0,0:0:0:0:
402,192,41043,1,0,0:0:0:0:
475,192,41043,1,0,0:0:0:0:
182,192,41043,1,0,0:0:0:0:
256,192,41133,1,0,0:0:0:0:
329,192,41133,1,0,0:0:0:0:
36,192,41133,1,0,0:0:0:0:
109,192,41224,1,0,0:0:0:0:
182,192,41224,1,0,0:0:0:0:
475,192,41224,1,0,0:0:0:0:
36,192,41315,1,0,0:0:0:0:
329,192,41315,1,0,0:0:0:0:
256,192,41315,1,0,0:0:0:0:
402,192,41315,1,0,0:0:0:0:
182,192,41405,1,0,0:0:0:0:
36,192,41495,1,0,0:0:0:0:
109,192,41495,1,0,0:0:0:0:
329,192,41495,1,0,0:0:0:0:
182,192,41586,1,0,0:0:0:0:
256,192,41586,1,0,0:0:0:0:
475,192,41586,1,0,0:0:0:0:
329,192,41676,1,0,0:0:0:0:
402,192,41676,1,0,0:0:0:0:
109,192,41676,1,0,0:0:0:0:
475,192,41767,1,0,0:0:0:0:
36,192,41767,1,0,0:0:0:0:
256,192,41767,1,0,0:0:0:0:
182,192,41857,1,0,0:0:0:0:
329,192,41857,1,0,0:0:0:0:
475,192,41948,1,0,0:0:0:0:
36,192,41948,1,0,0:0:0:0:
109,192,41948,1,0,0:0:0:0:
402,192,41948,1,0,0:0:0:0:
182,192,42038,1,0,0:0:0:0:
329,192,42038,1,0,0:0:0:0:
109,192,42128,1,0,0:0:0:0:
36,192,42128,1,0,0:0:0:0:
256,192,42128,1,0,0:0:0:0:
475,192,42128,1,0,0:0:0:0:
402,192,42128,1,0,0:0:0:0:
329,192,42219,1,0,0:0:0:0:
182,192,42219,1,0,0:0:0:0:
256,192,42310,1,0,0:0:0:0:
475,192,42310,1,0,0:0:0:0:
109,192,42310,1,0,0:0:0:0:
36,192,42310,1,0,0:0:0:0:
402,192,42400,1,0,0:0:0:0:
329,192,42491,1,0,0:0:0:0:
256,192,42491,1,0,0:0:0:0:
36,192,42491,1,0,0:0:0:0:
182,192,42491,1,0,0:0:0:0:
475,192,42582,1,0,0:0:0:0:
109,192,42582,1,0,0:0:0:0:
402,192,42672,1,0,0:0:0:0:
256,192,42672,1,0,0:0:0:0:
36,192,42672,1,0,0:0:0:0:
182,192,42672,1,0,0:0:0:0:
109,192,42762,1,0,0:0:0:0:
329,192,42762,1,0,0:0:0:0:
475,192,42853,1,0,0:0:0:0:
256,192,42853,1,0,0:0:0:0:
36,192,42853,1,0,0:0:0:0:
329,192,42943,1,0,0:0:0:0:
109,192,42943,1,0,0:0:0:0:
475,192,43034,1,0,0:0:0:0:
36,192,43034,1,0,0:0:0:0:
182,192,43034,1,0,0:0:0:0:
402,192,43034,1,0,0:0:0:0:
256,192,43125,1,0,0:0:0:0:
109,192,43215,1,0,0:0:0:0:
36,192,43215,1,0,0:0:0:0:
329,192,43215,1,0,0:0:0:0:
402,192,43215,1,0,0:0:0:0:
109,192,43395,1,0,0:0:0:0:
329,192,43395,1,0,0:0:0:0:
256,192,43395,1,0,0:0:0:0:
475,192,43395,1,0,0:0:0:0:
182,192,43486,1,0,0:0:0:0:
402,192,43486,1,0,0:0:0:0:
329,192,43577,1,0,0:0:0:0:
256,192,43577,1,0,0:0:0:0:
109,192,43577,1,0,0:0:0:0:
475,192,43577,1,0,0:0:0:0:
36,192,43577,1,0,0:0:0:0:
402,192,43667,1,0,0:0:0:0:
182,192,43667,1,0,0:0:0:0:
256,192,43758,1,0,0:0:0:0:
475,192,43758,1,0,0:0:0:0:
109,192,43758,1,0,0:0:0:0:
36,192,43758,1,0,0:0:0:0:
329,192,43848,1,0,0:0:0:0:
402,192,43938,1,0,0:0:0:0:
475,192,43938,1,0,0:0:0:0:
36,192,43938,1,0,0:0:0:0:
182,192,43938,1,0,0:0:0:0:
256,192,44029,1,0,0:0:0:0:
109,192,44029,1,0,0:0:0:0:
329,192,44120,1,0,0:0:0:0:
475,192,44120,1,0,0:0:0:0:
36,192,44120,1,0,0:0:0:0:
182,192,44120,1,0,0:0:0:0:
109,192,44210,1,0,0:0:0:0:
402,192,44210,1,0,0:0:0:0:
256,192,44301,1,0,0:0:0:0:
475,192,44301,1,0,0:0:0:0:
36,192,44301,1,0,0:0:0:0:
329,192,44392,1,0,0:0:0:0:
109,192,44392,1,0,0:0:0:0:
475,192,44482,1,0,0:0:0:0:
36,192,44482,1,0,0:0:0:0:
182,192,44482,1,0,0:0:0:0:
402,192,44482,1,0,0:0:0:0:
109,192,44572,1,0,0:0:0:0:
329,192,44572,1,0,0:0:0:0:
36,192,44663,1,0,0:0:0:0:
256,192,44663,1,0,0:0:0:0:
475,192,44663,1,0,0:0:0:0:
402,192,44753,1,0,0:0:0:0:
182,192,44753,1,0,0:0:0:0:
109,192,44844,1,0,0:0:0:0:
329,192,44844,1,0,0:0:0:0:
36,192,44844,1,0,0:0:0:0:
256,192,44934,1,0,0:0:0:0:
182,192,44934,1,0,0:0:0:0:
402,192,44934,1,0,0:0:0:0:
36,192,45025,1,0,0:0:0:0:
475,192,45025,1,0,0:0:0:0:
329,192,45025,1,0,0:0:0:0:
109,192,45025,1,0,0:0:0:0:
182,192,45115,1,0,0:0:0:0:
256,192,45115,1,0,0:0:0:0:
36,192,45205,1,0,0:0:0:0:
109,192,45205,1,0,0:0:0:0:
402,192,45205,1,0,0:0:0:0:
475,192,45205,1,0,0:0:0:0:
329,192,45296,1,0,0:0:0:0:
36,192,45387,1,0,0:0:0:0:
182,192,45387,1,0,0:0:0:0:
256,192,45387,1,0,0:0:0:0:
475,192,45387,1,0,0:0:0:0:
109,192,45477,1,0,0:0:0:0:
402,192,45477,1,0,0:0:0:0:
36,192,45568,1,0,0:0:0:0:
182,192,45568,1,0,0:0:0:0:
329,192,45568,1,0,0:0:0:0:
256,192,45568,1,0,0:0:0:0:
402,192,45658,1,0,0:0:0:0:
256,192,45748,1,0,0:0:0:0:
182,192,45748,1,0,0:0:0:0:
109,192,45748,1,0,0:0:0:0:
475,192,45748,1,0,0:0:0:0:
36,192,45839,1,0,0:0:0:0:
329,192,45839,1,0,0:0:0:0:
109,192,45930,1,0,0:0:0:0:
182,192,45930,1,0,0:0:0:0:
402,192,45930,1,0,0:0:0:0:
475,192,45930,1,0,0:0:0:0:
256,192,46020,1,0,0:0:0:0:
475,192,46111,1,0,0:0:0:0:
36,192,46111,1,0,0:0:0:0:
182,192,46111,1,0,0:0:0:0:
329,192,46111,1,0,0:0:0:0:
109,192,46202,1,0,0:0:0:0:
402,192,46202,1,0,0:0:0:0:
475,192,46292,1,0,0:0:0:0:
36,192,46292,1,0,0:0:0:0:
182,192,46292,1,0,0:0:0:0:
256,192,46292,1,0,0:0:0:0:
402,192,46382,1,0,0:0:0:0:
36,192,46472,1,0,0:0:0:0:
109,192,46472,1,0,0:0:0:0:
329,192,46472,1,0,0:0:0:0:
256,192,46472,1,0,0:0:0:0:
182,192,46563,1,0,0:0:0:0:
475,192,46563,1,0,0:0:0:0:
109,192,46654,1,0,0:0:0:0:
36,192,46654,1,0,0:0:0:0:
256,192,46654,1,0,0:0:0:0:
402,192,46654,1,0,0:0:0:0:
329,192,46744,1,0,0:0:0:0:
36,192,46835,1,0,0:0:0:0:
256,192,46835,1,0,0:0:0:0:
182,192,46835,1,0,0:0:0:0:
475,192,46835,1,0,0:0:0:0:
109,192,46925,1,0,0:0:0:0:
402,192,46925,1,0,0:0:0:0:
256,192,47015,1,0,0:0:0:0:
36,192,47015,1,0,0:0:0:0:
182,192,47015,1,0,0:0:0:0:
329,192,47015,1,0,0:0:0:0:
402,192,47106,1,0,0:0:0:0:
256,192,47197,1,0,0:0:0:0:
109,192,47197,1,0,0:0:0:0:
182,192,47197,1,0,0:0:0:0:
475,192,47197,1,0,0:0:0:0:
36,192,47287,1,0,0:0:0:0:
329,192,47287,1,0,0:0:0:0:
402,192,47378,1,0,0:0:0:0:
109,192,47378,1,0,0:0:0:0:
182,192,47378,1,0,0:0:0:0:
475,192,47378,1,0,0:0:0:0:
256,192,47468,1,0,0:0:0:0:
36,192,47558,1,0,0:0:0:0:
182,192,47558,1,0,0:0:0:0:
329,192,47558,1,0,0:0:0:0:
475,192,47558,1,0,0:0:0:0:
109,192,47649,1,0,0:0:0:0:
402,192,47649,1,0,0:0:0:0:
36,192,47740,1,0,0:0:0:0:
182,192,47740,1,0,0:0:0:0:
256,192,47740,1,0,0:0:0:0:
475,192,47740,1,0,0:0:0:0:
329,192,47830,1,0,0:0:0:0:
402,192,47921,1,0,0:0:0:0:
475,192,47921,1,0,0:0:0:0:
36,192,47921,1,0,0:0:0:0:
109,192,47921,1,0,0:0:0:0:
182,192,47921,1,0,0:0:0:0:
256,192,48011,1,0,0:0:0:0:
329,192,48102,1,0,0:0:0:0:
402,192,48102,1,0,0:0:0:0:
475,192,48102,1,0,0:0:0:0:
36,192,48102,1,0,0:0:0:0:
109,192,48102,1,0,0:0:0:0:
182,192,48192,1,0,0:0:0:0:
256,192,48282,1,0,0:0:0:0:
329,192,48282,1,0,0:0:0:0:
402,192,48282,1,0,0:0:0:0:
475,192,48282,1,0,0:0:0:0:
36,192,48282,1,0,0:0:0:0:
182,192,48373,1,0,0:0:0:0:
36,192,48464,1,0,0:0:0:0:
109,192,48464,1,0,0:0:0:0:
402,192,48464,1,0,0:0:0:0:
475,192,48464,1,0,0:0:0:0:
329,192,48464,1,0,0:0:0:0:
256,192,48554,1,0,0:0:0:0:
182,192,48645,1,0,0:0:0:0:
109,192,48645,1,0,0:0:0:0:
36,192,48645,1,0,0:0:0:0:
402,192,48645,1,0,0:0:0:0:
475,192,48645,1,0,0:0:0:0:
256,192,48735,1,0,0:0:0:0:
36,192,48825,1,0,0:0:0:0:
475,192,48825,1,0,0:0:0:0:
109,192,48825,1,0,0:0:0:0:
182,192,48825,1,0,0:0:0:0:
402,192,48825,1,0,0:0:0:0:
329,192,48916,1,0,0:0:0:0:
182,192,49007,1,0,0:0:0:0:
109,192,49007,1,0,0:0:0:0:
36,192,49007,1,0,0:0:0:0:
256,192,49007,1,0,0:0:0:0:
475,192,49007,1,0,0:0:0:0:
329,192,49097,1,0,0:0:0:0:
402,192,49188,1,0,0:0:0:0:
475,192,49188,1,0,0:0:0:0:
36,192,49188,1,0,0:0:0:0:
109,192,49188,1,0,0:0:0:0:
182,192,49188,1,0,0:0:0:0:
256,192,49278,1,0,0:0:0:0:
36,192,49368,1,0,0:0:0:0:
329,192,49368,1,0,0:0:0:0:
402,192,49368,1,0,0:0:0:0:
475,192,49368,1,0,0:0:0:0:
109,192,49368,1,0,0:0:0:0:
36,192,49459,1,0,0:0:0:0:
182,192,49549,1,0,0:0:0:0:
329,192,49549,1,0,0:0:0:0:
36,192,49640,1,0,0:0:0:0:
182,192,49640,1,0,0:0:0:0:
329,192,49640,1,0,0:0:0:0:
256,192,49731,1,0,0:0:0:0:
402,192,49731,1,0,0:0:0:0:
36,192,49821,1,0,0:0:0:0:
329,192,49821,1,0,0:0:0:0:
475,192,49821,1,0,0:0:0:0:
182,192,50002,1,0,0:0:0:0:
329,192,50002,1,0,0:0:0:0:
36,192,50002,1,0,0:0:0:0:
36,192,50092,1,0,0:0:0:0:
109,192,50092,1,0,0:0:0:0:
256,192,50092,1,0,0:0:0:0:
475,192,50092,1,0,0:0:0:0:
402,192,50092,1,0,0:0:0:0:
182,192,50183,1,0,0:0:0:0:
329,192,50183,1,0,0:0:0:0:
109,192,50274,1,0,0:0:0:0:
36,192,50274,1,0,0:0:0:0:
402,192,50274,1,0,0:0:0:0:
475,192,50274,1,0,0:0:0:0:
182,192,50364,1,0,0:0:0:0:
329,192,50364,1,0,0:0:0:0:
256,192,50455,1,0,0:0:0:0:
36,192,50455,1,0,0:0:0:0:
475,192,50455,1,0,0:0:0:0:
109,192,50545,1,0,0:0:0:0:
402,192,50545,1,0,0:0:0:0:
182,192,50635,1,0,0:0:0:0:
256,192,50635,1,0,0:0:0:0:
329,192,50635,1,0,0:0:0:0:
109,192,50726,1,0,0:0:0:0:
402,192,50726,1,0,0:0:0:0:
36,192,50817,1,0,0:0:0:0:
475,192,50817,1,0,0:0:0:0:
329,192,50817,1,0,0:0:0:0:
256,192,50817,1,0,0:0:0:0:
182,192,50817,1,0,0:0:0:0:
402,192,50907,1,0,0:0:0:0:
109,192,50907,1,0,0:0:0:0:
475,192,50998,1,0,0:0:0:0:
256,192,50998,1,0,0:0:0:0:
36,192,50998,1,0,0:0:0:0:
182,192,51088,1,0,0:0:0:0:
402,192,51088,1,0,0:0:0:0:
109,192,51178,1,0,0:0:0:0:
36,192,51178,1,0,0:0:0:0:
329,192,51178,1,0,0:0:0:0:
475,192,51178,1,0,0:0:0:0:
182,192,51269,1,0,0:0:0:0:
256,192,51269,1,0,0:0:0:0:
402,192,51269,1,0,0:0:0:0:
475,192,51359,1,0,0:0:0:0:
36,192,51359,1,0,0:0:0:0:
329,192,51359,1,0,0:0:0:0:
109,192,51450,1,0,0:0:0:0:
182,192,51450,1,0,0:0:0:0:
402,192,51450,1,0,0:0:0:0:
256,192,51541,1,0,0:0:0:0:
329,192,51541,1,0,0:0:0:0:
36,192,51541,1,0,0:0:0:0:
475,192,51541,1,0,0:0:0:0:
109,192,51631,1,0,0:0:0:0:
182,192,51631,1,0,0:0:0:0:
36,192,51722,1,0,0:0:0:0:
329,192,51722,1,0,0:0:0:0:
402,192,51722,1,0,0:0:0:0:
475,192,51722,1,0,0:0:0:0:
182,192,51812,1,0,0:0:0:0:
256,192,51812,1,0,0:0:0:0:
36,192,51902,1,0,0:0:0:0:
109,192,51902,1,0,0:0:0:0:
402,192,51902,1,0,0:0:0:0:
475,192,51902,1,0,0:0:0:0:
256,192,51993,1,0,0:0:0:0:
329,192,51993,1,0,0:0:0:0:
36,192,52084,1,0,0:0:0:0:
109,192,52084,1,0,0:0:0:0:
182,192,52084,1,0,0:0:0:0:
475,192,52084,1,0,0:0:0:0:
402,192,52174,1,0,0:0:0:0:
329,192,52174,1,0,0:0:0:0:
36,192,52265,1,0,0:0:0:0:
109,192,52265,1,0,0:0:0:0:
475,192,52265,1,0,0:0:0:0:
256,192,52265,1,0,0:0:0:0:
182,192,52265,1,0,0:0:0:0:
329,192,52355,1,0,0:0:0:0:
402,192,52355,1,0,0:0:0:0:
475,192,52445,1,0,0:0:0:0:
182,192,52445,1,0,0:0:0:0:
109,192,52445,1,0,0:0:0:0:
36,192,52445,1,0,0:0:0:0:
256,192,52536,1,0,0:0:0:0:
329,192,52536,1,0,0:0:0:0:
36,192,52626,1,0,0:0:0:0:
402,192,52626,1,0,0:0:0:0:
475,192,52626,1,0,0:0:0:0:
109,192,52626,1,0,0:0:0:0:
182,192,52717,1,0,0:0:0:0:
256,192,52717,1,0,0:0:0:0:
329,192,52808,1,0,0:0:0:0:
402,192,52808,1,0,0:0:0:0:
475,192,52808,1,0,0:0:0:0:
36,192,52808,1,0,0:0:0:0:
109,192,52898,1,0,0:0:0:0:
182,192,52898,1,0,0:0:0:0:
36,192,52988,1,0,0:0:0:0:
256,192,52988,1,0,0:0:0:0:
329,192,52988,1,0,0:0:0:0:
475,192,52988,1,0,0:0:0:0:
182,192,53079,1,0,0:0:0:0:
402,192,53079,1,0,0:0:0:0:
36,192,53169,1,0,0:0:0:0:
109,192,53169,1,0,0:0:0:0:
329,192,53169,1,0,0:0:0:0:
182,192,53260,1,0,0:0:0:0:
256,192,53260,1,0,0:0:0:0:
402,192,53260,1,0,0:0:0:0:
36,192,53351,1,0,0:0:0:0:
329,192,53351,1,0,0:0:0:0:
109,192,53351,1,0,0:0:0:0:
475,192,53351,1,0,0:0:0:0:
182,192,53441,1,0,0:0:0:0:
402,192,53441,1,0,0:0:0:0:
256,192,53532,1,0,0:0:0:0:
36,192,53532,1,0,0:0:0:0:
475,192,53532,1,0,0:0:0:0:
109,192,53622,1,0,0:0:0:0:
402,192,53622,1,0,0:0:0:0:
36,192,53712,1,0,0:0:0:0:
182,192,53712,1,0,0:0:0:0:
475,192,53712,1,0,0:0:0:0:
329,192,53712,1,0,0:0:0:0:
109,192,53803,1,0,0:0:0:0:
256,192,53803,1,0,0:0:0:0:
36,192,53894,1,0,0:0:0:0:
182,192,53894,1,0,0:0:0:0:
402,192,53894,1,0,0:0:0:0:
475,192,53894,1,0,0:0:0:0:
109,192,53984,1,0,0:0:0:0:
256,192,53984,1,0,0:0:0:0:
329,192,53984,1,0,0:0:0:0:
36,192,54075,1,0,0:0:0:0:
475,192,54075,1,0,0:0:0:0:
182,192,54165,1,0,0:0:0:0:
256,192,54165,1,0,0:0:0:0:
402,192,54165,1,0,0:0:0:0:
329,192,54255,1,0,0:0:0:0:
475,192,54255,1,0,0:0:0:0:
36,192,54255,1,0,0:0:0:0:
109,192,54255,1,0,0:0:0:0:
402,192,54346,1,0,0:0:0:0:
182,192,54346,1,0,0:0:0:0:
109,192,54436,1,0,0:0:0:0:
36,192,54436,1,0,0:0:0:0:
256,192,54436,1,0,0:0:0:0:
475,192,54436,1,0,0:0:0:0:
182,192,54527,1,0,0:0:0:0:
402,192,54527,1,0,0:0:0:0:
36,192,54618,1,0,0:0:0:0:
109,192,54618,1,0,0:0:0:0:
329,192,54618,1,0,0:0:0:0:
475,192,54618,1,0,0:0:0:0:
402,192,54708,1,0,0:0:0:0:
182,192,54708,1,0,0:0:0:0:
256,192,54708,1,0,0:0:0:0:
475,192,54798,1,0,0:0:0:0:
36,192,54798,1,0,0:0:0:0:
329,192,54889,1,0,0:0:0:0:
256,192,54889,1,0,0:0:0:0:
109,192,54889,1,0,0:0:0:0:
36,192,54979,1,0,0:0:0:0:
402,192,54979,1,0,0:0:0:0:
182,192,54979,1,0,0:0:0:0:
475,192,54979,1,0,0:0:0:0:
109,192,55070,1,0,0:0:0:0:
329,192,55070,1,0,0:0:0:0:
36,192,55161,1,0,0:0:0:0:
475,192,55161,1,0,0:0:0:0:
256,192,55161,1,0,0:0:0:0:
182,192,55161,1,0,0:0:0:0:
109,192,55251,1,0,0:0:0:0:
329,192,55251,1,0,0:0:0:0:
182,192,55342,1,0,0:0:0:0:
402,192,55342,1,0,0:0:0:0:
36,192,55342,1,0,0:0:0:0:
475,192,55342,1,0,0:0:0:0:
109,192,55432,1,0,0:0:0:0:
256,192,55432,1,0,0:0:0:0:
36,192,55522,1,0,0:0:0:0:
182,192,55522,1,0,0:0:0:0:
329,192,55522,1,0,0:0:0:0:
475,192,55522,1,0,0:0:0:0:
402,192,55613,1,0,0:0:0:0:
256,192,55613,1,0,0:0:0:0:
36,192,55703,1,0,0:0:0:0:
475,192,55703,1,0,0:0:0:0:
329,192,55703,1,0,0:0:0:0:
109,192,55703,1,0,0:0:0:0:
402,192,55794,1,0,0:0:0:0:
182,192,55794,1,0,0:0:0:0:
36,192,55885,1,0,0:0:0:0:
475,192,55885,1,0,0:0:0:0:
109,192,55885,1,0,0:0:0:0:
256,192,55885,1,0,0:0:0:0:
182,192,55975,1,0,0:0:0:0:
329,192,55975,1,0,0:0:0:0:
36,192,56065,1,0,0:0:0:0:
109,192,56065,1,0,0:0:0:0:
402,192,56065,1,0,0:0:0:0:
475,192,56065,1,0,0:0:0:0:
182,192,56156,1,0,0:0:0:0:
329,192,56156,1,0,0:0:0:0:
36,192,56246,1,0,0:0:0:0:
256,192,56246,1,0,0:0:0:0:
475,192,56246,1,0,0:0:0:0:
109,192,56337,1,0,0:0:0:0:
402,192,56337,1,0,0:0:0:0:
329,192,56428,1,0,0:0:0:0:
182,192,56428,1,0,0:0:0:0:
256,192,56428,1,0,0:0:0:0:
109,192,56518,1,0,0:0:0:0:
402,192,56518,1,0,0:0:0:0:
329,192,56608,1,0,0:0:0:0:
256,192,56608,1,0,0:0:0:0:
36,192,56608,1,0,0:0:0:0:
475,192,56608,1,0,0:0:0:0:
109,192,56699,1,0,0:0:0:0:
182,192,56699,1,0,0:0:0:0:
36,192,56789,1,0,0:0:0:0:
475,192,56789,1,0,0:0:0:0:
329,192,56789,1,0,0:0:0:0:
402,192,56789,1,0,0:0:0:0:
256,192,56880,1,0,0:0:0:0:
182,192,56880,1,0,0:0:0:0:
402,192,56971,1,0,0:0:0:0:
109,192,56971,1,0,0:0:0:0:
36,192,56971,1,0,0:0:0:0:
475,192,56971,1,0,0:0:0:0:
329,192,57061,1,0,0:0:0:0:
256,192,57061,1,0,0:0:0:0:
36,192,57152,1,0,0:0:0:0:
109,192,57152,1,0,0:0:0:0:
182,192,57152,1,0,0:0:0:0:
475,192,57152,1,0,0:0:0:0:
402,192,57242,1,0,0:0:0:0:
329,192,57242,1,0,0:0:0:0:
36,192,57332,1,0,0:0:0:0:
109,192,57332,1,0,0:0:0:0:
475,192,57332,1,0,0:0:0:0:
256,192,57332,1,0,0:0:0:0:
182,192,57423,1,0,0:0:0:0:
402,192,57423,1,0,0:0:0:0:
36,192,57513,1,0,0:0:0:0:
109,192,57513,1,0,0:0:0:0:
329,192,57513,1,0,0:0:0:0:
475,192,57513,1,0,0:0:0:0:
182,192,57604,1,0,0:0:0:0:
256,192,57604,1,0,0:0:0:0:
402,192,57604,1,0,0:0:0:0:
36,192,57695,1,0,0:0:0:0:
109,192,57695,1,0,0:0:0:0:
329,192,57695,1,0,0:0:0:0:
256,192,57785,1,0,0:0:0:0:
475,192,57785,1,0,0:0:0:0:
36,192,57875,1,0,0:0:0:0:
402,192,57875,1,0,0:0:0:0:
182,192,57875,1,0,0:0:0:0:
109,192,57875,1,0,0:0:0:0:
329,192,57966,1,0,0:0:0:0:
256,192,57966,1,0,0:0:0:0:
402,192,58056,1,0,0:0:0:0:
475,192,58056,1,0,0:0:0:0:
36,192,58056,1,0,0:0:0:0:
182,192,58056,1,0,0:0:0:0:
329,192,58147,1,0,0:0:0:0:
109,192,58147,1,0,0:0:0:0:
475,192,58238,1,0,0:0:0:0:
402,192,58238,1,0,0:0:0:0:
182,192,58238,1,0,0:0:0:0:
36,192,58238,1,0,0:0:0:0:
329,192,58328,1,0,0:0:0:0:
256,192,58328,1,0,0:0:0:0:
109,192,58328,1,0,0:0:0:0:
475,192,58418,1,0,0:0:0:0:
402,192,58418,1,0,0:0:0:0:
182,192,58418,1,0,0:0:0:0:
256,192,58509,1,0,0:0:0:0:
36,192,58509,1,0,0:0:0:0:
475,192,58599,1,0,0:0:0:0:
109,192,58599,1,0,0:0:0:0:
329,192,58599,1,0,0:0:0:0:
402,192,58599,1,0,0:0:0:0:
182,192,58690,1,0,0:0:0:0:
256,192,58690,1,0,0:0:0:0:
109,192,58780,1,0,0:0:0:0:
36,192,58780,1,0,0:0:0:0:
475,192,58780,1,0,0:0:0:0:
329,192,58780,1,0,0:0:0:0:
182,192,58871,1,0,0:0:0:0:
402,192,58871,1,0,0:0:0:0:
36,192,58962,1,0,0:0:0:0:
256,192,58962,1,0,0:0:0:0:
475,192,58962,1,0,0:0:0:0:
109,192,59052,1,0,0:0:0:0:
329,192,59052,1,0,0:0:0:0:
182,192,59142,1,0,0:0:0:0:
402,192,59142,1,0,0:0:0:0:
475,192,59142,1,0,0:0:0:0:
36,192,59142,1,0,0:0:0:0:
109,192,59233,1,0,0:0:0:0:
329,192,59233,1,0,0:0:0:0:
36,192,59323,1,0,0:0:0:0:
256,192,59323,1,0,0:0:0:0:
475,192,59323,1,0,0:0:0:0:
402,192,59323,1,0,0:0:0:0:
182,192,59414,1,0,0:0:0:0:
329,192,59414,1,0,0:0:0:0:
36,192,59505,1,0,0:0:0:0:
475,192,59505,1,0,0:0:0:0:
109,192,59505,1,0,0:0:0:0:
256,192,59505,1,0,0:0:0:0:
182,192,59595,1,0,0:0:0:0:
402,192,59595,1,0,0:0:0:0:
36,192,59685,1,0,0:0:0:0:
109,192,59685,1,0,0:0:0:0:
329,192,59685,1,0,0:0:0:0:
475,192,59685,1,0,0:0:0:0:
182,192,59776,1,0,0:0:0:0:
256,192,59776,1,0,0:0:0:0:
402,192,59776,1,0,0:0:0:0:
36,192,59866,1,0,0:0:0:0:
475,192,59866,1,0,0:0:0:0:
329,192,59866,1,0,0:0:0:0:
109,192,59866,1,0,0:0:0:0:
182,192,59957,1,0,0:0:0:0:
402,192,59957,1,0,0:0:0:0:
256,192,60048,1,0,0:0:0:0:
475,192,60048,1,0,0:0:0:0:
36,192,60048,1,0,0:0:0:0:
109,192,60048,1,0,0:0:0:0:
329,192,60138,1,0,0:0:0:0:
182,192,60138,1,0,0:0:0:0:
36,192,60228,1,0,0:0:0:0:
402,192,60228,1,0,0:0:0:0:
256,192,60228,1,0,0:0:0:0:
475,192,60228,1,0,0:0:0:0:
109,192,60318,1,0,0:0:0:0:
182,192,60318,1,0,0:0:0:0:
329,192,60318,1,0,0:0:0:0:
36,192,60409,1,0,0:0:0:0:
256,192,60409,1,0,0:0:0:0:
402,192,60409,1,0,0:0:0:0:
475,192,60409,1,0,0:0:0:0:
109,192,60500,1,0,0:0:0:0:
329,192,60500,1,0,0:0:0:0:
182,192,60590,1,0,0:0:0:0:
36,192,60590,1,0,0:0:0:0:
475,192,60590,1,0,0:0:0:0:
402,192,60590,1,0,0:0:0:0:
109,192,60681,1,0,0:0:0:0:
256,192,60681,1,0,0:0:0:0:
36,192,60772,1,0,0:0:0:0:
182,192,60772,1,0,0:0:0:0:
329,192,60772,1,0,0:0:0:0:
109,192,60862,1,0,0:0:0:0:
256,192,60862,1,0,0:0:0:0:
402,192,60862,1,0,0:0:0:0:
36,192,60952,1,0,0:0:0:0:
475,192,60952,1,0,0:0:0:0:
182,192,60952,1,0,0:0:0:0:
329,192,60952,1,0,0:0:0:0:
256,192,61133,1,0,0:0:0:0:
475,192,61133,1,0,0:0:0:0:
36,192,61133,1,0,0:0:0:0:
109,192,61133,1,0,0:0:0:0:
182,192,61223,1,0,0:0:0:0:
402,192,61223,1,0,0:0:0:0:
329,192,61314,1,0,0:0:0:0:
109,192,61314,1,0,0:0:0:0:
36,192,61314,1,0,0:0:0:0:
256,192,61405,1,0,0:0:0:0:
182,192,61405,1,0,0:0:0:0:
36,192,61495,1,0,0:0:0:0:
329,192,61495,1,0,0:0:0:0:
475,192,61495,1,0,0:0:0:0:
402,192,61495,1,0,0:0:0:0:
109,192,61585,1,0,0:0:0:0:
182,192,61585,1,0,0:0:0:0:
36,192,61675,1,0,0:0:0:0:
256,192,61675,1,0,0:0:0:0:
475,192,61675,1,0,0:0:0:0:
109,192,61765,1,0,0:0:0:0:
329,192,61765,1,0,0:0:0:0:
182,192,61856,1,0,0:0:0:0:
475,192,61856,1,0,0:0:0:0:
402,192,61856,1,0,0:0:0:0:
256,192,61947,1,0,0:0:0:0:
329,192,61947,1,0,0:0:0:0:
36,192,62037,1,0,0:0:0:0:
182,192,62037,1,0,0:0:0:0:
475,192,62037,1,0,0:0:0:0:
109,192,62037,1,0,0:0:0:0:
329,192,62128,1,0,0:0:0:0:
256,192,62218,1,0,0:0:0:0:
475,192,62218,1,0,0:0:0:0:
109,192,62218,1,0,0:0:0:0:
36,192,62218,1,0,0:0:0:0:
182,192,62308,1,0,0:0:0:0:
402,192,62308,1,0,0:0:0:0:
475,192,62399,1,0,0:0:0:0:
109,192,62399,1,0,0:0:0:0:
329,192,62399,1,0,0:0:0:0:
36,192,62489,1,0,0:0:0:0:
256,192,62489,1,0,0:0:0:0:
475,192,62580,1,0,0:0:0:0:
182,192,62580,1,0,0:0:0:0:
402,192,62580,1,0,0:0:0:0:
109,192,62671,1,0,0:0:0:0:
329,192,62671,1,0,0:0:0:0:
36,192,62761,1,0,0:0:0:0:
256,192,62761,1,0,0:0:0:0:
402,192,62761,1,0,0:0:0:0:
475,192,62761,1,0,0:0:0:0:
182,192,62852,1,0,0:0:0:0:
109,192,62942,1,0,0:0:0:0:
329,192,62942,1,0,0:0:0:0:
402,192,62942,1,0,0:0:0:0:
36,192,62942,1,0,0:0:0:0:
256,192,63032,1,0,0:0:0:0:
182,192,63123,1,0,0:0:0:0:
109,192,63123,1,0,0:0:0:0:
402,192,63123,1,0,0:0:0:0:
475,192,63123,1,0,0:0:0:0:
329,192,63214,1,0,0:0:0:0:
36,192,63304,1,0,0:0:0:0:
256,192,63304,1,0,0:0:0:0:
402,192,63304,1,0,0:0:0:0:
475,192,63304,1,0,0:0:0:0:
109,192,63304,1,0,0:0:0:0:
256,192,63485,1,0,0:0:0:0:
475,192,63485,1,0,0:0:0:0:
36,192,63485,1,0,0:0:0:0:
109,192,63485,1,0,0:0:0:0:
182,192,63575,1,0,0:0:0:0:
402,192,63575,1,0,0:0:0:0:
329,192,63666,1,0,0:0:0:0:
109,192,63666,1,0,0:0:0:0:
36,192,63666,1,0,0:0:0:0:
256,192,63757,1,0,0:0:0:0:
182,192,63757,1,0,0:0:0:0:
36,192,63847,1,0,0:0:0:0:
329,192,63847,1,0,0:0:0:0:
475,192,63847,1,0,0:0:0:0:
402,192,63847,1,0,0:0:0:0:
109,192,63937,1,0,0:0:0:0:
182,192,63937,1,0,0:0:0:0:
36,192,64028,1,0,0:0:0:0:
256,192,64028,1,0,0:0:0:0:
475,192,64028,1,0,0:0:0:0:
109,192,64118,1,0,0:0:0:0:
329,192,64118,1,0,0:0:0:0:
182,192,64208,1,0,0:0:0:0:
475,192,64208,1,0,0:0:0:0:
402,192,64208,1,0,0:0:0:0:
256,192,64299,1,0,0:0:0:0:
329,192,64299,1,0,0:0:0:0:
36,192,64389,1,0,0:0:0:0:
182,192,64389,1,0,0:0:0:0:
475,192,64389,1,0,0:0:0:0:
109,192,64389,1,0,0:0:0:0:
329,192,64480,1,0,0:0:0:0:
256,192,64571,1,0,0:0:0:0:
475,192,64571,1,0,0:0:0:0:
109,192,64571,1,0,0:0:0:0:
36,192,64571,1,0,0:0:0:0:
182,192,64661,1,0,0:0:0:0:
402,192,64661,1,0,0:0:0:0:
475,192,64752,1,0,0:0:0:0:
109,192,64752,1,0,0:0:0:0:
329,192,64752,1,0,0:0:0:0:
36,192,64842,1,0,0:0:0:0:
256,192,64842,1,0,0:0:0:0:
475,192,64932,1,0,0:0:0:0:
182,192,64932,1,0,0:0:0:0:
402,192,64932,1,0,0:0:0:0:
109,192,65023,1,0,0:0:0:0:
329,192,65023,1,0,0:0:0:0:
36,192,65113,1,0,0:0:0:0:
402,192,65113,1,0,0:0:0:0:
475,192,65113,1,0,0:0:0:0:
256,192,65113,1,0,0:0:0:0:
182,192,65204,1,0,0:0:0:0:
329,192,65295,1,0,0:0:0:0:
475,192,65295,1,0,0:0:0:0:
109,192,65295,1,0,0:0:0:0:
36,192,65295,1,0,0:0:0:0:
256,192,65385,1,0,0:0:0:0:
402,192,65475,1,0,0:0:0:0:
36,192,65475,1,0,0:0:0:0:
182,192,65475,1,0,0:0:0:0:
475,192,65475,1,0,0:0:0:0:
329,192,65566,1,0,0:0:0:0:
402,192,65656,1,0,0:0:0:0:
475,192,65656,1,0,0:0:0:0:
36,192,65656,1,0,0:0:0:0:
109,192,65656,1,0,0:0:0:0:
256,192,65656,1,0,0:0:0:0:
182,192,65838,1,0,0:0:0:0:
36,192,65838,1,0,0:0:0:0:
402,192,65838,1,0,0:0:0:0:
475,192,65838,1,0,0:0:0:0:
109,192,65928,1,0,0:0:0:0:
329,192,65928,1,0,0:0:0:0:
36,192,66018,1,0,0:0:0:0:
256,192,66018,1,0,0:0:0:0:
475,192,66018,1,0,0:0:0:0:
182,192,66109,1,0,0:0:0:0:
402,192,66109,1,0,0:0:0:0:
36,192,66199,1,0,0:0:0:0:
109,192,66199,1,0,0:0:0:0:
329,192,66199,1,0,0:0:0:0:
475,192,66199,1,0,0:0:0:0:
256,192,66290,1,0,0:0:0:0:
109,192,66380,1,0,0:0:0:0:
182,192,66380,1,0,0:0:0:0:
402,192,66380,1,0,0:0:0:0:
475,192,66380,1,0,0:0:0:0:
329,192,66471,1,0,0:0:0:0:
182,192,66562,1,0,0:0:0:0:
256,192,66562,1,0,0:0:0:0:
475,192,66562,1,0,0:0:0:0:
36,192,66562,1,0,0:0:0:0:
402,192,66652,1,0,0:0:0:0:
329,192,66742,1,0,0:0:0:0:
475,192,66742,1,0,0:0:0:0:
109,192,66742,1,0,0:0:0:0:
36,192,66742,1,0,0:0:0:0:
329,192,66923,1,0,0:0:0:0:
475,192,66923,1,0,0:0:0:0:
109,192,66923,1,0,0:0:0:0:
36,192,66923,1,0,0:0:0:0:
402,192,67014,1,0,0:0:0:0:
182,192,67014,1,0,0:0:0:0:
475,192,67105,1,0,0:0:0:0:
256,192,67105,1,0,0:0:0:0:
36,192,67105,1,0,0:0:0:0:
329,192,67195,1,0,0:0:0:0:
109,192,67195,1,0,0:0:0:0:
475,192,67285,1,0,0:0:0:0:
402,192,67285,1,0,0:0:0:0:
182,192,67285,1,0,0:0:0:0:
36,192,67285,1,0,0:0:0:0:
256,192,67376,1,0,0:0:0:0:
402,192,67466,1,0,0:0:0:0:
329,192,67466,1,0,0:0:0:0:
109,192,67466,1,0,0:0:0:0:
36,192,67466,1,0,0:0:0:0:
182,192,67557,1,0,0:0:0:0:
329,192,67648,1,0,0:0:0:0:
256,192,67648,1,0,0:0:0:0:
36,192,67648,1,0,0:0:0:0:
475,192,67648,1,0,0:0:0:0:
109,192,67738,1,0,0:0:0:0:
182,192,67828,1,0,0:0:0:0:
36,192,67828,1,0,0:0:0:0:
402,192,67828,1,0,0:0:0:0:
475,192,67828,1,0,0:0:0:0:
109,192,67918,1,0,0:0:0:0:
329,192,67918,1,0,0:0:0:0:
475,192,68009,1,0,0:0:0:0:
256,192,68009,1,0,0:0:0:0:
36,192,68009,1,0,0:0:0:0:
182,192,68100,1,0,0:0:0:0:
402,192,68100,1,0,0:0:0:0:
36,192,68190,1,0,0:0:0:0:
109,192,68190,1,0,0:0:0:0:
329,192,68190,1,0,0:0:0:0:
182,192,68281,1,0,0:0:0:0:
256,192,68281,1,0,0:0:0:0:
475,192,68372,1,0,0:0:0:0:
36,192,68372,1,0,0:0:0:0:
109,192,68372,1,0,0:0:0:0:
329,192,68372,1,0,0:0:0:0:
402,192,68462,1,0,0:0:0:0:
182,192,68462,1,0,0:0:0:0:
36,192,68552,1,0,0:0:0:0:
256,192,68552,1,0,0:0:0:0:
475,192,68552,1,0,0:0:0:0:
329,192,68642,1,0,0:0:0:0:
109,192,68642,1,0,0:0:0:0:
475,192,68733,1,0,0:0:0:0:
402,192,68733,1,0,0:0:0:0:
182,192,68733,1,0,0:0:0:0:
329,192,68824,1,0,0:0:0:0:
256,192,68824,1,0,0:0:0:0:
36,192,68914,1,0,0:0:0:0:
475,192,68914,1,0,0:0:0:0:
402,192,68914,1,0,0:0:0:0:
182,192,68914,1,0,0:0:0:0:
329,192,69005,1,0,0:0:0:0:
109,192,69005,1,0,0:0:0:0:
36,192,69095,1,0,0:0:0:0:
475,192,69095,1,0,0:0:0:0:
182,192,69095,1,0,0:0:0:0:
256,192,69095,1,0,0:0:0:0:
109,192,69185,1,0,0:0:0:0:
329,192,69185,1,0,0:0:0:0:
402,192,69185,1,0,0:0:0:0:
36,192,69276,1,0,0:0:0:0:
182,192,69276,1,0,0:0:0:0:
256,192,69276,1,0,0:0:0:0:
475,192,69276,1,0,0:0:0:0:
109,192,69367,1,0,0:0:0:0:
402,192,69367,1,0,0:0:0:0:
329,192,69367,1,0,0:0:0:0:
182,192,69548,1,0,0:0:0:0:
256,192,69548,1,0,0:0:0:0:
475,192,69548,1,0,0:0:0:0:
36,192,69548,1,0,0:0:0:0:
109,192,69728,1,0,0:0:0:0:
182,192,69728,1,0,0:0:0:0:
402,192,69728,1,0,0:0:0:0:
256,192,69819,1,0,0:0:0:0:
475,192,69819,1,0,0:0:0:0:
36,192,69819,1,0,0:0:0:0:
329,192,69819,1,0,0:0:0:0:
402,192,70000,1,0,0:0:0:0:
256,192,70000,1,0,0:0:0:0:
329,192,70181,1,0,0:0:0:0:
182,192,70181,1,0,0:0:0:0:
36,192,70181,1,0,0:0:0:0:
475,192,70181,1,0,0:0:0:0:
256,192,70362,1,0,0:0:0:0:
109,192,70362,1,0,0:0:0:0:
182,192,70452,1,0,0:0:0:0:
329,192,70452,1,0,0:0:0:0:
36,192,70543,1,0,0:0:0:0:
109,192,70543,1,0,0:0:0:0:
256,192,70543,1,0,0:0:0:0:
402,192,70543,1,0,0:0:0:0:
475,192,70543,1,0,0:0:0:0:
182,192,70634,1,0,0:0:0:0:
329,192,70634,1,0,0:0:0:0:
36,192,70724,1,0,0:0:0:0:
256,192,70724,1,0,0:0:0:0:
402,192,70724,1,0,0:0:0:0:
475,192,70724,1,0,0:0:0:0:
109,192,70815,1,0,0:0:0:0:
329,192,70815,1,0,0:0:0:0:
36,192,70905,1,0,0:0:0:0:
182,192,70905,1,0,0:0:0:0:
475,192,70905,1,0,0:0:0:0:
402,192,70905,1,0,0:0:0:0:
329,192,70995,1,0,0:0:0:0:
256,192,70995,1,0,0:0:0:0:
36,192,71086,1,0,0:0:0:0:
109,192,71086,1,0,0:0:0:0:
182,192,71086,1,0,0:0:0:0:
475,192,71086,1,0,0:0:0:0:
329,192,71177,1,0,0:0:0:0:
402,192,71177,1,0,0:0:0:0:
36,192,71267,1,0,0:0:0:0:
109,192,71267,1,0,0:0:0:0:
256,192,71267,1,0,0:0:0:0:
475,192,71267,1,0,0:0:0:0:
182,192,71358,1,0,0:0:0:0:
329,192,71358,1,0,0:0:0:0:
36,192,71448,1,0,0:0:0:0:
109,192,71448,1,0,0:0:0:0:
475,192,71448,1,0,0:0:0:0:
256,192,71448,1,0,0:0:0:0:
182,192,71538,1,0,0:0:0:0:
402,192,71538,1,0,0:0:0:0:
36,192,71629,1,0,0:0:0:0:
109,192,71629,1,0,0:0:0:0:
329,192,71629,1,0,0:0:0:0:
475,192,71629,1,0,0:0:0:0:
182,192,71719,1,0,0:0:0:0:
256,192,71719,1,0,0:0:0:0:
329,192,71810,1,0,0:0:0:0:
475,192,71810,1,0,0:0:0:0:
402,192,71810,1,0,0:0:0:0:
36,192,71810,1,0,0:0:0:0:
109,192,71901,1,0,0:0:0:0:
182,192,71901,1,0,0:0:0:0:
36,192,71991,1,0,0:0:0:0:
256,192,71991,1,0,0:0:0:0:
475,192,71991,1,0,0:0:0:0:
402,192,71991,1,0,0:0:0:0:
109,192,72082,1,0,0:0:0:0:
329,192,72082,1,0,0:0:0:0:
402,192,72172,1,0,0:0:0:0:
475,192,72172,1,0,0:0:0:0:
36,192,72172,1,0,0:0:0:0:
182,192,72172,1,0,0:0:0:0:
256,192,72262,1,0,0:0:0:0:
109,192,72262,1,0,0:0:0:0:
402,192,72353,1,0,0:0:0:0:
475,192,72353,1,0,0:0:0:0:
36,192,72353,1,0,0:0:0:0:
182,192,72353,1,0,0:0:0:0:
329,192,72353,1,0,0:0:0:0:
109,192,72444,1,0,0:0:0:0:
36,192,72534,1,0,0:0:0:0:
475,192,72534,1,0,0:0:0:0:
402,192,72534,1,0,0:0:0:0:
256,192,72534,1,0,0:0:0:0:
182,192,72625,1,0,0:0:0:0:
329,192,72625,1,0,0:0:0:0:
36,192,72715,1,0,0:0:0:0:
256,192,72715,1,0,0:0:0:0:
475,192,72715,1,0,0:0:0:0:
109,192,72715,1,0,0:0:0:0:
329,192,72805,1,0,0:0:0:0:
182,192,72805,1,0,0:0:0:0:
256,192,72896,1,0,0:0:0:0:
402,192,72896,1,0,0:0:0:0:
475,192,72896,1,0,0:0:0:0:
36,192,72896,1,0,0:0:0:0:
182,192,72987,1,0,0:0:0:0:
109,192,73077,1,0,0:0:0:0:
329,192,73077,1,0,0:0:0:0:
475,192,73077,1,0,0:0:0:0:
36,192,73077,1,0,0:0:0:0:
256,192,73168,1,0,0:0:0:0:
182,192,73168,1,0,0:0:0:0:
36,192,73258,1,0,0:0:0:0:
475,192,73258,1,0,0:0:0:0:
402,192,73258,1,0,0:0:0:0:
109,192,73258,1,0,0:0:0:0:
256,192,73348,1,0,0:0:0:0:
329,192,73348,1,0,0:0:0:0:
36,192,73439,1,0,0:0:0:0:
402,192,73439,1,0,0:0:0:0:
475,192,73439,1,0,0:0:0:0:
182,192,73439,1,0,0:0:0:0:
109,192,73529,1,0,0:0:0:0:
329,192,73529,1,0,0:0:0:0:
475,192,73620,1,0,0:0:0:0:
256,192,73620,1,0,0:0:0:0:
36,192,73620,1,0,0:0:0:0:
402,192,73620,1,0,0:0:0:0:
329,192,73711,1,0,0:0:0:0:
182,192,73711,1,0,0:0:0:0:
475,192,73801,1,0,0:0:0:0:
402,192,73801,1,0,0:0:0:0:
256,192,73801,1,0,0:0:0:0:
36,192,73801,1,0,0:0:0:0:
109,192,73892,1,0,0:0:0:0:
182,192,73892,1,0,0:0:0:0:
36,192,73982,1,0,0:0:0:0:
475,192,73982,1,0,0:0:0:0:
402,192,73982,1,0,0:0:0:0:
329,192,73982,1,0,0:0:0:0:
182,192,74072,1,0,0:0:0:0:
256,192,74072,1,0,0:0:0:0:
36,192,74163,1,0,0:0:0:0:
475,192,74163,1,0,0:0:0:0:
109,192,74163,1,0,0:0:0:0:
329,192,74163,1,0,0:0:0:0:
182,192,74254,1,0,0:0:0:0:
402,192,74254,1,0,0:0:0:0:
475,192,74344,1,0,0:0:0:0:
109,192,74344,1,0,0:0:0:0:
36,192,74344,1,0,0:0:0:0:
256,192,74344,1,0,0:0:0:0:
329,192,74435,1,0,0:0:0:0:
182,192,74435,1,0,0:0:0:0:
256,192,74525,1,0,0:0:0:0:
475,192,74525,1,0,0:0:0:0:
36,192,74525,1,0,0:0:0:0:
109,192,74525,1,0,0:0:0:0:
329,192,74615,1,0,0:0:0:0:
402,192,74615,1,0,0:0:0:0:
109,192,74706,1,0,0:0:0:0:
182,192,74706,1,0,0:0:0:0:
475,192,74706,1,0,0:0:0:0:
36,192,74706,1,0,0:0:0:0:
256,192,74796,1,0,0:0:0:0:
329,192,74796,1,0,0:0:0:0:
402,192,74887,1,0,0:0:0:0:
182,192,74887,1,0,0:0:0:0:
475,192,74887,1,0,0:0:0:0:
36,192,74887,1,0,0:0:0:0:
329,192,74978,1,0,0:0:0:0:
256,192,74978,1,0,0:0:0:0:
36,192,75068,1,0,0:0:0:0:
182,192,75068,1,0,0:0:0:0:
402,192,75068,1,0,0:0:0:0:
475,192,75068,1,0,0:0:0:0:
109,192,75158,1,0,0:0:0:0:
256,192,75158,1,0,0:0:0:0:
182,192,75249,1,0,0:0:0:0:
329,192,75249,1,0,0:0:0:0:
36,192,75249,1,0,0:0:0:0:
402,192,75249,1,0,0:0:0:0:
475,192,75249,1,0,0:0:0:0:
109,192,75339,1,0,0:0:0:0:
402,192,75430,1,0,0:0:0:0:
256,192,75430,1,0,0:0:0:0:
36,192,75430,1,0,0:0:0:0:
475,192,75430,1,0,0:0:0:0:
329,192,75521,1,0,0:0:0:0:
182,192,75521,1,0,0:0:0:0:
475,192,75611,1,0,0:0:0:0:
109,192,75611,1,0,0:0:0:0:
36,192,75611,1,0,0:0:0:0:
256,192,75611,1,0,0:0:0:0:
182,192,75702,1,0,0:0:0:0:
329,192,75702,1,0,0:0:0:0:
475,192,75792,1,0,0:0:0:0:
36,192,75792,1,0,0:0:0:0:
256,192,75792,1,0,0:0:0:0:
402,192,75792,1,0,0:0:0:0:
182,192,75882,1,0,0:0:0:0:
475,192,75973,1,0,0:0:0:0:
36,192,75973,1,0,0:0:0:0:
109,192,75973,1,0,0:0:0:0:
329,192,75973,1,0,0:0:0:0:
182,192,76064,1,0,0:0:0:0:
256,192,76064,1,0,0:0:0:0:
109,192,76154,1,0,0:0:0:0:
36,192,76154,1,0,0:0:0:0:
475,192,76154,1,0,0:0:0:0:
402,192,76154,1,0,0:0:0:0:
256,192,76245,1,0,0:0:0:0:
329,192,76245,1,0,0:0:0:0:
36,192,76335,1,0,0:0:0:0:
109,192,76335,1,0,0:0:0:0:
402,192,76335,1,0,0:0:0:0:
475,192,76335,1,0,0:0:0:0:
329,192,76425,1,0,0:0:0:0:
182,192,76425,1,0,0:0:0:0:
402,192,76516,1,0,0:0:0:0:
475,192,76516,1,0,0:0:0:0:
36,192,76516,1,0,0:0:0:0:
256,192,76516,1,0,0:0:0:0:
329,192,76606,1,0,0:0:0:0:
109,192,76606,1,0,0:0:0:0:
475,192,76697,1,0,0:0:0:0:
402,192,76697,1,0,0:0:0:0:
36,192,76697,1,0,0:0:0:0:
182,192,76697,1,0,0:0:0:0:
256,192,76788,1,0,0:0:0:0:
329,192,76788,1,0,0:0:0:0:
182,192,76878,1,0,0:0:0:0:
475,192,76878,1,0,0:0:0:0:
36,192,76878,1,0,0:0:0:0:
109,192,76878,1,0,0:0:0:0:
402,192,76968,1,0,0:0:0:0:
329,192,76968,1,0,0:0:0:0:
256,192,77059,1,0,0:0:0:0:
475,192,77059,1,0,0:0:0:0:
36,192,77059,1,0,0:0:0:0:
109,192,77059,1,0,0:0:0:0:
329,192,77149,1,0,0:0:0:0:
182,192,77149,1,0,0:0:0:0:
475,192,77240,1,0,0:0:0:0:
256,192,77240,1,0,0:0:0:0:
36,192,77240,1,0,0:0:0:0:
109,192,77240,1,0,0:0:0:0:
402,192,77331,1,0,0:0:0:0:
182,192,77331,1,0,0:0:0:0:
329,192,77421,1,0,0:0:0:0:
475,192,77421,1,0,0:0:0:0:
36,192,77421,1,0,0:0:0:0:
109,192,77421,1,0,0:0:0:0:
256,192,77512,1,0,0:0:0:0:
182,192,77512,1,0,0:0:0:0:
402,192,77602,1,0,0:0:0:0:
36,192,77602,1,0,0:0:0:0:
329,192,77602,1,0,0:0:0:0:
475,192,77602,1,0,0:0:0:0:
182,192,77692,1,0,0:0:0:0:
109,192,77692,1,0,0:0:0:0:
475,192,77783,1,0,0:0:0:0:
402,192,77783,1,0,0:0:0:0:
36,192,77783,1,0,0:0:0:0:
256,192,77783,1,0,0:0:0:0:
329,192,77873,1,0,0:0:0:0:
109,192,77873,1,0,0:0:0:0:
36,192,77964,1,0,0:0:0:0:
182,192,77964,1,0,0:0:0:0:
402,192,77964,1,0,0:0:0:0:
475,192,77964,1,0,0:0:0:0:
109,192,78055,1,0,0:0:0:0:
256,192,78055,1,0,0:0:0:0:
182,192,78145,1,0,0:0:0:0:
329,192,78145,1,0,0:0:0:0:
36,192,78145,1,0,0:0:0:0:
402,192,78145,1,0,0:0:0:0:
475,192,78145,1,0,0:0:0:0:
109,192,78235,1,0,0:0:0:0:
402,192,78326,1,0,0:0:0:0:
256,192,78326,1,0,0:0:0:0:
36,192,78326,1,0,0:0:0:0:
475,192,78326,1,0,0:0:0:0:
329,192,78416,1,0,0:0:0:0:
182,192,78416,1,0,0:0:0:0:
475,192,78507,1,0,0:0:0:0:
109,192,78507,1,0,0:0:0:0:
36,192,78507,1,0,0:0:0:0:
256,192,78507,1,0,0:0:0:0:
182,192,78598,1,0,0:0:0:0:
329,192,78598,1,0,0:0:0:0:
475,192,78688,1,0,0:0:0:0:
36,192,78688,1,0,0:0:0:0:
256,192,78688,1,0,0:0:0:0:
402,192,78688,1,0,0:0:0:0:
109,192,78778,1,0,0:0:0:0:
475,192,78869,1,0,0:0:0:0:
329,192,78869,1,0,0:0:0:0:
182,192,78869,1,0,0:0:0:0:
402,192,78869,1,0,0:0:0:0:
36,192,78959,1,0,0:0:0:0:
109,192,78959,1,0,0:0:0:0:
182,192,79050,1,0,0:0:0:0:
329,192,79050,1,0,0:0:0:0:
256,192,79050,1,0,0:0:0:0:
475,192,79141,1,0,0:0:0:0:
402,192,79141,1,0,0:0:0:0:
36,192,79231,1,0,0:0:0:0:
109,192,79231,1,0,0:0:0:0:
182,192,79231,1,0,0:0:0:0:
329,192,79231,1,0,0:0:0:0:
256,192,79322,1,0,0:0:0:0:
402,192,79322,1,0,0:0:0:0:
36,192,79412,1,0,0:0:0:0:
475,192,79412,1,0,0:0:0:0:
329,192,79412,1,0,0:0:0:0:
109,192,79412,1,0,0:0:0:0:
182,192,79502,1,0,0:0:0:0:
402,192,79502,1,0,0:0:0:0:
475,192,79593,1,0,0:0:0:0:
256,192,79593,1,0,0:0:0:0:
36,192,79593,1,0,0:0:0:0:
109,192,79593,1,0,0:0:0:0:
329,192,79683,1,0,0:0:0:0:
402,192,79683,1,0,0:0:0:0:
109,192,79774,1,0,0:0:0:0:
36,192,79774,1,0,0:0:0:0:
475,192,79774,1,0,0:0:0:0:
182,192,79774,1,0,0:0:0:0:
256,192,79865,1,0,0:0:0:0:
329,192,79865,1,0,0:0:0:0:
36,192,79955,1,0,0:0:0:0:
402,192,79955,1,0,0:0:0:0:
475,192,79955,1,0,0:0:0:0:
182,192,79955,1,0,0:0:0:0:
109,192,80045,1,0,0:0:0:0:
256,192,80045,1,0,0:0:0:0:
182,192,80136,1,0,0:0:0:0:
402,192,80136,1,0,0:0:0:0:
475,192,80136,1,0,0:0:0:0:
36,192,80136,1,0,0:0:0:0:
109,192,80226,1,0,0:0:0:0:
329,192,80226,1,0,0:0:0:0:
475,192,80317,1,0,0:0:0:0:
402,192,80317,1,0,0:0:0:0:
36,192,80317,1,0,0:0:0:0:
256,192,80317,1,0,0:0:0:0:
182,192,80317,1,0,0:0:0:0:
109,192,80408,1,0,0:0:0:0:
36,192,80498,1,0,0:0:0:0:
329,192,80498,1,0,0:0:0:0:
402,192,80498,1,0,0:0:0:0:
475,192,80498,1,0,0:0:0:0:
182,192,80588,1,0,0:0:0:0:
256,192,80588,1,0,0:0:0:0:
36,192,80679,1,0,0:0:0:0:
329,192,80679,1,0,0:0:0:0:
475,192,80679,1,0,0:0:0:0:
109,192,80679,1,0,0:0:0:0:
182,192,80769,1,0,0:0:0:0:
36,192,80860,1,0,0:0:0:0:
256,192,80860,1,0,0:0:0:0:
475,192,80860,1,0,0:0:0:0:
182,192,80950,1,0,0:0:0:0:
402,192,80950,1,0,0:0:0:0:
329,192,81041,1,0,0:0:0:0:
109,192,81041,1,0,0:0:0:0:
36,192,81041,1,0,0:0:0:0:
182,192,81132,1,0,0:0:0:0:
256,192,81132,1,0,0:0:0:0:
402,192,81132,1,0,0:0:0:0:
36,192,81222,1,0,0:0:0:0:
109,192,81222,1,0,0:0:0:0:
329,192,81222,1,0,0:0:0:0:
475,192,81222,1,0,0:0:0:0:
109,192,81403,1,0,0:0:0:0:
182,192,81403,1,0,0:0:0:0:
329,192,81403,1,0,0:0:0:0:
475,192,81403,1,0,0:0:0:0:
109,192,81584,1,0,0:0:0:0:
256,192,81584,1,0,0:0:0:0:
402,192,81584,1,0,0:0:0:0:
36,192,81584,1,0,0:0:0:0:
329,192,81675,1,0,0:0:0:0:
182,192,81675,1,0,0:0:0:0:
475,192,81675,1,0,0:0:0:0:
36,192,81765,1,0,0:0:0:0:
402,192,81765,1,0,0:0:0:0:
109,192,81765,1,0,0:0:0:0:
256,192,81765,1,0,0:0:0:0:
329,192,81855,1,0,0:0:0:0:
182,192,81855,1,0,0:0:0:0:
36,192,81946,1,0,0:0:0:0:
475,192,81946,1,0,0:0:0:0:
256,192,81946,1,0,0:0:0:0:
182,192,82036,1,0,0:0:0:0:
329,192,82036,1,0,0:0:0:0:
36,192,82127,1,0,0:0:0:0:
109,192,82127,1,0,0:0:0:0:
256,192,82127,1,0,0:0:0:0:
475,192,82127,1,0,0:0:0:0:
402,192,82127,1,0,0:0:0:0:
182,192,82218,1,0,0:0:0:0:
329,192,82218,1,0,0:0:0:0:
475,192,82308,1,0,0:0:0:0:
402,192,82308,1,0,0:0:0:0:
256,192,82308,1,0,0:0:0:0:
329,192,82398,1,0,0:0:0:0:
36,192,82398,1,0,0:0:0:0:
109,192,82398,1,0,0:0:0:0:
182,192,82488,1,0,0:0:0:0:
402,192,82488,1,0,0:0:0:0:
256,192,82579,1,0,0:0:0:0:
109,192,82579,1,0,0:0:0:0:
36,192,82579,1,0,0:0:0:0:
182,192,82670,1,0,0:0:0:0:
402,192,82670,1,0,0:0:0:0:
475,192,82670,1,0,0:0:0:0:
109,192,82760,1,0,0:0:0:0:
329,192,82760,1,0,0:0:0:0:
36,192,82851,1,0,0:0:0:0:
256,192,82851,1,0,0:0:0:0:
475,192,82851,1,0,0:0:0:0:
402,192,82851,1,0,0:0:0:0:
329,192,82942,1,0,0:0:0:0:
182,192,82942,1,0,0:0:0:0:
36,192,83032,1,0,0:0:0:0:
109,192,83032,1,0,0:0:0:0:
256,192,83032,1,0,0:0:0:0:
182,192,83122,1,0,0:0:0:0:
475,192,83122,1,0,0:0:0:0:
402,192,83122,1,0,0:0:0:0:
329,192,83213,1,0,0:0:0:0:
109,192,83213,1,0,0:0:0:0:
256,192,83303,1,0,0:0:0:0:
402,192,83303,1,0,0:0:0:0:
475,192,83303,1,0,0:0:0:0:
329,192,83394,1,0,0:0:0:0:
109,192,83394,1,0,0:0:0:0:
36,192,83394,1,0,0:0:0:0:
402,192,83485,1,0,0:0:0:0:
182,192,83485,1,0,0:0:0:0:
475,192,83575,1,0,0:0:0:0:
256,192,83575,1,0,0:0:0:0:
36,192,83575,1,0,0:0:0:0:
109,192,83575,1,0,0:0:0:0:
329,192,83665,1,0,0:0:0:0:
182,192,83665,1,0,0:0:0:0:
256,192,83756,1,0,0:0:0:0:
402,192,83756,1,0,0:0:0:0:
475,192,83756,1,0,0:0:0:0:
109,192,83846,1,0,0:0:0:0:
36,192,83846,1,0,0:0:0:0:
329,192,83846,1,0,0:0:0:0:
402,192,83937,1,0,0:0:0:0:
182,192,83937,1,0,0:0:0:0:
36,192,84027,1,0,0:0:0:0:
109,192,84027,1,0,0:0:0:0:
256,192,84027,1,0,0:0:0:0:
475,192,84118,1,0,0:0:0:0:
402,192,84118,1,0,0:0:0:0:
182,192,84118,1,0,0:0:0:0:
256,192,84208,1,0,0:0:0:0:
109,192,84208,1,0,0:0:0:0:
329,192,84298,1,0,0:0:0:0:
182,192,84298,1,0,0:0:0:0:
36,192,84298,1,0,0:0:0:0:
109,192,84389,1,0,0:0:0:0:
475,192,84389,1,0,0:0:0:0:
256,192,84389,1,0,0:0:0:0:
182,192,84480,1,0,0:0:0:0:
36,192,84480,1,0,0:0:0:0:
402,192,84480,1,0,0:0:0:0:
109,192,84570,1,0,0:0:0:0:
475,192,84570,1,0,0:0:0:0:
329,192,84570,1,0,0:0:0:0:
402,192,84661,1,0,0:0:0:0:
36,192,84661,1,0,0:0:0:0:
182,192,84661,1,0,0:0:0:0:
256,192,84661,1,0,0:0:0:0:
109,192,84842,1,0,0:0:0:0:
256,192,84842,1,0,0:0:0:0:
329,192,84842,1,0,0:0:0:0:
475,192,84842,1,0,0:0:0:0:
36,192,85023,1,0,0:0:0:0:
256,192,85023,1,0,0:0:0:0:
475,192,85023,1,0,0:0:0:0:
109,192,85023,1,0,0:0:0:0:
402,192,85023,1,0,0:0:0:0:
182,192,85113,1,0,0:0:0:0:
329,192,85113,1,0,0:0:0:0:
475,192,85204,1,0,0:0:0:0:
402,192,85204,1,0,0:0:0:0:
256,192,85204,1,0,0:0:0:0:
329,192,85295,1,0,0:0:0:0:
36,192,85295,1,0,0:0:0:0:
109,192,85295,1,0,0:0:0:0:
182,192,85385,1,0,0:0:0:0:
402,192,85385,1,0,0:0:0:0:
256,192,85475,1,0,0:0:0:0:
109,192,85475,1,0,0:0:0:0:
36,192,85475,1,0,0:0:0:0:
182,192,85565,1,0,0:0:0:0:
402,192,85565,1,0,0:0:0:0:
475,192,85565,1,0,0:0:0:0:
109,192,85656,1,0,0:0:0:0:
329,192,85656,1,0,0:0:0:0:
36,192,85747,1,0,0:0:0:0:
256,192,85747,1,0,0:0:0:0:
475,192,85747,1,0,0:0:0:0:
402,192,85747,1,0,0:0:0:0:
329,192,85837,1,0,0:0:0:0:
182,192,85837,1,0,0:0:0:0:
36,192,85928,1,0,0:0:0:0:
109,192,85928,1,0,0:0:0:0:
256,192,85928,1,0,0:0:0:0:
182,192,86018,1,0,0:0:0:0:
475,192,86018,1,0,0:0:0:0:
402,192,86018,1,0,0:0:0:0:
329,192,86108,1,0,0:0:0:0:
109,192,86108,1,0,0:0:0:0:
256,192,86199,1,0,0:0:0:0:
402,192,86199,1,0,0:0:0:0:
475,192,86199,1,0,0:0:0:0:
329,192,86290,1,0,0:0:0:0:
109,192,86290,1,0,0:0:0:0:
36,192,86290,1,0,0:0:0:0:
402,192,86380,1,0,0:0:0:0:
182,192,86380,1,0,0:0:0:0:
475,192,86471,1,0,0:0:0:0:
256,192,86471,1,0,0:0:0:0:
36,192,86471,1,0,0:0:0:0:
109,192,86471,1,0,0:0:0:0:
329,192,86562,1,0,0:0:0:0:
182,192,86562,1,0,0:0:0:0:
256,192,86652,1,0,0:0:0:0:
402,192,86652,1,0,0:0:0:0:
475,192,86652,1,0,0:0:0:0:
109,192,86742,1,0,0:0:0:0:
36,192,86742,1,0,0:0:0:0:
329,192,86742,1,0,0:0:0:0:
402,192,86833,1,0,0:0:0:0:
182,192,86833,1,0,0:0:0:0:
36,192,86923,1,0,0:0:0:0:
109,192,86923,1,0,0:0:0:0:
256,192,86923,1,0,0:0:0:0:
475,192,87014,1,0,0:0:0:0:
402,192,87014,1,0,0:0:0:0:
182,192,87014,1,0,0:0:0:0:
329,192,87104,1,0,0:0:0:0:
109,192,87104,1,0,0:0:0:0:
475,192,87195,1,0,0:0:0:0:
36,192,87195,1,0,0:0:0:0:
256,192,87195,1,0,0:0:0:0:
402,192,87195,1,0,0:0:0:0:
182,192,87375,1,0,0:0:0:0:
475,192,87375,1,0,0:0:0:0:
329,192,87375,1,0,0:0:0:0:
109,192,87375,1,0,0:0:0:0:
182,192,87557,1,0,0:0:0:0:
256,192,87557,1,0,0:0:0:0:
36,192,87557,1,0,0:0:0:0:
402,192,87557,1,0,0:0:0:0:
36,192,87738,1,0,0:0:0:0:
475,192,87738,1,0,0:0:0:0:
109,192,87783,1,0,0:0:0:0:
402,192,87783,1,0,0:0:0:0:
182,192,87828,1,0,0:0:0:0:
329,192,87828,1,0,0:0:0:0:
109,192,87873,1,0,0:0:0:0:
402,192,87873,1,0,0:0:0:0:
36,192,87918,1,0,0:0:0:0:
256,192,87918,1,0,0:0:0:0:
475,192,87918,1,0,0:0:0:0:
256,192,88100,1,0,0:0:0:0:
475,192,88100,1,0,0:0:0:0:
109,192,88100,1,0,0:0:0:0:
182,192,88190,1,0,0:0:0:0:
402,192,88190,1,0,0:0:0:0:
36,192,88281,1,0,0:0:0:0:
109,192,88281,1,0,0:0:0:0:
329,192,88281,1,0,0:0:0:0:
475,192,88281,1,0,0:0:0:0:
182,192,88462,1,0,0:0:0:0:
402,192,88462,1,0,0:0:0:0:
36,192,88462,1,0,0:0:0:0:
109,192,88552,1,0,0:0:0:0:
329,192,88552,1,0,0:0:0:0:
36,192,88642,1,0,0:0:0:0:
256,192,88642,1,0,0:0:0:0:
475,192,88642,1,0,0:0:0:0:
402,192,88642,1,0,0:0:0:0:
256,192,88824,1,0,0:0:0:0:
36,192,88824,1,0,0:0:0:0:
402,192,88824,1,0,0:0:0:0:
329,192,88914,1,0,0:0:0:0:
109,192,88914,1,0,0:0:0:0:
475,192,89005,1,0,0:0:0:0:
402,192,89005,1,0,0:0:0:0:
182,192,89005,1,0,0:0:0:0:
36,192,89005,1,0,0:0:0:0:
329,192,89185,1,0,0:0:0:0:
109,192,89185,1,0,0:0:0:0:
475,192,89185,1,0,0:0:0:0:
402,192,89276,1,0,0:0:0:0:
182,192,89276,1,0,0:0:0:0:
475,192,89367,1,0,0:0:0:0:
256,192,89367,1,0,0:0:0:0:
36,192,89367,1,0,0:0:0:0:
109,192,89367,1,0,0:0:0:0:
329,192,89548,1,0,0:0:0:0:
475,192,89548,1,0,0:0:0:0:
109,192,89548,1,0,0:0:0:0:
256,192,89638,1,0,0:0:0:0:
402,192,89638,1,0,0:0:0:0:
36,192,89728,1,0,0:0:0:0:
182,192,89728,1,0,0:0:0:0:
329,192,89728,1,0,0:0:0:0:
475,192,89728,1,0,0:0:0:0:
256,192,89910,1,0,0:0:0:0:
402,192,89910,1,0,0:0:0:0:
36,192,89910,1,0,0:0:0:0:
329,192,90000,1,0,0:0:0:0:
182,192,90000,1,0,0:0:0:0:
36,192,90091,1,0,0:0:0:0:
256,192,90091,1,0,0:0:0:0:
475,192,90091,1,0,0:0:0:0:
109,192,90091,1,0,0:0:0:0:
182,192,90272,1,0,0:0:0:0:
36,192,90272,1,0,0:0:0:0:
402,192,90272,1,0,0:0:0:0:
256,192,90362,1,0,0:0:0:0:
109,192,90362,1,0,0:0:0:0:
475,192,90452,1,0,0:0:0:0:
329,192,90452,1,0,0:0:0:0:
182,192,90452,1,0,0:0:0:0:
36,192,90452,1,0,0:0:0:0:
256,192,90634,1,0,0:0:0:0:
109,192,90634,1,0,0:0:0:0:
475,192,90634,1,0,0:0:0:0:
182,192,90724,1,0,0:0:0:0:
329,192,90724,1,0,0:0:0:0:
475,192,90815,1,0,0:0:0:0:
256,192,90815,1,0,0:0:0:0:
36,192,90815,1,0,0:0:0:0:
402,192,90815,1,0,0:0:0:0:
109,192,90905,1,0,0:0:0:0:
329,192,90905,1,0,0:0:0:0:
402,192,90995,1,0,0:0:0:0:
475,192,90995,1,0,0:0:0:0:
182,192,90995,1,0,0:0:0:0:
256,192,91086,1,0,0:0:0:0:
36,192,91086,1,0,0:0:0:0:
329,192,91086,1,0,0:0:0:0:
182,192,91177,1,0,0:0:0:0:
109,192,91177,1,0,0:0:0:0:
402,192,91177,1,0,0:0:0:0:
256,192,91267,1,0,0:0:0:0:
475,192,91267,1,0,0:0:0:0:
36,192,91267,1,0,0:0:0:0:
109,192,91358,1,0,0:0:0:0:
329,192,91358,1,0,0:0:0:0:
402,192,91358,1,0,0:0:0:0:
182,192,91448,1,0,0:0:0:0:
256,192,91448,1,0,0:0:0:0:
475,192,91448,1,0,0:0:0:0:
36,192,91538,1,0,0:0:0:0:
109,192,91538,1,0,0:0:0:0:
329,192,91538,1,0,0:0:0:0:
402,192,91538,1,0,0:0:0:0:
182,192,91629,1,0,0:0:0:0:
256,192,91719,1,0,0:0:0:0:
329,192,91719,1,0,0:0:0:0:
475,192,91719,1,0,0:0:0:0:
36,192,91719,1,0,0:0:0:0:
109,192,91810,1,0,0:0:0:0:
182,192,91901,1,0,0:0:0:0:
256,192,91901,1,0,0:0:0:0:
402,192,91901,1,0,0:0:0:0:
475,192,91901,1,0,0:0:0:0:
109,192,91991,1,0,0:0:0:0:
36,192,92082,1,0,0:0:0:0:
256,192,92082,1,0,0:0:0:0:
475,192,92082,1,0,0:0:0:0:
402,192,92082,1,0,0:0:0:0:
182,192,92172,1,0,0:0:0:0:
329,192,92172,1,0,0:0:0:0:
109,192,92262,1,0,0:0:0:0:
36,192,92262,1,0,0:0:0:0:
402,192,92262,1,0,0:0:0:0:
475,192,92262,1,0,0:0:0:0:
256,192,92262,1,0,0:0:0:0:
36,192,92353,1,0,0:0:0:0:
329,192,92444,1,0,0:0:0:0:
182,192,92444,1,0,0:0:0:0:
36,192,92534,1,0,0:0:0:0:
329,192,92534,1,0,0:0:0:0:
182,192,92534,1,0,0:0:0:0:
36,192,92715,1,0,0:0:0:0:
329,192,92715,1,0,0:0:0:0:
182,192,92715,1,0,0:0:0:0:
36,192,92896,1,0,0:0:0:0:
256,192,92896,1,0,0:0:0:0:
402,192,92896,1,0,0:0:0:0:
475,192,92987,1,0,0:0:0:0:
36,192,92987,1,0,0:0:0:0:
109,192,92987,1,0,0:0:0:0:
329,192,92987,1,0,0:0:0:0:
182,192,93077,1,0,0:0:0:0:
402,192,93077,1,0,0:0:0:0:
36,192,93168,1,0,0:0:0:0:
475,192,93168,1,0,0:0:0:0:
109,192,93168,1,0,0:0:0:0:
256,192,93168,1,0,0:0:0:0:
182,192,93258,1,0,0:0:0:0:
329,192,93258,1,0,0:0:0:0:
36,192,93348,1,0,0:0:0:0:
109,192,93348,1,0,0:0:0:0:
402,192,93348,1,0,0:0:0:0:
475,192,93348,1,0,0:0:0:0:
329,192,93439,1,0,0:0:0:0:
182,192,93439,1,0,0:0:0:0:
36,192,93529,1,0,0:0:0:0:
256,192,93529,1,0,0:0:0:0:
475,192,93529,1,0,0:0:0:0:
109,192,93620,1,0,0:0:0:0:
402,192,93620,1,0,0:0:0:0:
36,192,93711,1,0,0:0:0:0:
182,192,93711,1,0,0:0:0:0:
256,192,93711,1,0,0:0:0:0:
329,192,93711,1,0,0:0:0:0:
475,192,93711,1,0,0:0:0:0:
402,192,93801,1,0,0:0:0:0:
109,192,93801,1,0,0:0:0:0:
475,192,93892,1,0,0:0:0:0:
256,192,93892,1,0,0:0:0:0:
36,192,93892,1,0,0:0:0:0:
182,192,93982,1,0,0:0:0:0:
402,192,93982,1,0,0:0:0:0:
109,192,94072,1,0,0:0:0:0:
36,192,94072,1,0,0:0:0:0:
329,192,94072,1,0,0:0:0:0:
475,192,94072,1,0,0:0:0:0:
182,192,94163,1,0,0:0:0:0:
256,192,94163,1,0,0:0:0:0:
402,192,94163,1,0,0:0:0:0:
475,192,94254,1,0,0:0:0:0:
36,192,94254,1,0,0:0:0:0:
329,192,94254,1,0,0:0:0:0:
109,192,94344,1,0,0:0:0:0:
182,192,94344,1,0,0:0:0:0:
402,192,94344,1,0,0:0:0:0:
256,192,94435,1,0,0:0:0:0:
329,192,94435,1,0,0:0:0:0:
36,192,94435,1,0,0:0:0:0:
475,192,94435,1,0,0:0:0:0:
109,192,94525,1,0,0:0:0:0:
182,192,94525,1,0,0:0:0:0:
36,192,94615,1,0,0:0:0:0:
329,192,94615,1,0,0:0:0:0:
402,192,94615,1,0,0:0:0:0:
475,192,94615,1,0,0:0:0:0:
182,192,94706,1,0,0:0:0:0:
256,192,94706,1,0,0:0:0:0:
36,192,94796,1,0,0:0:0:0:
109,192,94796,1,0,0:0:0:0:
402,192,94796,1,0,0:0:0:0:
475,192,94796,1,0,0:0:0:0:
329,192,94887,1,0,0:0:0:0:
182,192,94887,1,0,0:0:0:0:
36,192,94978,1,0,0:0:0:0:
109,192,94978,1,0,0:0:0:0:
475,192,94978,1,0,0:0:0:0:
256,192,94978,1,0,0:0:0:0:
402,192,95068,1,0,0:0:0:0:
329,192,95068,1,0,0:0:0:0:
36,192,95158,1,0,0:0:0:0:
109,192,95158,1,0,0:0:0:0:
475,192,95158,1,0,0:0:0:0:
256,192,95158,1,0,0:0:0:0:
182,192,95158,1,0,0:0:0:0:
329,192,95249,1,0,0:0:0:0:
402,192,95249,1,0,0:0:0:0:
475,192,95339,1,0,0:0:0:0:
182,192,95339,1,0,0:0:0:0:
109,192,95339,1,0,0:0:0:0:
36,192,95339,1,0,0:0:0:0:
256,192,95430,1,0,0:0:0:0:
329,192,95430,1,0,0:0:0:0:
36,192,95521,1,0,0:0:0:0:
402,192,95521,1,0,0:0:0:0:
475,192,95521,1,0,0:0:0:0:
109,192,95521,1,0,0:0:0:0:
182,192,95611,1,0,0:0:0:0:
256,192,95611,1,0,0:0:0:0:
329,192,95702,1,0,0:0:0:0:
402,192,95702,1,0,0:0:0:0:
475,192,95702,1,0,0:0:0:0:
36,192,95702,1,0,0:0:0:0:
109,192,95792,1,0,0:0:0:0:
182,192,95792,1,0,0:0:0:0:
36,192,95882,1,0,0:0:0:0:
256,192,95882,1,0,0:0:0:0:
329,192,95882,1,0,0:0:0:0:
475,192,95882,1,0,0:0:0:0:
182,192,95973,1,0,0:0:0:0:
402,192,95973,1,0,0:0:0:0:
36,192,96064,1,0,0:0:0:0:
109,192,96064,1,0,0:0:0:0:
329,192,96064,1,0,0:0:0:0:
182,192,96154,1,0,0:0:0:0:
256,192,96154,1,0,0:0:0:0:
402,192,96154,1,0,0:0:0:0:
36,192,96245,1,0,0:0:0:0:
329,192,96245,1,0,0:0:0:0:
109,192,96245,1,0,0:0:0:0:
475,192,96245,1,0,0:0:0:0:
182,192,96335,1,0,0:0:0:0:
402,192,96335,1,0,0:0:0:0:
256,192,96425,1,0,0:0:0:0:
36,192,96425,1,0,0:0:0:0:
475,192,96425,1,0,0:0:0:0:
109,192,96516,1,0,0:0:0:0:
402,192,96516,1,0,0:0:0:0:
36,192,96606,1,0,0:0:0:0:
182,192,96606,1,0,0:0:0:0:
475,192,96606,1,0,0:0:0:0:
329,192,96606,1,0,0:0:0:0:
109,192,96697,1,0,0:0:0:0:
256,192,96697,1,0,0:0:0:0:
36,192,96788,1,0,0:0:0:0:
182,192,96788,1,0,0:0:0:0:
402,192,96788,1,0,0:0:0:0:
475,192,96788,1,0,0:0:0:0:
109,192,96878,1,0,0:0:0:0:
256,192,96878,1,0,0:0:0:0:
329,192,96878,1,0,0:0:0:0:
36,192,96968,1,0,0:0:0:0:
475,192,96968,1,0,0:0:0:0:
182,192,97059,1,0,0:0:0:0:
256,192,97059,1,0,0:0:0:0:
402,192,97059,1,0,0:0:0:0:
329,192,97149,1,0,0:0:0:0:
475,192,97149,1,0,0:0:0:0:
36,192,97149,1,0,0:0:0:0:
109,192,97149,1,0,0:0:0:0:
402,192,97240,1,0,0:0:0:0:
182,192,97240,1,0,0:0:0:0:
109,192,97331,1,0,0:0:0:0:
36,192,97331,1,0,0:0:0:0:
256,192,97331,1,0,0:0:0:0:
475,192,97331,1,0,0:0:0:0:
182,192,97421,1,0,0:0:0:0:
402,192,97421,1,0,0:0:0:0:
36,192,97512,1,0,0:0:0:0:
109,192,97512,1,0,0:0:0:0:
329,192,97512,1,0,0:0:0:0:
475,192,97512,1,0,0:0:0:0:
402,192,97602,1,0,0:0:0:0:
182,192,97602,1,0,0:0:0:0:
256,192,97602,1,0,0:0:0:0:
475,192,97692,1,0,0:0:0:0:
36,192,97692,1,0,0:0:0:0:
329,192,97783,1,0,0:0:0:0:
256,192,97783,1,0,0:0:0:0:
109,192,97783,1,0,0:0:0:0:
36,192,97873,1,0,0:0:0:0:
402,192,97873,1,0,0:0:0:0:
182,192,97873,1,0,0:0:0:0:
475,192,97873,1,0,0:0:0:0:
109,192,97964,1,0,0:0:0:0:
329,192,97964,1,0,0:0:0:0:
36,192,98055,1,0,0:0:0:0:
475,192,98055,1,0,0:0:0:0:
256,192,98055,1,0,0:0:0:0:
182,192,98055,1,0,0:0:0:0:
109,192,98145,1,0,0:0:0:0:
329,192,98145,1,0,0:0:0:0:
182,192,98235,1,0,0:0:0:0:
402,192,98235,1,0,0:0:0:0:
36,192,98235,1,0,0:0:0:0:
475,192,98235,1,0,0:0:0:0:
109,192,98326,1,0,0:0:0:0:
256,192,98326,1,0,0:0:0:0:
36,192,98416,1,0,0:0:0:0:
182,192,98416,1,0,0:0:0:0:
329,192,98416,1,0,0:0:0:0:
475,192,98416,1,0,0:0:0:0:
402,192,98507,1,0,0:0:0:0:
256,192,98507,1,0,0:0:0:0:
36,192,98598,1,0,0:0:0:0:
475,192,98598,1,0,0:0:0:0:
329,192,98598,1,0,0:0:0:0:
109,192,98598,1,0,0:0:0:0:
402,192,98688,1,0,0:0:0:0:
182,192,98688,1,0,0:0:0:0:
36,192,98778,1,0,0:0:0:0:
475,192,98778,1,0,0:0:0:0:
109,192,98778,1,0,0:0:0:0:
256,192,98778,1,0,0:0:0:0:
182,192,98869,1,0,0:0:0:0:
329,192,98869,1,0,0:0:0:0:
36,192,98959,1,0,0:0:0:0:
109,192,98959,1,0,0:0:0:0:
402,192,98959,1,0,0:0:0:0:
475,192,98959,1,0,0:0:0:0:
182,192,99050,1,0,0:0:0:0:
329,192,99050,1,0,0:0:0:0:
36,192,99141,1,0,0:0:0:0:
256,192,99141,1,0,0:0:0:0:
475,192,99141,1,0,0:0:0:0:
109,192,99231,1,0,0:0:0:0:
402,192,99231,1,0,0:0:0:0:
329,192,99322,1,0,0:0:0:0:
182,192,99322,1,0,0:0:0:0:
256,192,99322,1,0,0:0:0:0:
109,192,99412,1,0,0:0:0:0:
402,192,99412,1,0,0:0:0:0:
329,192,99502,1,0,0:0:0:0:
256,192,99502,1,0,0:0:0:0:
36,192,99502,1,0,0:0:0:0:
475,192,99502,1,0,0:0:0:0:
109,192,99593,1,0,0:0:0:0:
182,192,99593,1,0,0:0:0:0:
36,192,99683,1,0,0:0:0:0:
475,192,99683,1,0,0:0:0:0:
329,192,99683,1,0,0:0:0:0:
402,192,99683,1,0,0:0:0:0:
256,192,99774,1,0,0:0:0:0:
109,192,99774,1,0,0:0:0:0:
402,192,99865,1,0,0:0:0:0:
36,192,99865,1,0,0:0:0:0:
475,192,99865,1,0,0:0:0:0:
182,192,99865,1,0,0:0:0:0:
329,192,99955,1,0,0:0:0:0:
256,192,99955,1,0,0:0:0:0:
36,192,100045,1,0,0:0:0:0:
109,192,100045,1,0,0:0:0:0:
182,192,100045,1,0,0:0:0:0:
475,192,100045,1,0,0:0:0:0:
402,192,100136,1,0,0:0:0:0:
329,192,100136,1,0,0:0:0:0:
256,192,100226,1,0,0:0:0:0:
36,192,100226,1,0,0:0:0:0:
109,192,100226,1,0,0:0:0:0:
475,192,100226,1,0,0:0:0:0:
182,192,100317,1,0,0:0:0:0:
402,192,100317,1,0,0:0:0:0:
36,192,100408,1,0,0:0:0:0:
109,192,100408,1,0,0:0:0:0:
329,192,100408,1,0,0:0:0:0:
475,192,100408,1,0,0:0:0:0:
182,192,100498,1,0,0:0:0:0:
256,192,100498,1,0,0:0:0:0:
402,192,100498,1,0,0:0:0:0:
36,192,100588,1,0,0:0:0:0:
109,192,100588,1,0,0:0:0:0:
329,192,100588,1,0,0:0:0:0:
256,192,100679,1,0,0:0:0:0:
475,192,100679,1,0,0:0:0:0:
36,192,100769,1,0,0:0:0:0:
402,192,100769,1,0,0:0:0:0:
182,192,100769,1,0,0:0:0:0:
109,192,100769,1,0,0:0:0:0:
329,192,100860,1,0,0:0:0:0:
256,192,100860,1,0,0:0:0:0:
402,192,100950,1,0,0:0:0:0:
475,192,100950,1,0,0:0:0:0:
36,192,100950,1,0,0:0:0:0:
182,192,100950,1,0,0:0:0:0:
329,192,101041,1,0,0:0:0:0:
109,192,101041,1,0,0:0:0:0:
475,192,101132,1,0,0:0:0:0:
402,192,101132,1,0,0:0:0:0:
182,192,101132,1,0,0:0:0:0:
36,192,101132,1,0,0:0:0:0:
329,192,101222,1,0,0:0:0:0:
256,192,101222,1,0,0:0:0:0:
109,192,101222,1,0,0:0:0:0:
475,192,101312,1,0,0:0:0:0:
402,192,101312,1,0,0:0:0:0:
182,192,101312,1,0,0:0:0:0:
256,192,101403,1,0,0:0:0:0:
36,192,101403,1,0,0:0:0:0:
475,192,101493,1,0,0:0:0:0:
109,192,101493,1,0,0:0:0:0:
329,192,101493,1,0,0:0:0:0:
402,192,101493,1,0,0:0:0:0:
182,192,101584,1,0,0:0:0:0:
256,192,101584,1,0,0:0:0:0:
109,192,101675,1,0,0:0:0:0:
36,192,101675,1,0,0:0:0:0:
475,192,101675,1,0,0:0:0:0:
329,192,101675,1,0,0:0:0:0:
182,192,101765,1,0,0:0:0:0:
402,192,101765,1,0,0:0:0:0:
36,192,101855,1,0,0:0:0:0:
256,192,101855,1,0,0:0:0:0:
475,192,101855,1,0,0:0:0:0:
109,192,101946,1,0,0:0:0:0:
329,192,101946,1,0,0:0:0:0:
182,192,102036,1,0,0:0:0:0:
402,192,102036,1,0,0:0:0:0:
475,192,102036,1,0,0:0:0:0:
36,192,102036,1,0,0:0:0:0:
109,192,102127,1,0,0:0:0:0:
329,192,102127,1,0,0:0:0:0:
36,192,102218,1,0,0:0:0:0:
256,192,102218,1,0,0:0:0:0:
475,192,102218,1,0,0:0:0:0:
402,192,102218,1,0,0:0:0:0:
182,192,102308,1,0,0:0:0:0:
329,192,102308,1,0,0:0:0:0:
36,192,102398,1,0,0:0:0:0:
475,192,102398,1,0,0:0:0:0:
109,192,102398,1,0,0:0:0:0:
256,192,102398,1,0,0:0:0:0:
182,192,102488,1,0,0:0:0:0:
402,192,102488,1,0,0:0:0:0:
36,192,102579,1,0,0:0:0:0:
109,192,102579,1,0,0:0:0:0:
329,192,102579,1,0,0:0:0:0:
475,192,102579,1,0,0:0:0:0:
182,192,102670,1,0,0:0:0:0:
256,192,102670,1,0,0:0:0:0:
402,192,102670,1,0,0:0:0:0:
36,192,102760,1,0,0:0:0:0:
475,192,102760,1,0,0:0:0:0:
329,192,102760,1,0,0:0:0:0:
109,192,102760,1,0,0:0:0:0:
182,192,102851,1,0,0:0:0:0:
402,192,102851,1,0,0:0:0:0:
256,192,102942,1,0,0:0:0:0:
475,192,102942,1,0,0:0:0:0:
36,192,102942,1,0,0:0:0:0:
109,192,102942,1,0,0:0:0:0:
329,192,103032,1,0,0:0:0:0:
182,192,103032,1,0,0:0:0:0:
36,192,103122,1,0,0:0:0:0:
402,192,103122,1,0,0:0:0:0:
256,192,103122,1,0,0:0:0:0:
475,192,103122,1,0,0:0:0:0:
109,192,103213,1,0,0:0:0:0:
182,192,103213,1,0,0:0:0:0:
329,192,103213,1,0,0:0:0:0:
36,192,103303,1,0,0:0:0:0:
256,192,103303,1,0,0:0:0:0:
402,192,103303,1,0,0:0:0:0:
475,192,103303,1,0,0:0:0:0:
109,192,103394,1,0,0:0:0:0:
329,192,103394,1,0,0:0:0:0:
182,192,103485,1,0,0:0:0:0:
36,192,103485,1,0,0:0:0:0:
475,192,103485,1,0,0:0:0:0:
402,192,103485,1,0,0:0:0:0:
109,192,103575,1,0,0:0:0:0:
256,192,103575,1,0,0:0:0:0:
36,192,103665,1,0,0:0:0:0:
182,192,103665,1,0,0:0:0:0:
329,192,103665,1,0,0:0:0:0:
109,192,103756,1,0,0:0:0:0:
256,192,103756,1,0,0:0:0:0:
402,192,103756,1,0,0:0:0:0:
36,192,103846,1,0,0:0:0:0:
475,192,103846,1,0,0:0:0:0:
182,192,103846,1,0,0:0:0:0:
329,192,103846,1,0,0:0:0:0:
36,192,104231,1,0,0:0:0:0:
329,192,104231,1,0,0:0:0:0:
402,192,104231,1,0,0:0:0:0:
182,192,104231,1,0,0:0:0:0:
36,192,104593,1,0,0:0:0:0:
402,192,104593,1,0,0:0:0:0:
475,192,104593,1,0,0:0:0:0:
182,192,104593,1,0,0:0:0:0:
256,192,104865,1,0,0:0:0:0:
475,192,104865,1,0,0:0:0:0:
36,192,104955,1,0,0:0:0:0:
182,192,104955,1,0,0:0:0:0:
256,192,105136,1,0,0:0:0:0:
475,192,105136,1,0,0:0:0:0:
36,192,105317,1,0,0:0:0:0:
256,192,105317,1,0,0:0:0:0:
329,192,105317,1,0,0:0:0:0:
182,192,105317,1,0,0:0:0:0:
256,192,105498,1,0,0:0:0:0:
329,192,105498,1,0,0:0:0:0:
36,192,105678,1,0,0:0:0:0:
402,192,105678,1,0,0:0:0:0:
329,192,105678,1,0,0:0:0:0:
182,192,105678,1,0,0:0:0:0:
329,192,105860,1,0,0:0:0:0:
402,192,105860,1,0,0:0:0:0:
36,192,106041,1,0,0:0:0:0:
475,192,106041,1,0,0:0:0:0:
402,192,106041,1,0,0:0:0:0:
182,192,106041,1,0,0:0:0:0:
256,192,106312,1,0,0:0:0:0:
475,192,106312,1,0,0:0:0:0:
36,192,106403,1,0,0:0:0:0:
182,192,106403,1,0,0:0:0:0:
256,192,106493,1,0,0:0:0:0:
475,192,106493,1,0,0:0:0:0:
36,192,106584,1,0,0:0:0:0:
182,192,106644,1,0,0:0:0:0:
475,192,106705,1,0,0:0:0:0:
36,192,106765,1,0,0:0:0:0:
256,192,106765,1,0,0:0:0:0:
329,192,106765,1,0,0:0:0:0:
182,192,106765,1,0,0:0:0:0:
182,192,106946,1,0,0:0:0:0:
109,192,107036,1,0,0:0:0:0:
36,192,107127,1,0,0:0:0:0:
329,192,107127,1,0,0:0:0:0:
402,192,107127,1,0,0:0:0:0:
182,192,107127,1,0,0:0:0:0:
36,192,107308,1,0,0:0:0:0:
109,192,107398,1,0,0:0:0:0:
182,192,107488,1,0,0:0:0:0:
475,192,107488,1,0,0:0:0:0:
402,192,107488,1,0,0:0:0:0:
36,192,107488,1,0,0:0:0:0:
182,192,107670,1,0,0:0:0:0:
109,192,107760,1,0,0:0:0:0:
256,192,107760,1,0,0:0:0:0:
475,192,107760,1,0,0:0:0:0:
36,192,107851,1,0,0:0:0:0:
182,192,107851,1,0,0:0:0:0:
36,192,108032,1,0,0:0:0:0:
475,192,108032,1,0,0:0:0:0:
256,192,108032,1,0,0:0:0:0:
109,192,108122,1,0,0:0:0:0:
182,192,108213,1,0,0:0:0:0:
329,192,108213,1,0,0:0:0:0:
475,192,108213,1,0,0:0:0:0:
36,192,108213,1,0,0:0:0:0:
182,192,108394,1,0,0:0:0:0:
109,192,108394,1,0,0:0:0:0:
475,192,108394,1,0,0:0:0:0:
329,192,108394,1,0,0:0:0:0:
256,192,108575,1,0,0:0:0:0:
182,192,108575,1,0,0:0:0:0:
36,192,108575,1,0,0:0:0:0:
402,192,108575,1,0,0:0:0:0:
329,192,108755,1,0,0:0:0:0:
256,192,108755,1,0,0:0:0:0:
109,192,108755,1,0,0:0:0:0:
475,192,108755,1,0,0:0:0:0:
402,192,108937,1,0,0:0:0:0:
329,192,108937,1,0,0:0:0:0:
182,192,108937,1,0,0:0:0:0:
36,192,108937,1,0,0:0:0:0:
475,192,109118,1,0,0:0:0:0:
256,192,109118,1,0,0:0:0:0:
329,192,109118,1,0,0:0:0:0:
109,192,109118,1,0,0:0:0:0:
36,192,109298,1,0,0:0:0:0:
182,192,109298,1,0,0:0:0:0:
256,192,109298,1,0,0:0:0:0:
402,192,109298,1,0,0:0:0:0:
109,192,109480,1,0,0:0:0:0:
182,192,109480,1,0,0:0:0:0:
329,192,109480,1,0,0:0:0:0:
475,192,109480,1,0,0:0:0:0:
36,192,109661,1,0,0:0:0:0:
475,192,109661,1,0,0:0:0:0:
109,192,109661,1,0,0:0:0:0:
402,192,109661,1,0,0:0:0:0:
329,192,109661,1,0,0:0:0:0:
256,192,109752,1,0,0:0:0:0:
182,192,109842,1,0,0:0:0:0:
402,192,109842,1,0,0:0:0:0:
36,192,109842,1,0,0:0:0:0:
329,192,109932,1,0,0:0:0:0:
109,192,109932,1,0,0:0:0:0:
256,192,110023,1,0,0:0:0:0:
36,192,110023,1,0,0:0:0:0:
475,192,110023,1,0,0:0:0:0:
182,192,110113,1,0,0:0:0:0:
329,192,110204,1,0,0:0:0:0:
475,192,110204,1,0,0:0:0:0:
109,192,110204,1,0,0:0:0:0:
36,192,110204,1,0,0:0:0:0:
256,192,110294,1,0,0:0:0:0:
182,192,110385,1,0,0:0:0:0:
36,192,110385,1,0,0:0:0:0:
402,192,110385,1,0,0:0:0:0:
475,192,110385,1,0,0:0:0:0:
329,192,110475,1,0,0:0:0:0:
256,192,110565,1,0,0:0:0:0:
36,192,110565,1,0,0:0:0:0:
475,192,110565,1,0,0:0:0:0:
402,192,110656,1,0,0:0:0:0:
329,192,110747,1,0,0:0:0:0:
182,192,110747,1,0,0:0:0:0:
36,192,110747,1,0,0:0:0:0:
475,192,110747,1,0,0:0:0:0:
256,192,110747,1,0,0:0:0:0:
109,192,110837,1,0,0:0:0:0:
36,192,110928,1,0,0:0:0:0:
256,192,110928,1,0,0:0:0:0:
475,192,110928,1,0,0:0:0:0:
329,192,111018,1,0,0:0:0:0:
109,192,111108,1,0,0:0:0:0:
36,192,111108,1,0,0:0:0:0:
475,192,111108,1,0,0:0:0:0:
402,192,111108,1,0,0:0:0:0:
182,192,111108,1,0,0:0:0:0:
256,192,111199,1,0,0:0:0:0:
475,192,111290,1,0,0:0:0:0:
109,192,111290,1,0,0:0:0:0:
329,192,111290,1,0,0:0:0:0:
402,192,111380,1,0,0:0:0:0:
182,192,111380,1,0,0:0:0:0:
36,192,111471,1,0,0:0:0:0:
475,192,111471,1,0,0:0:0:0:
256,192,111471,1,0,0:0:0:0:
329,192,111562,1,0,0:0:0:0:
402,192,111652,1,0,0:0:0:0:
36,192,111652,1,0,0:0:0:0:
182,192,111652,1,0,0:0:0:0:
475,192,111652,1,0,0:0:0:0:
256,192,111742,1,0,0:0:0:0:
109,192,111832,1,0,0:0:0:0:
36,192,111832,1,0,0:0:0:0:
329,192,111832,1,0,0:0:0:0:
475,192,111832,1,0,0:0:0:0:
182,192,111923,1,0,0:0:0:0:
36,192,112014,1,0,0:0:0:0:
475,192,112014,1,0,0:0:0:0:
256,192,112014,1,0,0:0:0:0:
109,192,112104,1,0,0:0:0:0:
475,192,112195,1,0,0:0:0:0:
36,192,112195,1,0,0:0:0:0:
182,192,112195,1,0,0:0:0:0:
329,192,112195,1,0,0:0:0:0:
256,192,112195,1,0,0:0:0:0:
402,192,112285,1,0,0:0:0:0:
36,192,112375,1,0,0:0:0:0:
256,192,112375,1,0,0:0:0:0:
475,192,112375,1,0,0:0:0:0:
182,192,112466,1,0,0:0:0:0:
36,192,112557,1,0,0:0:0:0:
109,192,112557,1,0,0:0:0:0:
402,192,112557,1,0,0:0:0:0:
475,192,112557,1,0,0:0:0:0:
329,192,112557,1,0,0:0:0:0:
256,192,112647,1,0,0:0:0:0:
182,192,112738,1,0,0:0:0:0:
402,192,112738,1,0,0:0:0:0:
36,192,112738,1,0,0:0:0:0:
329,192,112828,1,0,0:0:0:0:
109,192,112828,1,0,0:0:0:0:
36,192,112918,1,0,0:0:0:0:
475,192,112918,1,0,0:0:0:0:
256,192,112918,1,0,0:0:0:0:
402,192,113009,1,0,0:0:0:0:
329,192,113100,1,0,0:0:0:0:
36,192,113100,1,0,0:0:0:0:
109,192,113100,1,0,0:0:0:0:
182,192,113100,1,0,0:0:0:0:
402,192,113190,1,0,0:0:0:0:
475,192,113281,1,0,0:0:0:0:
36,192,113281,1,0,0:0:0:0:
182,192,113281,1,0,0:0:0:0:
329,192,113281,1,0,0:0:0:0:
109,192,113281,1,0,0:0:0:0:
256,192,113371,1,0,0:0:0:0:
329,192,113462,1,0,0:0:0:0:
109,192,113462,1,0,0:0:0:0:
475,192,113462,1,0,0:0:0:0:
182,192,113552,1,0,0:0:0:0:
402,192,113552,1,0,0:0:0:0:
475,192,113642,1,0,0:0:0:0:
36,192,113642,1,0,0:0:0:0:
256,192,113642,1,0,0:0:0:0:
329,192,113642,1,0,0:0:0:0:
109,192,113733,1,0,0:0:0:0:
182,192,113824,1,0,0:0:0:0:
475,192,113824,1,0,0:0:0:0:
329,192,113824,1,0,0:0:0:0:
109,192,113914,1,0,0:0:0:0:
36,192,114005,1,0,0:0:0:0:
475,192,114005,1,0,0:0:0:0:
402,192,114005,1,0,0:0:0:0:
256,192,114005,1,0,0:0:0:0:
329,192,114005,1,0,0:0:0:0:
182,192,114095,1,0,0:0:0:0:
109,192,114185,1,0,0:0:0:0:
329,192,114185,1,0,0:0:0:0:
475,192,114185,1,0,0:0:0:0:
256,192,114276,1,0,0:0:0:0:
36,192,114276,1,0,0:0:0:0:
182,192,114367,1,0,0:0:0:0:
402,192,114367,1,0,0:0:0:0:
475,192,114367,1,0,0:0:0:0:
329,192,114457,1,0,0:0:0:0:
256,192,114548,1,0,0:0:0:0:
475,192,114548,1,0,0:0:0:0:
36,192,114548,1,0,0:0:0:0:
109,192,114548,1,0,0:0:0:0:
402,192,114638,1,0,0:0:0:0:
329,192,114728,1,0,0:0:0:0:
36,192,114728,1,0,0:0:0:0:
256,192,114728,1,0,0:0:0:0:
475,192,114728,1,0,0:0:0:0:
182,192,114728,1,0,0:0:0:0:
402,192,114819,1,0,0:0:0:0:
109,192,114819,1,0,0:0:0:0:
182,192,114909,1,0,0:0:0:0:
256,192,114909,1,0,0:0:0:0:
475,192,114909,1,0,0:0:0:0:
109,192,114970,1,0,0:0:0:0:
329,192,115000,1,0,0:0:0:0:
36,192,115030,1,0,0:0:0:0:
182,192,115091,1,0,0:0:0:0:
402,192,115091,1,0,0:0:0:0:
475,192,115091,1,0,0:0:0:0:
109,192,115151,1,0,0:0:0:0:
256,192,115181,1,0,0:0:0:0:
36,192,115212,1,0,0:0:0:0:
182,192,115272,1,0,0:0:0:0:
329,192,115272,1,0,0:0:0:0:
475,192,115272,1,0,0:0:0:0:
109,192,115332,1,0,0:0:0:0:
402,192,115362,1,0,0:0:0:0:
36,192,115392,1,0,0:0:0:0:
475,192,115452,1,0,0:0:0:0:
182,192,115452,1,0,0:0:0:0:
329,192,115452,1,0,0:0:0:0:
256,192,115543,1,0,0:0:0:0:
182,192,115634,1,0,0:0:0:0:
402,192,115634,1,0,0:0:0:0:
36,192,115634,1,0,0:0:0:0:
329,192,115724,1,0,0:0:0:0:
109,192,115724,1,0,0:0:0:0:
256,192,115815,1,0,0:0:0:0:
36,192,115815,1,0,0:0:0:0:
475,192,115815,1,0,0:0:0:0:
182,192,115905,1,0,0:0:0:0:
402,192,115905,1,0,0:0:0:0:
329,192,115995,1,0,0:0:0:0:
475,192,115995,1,0,0:0:0:0:
109,192,115995,1,0,0:0:0:0:
36,192,115995,1,0,0:0:0:0:
256,192,116086,1,0,0:0:0:0:
182,192,116086,1,0,0:0:0:0:
36,192,116177,1,0,0:0:0:0:
402,192,116177,1,0,0:0:0:0:
475,192,116177,1,0,0:0:0:0:
109,192,116177,1,0,0:0:0:0:
329,192,116267,1,0,0:0:0:0:
256,192,116358,1,0,0:0:0:0:
36,192,116358,1,0,0:0:0:0:
475,192,116358,1,0,0:0:0:0:
109,192,116358,1,0,0:0:0:0:
402,192,116448,1,0,0:0:0:0:
329,192,116538,1,0,0:0:0:0:
182,192,116538,1,0,0:0:0:0:
36,192,116538,1,0,0:0:0:0:
475,192,116538,1,0,0:0:0:0:
256,192,116538,1,0,0:0:0:0:
109,192,116629,1,0,0:0:0:0:
36,192,116719,1,0,0:0:0:0:
256,192,116719,1,0,0:0:0:0:
475,192,116719,1,0,0:0:0:0:
402,192,116719,1,0,0:0:0:0:
329,192,116810,1,0,0:0:0:0:
109,192,116901,1,0,0:0:0:0:
36,192,116901,1,0,0:0:0:0:
475,192,116901,1,0,0:0:0:0:
402,192,116901,1,0,0:0:0:0:
182,192,116901,1,0,0:0:0:0:
256,192,116991,1,0,0:0:0:0:
109,192,117082,1,0,0:0:0:0:
329,192,117082,1,0,0:0:0:0:
475,192,117082,1,0,0:0:0:0:
182,192,117172,1,0,0:0:0:0:
402,192,117172,1,0,0:0:0:0:
36,192,117262,1,0,0:0:0:0:
256,192,117262,1,0,0:0:0:0:
475,192,117262,1,0,0:0:0:0:
109,192,117353,1,0,0:0:0:0:
329,192,117353,1,0,0:0:0:0:
36,192,117444,1,0,0:0:0:0:
182,192,117444,1,0,0:0:0:0:
475,192,117444,1,0,0:0:0:0:
402,192,117444,1,0,0:0:0:0:
256,192,117534,1,0,0:0:0:0:
109,192,117625,1,0,0:0:0:0:
36,192,117625,1,0,0:0:0:0:
329,192,117625,1,0,0:0:0:0:
475,192,117625,1,0,0:0:0:0:
182,192,117715,1,0,0:0:0:0:
36,192,117805,1,0,0:0:0:0:
475,192,117805,1,0,0:0:0:0:
256,192,117805,1,0,0:0:0:0:
402,192,117805,1,0,0:0:0:0:
109,192,117896,1,0,0:0:0:0:
475,192,117986,1,0,0:0:0:0:
36,192,117986,1,0,0:0:0:0:
182,192,117986,1,0,0:0:0:0:
256,192,117986,1,0,0:0:0:0:
329,192,117986,1,0,0:0:0:0:
402,192,118077,1,0,0:0:0:0:
36,192,118168,1,0,0:0:0:0:
475,192,118168,1,0,0:0:0:0:
109,192,118168,1,0,0:0:0:0:
329,192,118168,1,0,0:0:0:0:
182,192,118258,1,0,0:0:0:0:
256,192,118258,1,0,0:0:0:0:
36,192,118348,1,0,0:0:0:0:
109,192,118348,1,0,0:0:0:0:
402,192,118348,1,0,0:0:0:0:
475,192,118348,1,0,0:0:0:0:
329,192,118348,1,0,0:0:0:0:
256,192,118439,1,0,0:0:0:0:
182,192,118529,1,0,0:0:0:0:
402,192,118529,1,0,0:0:0:0:
36,192,118529,1,0,0:0:0:0:
329,192,118620,1,0,0:0:0:0:
109,192,118620,1,0,0:0:0:0:
36,192,118711,1,0,0:0:0:0:
475,192,118711,1,0,0:0:0:0:
256,192,118711,1,0,0:0:0:0:
182,192,118711,1,0,0:0:0:0:
402,192,118801,1,0,0:0:0:0:
329,192,118892,1,0,0:0:0:0:
36,192,118892,1,0,0:0:0:0:
182,192,118892,1,0,0:0:0:0:
402,192,118982,1,0,0:0:0:0:
475,192,119072,1,0,0:0:0:0:
36,192,119072,1,0,0:0:0:0:
182,192,119072,1,0,0:0:0:0:
329,192,119072,1,0,0:0:0:0:
109,192,119072,1,0,0:0:0:0:
256,192,119163,1,0,0:0:0:0:
329,192,119254,1,0,0:0:0:0:
109,192,119254,1,0,0:0:0:0:
475,192,119254,1,0,0:0:0:0:
182,192,119344,1,0,0:0:0:0:
402,192,119344,1,0,0:0:0:0:
475,192,119435,1,0,0:0:0:0:
36,192,119435,1,0,0:0:0:0:
256,192,119435,1,0,0:0:0:0:
329,192,119435,1,0,0:0:0:0:
109,192,119525,1,0,0:0:0:0:
182,192,119615,1,0,0:0:0:0:
475,192,119615,1,0,0:0:0:0:
329,192,119615,1,0,0:0:0:0:
402,192,119615,1,0,0:0:0:0:
109,192,119706,1,0,0:0:0:0:
36,192,119796,1,0,0:0:0:0:
475,192,119796,1,0,0:0:0:0:
402,192,119796,1,0,0:0:0:0:
256,192,119796,1,0,0:0:0:0:
329,192,119796,1,0,0:0:0:0:
182,192,119887,1,0,0:0:0:0:
109,192,119978,1,0,0:0:0:0:
329,192,119978,1,0,0:0:0:0:
475,192,119978,1,0,0:0:0:0:
256,192,120068,1,0,0:0:0:0:
36,192,120068,1,0,0:0:0:0:
182,192,120158,1,0,0:0:0:0:
402,192,120158,1,0,0:0:0:0:
475,192,120158,1,0,0:0:0:0:
329,192,120249,1,0,0:0:0:0:
256,192,120339,1,0,0:0:0:0:
475,192,120339,1,0,0:0:0:0:
36,192,120339,1,0,0:0:0:0:
109,192,120339,1,0,0:0:0:0:
402,192,120430,1,0,0:0:0:0:
329,192,120521,1,0,0:0:0:0:
36,192,120521,1,0,0:0:0:0:
475,192,120521,1,0,0:0:0:0:
109,192,120521,1,0,0:0:0:0:
182,192,120611,1,0,0:0:0:0:
256,192,120702,1,0,0:0:0:0:
329,192,120792,1,0,0:0:0:0:
402,192,120882,1,0,0:0:0:0:
475,192,120882,1,0,0:0:0:0:
36,192,120882,1,0,0:0:0:0:
182,192,120882,1,0,0:0:0:0:
109,192,120882,1,0,0:0:0:0:
256,192,120973,1,0,0:0:0:0:
329,192,120973,1,0,0:0:0:0:
475,192,121063,1,0,0:0:0:0:
182,192,121063,1,0,0:0:0:0:
109,192,121063,1,0,0:0:0:0:
36,192,121063,1,0,0:0:0:0:
329,192,121154,1,0,0:0:0:0:
402,192,121154,1,0,0:0:0:0:
475,192,121245,1,0,0:0:0:0:
256,192,121245,1,0,0:0:0:0:
109,192,121245,1,0,0:0:0:0:
36,192,121245,1,0,0:0:0:0:
182,192,121335,1,0,0:0:0:0:
402,192,121335,1,0,0:0:0:0:
36,192,121425,1,0,0:0:0:0:
329,192,121425,1,0,0:0:0:0:
256,192,121425,1,0,0:0:0:0:
182,192,121516,1,0,0:0:0:0:
475,192,121516,1,0,0:0:0:0:
36,192,121606,1,0,0:0:0:0:
402,192,121606,1,0,0:0:0:0:
256,192,121606,1,0,0:0:0:0:
182,192,121697,1,0,0:0:0:0:
36,192,121788,1,0,0:0:0:0:
329,192,121788,1,0,0:0:0:0:
402,192,121788,1,0,0:0:0:0:
475,192,121788,1,0,0:0:0:0:
256,192,121788,1,0,0:0:0:0:
182,192,121878,1,0,0:0:0:0:
475,192,121968,1,0,0:0:0:0:
402,192,121968,1,0,0:0:0:0:
36,192,121968,1,0,0:0:0:0:
109,192,121968,1,0,0:0:0:0:
256,192,121968,1,0,0:0:0:0:
329,192,122059,1,0,0:0:0:0:
475,192,122149,1,0,0:0:0:0:
182,192,122149,1,0,0:0:0:0:
256,192,122149,1,0,0:0:0:0:
329,192,122240,1,0,0:0:0:0:
475,192,122331,1,0,0:0:0:0:
109,192,122331,1,0,0:0:0:0:
36,192,122331,1,0,0:0:0:0:
329,192,122421,1,0,0:0:0:0:
475,192,122512,1,0,0:0:0:0:
36,192,122512,1,0,0:0:0:0:
109,192,122512,1,0,0:0:0:0:
182,192,122512,1,0,0:0:0:0:
329,192,122602,1,0,0:0:0:0:
182,192,122602,1,0,0:0:0:0:
256,192,122602,1,0,0:0:0:0:
36,192,122692,1,0,0:0:0:0:
109,192,122692,1,0,0:0:0:0:
402,192,122692,1,0,0:0:0:0:
475,192,122692,1,0,0:0:0:0:
329,192,122692,1,0,0:0:0:0:
182,192,122783,1,0,0:0:0:0:
36,192,122873,1,0,0:0:0:0:
475,192,122873,1,0,0:0:0:0:
329,192,122873,1,0,0:0:0:0:
182,192,122964,1,0,0:0:0:0:
36,192,123055,1,0,0:0:0:0:
402,192,123055,1,0,0:0:0:0:
256,192,123055,1,0,0:0:0:0:
182,192,123145,1,0,0:0:0:0:
36,192,123235,1,0,0:0:0:0:
329,192,123235,1,0,0:0:0:0:
402,192,123235,1,0,0:0:0:0:
475,192,123235,1,0,0:0:0:0:
182,192,123326,1,0,0:0:0:0:
329,192,123326,1,0,0:0:0:0:
256,192,123326,1,0,0:0:0:0:
475,192,123416,1,0,0:0:0:0:
402,192,123416,1,0,0:0:0:0:
36,192,123416,1,0,0:0:0:0:
109,192,123416,1,0,0:0:0:0:
182,192,123416,1,0,0:0:0:0:
329,192,123507,1,0,0:0:0:0:
475,192,123598,1,0,0:0:0:0:
256,192,123598,1,0,0:0:0:0:
109,192,123598,1,0,0:0:0:0:
329,192,123688,1,0,0:0:0:0:
475,192,123778,1,0,0:0:0:0:
36,192,123778,128,0,124050:0:0:0:0:
182,192,123778,128,0,124050:0:0:0:0:
109,192,123778,1,0,0:0:0:0:
256,192,123778,1,0,0:0:0:0:
329,192,123869,1,0,0:0:0:0:
475,192,123959,1,0,0:0:0:0:
329,192,124050,1,0,0:0:0:0:
475,192,124140,1,0,0:0:0:0:
36,192,124140,1,0,0:0:0:0:
109,192,124140,1,0,0:0:0:0:
256,192,124140,1,0,0:0:0:0:
402,192,124140,1,0,0:0:0:0:
182,192,124231,1,0,0:0:0:0:
329,192,124231,1,0,0:0:0:0:
36,192,124322,1,0,0:0:0:0:
256,192,124322,1,0,0:0:0:0:
475,192,124322,1,0,0:0:0:0:
182,192,124412,1,0,0:0:0:0:
402,192,124412,1,0,0:0:0:0:
36,192,124502,1,0,0:0:0:0:
329,192,124502,1,0,0:0:0:0:
256,192,124502,1,0,0:0:0:0:
182,192,124593,1,0,0:0:0:0:
36,192,124683,1,0,0:0:0:0:
402,192,124683,1,0,0:0:0:0:
475,192,124683,1,0,0:0:0:0:
329,192,124683,1,0,0:0:0:0:
256,192,124683,1,0,0:0:0:0:
182,192,124774,1,0,0:0:0:0:
475,192,124865,1,0,0:0:0:0:
256,192,124865,1,0,0:0:0:0:
402,192,124865,1,0,0:0:0:0:
109,192,124865,1,0,0:0:0:0:
36,192,124865,1,0,0:0:0:0:
329,192,124955,1,0,0:0:0:0:
475,192,125045,1,0,0:0:0:0:
109,192,125045,1,0,0:0:0:0:
256,192,125045,1,0,0:0:0:0:
329,192,125136,1,0,0:0:0:0:
475,192,125226,1,0,0:0:0:0:
36,192,125226,1,0,0:0:0:0:
182,192,125226,1,0,0:0:0:0:
329,192,125317,1,0,0:0:0:0:
475,192,125408,1,0,0:0:0:0:
36,192,125408,1,0,0:0:0:0:
182,192,125408,1,0,0:0:0:0:
256,192,125408,1,0,0:0:0:0:
329,192,125498,1,0,0:0:0:0:
109,192,125498,1,0,0:0:0:0:
256,192,125498,1,0,0:0:0:0:
475,192,125588,1,0,0:0:0:0:
329,192,125588,1,0,0:0:0:0:
402,192,125588,1,0,0:0:0:0:
182,192,125588,1,0,0:0:0:0:
36,192,125588,1,0,0:0:0:0:
475,192,125769,1,0,0:0:0:0:
256,192,125769,1,0,0:0:0:0:
36,192,125769,1,0,0:0:0:0:
182,192,125860,1,0,0:0:0:0:
402,192,125860,1,0,0:0:0:0:
36,192,125950,1,0,0:0:0:0:
256,192,125950,1,0,0:0:0:0:
475,192,125950,1,0,0:0:0:0:
109,192,125950,1,0,0:0:0:0:
329,192,125950,1,0,0:0:0:0:
256,192,126132,1,0,0:0:0:0:
475,192,126132,1,0,0:0:0:0:
36,192,126132,1,0,0:0:0:0:
109,192,126222,1,0,0:0:0:0:
329,192,126222,1,0,0:0:0:0:
36,192,126312,1,0,0:0:0:0:
402,192,126312,1,0,0:0:0:0:
475,192,126312,1,0,0:0:0:0:
182,192,126312,1,0,0:0:0:0:
256,192,126312,1,0,0:0:0:0:
109,192,126403,1,0,0:0:0:0:
329,192,126403,1,0,0:0:0:0:
182,192,126493,1,0,0:0:0:0:
402,192,126493,1,0,0:0:0:0:
475,192,126493,1,0,0:0:0:0:
36,192,126584,1,0,0:0:0:0:
256,192,126584,1,0,0:0:0:0:
109,192,126675,1,0,0:0:0:0:
329,192,126675,1,0,0:0:0:0:
475,192,126675,1,0,0:0:0:0:
182,192,126765,1,0,0:0:0:0:
256,192,126855,1,0,0:0:0:0:
475,192,126855,1,0,0:0:0:0:
36,192,126855,1,0,0:0:0:0:
109,192,126946,1,0,0:0:0:0:
402,192,126946,1,0,0:0:0:0:
36,192,127036,1,0,0:0:0:0:
182,192,127036,1,0,0:0:0:0:
329,192,127036,1,0,0:0:0:0:
256,192,127036,1,0,0:0:0:0:
475,192,127036,1,0,0:0:0:0:
256,192,127217,1,0,0:0:0:0:
475,192,127217,1,0,0:0:0:0:
402,192,127308,1,0,0:0:0:0:
329,192,127308,1,0,0:0:0:0:
36,192,127308,1,0,0:0:0:0:
109,192,127308,1,0,0:0:0:0:
182,192,127398,1,0,0:0:0:0:
36,192,127488,1,0,0:0:0:0:
109,192,127488,1,0,0:0:0:0:
475,192,127579,1,0,0:0:0:0:
256,192,127579,1,0,0:0:0:0:
402,192,127670,1,0,0:0:0:0:
182,192,127670,1,0,0:0:0:0:
329,192,127760,1,0,0:0:0:0:
256,192,127760,1,0,0:0:0:0:
109,192,127760,1,0,0:0:0:0:
36,192,127760,1,0,0:0:0:0:
475,192,127851,1,0,0:0:0:0:
402,192,127851,1,0,0:0:0:0:
256,192,128032,1,0,0:0:0:0:
329,192,128032,1,0,0:0:0:0:
36,192,128032,1,0,0:0:0:0:
109,192,128032,1,0,0:0:0:0:
182,192,128122,1,0,0:0:0:0:
475,192,128213,1,0,0:0:0:0:
402,192,128213,1,0,0:0:0:0:
109,192,128213,1,0,0:0:0:0:
36,192,128213,1,0,0:0:0:0:
329,192,128303,1,0,0:0:0:0:
256,192,128394,1,0,0:0:0:0:
475,192,128394,1,0,0:0:0:0:
182,192,128394,1,0,0:0:0:0:
402,192,128485,1,0,0:0:0:0:
109,192,128485,1,0,0:0:0:0:
36,192,128485,1,0,0:0:0:0:
329,192,128575,1,0,0:0:0:0:
256,192,128575,1,0,0:0:0:0:
475,192,128665,1,0,0:0:0:0:
402,192,128755,1,0,0:0:0:0:
256,192,128755,1,0,0:0:0:0:
36,192,128755,1,0,0:0:0:0:
109,192,128755,1,0,0:0:0:0:
182,192,128846,1,0,0:0:0:0:
329,192,128937,1,0,0:0:0:0:
475,192,128937,1,0,0:0:0:0:
36,192,128937,1,0,0:0:0:0:
109,192,128937,1,0,0:0:0:0:
256,192,129118,1,0,0:0:0:0:
402,192,129118,1,0,0:0:0:0:
182,192,129118,1,0,0:0:0:0:
329,192,129208,1,0,0:0:0:0:
475,192,129208,1,0,0:0:0:0:
36,192,129208,1,0,0:0:0:0:
109,192,129208,1,0,0:0:0:0:
36,192,129389,1,0,0:0:0:0:
182,192,129389,1,0,0:0:0:0:
475,192,129389,1,0,0:0:0:0:
402,192,129389,1,0,0:0:0:0:
475,192,129570,1,0,0:0:0:0:
36,192,129570,1,0,0:0:0:0:
109,192,129570,1,0,0:0:0:0:
402,192,129570,1,0,0:0:0:0:
182,192,129661,1,0,0:0:0:0:
329,192,129661,1,0,0:0:0:0:
36,192,129752,1,0,0:0:0:0:
475,192,129752,1,0,0:0:0:0:
402,192,129752,1,0,0:0:0:0:
109,192,129752,1,0,0:0:0:0:
182,192,129842,1,0,0:0:0:0:
329,192,129842,1,0,0:0:0:0:
36,192,129932,1,0,0:0:0:0:
475,192,129932,1,0,0:0:0:0:
109,192,129932,1,0,0:0:0:0:
256,192,129932,1,0,0:0:0:0:
402,192,130023,1,0,0:0:0:0:
182,192,130023,1,0,0:0:0:0:
329,192,130113,1,0,0:0:0:0:
109,192,130113,1,0,0:0:0:0:
475,192,130113,1,0,0:0:0:0:
36,192,130204,1,0,0:0:0:0:
256,192,130204,1,0,0:0:0:0:
475,192,130294,1,0,0:0:0:0:
402,192,130294,1,0,0:0:0:0:
182,192,130294,1,0,0:0:0:0:
329,192,130385,1,0,0:0:0:0:
256,192,130475,1,0,0:0:0:0:
36,192,130475,1,0,0:0:0:0:
109,192,130565,1,0,0:0:0:0:
329,192,130565,1,0,0:0:0:0:
36,192,130656,1,0,0:0:0:0:
182,192,130656,1,0,0:0:0:0:
402,192,130656,1,0,0:0:0:0:
475,192,130656,1,0,0:0:0:0:
329,192,130747,1,0,0:0:0:0:
256,192,130837,1,0,0:0:0:0:
36,192,130837,1,0,0:0:0:0:
109,192,130837,1,0,0:0:0:0:
475,192,130837,1,0,0:0:0:0:
329,192,130928,1,0,0:0:0:0:
475,192,131018,1,0,0:0:0:0:
402,192,131018,1,0,0:0:0:0:
36,192,131018,1,0,0:0:0:0:
109,192,131018,1,0,0:0:0:0:
182,192,131108,1,0,0:0:0:0:
256,192,131199,1,0,0:0:0:0:
475,192,131199,1,0,0:0:0:0:
36,192,131199,1,0,0:0:0:0:
402,192,131199,1,0,0:0:0:0:
182,192,131290,1,0,0:0:0:0:
329,192,131290,1,0,0:0:0:0:
36,192,131380,1,0,0:0:0:0:
109,192,131380,1,0,0:0:0:0:
256,192,131380,1,0,0:0:0:0:
475,192,131380,1,0,0:0:0:0:
402,192,131471,1,0,0:0:0:0:
182,192,131471,1,0,0:0:0:0:
109,192,131562,1,0,0:0:0:0:
329,192,131562,1,0,0:0:0:0:
36,192,131562,1,0,0:0:0:0:
256,192,131652,1,0,0:0:0:0:
475,192,131652,1,0,0:0:0:0:
182,192,131742,1,0,0:0:0:0:
402,192,131742,1,0,0:0:0:0:
36,192,131742,1,0,0:0:0:0:
109,192,131832,1,0,0:0:0:0:
256,192,131832,1,0,0:0:0:0:
329,192,131832,1,0,0:0:0:0:
475,192,131923,1,0,0:0:0:0:
402,192,131923,1,0,0:0:0:0:
182,192,131923,1,0,0:0:0:0:
256,192,132014,1,0,0:0:0:0:
109,192,132014,1,0,0:0:0:0:
36,192,132104,1,0,0:0:0:0:
182,192,132104,1,0,0:0:0:0:
329,192,132104,1,0,0:0:0:0:
402,192,132104,1,0,0:0:0:0:
475,192,132104,1,0,0:0:0:0:
256,192,132285,1,0,0:0:0:0:
329,192,132285,1,0,0:0:0:0:
402,192,132285,1,0,0:0:0:0:
109,192,132285,1,0,0:0:0:0:
182,192,132466,1,0,0:0:0:0:
256,192,132466,1,0,0:0:0:0:
329,192,132466,1,0,0:0:0:0:
475,192,132466,1,0,0:0:0:0:
36,192,132466,1,0,0:0:0:0:
36,192,132647,1,0,0:0:0:0:
475,192,132647,1,0,0:0:0:0:
109,192,132647,1,0,0:0:0:0:
402,192,132647,1,0,0:0:0:0:
329,192,132738,1,0,0:0:0:0:
182,192,132738,1,0,0:0:0:0:
36,192,132828,1,0,0:0:0:0:
109,192,132828,1,0,0:0:0:0:
256,192,132828,1,0,0:0:0:0:
475,192,132828,1,0,0:0:0:0:
402,192,132828,1,0,0:0:0:0:
182,192,132918,1,0,0:0:0:0:
329,192,132918,1,0,0:0:0:0:
256,192,133009,1,0,0:0:0:0:
402,192,133009,1,0,0:0:0:0:
36,192,133009,1,0,0:0:0:0:
109,192,133100,1,0,0:0:0:0:
329,192,133100,1,0,0:0:0:0:
475,192,133100,1,0,0:0:0:0:
182,192,133190,1,0,0:0:0:0:
402,192,133190,1,0,0:0:0:0:
36,192,133190,1,0,0:0:0:0:
109,192,133281,1,0,0:0:0:0:
256,192,133281,1,0,0:0:0:0:
475,192,133281,1,0,0:0:0:0:
36,192,133371,1,0,0:0:0:0:
182,192,133371,1,0,0:0:0:0:
329,192,133371,1,0,0:0:0:0:
109,192,133462,1,0,0:0:0:0:
256,192,133462,1,0,0:0:0:0:
402,192,133462,1,0,0:0:0:0:
36,192,133552,1,0,0:0:0:0:
182,192,133552,1,0,0:0:0:0:
329,192,133552,1,0,0:0:0:0:
475,192,133552,1,0,0:0:0:0:
402,192,133642,1,0,0:0:0:0:
109,192,133642,1,0,0:0:0:0:
475,192,133733,1,0,0:0:0:0:
256,192,133733,1,0,0:0:0:0:
36,192,133733,1,0,0:0:0:0:
182,192,133824,1,0,0:0:0:0:
402,192,133824,1,0,0:0:0:0:
109,192,133914,1,0,0:0:0:0:
36,192,133914,1,0,0:0:0:0:
329,192,133914,1,0,0:0:0:0:
475,192,133914,1,0,0:0:0:0:
182,192,134005,1,0,0:0:0:0:
256,192,134005,1,0,0:0:0:0:
402,192,134005,1,0,0:0:0:0:
475,192,134095,1,0,0:0:0:0:
36,192,134095,1,0,0:0:0:0:
329,192,134095,1,0,0:0:0:0:
109,192,134185,1,0,0:0:0:0:
182,192,134185,1,0,0:0:0:0:
402,192,134185,1,0,0:0:0:0:
256,192,134276,1,0,0:0:0:0:
329,192,134276,1,0,0:0:0:0:
36,192,134276,1,0,0:0:0:0:
475,192,134276,1,0,0:0:0:0:
109,192,134367,1,0,0:0:0:0:
182,192,134367,1,0,0:0:0:0:
36,192,134457,1,0,0:0:0:0:
329,192,134457,1,0,0:0:0:0:
402,192,134457,1,0,0:0:0:0:
475,192,134457,1,0,0:0:0:0:
182,192,134548,1,0,0:0:0:0:
256,192,134548,1,0,0:0:0:0:
36,192,134638,1,0,0:0:0:0:
109,192,134638,1,0,0:0:0:0:
402,192,134638,1,0,0:0:0:0:
475,192,134638,1,0,0:0:0:0:
256,192,134728,1,0,0:0:0:0:
329,192,134728,1,0,0:0:0:0:
36,192,134819,1,0,0:0:0:0:
109,192,134819,1,0,0:0:0:0:
182,192,134819,1,0,0:0:0:0:
475,192,134819,1,0,0:0:0:0:
402,192,134909,1,0,0:0:0:0:
329,192,134909,1,0,0:0:0:0:
36,192,135000,1,0,0:0:0:0:
109,192,135000,1,0,0:0:0:0:
475,192,135000,1,0,0:0:0:0:
256,192,135000,1,0,0:0:0:0:
182,192,135000,1,0,0:0:0:0:
329,192,135091,1,0,0:0:0:0:
402,192,135091,1,0,0:0:0:0:
475,192,135181,1,0,0:0:0:0:
182,192,135181,1,0,0:0:0:0:
109,192,135181,1,0,0:0:0:0:
36,192,135181,1,0,0:0:0:0:
256,192,135272,1,0,0:0:0:0:
329,192,135272,1,0,0:0:0:0:
36,192,135362,1,0,0:0:0:0:
402,192,135362,1,0,0:0:0:0:
475,192,135362,1,0,0:0:0:0:
109,192,135362,1,0,0:0:0:0:
182,192,135452,1,0,0:0:0:0:
256,192,135452,1,0,0:0:0:0:
329,192,135543,1,0,0:0:0:0:
402,192,135543,1,0,0:0:0:0:
475,192,135543,1,0,0:0:0:0:
36,192,135543,1,0,0:0:0:0:
109,192,135634,1,0,0:0:0:0:
182,192,135634,1,0,0:0:0:0:
36,192,135724,1,0,0:0:0:0:
256,192,135724,1,0,0:0:0:0:
329,192,135724,1,0,0:0:0:0:
475,192,135724,1,0,0:0:0:0:
182,192,135815,1,0,0:0:0:0:
402,192,135815,1,0,0:0:0:0:
36,192,135905,1,0,0:0:0:0:
109,192,135905,1,0,0:0:0:0:
329,192,135905,1,0,0:0:0:0:
182,192,135995,1,0,0:0:0:0:
256,192,135995,1,0,0:0:0:0:
402,192,135995,1,0,0:0:0:0:
36,192,136086,1,0,0:0:0:0:
329,192,136086,1,0,0:0:0:0:
109,192,136086,1,0,0:0:0:0:
475,192,136086,1,0,0:0:0:0:
182,192,136177,1,0,0:0:0:0:
402,192,136177,1,0,0:0:0:0:
256,192,136267,1,0,0:0:0:0:
36,192,136267,1,0,0:0:0:0:
475,192,136267,1,0,0:0:0:0:
109,192,136358,1,0,0:0:0:0:
402,192,136358,1,0,0:0:0:0:
36,192,136448,1,0,0:0:0:0:
182,192,136448,1,0,0:0:0:0:
475,192,136448,1,0,0:0:0:0:
329,192,136448,1,0,0:0:0:0:
109,192,136538,1,0,0:0:0:0:
256,192,136538,1,0,0:0:0:0:
36,192,136629,1,0,0:0:0:0:
182,192,136629,1,0,0:0:0:0:
402,192,136629,1,0,0:0:0:0:
475,192,136629,1,0,0:0:0:0:
109,192,136719,1,0,0:0:0:0:
256,192,136719,1,0,0:0:0:0:
329,192,136719,1,0,0:0:0:0:
36,192,136810,1,0,0:0:0:0:
475,192,136810,1,0,0:0:0:0:
182,192,136901,1,0,0:0:0:0:
256,192,136901,1,0,0:0:0:0:
402,192,136901,1,0,0:0:0:0:
329,192,136991,1,0,0:0:0:0:
475,192,136991,1,0,0:0:0:0:
36,192,136991,1,0,0:0:0:0:
109,192,136991,1,0,0:0:0:0:
402,192,137082,1,0,0:0:0:0:
182,192,137082,1,0,0:0:0:0:
109,192,137172,1,0,0:0:0:0:
36,192,137172,1,0,0:0:0:0:
256,192,137172,1,0,0:0:0:0:
475,192,137172,1,0,0:0:0:0:
182,192,137262,1,0,0:0:0:0:
402,192,137262,1,0,0:0:0:0:
36,192,137353,1,0,0:0:0:0:
109,192,137353,1,0,0:0:0:0:
329,192,137353,1,0,0:0:0:0:
475,192,137353,1,0,0:0:0:0:
402,192,137444,1,0,0:0:0:0:
182,192,137444,1,0,0:0:0:0:
256,192,137444,1,0,0:0:0:0:
475,192,137534,1,0,0:0:0:0:
36,192,137534,1,0,0:0:0:0:
329,192,137625,1,0,0:0:0:0:
256,192,137625,1,0,0:0:0:0:
109,192,137625,1,0,0:0:0:0:
36,192,137715,1,0,0:0:0:0:
402,192,137715,1,0,0:0:0:0:
182,192,137715,1,0,0:0:0:0:
475,192,137715,1,0,0:0:0:0:
109,192,137805,1,0,0:0:0:0:
329,192,137805,1,0,0:0:0:0:
36,192,137896,1,0,0:0:0:0:
475,192,137896,1,0,0:0:0:0:
256,192,137896,1,0,0:0:0:0:
182,192,137896,1,0,0:0:0:0:
109,192,137986,1,0,0:0:0:0:
329,192,137986,1,0,0:0:0:0:
182,192,138077,1,0,0:0:0:0:
402,192,138077,1,0,0:0:0:0:
36,192,138077,1,0,0:0:0:0:
475,192,138077,1,0,0:0:0:0:
109,192,138168,1,0,0:0:0:0:
256,192,138168,1,0,0:0:0:0:
36,192,138258,1,0,0:0:0:0:
182,192,138258,1,0,0:0:0:0:
329,192,138258,1,0,0:0:0:0:
475,192,138258,1,0,0:0:0:0:
402,192,138348,1,0,0:0:0:0:
256,192,138348,1,0,0:0:0:0:
36,192,138439,1,0,0:0:0:0:
475,192,138439,1,0,0:0:0:0:
329,192,138439,1,0,0:0:0:0:
109,192,138439,1,0,0:0:0:0:
402,192,138529,1,0,0:0:0:0:
182,192,138529,1,0,0:0:0:0:
36,192,138620,1,0,0:0:0:0:
475,192,138620,1,0,0:0:0:0:
109,192,138620,1,0,0:0:0:0:
256,192,138620,1,0,0:0:0:0:
182,192,138711,1,0,0:0:0:0:
329,192,138711,1,0,0:0:0:0:
36,192,138801,1,0,0:0:0:0:
109,192,138801,1,0,0:0:0:0:
402,192,138801,1,0,0:0:0:0:
475,192,138801,1,0,0:0:0:0:
182,192,138892,1,0,0:0:0:0:
329,192,138892,1,0,0:0:0:0:
36,192,138982,1,0,0:0:0:0:
256,192,138982,1,0,0:0:0:0:
475,192,138982,1,0,0:0:0:0:
109,192,139072,1,0,0:0:0:0:
402,192,139072,1,0,0:0:0:0:
329,192,139163,1,0,0:0:0:0:
182,192,139163,1,0,0:0:0:0:
256,192,139163,1,0,0:0:0:0:
109,192,139254,1,0,0:0:0:0:
402,192,139254,1,0,0:0:0:0:
329,192,139344,1,0,0:0:0:0:
256,192,139344,1,0,0:0:0:0:
36,192,139344,1,0,0:0:0:0:
475,192,139344,1,0,0:0:0:0:
109,192,139435,1,0,0:0:0:0:
182,192,139435,1,0,0:0:0:0:
36,192,139525,1,0,0:0:0:0:
475,192,139525,1,0,0:0:0:0:
329,192,139525,1,0,0:0:0:0:
402,192,139525,1,0,0:0:0:0:
256,192,139615,1,0,0:0:0:0:
109,192,139615,1,0,0:0:0:0:
402,192,139706,1,0,0:0:0:0:
182,192,139706,1,0,0:0:0:0:
36,192,139706,1,0,0:0:0:0:
475,192,139706,1,0,0:0:0:0:
329,192,139796,1,0,0:0:0:0:
256,192,139796,1,0,0:0:0:0:
36,192,139887,1,0,0:0:0:0:
109,192,139887,1,0,0:0:0:0:
182,192,139887,1,0,0:0:0:0:
475,192,139887,1,0,0:0:0:0:
402,192,139978,1,0,0:0:0:0:
329,192,139978,1,0,0:0:0:0:
36,192,140068,1,0,0:0:0:0:
109,192,140068,1,0,0:0:0:0:
475,192,140068,1,0,0:0:0:0:
256,192,140068,1,0,0:0:0:0:
182,192,140158,1,0,0:0:0:0:
402,192,140158,1,0,0:0:0:0:
36,192,140249,1,0,0:0:0:0:
109,192,140249,1,0,0:0:0:0:
329,192,140249,1,0,0:0:0:0:
475,192,140249,1,0,0:0:0:0:
182,192,140339,1,0,0:0:0:0:
256,192,140339,1,0,0:0:0:0:
402,192,140339,1,0,0:0:0:0:
36,192,140430,1,0,0:0:0:0:
109,192,140430,1,0,0:0:0:0:
329,192,140430,1,0,0:0:0:0:
256,192,140521,1,0,0:0:0:0:
475,192,140521,1,0,0:0:0:0:
36,192,140611,1,0,0:0:0:0:
402,192,140611,1,0,0:0:0:0:
182,192,140611,1,0,0:0:0:0:
109,192,140611,1,0,0:0:0:0:
329,192,140702,1,0,0:0:0:0:
256,192,140702,1,0,0:0:0:0:
402,192,140792,1,0,0:0:0:0:
475,192,140792,1,0,0:0:0:0:
36,192,140792,1,0,0:0:0:0:
182,192,140792,1,0,0:0:0:0:
329,192,140882,1,0,0:0:0:0:
109,192,140882,1,0,0:0:0:0:
475,192,140973,1,0,0:0:0:0:
402,192,140973,1,0,0:0:0:0:
182,192,140973,1,0,0:0:0:0:
36,192,140973,1,0,0:0:0:0:
329,192,141063,1,0,0:0:0:0:
256,192,141063,1,0,0:0:0:0:
109,192,141063,1,0,0:0:0:0:
475,192,141154,1,0,0:0:0:0:
402,192,141154,1,0,0:0:0:0:
182,192,141154,1,0,0:0:0:0:
256,192,141245,1,0,0:0:0:0:
36,192,141245,1,0,0:0:0:0:
475,192,141335,1,0,0:0:0:0:
109,192,141335,1,0,0:0:0:0:
329,192,141335,1,0,0:0:0:0:
402,192,141335,1,0,0:0:0:0:
182,192,141425,1,0,0:0:0:0:
256,192,141425,1,0,0:0:0:0:
109,192,141516,1,0,0:0:0:0:
36,192,141516,1,0,0:0:0:0:
475,192,141516,1,0,0:0:0:0:
329,192,141516,1,0,0:0:0:0:
402,192,141606,1,0,0:0:0:0:
256,192,141606,1,0,0:0:0:0:
36,192,141697,1,0,0:0:0:0:
329,192,141697,1,0,0:0:0:0:
182,192,141697,1,0,0:0:0:0:
256,192,141788,1,0,0:0:0:0:
109,192,141788,1,0,0:0:0:0:
475,192,141788,1,0,0:0:0:0:
402,192,141878,1,0,0:0:0:0:
36,192,141878,1,0,0:0:0:0:
182,192,141878,1,0,0:0:0:0:
256,192,141968,1,0,0:0:0:0:
329,192,141968,1,0,0:0:0:0:
36,192,142059,1,0,0:0:0:0:
402,192,142059,1,0,0:0:0:0:
475,192,142059,1,0,0:0:0:0:
109,192,142059,1,0,0:0:0:0:
256,192,142149,1,0,0:0:0:0:
182,192,142149,1,0,0:0:0:0:
36,192,142240,1,0,0:0:0:0:
329,192,142240,1,0,0:0:0:0:
109,192,142240,1,0,0:0:0:0:
402,192,142240,1,0,0:0:0:0:
475,192,142240,1,0,0:0:0:0:
256,192,142331,1,0,0:0:0:0:
182,192,142331,1,0,0:0:0:0:
36,192,142421,1,0,0:0:0:0:
109,192,142421,1,0,0:0:0:0:
475,192,142421,1,0,0:0:0:0:
329,192,142421,1,0,0:0:0:0:
256,192,142512,1,0,0:0:0:0:
402,192,142512,1,0,0:0:0:0:
36,192,142602,1,0,0:0:0:0:
475,192,142602,1,0,0:0:0:0:
109,192,142602,1,0,0:0:0:0:
182,192,142602,1,0,0:0:0:0:
329,192,142692,1,0,0:0:0:0:
402,192,142692,1,0,0:0:0:0:
475,192,142783,1,0,0:0:0:0:
182,192,142783,1,0,0:0:0:0:
36,192,142783,1,0,0:0:0:0:
109,192,142873,1,0,0:0:0:0:
256,192,142873,1,0,0:0:0:0:
402,192,142873,1,0,0:0:0:0:
36,192,142964,1,0,0:0:0:0:
182,192,142964,1,0,0:0:0:0:
329,192,142964,1,0,0:0:0:0:
475,192,142964,1,0,0:0:0:0:
402,192,143055,1,0,0:0:0:0:
256,192,143145,1,0,0:0:0:0:
475,192,143145,1,0,0:0:0:0:
109,192,143145,1,0,0:0:0:0:
36,192,143145,1,0,0:0:0:0:
329,192,143235,1,0,0:0:0:0:
402,192,143326,1,0,0:0:0:0:
182,192,143326,1,0,0:0:0:0:
475,192,143326,1,0,0:0:0:0:
36,192,143326,1,0,0:0:0:0:
256,192,143416,1,0,0:0:0:0:
109,192,143507,1,0,0:0:0:0:
329,192,143507,1,0,0:0:0:0:
36,192,143507,1,0,0:0:0:0:
475,192,143507,1,0,0:0:0:0:
182,192,143598,1,0,0:0:0:0:
256,192,143688,1,0,0:0:0:0:
36,192,143688,1,0,0:0:0:0:
402,192,143688,1,0,0:0:0:0:
475,192,143688,1,0,0:0:0:0:
109,192,143778,1,0,0:0:0:0:
182,192,143778,1,0,0:0:0:0:
475,192,143869,1,0,0:0:0:0:
329,192,143869,1,0,0:0:0:0:
256,192,143869,1,0,0:0:0:0:
36,192,143869,1,0,0:0:0:0:
182,192,143959,1,0,0:0:0:0:
402,192,143959,1,0,0:0:0:0:
36,192,144050,1,0,0:0:0:0:
109,192,144050,1,0,0:0:0:0:
256,192,144050,1,0,0:0:0:0:
475,192,144050,1,0,0:0:0:0:
402,192,144140,1,0,0:0:0:0:
329,192,144140,1,0,0:0:0:0:
256,192,144231,1,0,0:0:0:0:
182,192,144231,1,0,0:0:0:0:
36,192,144231,1,0,0:0:0:0:
475,192,144231,1,0,0:0:0:0:
109,192,144322,1,0,0:0:0:0:
329,192,144322,1,0,0:0:0:0:
36,192,144412,1,0,0:0:0:0:
182,192,144412,1,0,0:0:0:0:
256,192,144412,1,0,0:0:0:0:
402,192,144412,1,0,0:0:0:0:
475,192,144412,1,0,0:0:0:0:
329,192,144502,1,0,0:0:0:0:
402,192,144593,1,0,0:0:0:0:
182,192,144593,1,0,0:0:0:0:
36,192,144593,1,0,0:0:0:0:
475,192,144593,1,0,0:0:0:0:
256,192,144683,1,0,0:0:0:0:
329,192,144774,1,0,0:0:0:0:
109,192,144774,1,0,0:0:0:0:
36,192,144774,1,0,0:0:0:0:
475,192,144774,1,0,0:0:0:0:
182,192,144865,1,0,0:0:0:0:
256,192,144865,1,0,0:0:0:0:
402,192,144955,1,0,0:0:0:0:
475,192,144955,1,0,0:0:0:0:
36,192,144955,1,0,0:0:0:0:
109,192,144955,1,0,0:0:0:0:
256,192,145045,1,0,0:0:0:0:
329,192,145045,1,0,0:0:0:0:
36,192,145136,1,0,0:0:0:0:
475,192,145136,1,0,0:0:0:0:
402,192,145136,1,0,0:0:0:0:
182,192,145136,1,0,0:0:0:0:
329,192,145226,1,0,0:0:0:0:
109,192,145226,1,0,0:0:0:0:
36,192,145317,1,0,0:0:0:0:
256,192,145317,1,0,0:0:0:0:
475,192,145317,1,0,0:0:0:0:
182,192,145317,1,0,0:0:0:0:
329,192,145408,1,0,0:0:0:0:
402,192,145408,1,0,0:0:0:0:
36,192,145498,1,0,0:0:0:0:
109,192,145498,1,0,0:0:0:0:
256,192,145498,1,0,0:0:0:0:
475,192,145498,1,0,0:0:0:0:
182,192,145588,1,0,0:0:0:0:
402,192,145588,1,0,0:0:0:0:
109,192,145678,1,0,0:0:0:0:
36,192,145678,1,0,0:0:0:0:
329,192,145678,1,0,0:0:0:0:
256,192,145678,1,0,0:0:0:0:
402,192,145769,1,0,0:0:0:0:
475,192,145769,1,0,0:0:0:0:
36,192,145860,1,0,0:0:0:0:
182,192,145860,1,0,0:0:0:0:
329,192,145860,1,0,0:0:0:0:
256,192,145860,1,0,0:0:0:0:
109,192,145950,1,0,0:0:0:0:
475,192,145950,1,0,0:0:0:0:
36,192,146041,1,0,0:0:0:0:
182,192,146041,1,0,0:0:0:0:
402,192,146041,1,0,0:0:0:0:
256,192,146041,1,0,0:0:0:0:
329,192,146132,1,0,0:0:0:0:
109,192,146132,1,0,0:0:0:0:
36,192,146222,1,0,0:0:0:0:
182,192,146222,1,0,0:0:0:0:
256,192,146222,1,0,0:0:0:0:
475,192,146222,1,0,0:0:0:0:
402,192,146312,1,0,0:0:0:0:
329,192,146312,1,0,0:0:0:0:
475,192,146403,1,0,0:0:0:0:
182,192,146403,1,0,0:0:0:0:
109,192,146403,1,0,0:0:0:0:
36,192,146403,1,0,0:0:0:0:
256,192,146493,1,0,0:0:0:0:
329,192,146493,1,0,0:0:0:0:
402,192,146584,1,0,0:0:0:0:
475,192,146584,1,0,0:0:0:0:
109,192,146584,1,0,0:0:0:0:
36,192,146584,1,0,0:0:0:0:
182,192,146675,1,0,0:0:0:0:
256,192,146675,1,0,0:0:0:0:
329,192,146675,1,0,0:0:0:0:
36,192,146765,1,0,0:0:0:0:
109,192,146765,1,0,0:0:0:0:
402,192,146765,1,0,0:0:0:0:
475,192,146765,1,0,0:0:0:0:
182,192,146855,1,0,0:0:0:0:
256,192,146855,1,0,0:0:0:0:
329,192,146855,1,0,0:0:0:0:
36,192,147036,1,0,0:0:0:0:
402,192,147036,1,0,0:0:0:0:
109,192,147036,1,0,0:0:0:0:
256,192,147036,1,0,0:0:0:0:
109,192,147217,1,0,0:0:0:0:
182,192,147217,1,0,0:0:0:0:
329,192,147217,1,0,0:0:0:0:
475,192,147217,1,0,0:0:0:0:
182,192,147398,1,0,0:0:0:0:
256,192,147398,1,0,0:0:0:0:
402,192,147398,1,0,0:0:0:0:
36,192,147398,1,0,0:0:0:0:
109,192,147579,1,0,0:0:0:0:
256,192,147579,1,0,0:0:0:0:
329,192,147579,1,0,0:0:0:0:
36,192,147670,1,0,0:0:0:0:
182,192,147670,1,0,0:0:0:0:
402,192,147670,1,0,0:0:0:0:
475,192,147670,1,0,0:0:0:0:
329,192,147715,1,0,0:0:0:0:
256,192,147760,1,0,0:0:0:0:
182,192,147805,1,0,0:0:0:0:
109,192,147851,1,0,0:0:0:0:
402,192,147851,1,0,0:0:0:0:
475,192,147851,1,0,0:0:0:0:
36,192,147851,1,0,0:0:0:0:
329,192,147896,1,0,0:0:0:0:
256,192,147942,1,0,0:0:0:0:
182,192,147986,1,0,0:0:0:0:
109,192,148032,1,0,0:0:0:0:
36,192,148032,1,0,0:0:0:0:
475,192,148032,1,0,0:0:0:0:
329,192,148032,1,0,0:0:0:0:
256,192,148122,1,0,0:0:0:0:
402,192,148122,1,0,0:0:0:0:
329,192,148213,1,0,0:0:0:0:
182,192,148213,1,0,0:0:0:0:
36,192,148213,1,0,0:0:0:0:
109,192,148303,1,0,0:0:0:0:
256,192,148303,1,0,0:0:0:0:
36,192,148394,1,0,0:0:0:0:
182,192,148394,1,0,0:0:0:0:
402,192,148394,1,0,0:0:0:0:
475,192,148394,1,0,0:0:0:0:
109,192,148485,1,0,0:0:0:0:
329,192,148485,1,0,0:0:0:0:
182,192,148575,1,0,0:0:0:0:
402,192,148575,1,0,0:0:0:0:
475,192,148575,1,0,0:0:0:0:
256,192,148665,1,0,0:0:0:0:
36,192,148665,1,0,0:0:0:0:
475,192,148755,1,0,0:0:0:0:
109,192,148755,1,0,0:0:0:0:
329,192,148755,1,0,0:0:0:0:
182,192,148846,1,0,0:0:0:0:
402,192,148846,1,0,0:0:0:0:
475,192,148937,1,0,0:0:0:0:
36,192,148937,1,0,0:0:0:0:
256,192,148937,1,0,0:0:0:0:
109,192,148997,1,0,0:0:0:0:
402,192,148997,1,0,0:0:0:0:
182,192,149058,1,0,0:0:0:0:
329,192,149058,1,0,0:0:0:0:
36,192,149118,1,0,0:0:0:0:
475,192,149118,1,0,0:0:0:0:
256,192,149118,1,0,0:0:0:0:
182,192,149208,1,0,0:0:0:0:
402,192,149208,1,0,0:0:0:0:
109,192,149298,1,0,0:0:0:0:
329,192,149298,1,0,0:0:0:0:
36,192,149298,1,0,0:0:0:0:
256,192,149389,1,0,0:0:0:0:
402,192,149389,1,0,0:0:0:0:
36,192,149480,1,0,0:0:0:0:
475,192,149480,1,0,0:0:0:0:
329,192,149480,1,0,0:0:0:0:
182,192,149480,1,0,0:0:0:0:
256,192,149570,1,0,0:0:0:0:
109,192,149570,1,0,0:0:0:0:
182,192,149661,1,0,0:0:0:0:
329,192,149661,1,0,0:0:0:0:
475,192,149661,1,0,0:0:0:0:
402,192,149752,1,0,0:0:0:0:
256,192,149752,1,0,0:0:0:0:
475,192,149842,1,0,0:0:0:0:
329,192,149842,1,0,0:0:0:0:
109,192,149842,1,0,0:0:0:0:
36,192,149842,1,0,0:0:0:0:
402,192,149932,1,0,0:0:0:0:
182,192,149932,1,0,0:0:0:0:
329,192,150023,1,0,0:0:0:0:
109,192,150023,1,0,0:0:0:0:
36,192,150023,1,0,0:0:0:0:
256,192,150113,1,0,0:0:0:0:
475,192,150113,1,0,0:0:0:0:
36,192,150204,1,0,0:0:0:0:
402,192,150204,1,0,0:0:0:0:
182,192,150204,1,0,0:0:0:0:
329,192,150294,1,0,0:0:0:0:
109,192,150294,1,0,0:0:0:0:
36,192,150385,1,0,0:0:0:0:
475,192,150385,1,0,0:0:0:0:
256,192,150385,1,0,0:0:0:0:
402,192,150445,1,0,0:0:0:0:
109,192,150445,1,0,0:0:0:0:
329,192,150505,1,0,0:0:0:0:
182,192,150505,1,0,0:0:0:0:
475,192,150565,1,0,0:0:0:0:
36,192,150565,1,0,0:0:0:0:
256,192,150565,1,0,0:0:0:0:
329,192,150656,1,0,0:0:0:0:
109,192,150656,1,0,0:0:0:0:
402,192,150747,1,0,0:0:0:0:
182,192,150747,1,0,0:0:0:0:
475,192,150747,1,0,0:0:0:0:
256,192,150837,1,0,0:0:0:0:
109,192,150837,1,0,0:0:0:0:
475,192,150928,1,0,0:0:0:0:
36,192,150928,1,0,0:0:0:0:
182,192,150928,1,0,0:0:0:0:
329,192,150928,1,0,0:0:0:0:
109,192,151018,1,0,0:0:0:0:
402,192,151018,1,0,0:0:0:0:
182,192,151108,1,0,0:0:0:0:
329,192,151108,1,0,0:0:0:0:
256,192,151108,1,0,0:0:0:0:
109,192,151199,1,0,0:0:0:0:
402,192,151199,1,0,0:0:0:0:
36,192,151290,1,0,0:0:0:0:
475,192,151290,1,0,0:0:0:0:
256,192,151290,1,0,0:0:0:0:
182,192,151380,1,0,0:0:0:0:
402,192,151380,1,0,0:0:0:0:
109,192,151471,1,0,0:0:0:0:
329,192,151471,1,0,0:0:0:0:
36,192,151471,1,0,0:0:0:0:
182,192,151562,1,0,0:0:0:0:
402,192,151562,1,0,0:0:0:0:
256,192,151652,1,0,0:0:0:0:
475,192,151652,1,0,0:0:0:0:
36,192,151652,1,0,0:0:0:0:
182,192,151742,1,0,0:0:0:0:
329,192,151742,1,0,0:0:0:0:
109,192,151832,1,0,0:0:0:0:
36,192,151832,1,0,0:0:0:0:
475,192,151832,1,0,0:0:0:0:
402,192,151832,1,0,0:0:0:0:
182,192,151923,1,0,0:0:0:0:
329,192,151923,1,0,0:0:0:0:
256,192,152014,1,0,0:0:0:0:
36,192,152014,1,0,0:0:0:0:
475,192,152014,1,0,0:0:0:0:
109,192,152104,1,0,0:0:0:0:
329,192,152104,1,0,0:0:0:0:
182,192,152195,1,0,0:0:0:0:
402,192,152195,1,0,0:0:0:0:
475,192,152195,1,0,0:0:0:0:
109,192,152285,1,0,0:0:0:0:
329,192,152285,1,0,0:0:0:0:
36,192,152375,1,0,0:0:0:0:
256,192,152375,1,0,0:0:0:0:
475,192,152375,1,0,0:0:0:0:
182,192,152466,1,0,0:0:0:0:
402,192,152466,1,0,0:0:0:0:
109,192,152557,1,0,0:0:0:0:
36,192,152557,1,0,0:0:0:0:
329,192,152557,1,0,0:0:0:0:
475,192,152557,1,0,0:0:0:0:
182,192,152617,1,0,0:0:0:0:
256,192,152617,1,0,0:0:0:0:
402,192,152677,1,0,0:0:0:0:
475,192,152677,1,0,0:0:0:0:
36,192,152738,1,0,0:0:0:0:
329,192,152738,1,0,0:0:0:0:
256,192,152738,1,0,0:0:0:0:
109,192,152738,1,0,0:0:0:0:
182,192,152828,1,0,0:0:0:0:
402,192,152828,1,0,0:0:0:0:
256,192,152918,1,0,0:0:0:0:
475,192,152918,1,0,0:0:0:0:
36,192,152918,1,0,0:0:0:0:
109,192,153009,1,0,0:0:0:0:
329,192,153009,1,0,0:0:0:0:
182,192,153009,1,0,0:0:0:0:
36,192,153100,1,0,0:0:0:0:
475,192,153100,1,0,0:0:0:0:
402,192,153100,1,0,0:0:0:0:
256,192,153100,1,0,0:0:0:0:
109,192,153190,1,0,0:0:0:0:
182,192,153190,1,0,0:0:0:0:
36,192,153281,1,0,0:0:0:0:
402,192,153281,1,0,0:0:0:0:
475,192,153281,1,0,0:0:0:0:
329,192,153281,1,0,0:0:0:0:
256,192,153371,1,0,0:0:0:0:
182,192,153371,1,0,0:0:0:0:
475,192,153462,1,0,0:0:0:0:
109,192,153462,1,0,0:0:0:0:
36,192,153462,1,0,0:0:0:0:
402,192,153462,1,0,0:0:0:0:
329,192,153552,1,0,0:0:0:0:
256,192,153552,1,0,0:0:0:0:
36,192,153642,1,0,0:0:0:0:
109,192,153642,1,0,0:0:0:0:
475,192,153642,1,0,0:0:0:0:
182,192,153642,1,0,0:0:0:0:
329,192,153733,1,0,0:0:0:0:
402,192,153733,1,0,0:0:0:0:
36,192,153824,1,0,0:0:0:0:
109,192,153824,1,0,0:0:0:0:
475,192,153824,1,0,0:0:0:0:
182,192,153824,1,0,0:0:0:0:
402,192,153914,1,0,0:0:0:0:
256,192,153914,1,0,0:0:0:0:
36,192,154005,1,0,0:0:0:0:
182,192,154005,1,0,0:0:0:0:
329,192,154005,1,0,0:0:0:0:
256,192,154095,1,0,0:0:0:0:
109,192,154095,1,0,0:0:0:0:
402,192,154185,1,0,0:0:0:0:
475,192,154185,1,0,0:0:0:0:
36,192,154185,1,0,0:0:0:0:
182,192,154185,1,0,0:0:0:0:
329,192,154276,1,0,0:0:0:0:
109,192,154276,1,0,0:0:0:0:
475,192,154367,1,0,0:0:0:0:
402,192,154367,1,0,0:0:0:0:
182,192,154367,1,0,0:0:0:0:
36,192,154457,1,0,0:0:0:0:
256,192,154457,1,0,0:0:0:0:
329,192,154548,1,0,0:0:0:0:
109,192,154548,1,0,0:0:0:0:
475,192,154548,1,0,0:0:0:0:
402,192,154638,1,0,0:0:0:0:
182,192,154638,1,0,0:0:0:0:
256,192,154728,1,0,0:0:0:0:
36,192,154728,1,0,0:0:0:0:
475,192,154728,1,0,0:0:0:0:
402,192,154789,1,0,0:0:0:0:
109,192,154789,1,0,0:0:0:0:
329,192,154849,1,0,0:0:0:0:
182,192,154849,1,0,0:0:0:0:
256,192,154909,1,0,0:0:0:0:
475,192,154909,1,0,0:0:0:0:
36,192,154909,1,0,0:0:0:0:
402,192,155000,1,0,0:0:0:0:
182,192,155000,1,0,0:0:0:0:
36,192,155091,1,0,0:0:0:0:
329,192,155091,1,0,0:0:0:0:
109,192,155091,1,0,0:0:0:0:
402,192,155181,1,0,0:0:0:0:
256,192,155181,1,0,0:0:0:0:
329,192,155272,1,0,0:0:0:0:
182,192,155272,1,0,0:0:0:0:
36,192,155272,1,0,0:0:0:0:
475,192,155272,1,0,0:0:0:0:
109,192,155362,1,0,0:0:0:0:
256,192,155362,1,0,0:0:0:0:
475,192,155452,1,0,0:0:0:0:
329,192,155452,1,0,0:0:0:0:
182,192,155452,1,0,0:0:0:0:
256,192,155543,1,0,0:0:0:0:
402,192,155543,1,0,0:0:0:0:
109,192,155634,1,0,0:0:0:0:
36,192,155634,1,0,0:0:0:0:
475,192,155634,1,0,0:0:0:0:
329,192,155634,1,0,0:0:0:0:
182,192,155724,1,0,0:0:0:0:
402,192,155724,1,0,0:0:0:0:
36,192,155815,1,0,0:0:0:0:
109,192,155815,1,0,0:0:0:0:
329,192,155815,1,0,0:0:0:0:
475,192,155905,1,0,0:0:0:0:
256,192,155905,1,0,0:0:0:0:
182,192,155995,1,0,0:0:0:0:
402,192,155995,1,0,0:0:0:0:
36,192,155995,1,0,0:0:0:0:
109,192,156086,1,0,0:0:0:0:
329,192,156086,1,0,0:0:0:0:
256,192,156177,1,0,0:0:0:0:
475,192,156177,1,0,0:0:0:0:
36,192,156177,1,0,0:0:0:0:
109,192,156237,1,0,0:0:0:0:
402,192,156237,1,0,0:0:0:0:
182,192,156297,1,0,0:0:0:0:
329,192,156297,1,0,0:0:0:0:
256,192,156358,1,0,0:0:0:0:
36,192,156358,1,0,0:0:0:0:
475,192,156358,1,0,0:0:0:0:
109,192,156448,1,0,0:0:0:0:
329,192,156448,1,0,0:0:0:0:
475,192,156538,1,0,0:0:0:0:
182,192,156538,1,0,0:0:0:0:
402,192,156538,1,0,0:0:0:0:
109,192,156629,1,0,0:0:0:0:
256,192,156629,1,0,0:0:0:0:
182,192,156719,1,0,0:0:0:0:
329,192,156719,1,0,0:0:0:0:
475,192,156719,1,0,0:0:0:0:
36,192,156719,1,0,0:0:0:0:
402,192,156810,1,0,0:0:0:0:
109,192,156810,1,0,0:0:0:0:
256,192,156901,1,0,0:0:0:0:
329,192,156901,1,0,0:0:0:0:
182,192,156901,1,0,0:0:0:0:
402,192,156991,1,0,0:0:0:0:
109,192,156991,1,0,0:0:0:0:
256,192,157082,1,0,0:0:0:0:
475,192,157082,1,0,0:0:0:0:
36,192,157082,1,0,0:0:0:0:
402,192,157172,1,0,0:0:0:0:
182,192,157172,1,0,0:0:0:0:
36,192,157262,1,0,0:0:0:0:
329,192,157262,1,0,0:0:0:0:
109,192,157262,1,0,0:0:0:0:
402,192,157353,1,0,0:0:0:0:
182,192,157353,1,0,0:0:0:0:
36,192,157444,1,0,0:0:0:0:
475,192,157444,1,0,0:0:0:0:
256,192,157444,1,0,0:0:0:0:
329,192,157534,1,0,0:0:0:0:
182,192,157534,1,0,0:0:0:0:
475,192,157625,1,0,0:0:0:0:
402,192,157625,1,0,0:0:0:0:
109,192,157625,1,0,0:0:0:0:
36,192,157625,1,0,0:0:0:0:
329,192,157715,1,0,0:0:0:0:
182,192,157715,1,0,0:0:0:0:
475,192,157805,1,0,0:0:0:0:
36,192,157805,1,0,0:0:0:0:
256,192,157805,1,0,0:0:0:0:
329,192,157896,1,0,0:0:0:0:
109,192,157896,1,0,0:0:0:0:
475,192,157986,1,0,0:0:0:0:
402,192,157986,1,0,0:0:0:0:
182,192,157986,1,0,0:0:0:0:
329,192,158077,1,0,0:0:0:0:
109,192,158077,1,0,0:0:0:0:
475,192,158168,1,0,0:0:0:0:
256,192,158168,1,0,0:0:0:0:
36,192,158168,1,0,0:0:0:0:
402,192,158258,1,0,0:0:0:0:
182,192,158258,1,0,0:0:0:0:
329,192,158348,1,0,0:0:0:0:
475,192,158348,1,0,0:0:0:0:
109,192,158348,1,0,0:0:0:0:
36,192,158348,1,0,0:0:0:0:
256,192,158408,1,0,0:0:0:0:
182,192,158408,1,0,0:0:0:0:
475,192,158469,1,0,0:0:0:0:
402,192,158469,1,0,0:0:0:0:
256,192,158529,1,0,0:0:0:0:
109,192,158529,1,0,0:0:0:0:
36,192,158529,1,0,0:0:0:0:
329,192,158529,1,0,0:0:0:0:
402,192,158620,1,0,0:0:0:0:
182,192,158620,1,0,0:0:0:0:
36,192,158711,1,0,0:0:0:0:
475,192,158711,1,0,0:0:0:0:
256,192,158711,1,0,0:0:0:0:
182,192,158801,1,0,0:0:0:0:
329,192,158801,1,0,0:0:0:0:
109,192,158801,1,0,0:0:0:0:
256,192,158892,1,0,0:0:0:0:
36,192,158892,1,0,0:0:0:0:
475,192,158892,1,0,0:0:0:0:
329,192,158982,1,0,0:0:0:0:
402,192,158982,1,0,0:0:0:0:
36,192,159072,1,0,0:0:0:0:
182,192,159072,1,0,0:0:0:0:
475,192,159072,1,0,0:0:0:0:
109,192,159072,1,0,0:0:0:0:
329,192,159163,1,0,0:0:0:0:
256,192,159163,1,0,0:0:0:0:
475,192,159254,1,0,0:0:0:0:
109,192,159254,1,0,0:0:0:0:
36,192,159254,1,0,0:0:0:0:
402,192,159254,1,0,0:0:0:0:
256,192,159344,1,0,0:0:0:0:
182,192,159344,1,0,0:0:0:0:
36,192,159435,1,0,0:0:0:0:
329,192,159435,1,0,0:0:0:0:
475,192,159435,1,0,0:0:0:0:
402,192,159435,1,0,0:0:0:0:
109,192,159525,1,0,0:0:0:0:
182,192,159525,1,0,0:0:0:0:
36,192,159615,1,0,0:0:0:0:
329,192,159615,1,0,0:0:0:0:
475,192,159615,1,0,0:0:0:0:
402,192,159615,1,0,0:0:0:0:
256,192,159615,1,0,0:0:0:0:
109,192,159796,1,0,0:0:0:0:
182,192,159796,1,0,0:0:0:0:
329,192,159796,1,0,0:0:0:0:
475,192,159796,1,0,0:0:0:0:
182,192,159978,1,0,0:0:0:0:
256,192,159978,1,0,0:0:0:0:
402,192,159978,1,0,0:0:0:0:
36,192,159978,1,0,0:0:0:0:
109,192,160068,1,0,0:0:0:0:
329,192,160068,1,0,0:0:0:0:
475,192,160068,1,0,0:0:0:0:
36,192,160158,1,0,0:0:0:0:
182,192,160158,1,0,0:0:0:0:
256,192,160158,1,0,0:0:0:0:
402,192,160158,1,0,0:0:0:0:
109,192,160249,1,0,0:0:0:0:
329,192,160249,1,0,0:0:0:0:
475,192,160249,1,0,0:0:0:0:
36,192,160339,1,0,0:0:0:0:
256,192,160339,1,0,0:0:0:0:
182,192,160339,1,0,0:0:0:0:
402,192,160339,1,0,0:0:0:0:
109,192,160521,1,0,0:0:0:0:
256,192,160521,1,0,0:0:0:0:
329,192,160521,1,0,0:0:0:0:
475,192,160521,1,0,0:0:0:0:
329,192,160702,1,0,0:0:0:0:
402,192,160702,1,0,0:0:0:0:
182,192,160702,1,0,0:0:0:0:
36,192,160702,1,0,0:0:0:0:
109,192,160792,1,0,0:0:0:0:
256,192,160792,1,0,0:0:0:0:
475,192,160792,1,0,0:0:0:0:
36,192,160882,1,0,0:0:0:0:
182,192,160882,1,0,0:0:0:0:
329,192,160882,1,0,0:0:0:0:
402,192,160882,1,0,0:0:0:0:
109,192,160973,1,0,0:0:0:0:
256,192,160973,1,0,0:0:0:0:
475,192,160973,1,0,0:0:0:0:
36,192,161063,1,0,0:0:0:0:
182,192,161063,1,0,0:0:0:0:
329,192,161063,1,0,0:0:0:0:
402,192,161063,1,0,0:0:0:0:
109,192,161245,1,0,0:0:0:0:
256,192,161245,1,0,0:0:0:0:
402,192,161245,1,0,0:0:0:0:
475,192,161245,1,0,0:0:0:0:
36,192,161425,1,0,0:0:0:0:
182,192,161425,1,0,0:0:0:0:
329,192,161425,1,0,0:0:0:0:
475,192,161425,1,0,0:0:0:0:
109,192,161516,1,0,0:0:0:0:
256,192,161516,1,0,0:0:0:0:
402,192,161516,1,0,0:0:0:0:
36,192,161606,1,0,0:0:0:0:
182,192,161606,1,0,0:0:0:0:
329,192,161606,1,0,0:0:0:0:
475,192,161606,1,0,0:0:0:0:
109,192,161697,1,0,0:0:0:0:
256,192,161697,1,0,0:0:0:0:
402,192,161697,1,0,0:0:0:0:
36,192,161788,1,0,0:0:0:0:
182,192,161788,1,0,0:0:0:0:
329,192,161788,1,0,0:0:0:0:
475,192,161788,1,0,0:0:0:0:
109,192,161968,1,0,0:0:0:0:
36,192,161968,1,0,0:0:0:0:
256,192,161968,1,0,0:0:0:0:
402,192,161968,1,0,0:0:0:0:
475,192,161968,1,0,0:0:0:0:
36,192,162149,1,0,0:0:0:0:
182,192,162149,1,0,0:0:0:0:
256,192,162149,1,0,0:0:0:0:
329,192,162149,1,0,0:0:0:0:
475,192,162149,1,0,0:0:0:0:
36,192,162512,1,0,0:0:0:0:
182,192,162512,1,0,0:0:0:0:
36,192,162692,1,0,0:0:0:0:
182,192,162692,1,0,0:0:0:0:
109,192,162873,1,0,0:0:0:0:
256,192,162873,1,0,0:0:0:0:
109,192,163055,1,0,0:0:0:0:
256,192,163055,1,0,0:0:0:0:
182,192,163235,1,0,0:0:0:0:
329,192,163235,1,0,0:0:0:0:
256,192,163507,1,0,0:0:0:0:
402,192,163507,1,0,0:0:0:0:
36,192,163778,1,0,0:0:0:0:
109,192,163778,1,0,0:0:0:0:
182,192,163778,1,0,0:0:0:0:
329,192,163778,1,0,0:0:0:0:
402,192,163778,1,0,0:0:0:0:
475,192,163778,1,0,0:0:0:0:
