osu file format v14

[General]
AudioFilename: nameless - Milk Crown on Sonnetica120.mp3
AudioLeadIn: 0
PreviewTime: 55008
Countdown: 0
SampleSet: None
StackLeniency: 0.7
Mode: 3
LetterboxInBreaks: 0
SpecialStyle: 0
WidescreenStoryboard: 0

[Editor]
Bookmarks: 1715,14263,26812,39362,55048,66028,76418,88968,95242,101517,112497,118796,131345,137619,144678,158796,160364,177619
DistanceSpacing: 1.5
BeatDivisor: 4
GridSize: 8
TimelineZoom: 3.100005

[Metadata]
Title:Milk Crown on Sonnetica
TitleUnicode:ミルククラウン・オン・ソーネチカ
Artist:nameless
ArtistUnicode:nameless
Creator:Applequestria
Version:For Kawawa [1.2x Rate]
Source:
Tags:utaite ユジー yuzy vocaloid hatsune miku
BeatmapID:4536949
BeatmapSetID:747695

[Difficulty]
HPDrainRate:8
CircleSize:7
OverallDifficulty:8
ApproachRate:5
SliderMultiplier:1.4
SliderTickRate:1

[Events]
//Background and Video events
0,0,"nameless - Milk Crown on Sonnetica.jpg",0,0
//Break Periods
//Storyboard Layer 0 (Background)
//Storyboard Layer 1 (Fail)
//Storyboard Layer 2 (Pass)
//Storyboard Layer 3 (Foreground)
//Storyboard Layer 4 (Overlay)
//Storyboard Sound Samples

[TimingPoints]
1715,196.078431372549,4,2,0,10,1,0
55048,-100,4,2,0,10,0,1
66028,196.078431372549,3,2,0,10,1,0
66616,196.078431372549,4,2,0,10,1,0
67400,196.078431372549,3,2,0,10,1,0
69164,196.078431372549,4,2,0,10,1,0
69948,196.078431372549,3,2,0,10,1,0
74066,196.078431372549,4,2,0,10,1,0
101517,-100,4,2,0,10,0,1
112497,-100,4,2,0,10,0,0
112522,196.078431372549,4,2,0,10,1,0
144678,-100,4,2,0,10,0,1
158797,-100,4,2,0,10,0,0
160365,-100,4,2,0,10,0,1
176051,-100,4,2,0,10,0,0

[HitObjects]
182,192,1715,5,0,0:0:0:0:
329,192,1715,1,0,0:0:0:0:
475,192,1715,1,0,0:0:0:0:
36,192,1715,1,0,0:0:0:0:
36,192,1911,1,0,0:0:0:0:
329,192,1911,1,0,0:0:0:0:
475,192,1911,1,0,0:0:0:0:
329,192,2008,1,0,0:0:0:0:
475,192,2008,1,0,0:0:0:0:
182,192,2107,1,0,0:0:0:0:
256,192,2205,1,0,0:0:0:0:
402,192,2205,1,0,0:0:0:0:
36,192,2302,1,0,0:0:0:0:
182,192,2401,1,0,0:0:0:0:
329,192,2401,1,0,0:0:0:0:
475,192,2401,1,0,0:0:0:0:
182,192,2597,1,0,0:0:0:0:
256,192,2597,1,0,0:0:0:0:
402,192,2597,1,0,0:0:0:0:
36,192,2695,1,0,0:0:0:0:
475,192,2793,1,0,0:0:0:0:
329,192,2793,1,0,0:0:0:0:
182,192,2891,1,0,0:0:0:0:
402,192,2891,1,0,0:0:0:0:
256,192,2891,1,0,0:0:0:0:
475,192,2989,1,0,0:0:0:0:
329,192,2989,1,0,0:0:0:0:
36,192,3088,1,0,0:0:0:0:
402,192,3088,1,0,0:0:0:0:
256,192,3088,1,0,0:0:0:0:
475,192,3185,1,0,0:0:0:0:
329,192,3185,1,0,0:0:0:0:
182,192,3283,1,0,0:0:0:0:
329,192,3283,1,0,0:0:0:0:
475,192,3283,1,0,0:0:0:0:
402,192,3382,1,0,0:0:0:0:
256,192,3382,1,0,0:0:0:0:
36,192,3479,1,0,0:0:0:0:
329,192,3479,1,0,0:0:0:0:
475,192,3479,1,0,0:0:0:0:
329,192,3578,1,0,0:0:0:0:
475,192,3578,1,0,0:0:0:0:
182,192,3675,1,0,0:0:0:0:
256,192,3773,1,0,0:0:0:0:
402,192,3773,1,0,0:0:0:0:
36,192,3872,1,0,0:0:0:0:
182,192,3969,1,0,0:0:0:0:
329,192,3969,1,0,0:0:0:0:
475,192,3969,1,0,0:0:0:0:
182,192,4166,1,0,0:0:0:0:
329,192,4166,1,0,0:0:0:0:
475,192,4166,1,0,0:0:0:0:
36,192,4263,1,0,0:0:0:0:
256,192,4362,1,0,0:0:0:0:
402,192,4362,1,0,0:0:0:0:
182,192,4460,1,0,0:0:0:0:
329,192,4460,1,0,0:0:0:0:
475,192,4460,1,0,0:0:0:0:
36,192,4656,1,0,0:0:0:0:
256,192,4656,1,0,0:0:0:0:
402,192,4656,1,0,0:0:0:0:
329,192,4852,5,0,0:0:0:0:
36,192,4852,1,0,0:0:0:0:
182,192,4852,1,0,0:0:0:0:
109,192,4950,1,0,0:0:0:0:
256,192,4950,1,0,0:0:0:0:
475,192,5048,1,0,0:0:0:0:
182,192,5048,1,0,0:0:0:0:
36,192,5048,1,0,0:0:0:0:
182,192,5146,1,0,0:0:0:0:
36,192,5146,1,0,0:0:0:0:
329,192,5244,1,0,0:0:0:0:
256,192,5342,1,0,0:0:0:0:
109,192,5342,1,0,0:0:0:0:
475,192,5440,1,0,0:0:0:0:
329,192,5538,1,0,0:0:0:0:
182,192,5538,1,0,0:0:0:0:
36,192,5538,1,0,0:0:0:0:
329,192,5734,1,0,0:0:0:0:
256,192,5734,1,0,0:0:0:0:
109,192,5734,1,0,0:0:0:0:
475,192,5832,1,0,0:0:0:0:
36,192,5930,1,0,0:0:0:0:
182,192,5930,1,0,0:0:0:0:
329,192,6028,1,0,0:0:0:0:
109,192,6028,1,0,0:0:0:0:
256,192,6028,1,0,0:0:0:0:
36,192,6127,1,0,0:0:0:0:
182,192,6127,1,0,0:0:0:0:
475,192,6224,1,0,0:0:0:0:
256,192,6224,1,0,0:0:0:0:
109,192,6224,1,0,0:0:0:0:
182,192,6322,1,0,0:0:0:0:
36,192,6322,1,0,0:0:0:0:
329,192,6421,1,0,0:0:0:0:
182,192,6421,1,0,0:0:0:0:
36,192,6421,1,0,0:0:0:0:
109,192,6518,1,0,0:0:0:0:
256,192,6518,1,0,0:0:0:0:
475,192,6617,1,0,0:0:0:0:
182,192,6617,1,0,0:0:0:0:
36,192,6617,1,0,0:0:0:0:
182,192,6715,1,0,0:0:0:0:
36,192,6715,1,0,0:0:0:0:
329,192,6812,1,0,0:0:0:0:
256,192,6911,1,0,0:0:0:0:
109,192,6911,1,0,0:0:0:0:
475,192,7008,1,0,0:0:0:0:
329,192,7107,1,0,0:0:0:0:
182,192,7107,1,0,0:0:0:0:
36,192,7107,1,0,0:0:0:0:
329,192,7302,1,0,0:0:0:0:
182,192,7302,1,0,0:0:0:0:
36,192,7302,1,0,0:0:0:0:
475,192,7401,1,0,0:0:0:0:
256,192,7499,1,0,0:0:0:0:
109,192,7499,1,0,0:0:0:0:
329,192,7597,1,0,0:0:0:0:
182,192,7597,1,0,0:0:0:0:
36,192,7597,1,0,0:0:0:0:
475,192,7793,1,0,0:0:0:0:
256,192,7793,1,0,0:0:0:0:
109,192,7793,1,0,0:0:0:0:
36,192,7989,1,0,0:0:0:0:
109,192,7989,1,0,0:0:0:0:
475,192,7989,1,0,0:0:0:0:
256,192,7989,1,0,0:0:0:0:
329,192,7989,1,0,0:0:0:0:
402,192,8088,1,0,0:0:0:0:
182,192,8088,1,0,0:0:0:0:
329,192,8185,1,0,0:0:0:0:
109,192,8185,1,0,0:0:0:0:
256,192,8283,1,0,0:0:0:0:
36,192,8283,1,0,0:0:0:0:
182,192,8382,1,0,0:0:0:0:
475,192,8382,1,0,0:0:0:0:
402,192,8382,1,0,0:0:0:0:
109,192,8479,1,0,0:0:0:0:
329,192,8479,1,0,0:0:0:0:
36,192,8578,1,0,0:0:0:0:
256,192,8578,1,0,0:0:0:0:
182,192,8675,1,0,0:0:0:0:
475,192,8675,1,0,0:0:0:0:
402,192,8675,1,0,0:0:0:0:
36,192,8773,1,0,0:0:0:0:
109,192,8773,1,0,0:0:0:0:
475,192,8872,1,0,0:0:0:0:
402,192,8872,1,0,0:0:0:0:
182,192,8872,1,0,0:0:0:0:
182,192,9068,1,0,0:0:0:0:
475,192,9068,1,0,0:0:0:0:
402,192,9068,1,0,0:0:0:0:
36,192,9166,1,0,0:0:0:0:
109,192,9166,1,0,0:0:0:0:
329,192,9166,1,0,0:0:0:0:
182,192,9263,1,0,0:0:0:0:
402,192,9263,1,0,0:0:0:0:
256,192,9362,1,0,0:0:0:0:
36,192,9362,1,0,0:0:0:0:
475,192,9362,1,0,0:0:0:0:
109,192,9460,1,0,0:0:0:0:
329,192,9460,1,0,0:0:0:0:
36,192,9558,1,0,0:0:0:0:
475,192,9558,1,0,0:0:0:0:
402,192,9558,1,0,0:0:0:0:
182,192,9558,1,0,0:0:0:0:
256,192,9558,1,0,0:0:0:0:
329,192,9656,1,0,0:0:0:0:
109,192,9656,1,0,0:0:0:0:
402,192,9754,1,0,0:0:0:0:
182,192,9754,1,0,0:0:0:0:
475,192,9852,1,0,0:0:0:0:
256,192,9852,1,0,0:0:0:0:
109,192,9950,1,0,0:0:0:0:
36,192,9950,1,0,0:0:0:0:
329,192,9950,1,0,0:0:0:0:
182,192,10048,1,0,0:0:0:0:
402,192,10048,1,0,0:0:0:0:
256,192,10146,1,0,0:0:0:0:
475,192,10146,1,0,0:0:0:0:
109,192,10244,1,0,0:0:0:0:
36,192,10244,1,0,0:0:0:0:
329,192,10244,1,0,0:0:0:0:
402,192,10342,1,0,0:0:0:0:
475,192,10342,1,0,0:0:0:0:
329,192,10440,1,0,0:0:0:0:
109,192,10440,1,0,0:0:0:0:
36,192,10440,1,0,0:0:0:0:
36,192,10636,1,0,0:0:0:0:
109,192,10636,1,0,0:0:0:0:
329,192,10636,1,0,0:0:0:0:
182,192,10734,1,0,0:0:0:0:
256,192,10734,1,0,0:0:0:0:
402,192,10734,1,0,0:0:0:0:
475,192,10734,1,0,0:0:0:0:
36,192,10930,1,0,0:0:0:0:
109,192,10930,1,0,0:0:0:0:
329,192,10930,1,0,0:0:0:0:
256,192,11127,1,0,0:0:0:0:
402,192,11127,1,0,0:0:0:0:
182,192,11127,1,0,0:0:0:0:
36,192,11127,1,0,0:0:0:0:
475,192,11127,1,0,0:0:0:0:
109,192,11224,1,0,0:0:0:0:
329,192,11224,1,0,0:0:0:0:
182,192,11322,1,0,0:0:0:0:
402,192,11322,1,0,0:0:0:0:
256,192,11421,1,0,0:0:0:0:
475,192,11421,1,0,0:0:0:0:
329,192,11518,1,0,0:0:0:0:
36,192,11518,1,0,0:0:0:0:
109,192,11518,1,0,0:0:0:0:
402,192,11617,1,0,0:0:0:0:
182,192,11617,1,0,0:0:0:0:
475,192,11715,1,0,0:0:0:0:
256,192,11715,1,0,0:0:0:0:
329,192,11812,1,0,0:0:0:0:
36,192,11812,1,0,0:0:0:0:
109,192,11812,1,0,0:0:0:0:
475,192,11911,1,0,0:0:0:0:
402,192,11911,1,0,0:0:0:0:
109,192,12008,1,0,0:0:0:0:
182,192,12008,1,0,0:0:0:0:
329,192,12008,1,0,0:0:0:0:
329,192,12205,1,0,0:0:0:0:
109,192,12205,1,0,0:0:0:0:
36,192,12205,1,0,0:0:0:0:
475,192,12302,1,0,0:0:0:0:
402,192,12302,1,0,0:0:0:0:
182,192,12302,1,0,0:0:0:0:
109,192,12401,1,0,0:0:0:0:
329,192,12401,1,0,0:0:0:0:
36,192,12499,1,0,0:0:0:0:
256,192,12499,1,0,0:0:0:0:
475,192,12499,1,0,0:0:0:0:
182,192,12597,1,0,0:0:0:0:
402,192,12597,1,0,0:0:0:0:
36,192,12695,1,0,0:0:0:0:
109,192,12695,1,0,0:0:0:0:
329,192,12695,1,0,0:0:0:0:
475,192,12695,1,0,0:0:0:0:
182,192,12793,1,0,0:0:0:0:
256,192,12793,1,0,0:0:0:0:
402,192,12793,1,0,0:0:0:0:
36,192,12891,1,0,0:0:0:0:
109,192,12891,1,0,0:0:0:0:
475,192,12891,1,0,0:0:0:0:
329,192,12891,1,0,0:0:0:0:
182,192,12989,1,0,0:0:0:0:
256,192,12989,1,0,0:0:0:0:
402,192,12989,1,0,0:0:0:0:
109,192,13185,1,0,0:0:0:0:
329,192,13185,1,0,0:0:0:0:
475,192,13185,1,0,0:0:0:0:
182,192,13185,1,0,0:0:0:0:
36,192,13382,1,0,0:0:0:0:
256,192,13382,1,0,0:0:0:0:
402,192,13382,1,0,0:0:0:0:
109,192,13382,1,0,0:0:0:0:
109,192,13578,1,0,0:0:0:0:
329,192,13578,1,0,0:0:0:0:
475,192,13578,1,0,0:0:0:0:
182,192,13578,1,0,0:0:0:0:
256,192,13773,1,0,0:0:0:0:
182,192,13773,1,0,0:0:0:0:
402,192,13773,1,0,0:0:0:0:
475,192,13872,1,0,0:0:0:0:
329,192,13872,1,0,0:0:0:0:
36,192,13872,1,0,0:0:0:0:
109,192,13872,1,0,0:0:0:0:
475,192,14068,1,0,0:0:0:0:
36,192,14068,1,0,0:0:0:0:
182,192,14068,1,0,0:0:0:0:
402,192,14068,1,0,0:0:0:0:
256,192,14166,1,0,0:0:0:0:
109,192,14166,1,0,0:0:0:0:
329,192,14166,1,0,0:0:0:0:
475,192,14263,1,0,0:0:0:0:
402,192,14263,1,0,0:0:0:0:
182,192,14263,1,0,0:0:0:0:
36,192,14263,1,0,0:0:0:0:
329,192,14362,1,0,0:0:0:0:
109,192,14362,1,0,0:0:0:0:
256,192,14460,1,0,0:0:0:0:
36,192,14460,1,0,0:0:0:0:
475,192,14460,1,0,0:0:0:0:
402,192,14558,1,0,0:0:0:0:
182,192,14558,1,0,0:0:0:0:
36,192,14656,1,0,0:0:0:0:
475,192,14656,1,0,0:0:0:0:
109,192,14656,1,0,0:0:0:0:
329,192,14656,1,0,0:0:0:0:
402,192,14754,1,0,0:0:0:0:
256,192,14754,1,0,0:0:0:0:
36,192,14852,1,0,0:0:0:0:
329,192,14852,1,0,0:0:0:0:
182,192,14852,1,0,0:0:0:0:
402,192,14950,1,0,0:0:0:0:
256,192,14950,1,0,0:0:0:0:
109,192,15048,1,0,0:0:0:0:
36,192,15048,1,0,0:0:0:0:
475,192,15048,1,0,0:0:0:0:
329,192,15048,1,0,0:0:0:0:
182,192,15146,1,0,0:0:0:0:
402,192,15146,1,0,0:0:0:0:
256,192,15244,1,0,0:0:0:0:
475,192,15244,1,0,0:0:0:0:
36,192,15244,1,0,0:0:0:0:
109,192,15342,1,0,0:0:0:0:
329,192,15342,1,0,0:0:0:0:
475,192,15440,1,0,0:0:0:0:
36,192,15440,1,0,0:0:0:0:
402,192,15440,1,0,0:0:0:0:
182,192,15440,1,0,0:0:0:0:
109,192,15538,1,0,0:0:0:0:
256,192,15538,1,0,0:0:0:0:
475,192,15636,1,0,0:0:0:0:
182,192,15636,1,0,0:0:0:0:
329,192,15636,1,0,0:0:0:0:
109,192,15734,1,0,0:0:0:0:
256,192,15734,1,0,0:0:0:0:
36,192,15832,1,0,0:0:0:0:
182,192,15832,1,0,0:0:0:0:
475,192,15832,1,0,0:0:0:0:
402,192,15832,1,0,0:0:0:0:
109,192,15930,1,0,0:0:0:0:
329,192,15930,1,0,0:0:0:0:
36,192,16028,1,0,0:0:0:0:
182,192,16028,1,0,0:0:0:0:
256,192,16028,1,0,0:0:0:0:
475,192,16028,1,0,0:0:0:0:
109,192,16127,1,0,0:0:0:0:
402,192,16127,1,0,0:0:0:0:
36,192,16224,1,0,0:0:0:0:
182,192,16224,1,0,0:0:0:0:
329,192,16224,1,0,0:0:0:0:
256,192,16224,1,0,0:0:0:0:
109,192,16322,1,0,0:0:0:0:
475,192,16322,1,0,0:0:0:0:
36,192,16421,1,0,0:0:0:0:
182,192,16421,1,0,0:0:0:0:
256,192,16421,1,0,0:0:0:0:
329,192,16421,1,0,0:0:0:0:
109,192,16518,1,0,0:0:0:0:
402,192,16518,1,0,0:0:0:0:
329,192,16617,1,0,0:0:0:0:
475,192,16617,1,0,0:0:0:0:
182,192,16617,1,0,0:0:0:0:
256,192,16617,1,0,0:0:0:0:
402,192,16715,1,0,0:0:0:0:
109,192,16715,1,0,0:0:0:0:
475,192,16812,1,0,0:0:0:0:
329,192,16812,1,0,0:0:0:0:
256,192,16812,1,0,0:0:0:0:
36,192,16812,1,0,0:0:0:0:
402,192,16911,1,0,0:0:0:0:
182,192,16911,1,0,0:0:0:0:
109,192,16911,1,0,0:0:0:0:
475,192,17008,1,0,0:0:0:0:
329,192,17008,1,0,0:0:0:0:
256,192,17008,1,0,0:0:0:0:
36,192,17008,1,0,0:0:0:0:
402,192,17107,1,0,0:0:0:0:
182,192,17107,1,0,0:0:0:0:
329,192,17205,1,0,0:0:0:0:
475,192,17205,1,0,0:0:0:0:
36,192,17205,1,0,0:0:0:0:
109,192,17205,1,0,0:0:0:0:
402,192,17302,1,0,0:0:0:0:
182,192,17302,1,0,0:0:0:0:
475,192,17401,1,0,0:0:0:0:
329,192,17401,1,0,0:0:0:0:
36,192,17401,1,0,0:0:0:0:
256,192,17401,1,0,0:0:0:0:
109,192,17499,1,0,0:0:0:0:
182,192,17499,1,0,0:0:0:0:
402,192,17499,1,0,0:0:0:0:
36,192,17597,1,0,0:0:0:0:
329,192,17597,1,0,0:0:0:0:
256,192,17597,1,0,0:0:0:0:
475,192,17597,1,0,0:0:0:0:
109,192,17695,1,0,0:0:0:0:
182,192,17695,1,0,0:0:0:0:
402,192,17695,1,0,0:0:0:0:
36,192,17793,1,0,0:0:0:0:
256,192,17793,1,0,0:0:0:0:
329,192,17793,1,0,0:0:0:0:
475,192,17793,1,0,0:0:0:0:
402,192,17891,1,0,0:0:0:0:
109,192,17891,1,0,0:0:0:0:
256,192,17989,1,0,0:0:0:0:
182,192,17989,1,0,0:0:0:0:
329,192,17989,1,0,0:0:0:0:
109,192,18088,1,0,0:0:0:0:
402,192,18088,1,0,0:0:0:0:
256,192,18185,1,0,0:0:0:0:
182,192,18185,1,0,0:0:0:0:
36,192,18185,1,0,0:0:0:0:
475,192,18185,1,0,0:0:0:0:
109,192,18283,1,0,0:0:0:0:
329,192,18283,1,0,0:0:0:0:
402,192,18283,1,0,0:0:0:0:
36,192,18382,1,0,0:0:0:0:
182,192,18382,1,0,0:0:0:0:
256,192,18382,1,0,0:0:0:0:
475,192,18382,1,0,0:0:0:0:
402,192,18479,1,0,0:0:0:0:
329,192,18479,1,0,0:0:0:0:
109,192,18479,1,0,0:0:0:0:
36,192,18578,1,0,0:0:0:0:
182,192,18578,1,0,0:0:0:0:
256,192,18578,1,0,0:0:0:0:
475,192,18578,1,0,0:0:0:0:
109,192,18675,1,0,0:0:0:0:
402,192,18675,1,0,0:0:0:0:
182,192,18773,1,0,0:0:0:0:
256,192,18773,1,0,0:0:0:0:
329,192,18773,1,0,0:0:0:0:
109,192,18872,1,0,0:0:0:0:
402,192,18872,1,0,0:0:0:0:
36,192,18969,1,0,0:0:0:0:
182,192,18969,1,0,0:0:0:0:
256,192,18969,1,0,0:0:0:0:
475,192,18969,1,0,0:0:0:0:
109,192,19068,1,0,0:0:0:0:
329,192,19068,1,0,0:0:0:0:
182,192,19166,1,0,0:0:0:0:
475,192,19166,1,0,0:0:0:0:
402,192,19166,1,0,0:0:0:0:
36,192,19263,1,0,0:0:0:0:
256,192,19263,1,0,0:0:0:0:
109,192,19362,1,0,0:0:0:0:
329,192,19362,1,0,0:0:0:0:
475,192,19362,1,0,0:0:0:0:
182,192,19460,1,0,0:0:0:0:
402,192,19460,1,0,0:0:0:0:
36,192,19558,1,0,0:0:0:0:
256,192,19558,1,0,0:0:0:0:
475,192,19558,1,0,0:0:0:0:
109,192,19656,1,0,0:0:0:0:
329,192,19656,1,0,0:0:0:0:
182,192,19754,1,0,0:0:0:0:
402,192,19754,1,0,0:0:0:0:
475,192,19754,1,0,0:0:0:0:
36,192,19754,1,0,0:0:0:0:
256,192,19852,1,0,0:0:0:0:
329,192,19852,1,0,0:0:0:0:
109,192,19950,1,0,0:0:0:0:
36,192,19950,1,0,0:0:0:0:
475,192,19950,1,0,0:0:0:0:
402,192,19950,1,0,0:0:0:0:
182,192,20048,1,0,0:0:0:0:
256,192,20048,1,0,0:0:0:0:
36,192,20146,1,0,0:0:0:0:
109,192,20146,1,0,0:0:0:0:
402,192,20146,1,0,0:0:0:0:
475,192,20146,1,0,0:0:0:0:
256,192,20244,1,0,0:0:0:0:
329,192,20244,1,0,0:0:0:0:
109,192,20342,1,0,0:0:0:0:
36,192,20342,1,0,0:0:0:0:
475,192,20342,1,0,0:0:0:0:
402,192,20342,1,0,0:0:0:0:
182,192,20440,1,0,0:0:0:0:
256,192,20440,1,0,0:0:0:0:
36,192,20538,1,0,0:0:0:0:
109,192,20538,1,0,0:0:0:0:
475,192,20538,1,0,0:0:0:0:
329,192,20538,1,0,0:0:0:0:
182,192,20636,1,0,0:0:0:0:
402,192,20636,1,0,0:0:0:0:
36,192,20734,1,0,0:0:0:0:
256,192,20734,1,0,0:0:0:0:
475,192,20734,1,0,0:0:0:0:
109,192,20832,1,0,0:0:0:0:
329,192,20832,1,0,0:0:0:0:
36,192,20930,1,0,0:0:0:0:
182,192,20930,1,0,0:0:0:0:
256,192,20930,1,0,0:0:0:0:
402,192,20930,1,0,0:0:0:0:
475,192,20930,1,0,0:0:0:0:
109,192,21028,1,0,0:0:0:0:
329,192,21028,1,0,0:0:0:0:
36,192,21127,1,0,0:0:0:0:
256,192,21127,1,0,0:0:0:0:
475,192,21127,1,0,0:0:0:0:
182,192,21224,1,0,0:0:0:0:
402,192,21224,1,0,0:0:0:0:
36,192,21322,1,0,0:0:0:0:
109,192,21322,1,0,0:0:0:0:
256,192,21322,1,0,0:0:0:0:
475,192,21322,1,0,0:0:0:0:
329,192,21388,1,0,0:0:0:0:
182,192,21388,1,0,0:0:0:0:
402,192,21453,1,0,0:0:0:0:
109,192,21453,1,0,0:0:0:0:
36,192,21518,1,0,0:0:0:0:
256,192,21518,1,0,0:0:0:0:
475,192,21518,1,0,0:0:0:0:
329,192,21617,1,0,0:0:0:0:
182,192,21617,1,0,0:0:0:0:
36,192,21715,1,0,0:0:0:0:
475,192,21715,1,0,0:0:0:0:
109,192,21715,1,0,0:0:0:0:
402,192,21715,1,0,0:0:0:0:
182,192,21812,1,0,0:0:0:0:
329,192,21812,1,0,0:0:0:0:
256,192,21911,1,0,0:0:0:0:
36,192,21911,1,0,0:0:0:0:
475,192,21911,1,0,0:0:0:0:
109,192,22008,1,0,0:0:0:0:
402,192,22008,1,0,0:0:0:0:
36,192,22107,1,0,0:0:0:0:
182,192,22107,1,0,0:0:0:0:
256,192,22107,1,0,0:0:0:0:
475,192,22107,1,0,0:0:0:0:
329,192,22107,1,0,0:0:0:0:
109,192,22205,1,0,0:0:0:0:
402,192,22205,1,0,0:0:0:0:
36,192,22302,1,0,0:0:0:0:
256,192,22302,1,0,0:0:0:0:
475,192,22302,1,0,0:0:0:0:
182,192,22401,1,0,0:0:0:0:
402,192,22401,1,0,0:0:0:0:
109,192,22499,1,0,0:0:0:0:
36,192,22499,1,0,0:0:0:0:
256,192,22499,1,0,0:0:0:0:
475,192,22499,1,0,0:0:0:0:
329,192,22499,1,0,0:0:0:0:
182,192,22597,1,0,0:0:0:0:
402,192,22597,1,0,0:0:0:0:
36,192,22695,1,0,0:0:0:0:
256,192,22695,1,0,0:0:0:0:
475,192,22695,1,0,0:0:0:0:
109,192,22793,1,0,0:0:0:0:
329,192,22793,1,0,0:0:0:0:
36,192,22891,1,0,0:0:0:0:
475,192,22891,1,0,0:0:0:0:
402,192,22891,1,0,0:0:0:0:
182,192,22891,1,0,0:0:0:0:
329,192,22989,1,0,0:0:0:0:
109,192,22989,1,0,0:0:0:0:
475,192,23088,1,0,0:0:0:0:
36,192,23088,1,0,0:0:0:0:
402,192,23088,1,0,0:0:0:0:
256,192,23088,1,0,0:0:0:0:
329,192,23185,1,0,0:0:0:0:
182,192,23185,1,0,0:0:0:0:
109,192,23185,1,0,0:0:0:0:
36,192,23283,1,0,0:0:0:0:
256,192,23283,1,0,0:0:0:0:
402,192,23283,1,0,0:0:0:0:
475,192,23283,1,0,0:0:0:0:
182,192,23382,1,0,0:0:0:0:
329,192,23382,1,0,0:0:0:0:
256,192,23479,1,0,0:0:0:0:
36,192,23479,1,0,0:0:0:0:
475,192,23479,1,0,0:0:0:0:
109,192,23578,1,0,0:0:0:0:
402,192,23578,1,0,0:0:0:0:
36,192,23675,1,0,0:0:0:0:
182,192,23675,1,0,0:0:0:0:
475,192,23675,1,0,0:0:0:0:
256,192,23675,1,0,0:0:0:0:
109,192,23773,1,0,0:0:0:0:
329,192,23773,1,0,0:0:0:0:
182,192,23872,1,0,0:0:0:0:
402,192,23872,1,0,0:0:0:0:
475,192,23872,1,0,0:0:0:0:
36,192,23969,1,0,0:0:0:0:
256,192,23969,1,0,0:0:0:0:
109,192,24068,1,0,0:0:0:0:
329,192,24068,1,0,0:0:0:0:
475,192,24068,1,0,0:0:0:0:
182,192,24166,1,0,0:0:0:0:
402,192,24166,1,0,0:0:0:0:
36,192,24263,1,0,0:0:0:0:
256,192,24263,1,0,0:0:0:0:
475,192,24263,1,0,0:0:0:0:
109,192,24362,1,0,0:0:0:0:
329,192,24362,1,0,0:0:0:0:
36,192,24460,1,0,0:0:0:0:
182,192,24460,1,0,0:0:0:0:
402,192,24460,1,0,0:0:0:0:
109,192,24558,1,0,0:0:0:0:
256,192,24558,1,0,0:0:0:0:
475,192,24558,1,0,0:0:0:0:
36,192,24656,1,0,0:0:0:0:
182,192,24656,1,0,0:0:0:0:
329,192,24656,1,0,0:0:0:0:
109,192,24754,1,0,0:0:0:0:
256,192,24754,1,0,0:0:0:0:
475,192,24754,1,0,0:0:0:0:
36,192,24852,1,0,0:0:0:0:
182,192,24852,1,0,0:0:0:0:
402,192,24852,1,0,0:0:0:0:
109,192,24950,1,0,0:0:0:0:
329,192,24950,1,0,0:0:0:0:
475,192,24950,1,0,0:0:0:0:
36,192,25048,1,0,0:0:0:0:
402,192,25048,1,0,0:0:0:0:
256,192,25048,1,0,0:0:0:0:
182,192,25146,1,0,0:0:0:0:
329,192,25146,1,0,0:0:0:0:
475,192,25146,1,0,0:0:0:0:
36,192,25244,1,0,0:0:0:0:
109,192,25244,1,0,0:0:0:0:
256,192,25244,1,0,0:0:0:0:
402,192,25244,1,0,0:0:0:0:
36,192,25342,1,0,0:0:0:0:
36,192,25538,1,0,0:0:0:0:
36,192,25734,1,0,0:0:0:0:
36,192,25930,1,0,0:0:0:0:
182,192,25930,1,0,0:0:0:0:
36,192,26028,1,0,0:0:0:0:
109,192,26028,1,0,0:0:0:0:
256,192,26028,1,0,0:0:0:0:
475,192,26028,1,0,0:0:0:0:
402,192,26028,1,0,0:0:0:0:
182,192,26518,1,0,0:0:0:0:
329,192,26518,1,0,0:0:0:0:
182,192,26715,1,0,0:0:0:0:
329,192,26715,1,0,0:0:0:0:
36,192,26812,1,0,0:0:0:0:
109,192,26812,1,0,0:0:0:0:
256,192,26812,1,0,0:0:0:0:
475,192,26812,1,0,0:0:0:0:
402,192,26812,1,0,0:0:0:0:
182,192,26911,1,0,0:0:0:0:
329,192,26911,1,0,0:0:0:0:
36,192,27008,1,0,0:0:0:0:
256,192,27008,1,0,0:0:0:0:
402,192,27008,1,0,0:0:0:0:
475,192,27008,1,0,0:0:0:0:
109,192,27107,1,0,0:0:0:0:
329,192,27107,1,0,0:0:0:0:
36,192,27205,1,0,0:0:0:0:
182,192,27205,1,0,0:0:0:0:
475,192,27205,1,0,0:0:0:0:
402,192,27205,1,0,0:0:0:0:
329,192,27302,1,0,0:0:0:0:
256,192,27302,1,0,0:0:0:0:
36,192,27401,1,0,0:0:0:0:
109,192,27401,1,0,0:0:0:0:
182,192,27401,1,0,0:0:0:0:
475,192,27401,1,0,0:0:0:0:
329,192,27499,1,0,0:0:0:0:
402,192,27499,1,0,0:0:0:0:
36,192,27597,1,0,0:0:0:0:
109,192,27597,1,0,0:0:0:0:
256,192,27597,1,0,0:0:0:0:
475,192,27597,1,0,0:0:0:0:
182,192,27695,1,0,0:0:0:0:
329,192,27695,1,0,0:0:0:0:
36,192,27793,1,0,0:0:0:0:
109,192,27793,1,0,0:0:0:0:
475,192,27793,1,0,0:0:0:0:
256,192,27793,1,0,0:0:0:0:
182,192,27891,1,0,0:0:0:0:
402,192,27891,1,0,0:0:0:0:
36,192,27989,1,0,0:0:0:0:
109,192,27989,1,0,0:0:0:0:
329,192,27989,1,0,0:0:0:0:
475,192,27989,1,0,0:0:0:0:
182,192,28088,1,0,0:0:0:0:
256,192,28088,1,0,0:0:0:0:
329,192,28185,1,0,0:0:0:0:
475,192,28185,1,0,0:0:0:0:
402,192,28185,1,0,0:0:0:0:
36,192,28185,1,0,0:0:0:0:
109,192,28283,1,0,0:0:0:0:
182,192,28283,1,0,0:0:0:0:
36,192,28382,1,0,0:0:0:0:
256,192,28382,1,0,0:0:0:0:
475,192,28382,1,0,0:0:0:0:
402,192,28382,1,0,0:0:0:0:
109,192,28479,1,0,0:0:0:0:
329,192,28479,1,0,0:0:0:0:
402,192,28578,1,0,0:0:0:0:
475,192,28578,1,0,0:0:0:0:
36,192,28578,1,0,0:0:0:0:
182,192,28578,1,0,0:0:0:0:
256,192,28675,1,0,0:0:0:0:
109,192,28675,1,0,0:0:0:0:
402,192,28773,1,0,0:0:0:0:
475,192,28773,1,0,0:0:0:0:
36,192,28773,1,0,0:0:0:0:
182,192,28773,1,0,0:0:0:0:
329,192,28773,1,0,0:0:0:0:
109,192,28872,1,0,0:0:0:0:
36,192,28969,1,0,0:0:0:0:
475,192,28969,1,0,0:0:0:0:
402,192,28969,1,0,0:0:0:0:
256,192,28969,1,0,0:0:0:0:
182,192,29068,1,0,0:0:0:0:
329,192,29068,1,0,0:0:0:0:
36,192,29166,1,0,0:0:0:0:
256,192,29166,1,0,0:0:0:0:
475,192,29166,1,0,0:0:0:0:
109,192,29166,1,0,0:0:0:0:
329,192,29263,1,0,0:0:0:0:
182,192,29263,1,0,0:0:0:0:
256,192,29362,1,0,0:0:0:0:
402,192,29362,1,0,0:0:0:0:
475,192,29362,1,0,0:0:0:0:
36,192,29362,1,0,0:0:0:0:
182,192,29460,1,0,0:0:0:0:
109,192,29558,1,0,0:0:0:0:
329,192,29558,1,0,0:0:0:0:
475,192,29558,1,0,0:0:0:0:
36,192,29558,1,0,0:0:0:0:
256,192,29656,1,0,0:0:0:0:
182,192,29656,1,0,0:0:0:0:
36,192,29754,1,0,0:0:0:0:
475,192,29754,1,0,0:0:0:0:
402,192,29754,1,0,0:0:0:0:
109,192,29754,1,0,0:0:0:0:
256,192,29852,1,0,0:0:0:0:
329,192,29852,1,0,0:0:0:0:
36,192,29950,1,0,0:0:0:0:
402,192,29950,1,0,0:0:0:0:
475,192,29950,1,0,0:0:0:0:
182,192,29950,1,0,0:0:0:0:
109,192,30048,1,0,0:0:0:0:
329,192,30048,1,0,0:0:0:0:
475,192,30146,1,0,0:0:0:0:
256,192,30146,1,0,0:0:0:0:
36,192,30146,1,0,0:0:0:0:
402,192,30146,1,0,0:0:0:0:
329,192,30244,1,0,0:0:0:0:
182,192,30244,1,0,0:0:0:0:
475,192,30342,1,0,0:0:0:0:
402,192,30342,1,0,0:0:0:0:
256,192,30342,1,0,0:0:0:0:
36,192,30342,1,0,0:0:0:0:
109,192,30440,1,0,0:0:0:0:
182,192,30440,1,0,0:0:0:0:
36,192,30538,1,0,0:0:0:0:
475,192,30538,1,0,0:0:0:0:
402,192,30538,1,0,0:0:0:0:
329,192,30538,1,0,0:0:0:0:
182,192,30636,1,0,0:0:0:0:
256,192,30636,1,0,0:0:0:0:
36,192,30734,1,0,0:0:0:0:
475,192,30734,1,0,0:0:0:0:
109,192,30734,1,0,0:0:0:0:
329,192,30734,1,0,0:0:0:0:
182,192,30832,1,0,0:0:0:0:
402,192,30832,1,0,0:0:0:0:
475,192,30930,1,0,0:0:0:0:
109,192,30930,1,0,0:0:0:0:
36,192,30930,1,0,0:0:0:0:
256,192,30930,1,0,0:0:0:0:
329,192,31028,1,0,0:0:0:0:
182,192,31028,1,0,0:0:0:0:
256,192,31127,1,0,0:0:0:0:
475,192,31127,1,0,0:0:0:0:
36,192,31127,1,0,0:0:0:0:
109,192,31127,1,0,0:0:0:0:
329,192,31224,1,0,0:0:0:0:
402,192,31224,1,0,0:0:0:0:
109,192,31322,1,0,0:0:0:0:
182,192,31322,1,0,0:0:0:0:
475,192,31322,1,0,0:0:0:0:
36,192,31322,1,0,0:0:0:0:
256,192,31421,1,0,0:0:0:0:
329,192,31421,1,0,0:0:0:0:
402,192,31518,1,0,0:0:0:0:
182,192,31518,1,0,0:0:0:0:
475,192,31518,1,0,0:0:0:0:
36,192,31518,1,0,0:0:0:0:
329,192,31617,1,0,0:0:0:0:
256,192,31617,1,0,0:0:0:0:
36,192,31715,1,0,0:0:0:0:
182,192,31715,1,0,0:0:0:0:
402,192,31715,1,0,0:0:0:0:
475,192,31715,1,0,0:0:0:0:
109,192,31812,1,0,0:0:0:0:
256,192,31812,1,0,0:0:0:0:
182,192,31911,1,0,0:0:0:0:
329,192,31911,1,0,0:0:0:0:
36,192,31911,1,0,0:0:0:0:
402,192,31911,1,0,0:0:0:0:
475,192,31911,1,0,0:0:0:0:
109,192,32008,1,0,0:0:0:0:
402,192,32107,1,0,0:0:0:0:
256,192,32107,1,0,0:0:0:0:
36,192,32107,1,0,0:0:0:0:
475,192,32107,1,0,0:0:0:0:
329,192,32205,1,0,0:0:0:0:
182,192,32205,1,0,0:0:0:0:
475,192,32302,1,0,0:0:0:0:
109,192,32302,1,0,0:0:0:0:
36,192,32302,1,0,0:0:0:0:
256,192,32302,1,0,0:0:0:0:
182,192,32401,1,0,0:0:0:0:
329,192,32401,1,0,0:0:0:0:
475,192,32499,1,0,0:0:0:0:
36,192,32499,1,0,0:0:0:0:
256,192,32499,1,0,0:0:0:0:
402,192,32499,1,0,0:0:0:0:
182,192,32597,1,0,0:0:0:0:
475,192,32695,1,0,0:0:0:0:
36,192,32695,1,0,0:0:0:0:
109,192,32695,1,0,0:0:0:0:
329,192,32695,1,0,0:0:0:0:
182,192,32793,1,0,0:0:0:0:
256,192,32793,1,0,0:0:0:0:
109,192,32891,1,0,0:0:0:0:
36,192,32891,1,0,0:0:0:0:
475,192,32891,1,0,0:0:0:0:
402,192,32891,1,0,0:0:0:0:
256,192,32989,1,0,0:0:0:0:
329,192,32989,1,0,0:0:0:0:
36,192,33088,1,0,0:0:0:0:
109,192,33088,1,0,0:0:0:0:
402,192,33088,1,0,0:0:0:0:
475,192,33088,1,0,0:0:0:0:
329,192,33185,1,0,0:0:0:0:
182,192,33185,1,0,0:0:0:0:
402,192,33283,1,0,0:0:0:0:
475,192,33283,1,0,0:0:0:0:
36,192,33283,1,0,0:0:0:0:
256,192,33283,1,0,0:0:0:0:
329,192,33382,1,0,0:0:0:0:
109,192,33382,1,0,0:0:0:0:
475,192,33479,1,0,0:0:0:0:
402,192,33479,1,0,0:0:0:0:
36,192,33479,1,0,0:0:0:0:
182,192,33479,1,0,0:0:0:0:
256,192,33578,1,0,0:0:0:0:
329,192,33578,1,0,0:0:0:0:
182,192,33675,1,0,0:0:0:0:
475,192,33675,1,0,0:0:0:0:
36,192,33675,1,0,0:0:0:0:
109,192,33675,1,0,0:0:0:0:
402,192,33773,1,0,0:0:0:0:
329,192,33773,1,0,0:0:0:0:
256,192,33872,1,0,0:0:0:0:
475,192,33872,1,0,0:0:0:0:
36,192,33872,1,0,0:0:0:0:
109,192,33872,1,0,0:0:0:0:
329,192,33969,1,0,0:0:0:0:
182,192,33969,1,0,0:0:0:0:
475,192,34068,1,0,0:0:0:0:
256,192,34068,1,0,0:0:0:0:
36,192,34068,1,0,0:0:0:0:
109,192,34068,1,0,0:0:0:0:
402,192,34166,1,0,0:0:0:0:
182,192,34166,1,0,0:0:0:0:
329,192,34263,1,0,0:0:0:0:
475,192,34263,1,0,0:0:0:0:
36,192,34263,1,0,0:0:0:0:
109,192,34263,1,0,0:0:0:0:
256,192,34362,1,0,0:0:0:0:
182,192,34362,1,0,0:0:0:0:
402,192,34460,1,0,0:0:0:0:
36,192,34460,1,0,0:0:0:0:
329,192,34460,1,0,0:0:0:0:
475,192,34460,1,0,0:0:0:0:
182,192,34558,1,0,0:0:0:0:
109,192,34558,1,0,0:0:0:0:
475,192,34656,1,0,0:0:0:0:
402,192,34656,1,0,0:0:0:0:
36,192,34656,1,0,0:0:0:0:
256,192,34656,1,0,0:0:0:0:
329,192,34754,1,0,0:0:0:0:
109,192,34754,1,0,0:0:0:0:
36,192,34852,1,0,0:0:0:0:
182,192,34852,1,0,0:0:0:0:
402,192,34852,1,0,0:0:0:0:
475,192,34852,1,0,0:0:0:0:
109,192,34950,1,0,0:0:0:0:
256,192,34950,1,0,0:0:0:0:
182,192,35048,1,0,0:0:0:0:
329,192,35048,1,0,0:0:0:0:
36,192,35048,1,0,0:0:0:0:
402,192,35048,1,0,0:0:0:0:
475,192,35048,1,0,0:0:0:0:
109,192,35146,1,0,0:0:0:0:
402,192,35244,1,0,0:0:0:0:
256,192,35244,1,0,0:0:0:0:
36,192,35244,1,0,0:0:0:0:
475,192,35244,1,0,0:0:0:0:
329,192,35342,1,0,0:0:0:0:
182,192,35342,1,0,0:0:0:0:
475,192,35440,1,0,0:0:0:0:
109,192,35440,1,0,0:0:0:0:
36,192,35440,1,0,0:0:0:0:
256,192,35440,1,0,0:0:0:0:
182,192,35538,1,0,0:0:0:0:
329,192,35538,1,0,0:0:0:0:
475,192,35636,1,0,0:0:0:0:
36,192,35636,1,0,0:0:0:0:
256,192,35636,1,0,0:0:0:0:
402,192,35636,1,0,0:0:0:0:
109,192,35734,1,0,0:0:0:0:
475,192,35832,1,0,0:0:0:0:
329,192,35832,1,0,0:0:0:0:
182,192,35832,1,0,0:0:0:0:
402,192,35832,1,0,0:0:0:0:
36,192,35930,1,0,0:0:0:0:
109,192,35930,1,0,0:0:0:0:
182,192,36028,1,0,0:0:0:0:
329,192,36028,1,0,0:0:0:0:
256,192,36028,1,0,0:0:0:0:
475,192,36127,1,0,0:0:0:0:
402,192,36127,1,0,0:0:0:0:
36,192,36224,1,0,0:0:0:0:
109,192,36224,1,0,0:0:0:0:
182,192,36224,1,0,0:0:0:0:
329,192,36224,1,0,0:0:0:0:
256,192,36322,1,0,0:0:0:0:
402,192,36322,1,0,0:0:0:0:
36,192,36421,1,0,0:0:0:0:
475,192,36421,1,0,0:0:0:0:
329,192,36421,1,0,0:0:0:0:
109,192,36421,1,0,0:0:0:0:
182,192,36518,1,0,0:0:0:0:
402,192,36518,1,0,0:0:0:0:
475,192,36617,1,0,0:0:0:0:
256,192,36617,1,0,0:0:0:0:
36,192,36617,1,0,0:0:0:0:
109,192,36617,1,0,0:0:0:0:
329,192,36715,1,0,0:0:0:0:
402,192,36715,1,0,0:0:0:0:
109,192,36812,1,0,0:0:0:0:
36,192,36812,1,0,0:0:0:0:
475,192,36812,1,0,0:0:0:0:
182,192,36812,1,0,0:0:0:0:
256,192,36911,1,0,0:0:0:0:
329,192,36911,1,0,0:0:0:0:
36,192,37008,1,0,0:0:0:0:
402,192,37008,1,0,0:0:0:0:
475,192,37008,1,0,0:0:0:0:
182,192,37008,1,0,0:0:0:0:
109,192,37107,1,0,0:0:0:0:
256,192,37107,1,0,0:0:0:0:
182,192,37205,1,0,0:0:0:0:
402,192,37205,1,0,0:0:0:0:
475,192,37205,1,0,0:0:0:0:
36,192,37205,1,0,0:0:0:0:
109,192,37302,1,0,0:0:0:0:
329,192,37302,1,0,0:0:0:0:
475,192,37401,1,0,0:0:0:0:
402,192,37401,1,0,0:0:0:0:
36,192,37401,1,0,0:0:0:0:
256,192,37401,1,0,0:0:0:0:
182,192,37401,1,0,0:0:0:0:
109,192,37499,1,0,0:0:0:0:
36,192,37597,1,0,0:0:0:0:
329,192,37597,1,0,0:0:0:0:
402,192,37597,1,0,0:0:0:0:
475,192,37597,1,0,0:0:0:0:
182,192,37695,1,0,0:0:0:0:
256,192,37695,1,0,0:0:0:0:
36,192,37793,1,0,0:0:0:0:
329,192,37793,1,0,0:0:0:0:
475,192,37793,1,0,0:0:0:0:
109,192,37793,1,0,0:0:0:0:
182,192,37891,1,0,0:0:0:0:
36,192,37989,1,0,0:0:0:0:
256,192,37989,1,0,0:0:0:0:
475,192,37989,1,0,0:0:0:0:
182,192,38088,1,0,0:0:0:0:
402,192,38088,1,0,0:0:0:0:
36,192,38185,1,0,0:0:0:0:
475,192,38185,1,0,0:0:0:0:
109,192,38185,1,0,0:0:0:0:
329,192,38185,1,0,0:0:0:0:
182,192,38283,1,0,0:0:0:0:
402,192,38382,1,0,0:0:0:0:
256,192,38382,1,0,0:0:0:0:
36,192,38382,1,0,0:0:0:0:
109,192,38479,1,0,0:0:0:0:
182,192,38479,1,0,0:0:0:0:
329,192,38479,1,0,0:0:0:0:
475,192,38479,1,0,0:0:0:0:
182,192,38675,1,0,0:0:0:0:
256,192,38675,1,0,0:0:0:0:
402,192,38675,1,0,0:0:0:0:
36,192,38675,1,0,0:0:0:0:
475,192,38872,1,0,0:0:0:0:
109,192,38872,1,0,0:0:0:0:
256,192,38872,1,0,0:0:0:0:
36,192,38969,1,0,0:0:0:0:
402,192,38969,1,0,0:0:0:0:
182,192,38969,1,0,0:0:0:0:
329,192,38969,1,0,0:0:0:0:
36,192,39166,1,0,0:0:0:0:
109,192,39166,1,0,0:0:0:0:
402,192,39166,1,0,0:0:0:0:
475,192,39166,1,0,0:0:0:0:
329,192,39263,1,0,0:0:0:0:
182,192,39263,1,0,0:0:0:0:
36,192,39362,1,0,0:0:0:0:
256,192,39362,1,0,0:0:0:0:
402,192,39362,1,0,0:0:0:0:
475,192,39362,1,0,0:0:0:0:
109,192,39362,1,0,0:0:0:0:
182,192,39460,1,0,0:0:0:0:
329,192,39460,1,0,0:0:0:0:
109,192,39558,1,0,0:0:0:0:
36,192,39558,1,0,0:0:0:0:
256,192,39558,1,0,0:0:0:0:
475,192,39558,1,0,0:0:0:0:
402,192,39656,1,0,0:0:0:0:
36,192,39754,1,0,0:0:0:0:
182,192,39754,1,0,0:0:0:0:
329,192,39754,1,0,0:0:0:0:
256,192,39754,1,0,0:0:0:0:
109,192,39852,1,0,0:0:0:0:
475,192,39852,1,0,0:0:0:0:
36,192,39950,1,0,0:0:0:0:
182,192,39950,1,0,0:0:0:0:
402,192,39950,1,0,0:0:0:0:
256,192,39950,1,0,0:0:0:0:
329,192,40048,1,0,0:0:0:0:
109,192,40048,1,0,0:0:0:0:
36,192,40146,1,0,0:0:0:0:
256,192,40146,1,0,0:0:0:0:
475,192,40146,1,0,0:0:0:0:
109,192,40244,1,0,0:0:0:0:
329,192,40244,1,0,0:0:0:0:
182,192,40342,1,0,0:0:0:0:
402,192,40342,1,0,0:0:0:0:
475,192,40342,1,0,0:0:0:0:
36,192,40342,1,0,0:0:0:0:
256,192,40440,1,0,0:0:0:0:
329,192,40538,1,0,0:0:0:0:
402,192,40538,1,0,0:0:0:0:
109,192,40538,1,0,0:0:0:0:
36,192,40538,1,0,0:0:0:0:
182,192,40636,1,0,0:0:0:0:
36,192,40734,1,0,0:0:0:0:
329,192,40734,1,0,0:0:0:0:
256,192,40734,1,0,0:0:0:0:
475,192,40734,1,0,0:0:0:0:
182,192,40832,1,0,0:0:0:0:
475,192,40930,1,0,0:0:0:0:
36,192,40930,1,0,0:0:0:0:
109,192,40930,1,0,0:0:0:0:
329,192,40930,1,0,0:0:0:0:
256,192,40930,1,0,0:0:0:0:
182,192,41028,1,0,0:0:0:0:
402,192,41028,1,0,0:0:0:0:
109,192,41127,1,0,0:0:0:0:
36,192,41127,1,0,0:0:0:0:
256,192,41127,1,0,0:0:0:0:
475,192,41127,1,0,0:0:0:0:
329,192,41224,1,0,0:0:0:0:
36,192,41322,1,0,0:0:0:0:
182,192,41322,1,0,0:0:0:0:
402,192,41322,1,0,0:0:0:0:
475,192,41322,1,0,0:0:0:0:
109,192,41421,1,0,0:0:0:0:
256,192,41421,1,0,0:0:0:0:
36,192,41518,1,0,0:0:0:0:
182,192,41518,1,0,0:0:0:0:
329,192,41518,1,0,0:0:0:0:
475,192,41518,1,0,0:0:0:0:
402,192,41617,1,0,0:0:0:0:
109,192,41617,1,0,0:0:0:0:
36,192,41715,1,0,0:0:0:0:
475,192,41715,1,0,0:0:0:0:
256,192,41715,1,0,0:0:0:0:
109,192,41812,1,0,0:0:0:0:
329,192,41812,1,0,0:0:0:0:
182,192,41911,1,0,0:0:0:0:
402,192,41911,1,0,0:0:0:0:
475,192,41911,1,0,0:0:0:0:
36,192,41911,1,0,0:0:0:0:
256,192,42008,1,0,0:0:0:0:
329,192,42107,1,0,0:0:0:0:
402,192,42107,1,0,0:0:0:0:
109,192,42107,1,0,0:0:0:0:
36,192,42107,1,0,0:0:0:0:
182,192,42205,1,0,0:0:0:0:
256,192,42302,1,0,0:0:0:0:
36,192,42302,1,0,0:0:0:0:
475,192,42302,1,0,0:0:0:0:
329,192,42302,1,0,0:0:0:0:
182,192,42401,1,0,0:0:0:0:
109,192,42499,1,0,0:0:0:0:
36,192,42499,1,0,0:0:0:0:
256,192,42499,1,0,0:0:0:0:
475,192,42499,1,0,0:0:0:0:
329,192,42499,1,0,0:0:0:0:
182,192,42597,1,0,0:0:0:0:
402,192,42597,1,0,0:0:0:0:
109,192,42695,1,0,0:0:0:0:
36,192,42695,1,0,0:0:0:0:
256,192,42695,1,0,0:0:0:0:
329,192,42695,1,0,0:0:0:0:
475,192,42793,1,0,0:0:0:0:
36,192,42891,1,0,0:0:0:0:
182,192,42891,1,0,0:0:0:0:
402,192,42891,1,0,0:0:0:0:
256,192,42891,1,0,0:0:0:0:
109,192,42989,1,0,0:0:0:0:
329,192,42989,1,0,0:0:0:0:
36,192,43088,1,0,0:0:0:0:
182,192,43088,1,0,0:0:0:0:
256,192,43088,1,0,0:0:0:0:
475,192,43088,1,0,0:0:0:0:
402,192,43185,1,0,0:0:0:0:
109,192,43185,1,0,0:0:0:0:
36,192,43283,1,0,0:0:0:0:
256,192,43283,1,0,0:0:0:0:
329,192,43283,1,0,0:0:0:0:
475,192,43283,1,0,0:0:0:0:
182,192,43382,1,0,0:0:0:0:
36,192,43479,1,0,0:0:0:0:
109,192,43479,1,0,0:0:0:0:
329,192,43479,1,0,0:0:0:0:
475,192,43479,1,0,0:0:0:0:
256,192,43578,1,0,0:0:0:0:
36,192,43675,1,0,0:0:0:0:
182,192,43675,1,0,0:0:0:0:
402,192,43675,1,0,0:0:0:0:
475,192,43675,1,0,0:0:0:0:
256,192,43773,1,0,0:0:0:0:
329,192,43872,1,0,0:0:0:0:
475,192,43872,1,0,0:0:0:0:
36,192,43872,1,0,0:0:0:0:
109,192,43872,1,0,0:0:0:0:
182,192,43969,1,0,0:0:0:0:
402,192,43969,1,0,0:0:0:0:
36,192,44068,1,0,0:0:0:0:
256,192,44068,1,0,0:0:0:0:
475,192,44068,1,0,0:0:0:0:
109,192,44166,1,0,0:0:0:0:
329,192,44166,1,0,0:0:0:0:
402,192,44166,1,0,0:0:0:0:
182,192,44263,1,0,0:0:0:0:
256,192,44263,1,0,0:0:0:0:
475,192,44263,1,0,0:0:0:0:
36,192,44362,1,0,0:0:0:0:
109,192,44362,1,0,0:0:0:0:
329,192,44362,1,0,0:0:0:0:
402,192,44460,1,0,0:0:0:0:
475,192,44460,1,0,0:0:0:0:
182,192,44460,1,0,0:0:0:0:
256,192,44558,1,0,0:0:0:0:
329,192,44558,1,0,0:0:0:0:
36,192,44558,1,0,0:0:0:0:
109,192,44656,1,0,0:0:0:0:
182,192,44656,1,0,0:0:0:0:
475,192,44656,1,0,0:0:0:0:
36,192,44754,1,0,0:0:0:0:
329,192,44754,1,0,0:0:0:0:
256,192,44754,1,0,0:0:0:0:
402,192,44754,1,0,0:0:0:0:
182,192,44852,1,0,0:0:0:0:
36,192,44950,1,0,0:0:0:0:
109,192,44950,1,0,0:0:0:0:
329,192,44950,1,0,0:0:0:0:
182,192,45048,1,0,0:0:0:0:
256,192,45048,1,0,0:0:0:0:
475,192,45048,1,0,0:0:0:0:
329,192,45146,1,0,0:0:0:0:
402,192,45146,1,0,0:0:0:0:
109,192,45146,1,0,0:0:0:0:
475,192,45244,1,0,0:0:0:0:
36,192,45244,1,0,0:0:0:0:
256,192,45244,1,0,0:0:0:0:
182,192,45342,1,0,0:0:0:0:
329,192,45342,1,0,0:0:0:0:
475,192,45440,1,0,0:0:0:0:
36,192,45440,1,0,0:0:0:0:
109,192,45440,1,0,0:0:0:0:
402,192,45440,1,0,0:0:0:0:
182,192,45538,1,0,0:0:0:0:
329,192,45538,1,0,0:0:0:0:
109,192,45636,1,0,0:0:0:0:
36,192,45636,1,0,0:0:0:0:
256,192,45636,1,0,0:0:0:0:
475,192,45636,1,0,0:0:0:0:
402,192,45636,1,0,0:0:0:0:
329,192,45734,1,0,0:0:0:0:
182,192,45734,1,0,0:0:0:0:
256,192,45832,1,0,0:0:0:0:
475,192,45832,1,0,0:0:0:0:
109,192,45832,1,0,0:0:0:0:
36,192,45832,1,0,0:0:0:0:
402,192,45930,1,0,0:0:0:0:
329,192,46028,1,0,0:0:0:0:
256,192,46028,1,0,0:0:0:0:
36,192,46028,1,0,0:0:0:0:
182,192,46028,1,0,0:0:0:0:
475,192,46127,1,0,0:0:0:0:
109,192,46127,1,0,0:0:0:0:
402,192,46224,1,0,0:0:0:0:
256,192,46224,1,0,0:0:0:0:
36,192,46224,1,0,0:0:0:0:
182,192,46224,1,0,0:0:0:0:
109,192,46322,1,0,0:0:0:0:
329,192,46322,1,0,0:0:0:0:
475,192,46421,1,0,0:0:0:0:
256,192,46421,1,0,0:0:0:0:
36,192,46421,1,0,0:0:0:0:
329,192,46518,1,0,0:0:0:0:
109,192,46518,1,0,0:0:0:0:
475,192,46617,1,0,0:0:0:0:
36,192,46617,1,0,0:0:0:0:
182,192,46617,1,0,0:0:0:0:
402,192,46617,1,0,0:0:0:0:
256,192,46715,1,0,0:0:0:0:
109,192,46812,1,0,0:0:0:0:
36,192,46812,1,0,0:0:0:0:
329,192,46812,1,0,0:0:0:0:
402,192,46812,1,0,0:0:0:0:
109,192,47008,1,0,0:0:0:0:
329,192,47008,1,0,0:0:0:0:
256,192,47008,1,0,0:0:0:0:
475,192,47008,1,0,0:0:0:0:
182,192,47107,1,0,0:0:0:0:
402,192,47107,1,0,0:0:0:0:
329,192,47205,1,0,0:0:0:0:
256,192,47205,1,0,0:0:0:0:
109,192,47205,1,0,0:0:0:0:
475,192,47205,1,0,0:0:0:0:
36,192,47205,1,0,0:0:0:0:
402,192,47302,1,0,0:0:0:0:
182,192,47302,1,0,0:0:0:0:
256,192,47401,1,0,0:0:0:0:
475,192,47401,1,0,0:0:0:0:
109,192,47401,1,0,0:0:0:0:
36,192,47401,1,0,0:0:0:0:
329,192,47499,1,0,0:0:0:0:
402,192,47597,1,0,0:0:0:0:
475,192,47597,1,0,0:0:0:0:
36,192,47597,1,0,0:0:0:0:
182,192,47597,1,0,0:0:0:0:
256,192,47695,1,0,0:0:0:0:
109,192,47695,1,0,0:0:0:0:
329,192,47793,1,0,0:0:0:0:
475,192,47793,1,0,0:0:0:0:
36,192,47793,1,0,0:0:0:0:
182,192,47793,1,0,0:0:0:0:
109,192,47891,1,0,0:0:0:0:
402,192,47891,1,0,0:0:0:0:
256,192,47989,1,0,0:0:0:0:
475,192,47989,1,0,0:0:0:0:
36,192,47989,1,0,0:0:0:0:
329,192,48088,1,0,0:0:0:0:
109,192,48088,1,0,0:0:0:0:
475,192,48185,1,0,0:0:0:0:
36,192,48185,1,0,0:0:0:0:
182,192,48185,1,0,0:0:0:0:
402,192,48185,1,0,0:0:0:0:
109,192,48283,1,0,0:0:0:0:
329,192,48283,1,0,0:0:0:0:
36,192,48382,1,0,0:0:0:0:
256,192,48382,1,0,0:0:0:0:
475,192,48382,1,0,0:0:0:0:
402,192,48479,1,0,0:0:0:0:
182,192,48479,1,0,0:0:0:0:
109,192,48578,1,0,0:0:0:0:
329,192,48578,1,0,0:0:0:0:
36,192,48578,1,0,0:0:0:0:
256,192,48675,1,0,0:0:0:0:
182,192,48675,1,0,0:0:0:0:
402,192,48675,1,0,0:0:0:0:
36,192,48773,1,0,0:0:0:0:
475,192,48773,1,0,0:0:0:0:
329,192,48773,1,0,0:0:0:0:
109,192,48773,1,0,0:0:0:0:
182,192,48872,1,0,0:0:0:0:
256,192,48872,1,0,0:0:0:0:
36,192,48969,1,0,0:0:0:0:
109,192,48969,1,0,0:0:0:0:
402,192,48969,1,0,0:0:0:0:
475,192,48969,1,0,0:0:0:0:
329,192,49068,1,0,0:0:0:0:
36,192,49166,1,0,0:0:0:0:
182,192,49166,1,0,0:0:0:0:
256,192,49166,1,0,0:0:0:0:
475,192,49166,1,0,0:0:0:0:
109,192,49263,1,0,0:0:0:0:
402,192,49263,1,0,0:0:0:0:
36,192,49362,1,0,0:0:0:0:
182,192,49362,1,0,0:0:0:0:
329,192,49362,1,0,0:0:0:0:
256,192,49362,1,0,0:0:0:0:
402,192,49460,1,0,0:0:0:0:
256,192,49558,1,0,0:0:0:0:
182,192,49558,1,0,0:0:0:0:
109,192,49558,1,0,0:0:0:0:
475,192,49558,1,0,0:0:0:0:
36,192,49656,1,0,0:0:0:0:
329,192,49656,1,0,0:0:0:0:
109,192,49754,1,0,0:0:0:0:
182,192,49754,1,0,0:0:0:0:
402,192,49754,1,0,0:0:0:0:
475,192,49754,1,0,0:0:0:0:
256,192,49852,1,0,0:0:0:0:
475,192,49950,1,0,0:0:0:0:
36,192,49950,1,0,0:0:0:0:
182,192,49950,1,0,0:0:0:0:
329,192,49950,1,0,0:0:0:0:
109,192,50048,1,0,0:0:0:0:
402,192,50048,1,0,0:0:0:0:
475,192,50146,1,0,0:0:0:0:
36,192,50146,1,0,0:0:0:0:
182,192,50146,1,0,0:0:0:0:
256,192,50146,1,0,0:0:0:0:
402,192,50244,1,0,0:0:0:0:
36,192,50342,1,0,0:0:0:0:
109,192,50342,1,0,0:0:0:0:
329,192,50342,1,0,0:0:0:0:
256,192,50342,1,0,0:0:0:0:
182,192,50440,1,0,0:0:0:0:
475,192,50440,1,0,0:0:0:0:
109,192,50538,1,0,0:0:0:0:
36,192,50538,1,0,0:0:0:0:
256,192,50538,1,0,0:0:0:0:
402,192,50538,1,0,0:0:0:0:
329,192,50636,1,0,0:0:0:0:
36,192,50734,1,0,0:0:0:0:
256,192,50734,1,0,0:0:0:0:
182,192,50734,1,0,0:0:0:0:
475,192,50734,1,0,0:0:0:0:
109,192,50832,1,0,0:0:0:0:
402,192,50832,1,0,0:0:0:0:
256,192,50930,1,0,0:0:0:0:
36,192,50930,1,0,0:0:0:0:
182,192,50930,1,0,0:0:0:0:
329,192,50930,1,0,0:0:0:0:
402,192,51028,1,0,0:0:0:0:
256,192,51127,1,0,0:0:0:0:
109,192,51127,1,0,0:0:0:0:
182,192,51127,1,0,0:0:0:0:
475,192,51127,1,0,0:0:0:0:
36,192,51224,1,0,0:0:0:0:
329,192,51224,1,0,0:0:0:0:
402,192,51322,1,0,0:0:0:0:
109,192,51322,1,0,0:0:0:0:
182,192,51322,1,0,0:0:0:0:
475,192,51322,1,0,0:0:0:0:
256,192,51421,1,0,0:0:0:0:
36,192,51518,1,0,0:0:0:0:
182,192,51518,1,0,0:0:0:0:
329,192,51518,1,0,0:0:0:0:
475,192,51518,1,0,0:0:0:0:
109,192,51617,1,0,0:0:0:0:
402,192,51617,1,0,0:0:0:0:
36,192,51715,1,0,0:0:0:0:
182,192,51715,1,0,0:0:0:0:
256,192,51715,1,0,0:0:0:0:
475,192,51715,1,0,0:0:0:0:
329,192,51812,1,0,0:0:0:0:
402,192,51911,1,0,0:0:0:0:
475,192,51911,1,0,0:0:0:0:
36,192,51911,1,0,0:0:0:0:
109,192,51911,1,0,0:0:0:0:
182,192,51911,1,0,0:0:0:0:
256,192,52008,1,0,0:0:0:0:
329,192,52107,1,0,0:0:0:0:
402,192,52107,1,0,0:0:0:0:
475,192,52107,1,0,0:0:0:0:
36,192,52107,1,0,0:0:0:0:
109,192,52107,1,0,0:0:0:0:
182,192,52205,1,0,0:0:0:0:
256,192,52302,1,0,0:0:0:0:
329,192,52302,1,0,0:0:0:0:
402,192,52302,1,0,0:0:0:0:
475,192,52302,1,0,0:0:0:0:
36,192,52302,1,0,0:0:0:0:
182,192,52401,1,0,0:0:0:0:
36,192,52499,1,0,0:0:0:0:
109,192,52499,1,0,0:0:0:0:
402,192,52499,1,0,0:0:0:0:
475,192,52499,1,0,0:0:0:0:
329,192,52499,1,0,0:0:0:0:
256,192,52597,1,0,0:0:0:0:
182,192,52695,1,0,0:0:0:0:
109,192,52695,1,0,0:0:0:0:
36,192,52695,1,0,0:0:0:0:
402,192,52695,1,0,0:0:0:0:
475,192,52695,1,0,0:0:0:0:
256,192,52793,1,0,0:0:0:0:
36,192,52891,1,0,0:0:0:0:
475,192,52891,1,0,0:0:0:0:
109,192,52891,1,0,0:0:0:0:
182,192,52891,1,0,0:0:0:0:
402,192,52891,1,0,0:0:0:0:
329,192,52989,1,0,0:0:0:0:
182,192,53088,1,0,0:0:0:0:
109,192,53088,1,0,0:0:0:0:
36,192,53088,1,0,0:0:0:0:
256,192,53088,1,0,0:0:0:0:
475,192,53088,1,0,0:0:0:0:
329,192,53185,1,0,0:0:0:0:
402,192,53283,1,0,0:0:0:0:
475,192,53283,1,0,0:0:0:0:
36,192,53283,1,0,0:0:0:0:
109,192,53283,1,0,0:0:0:0:
182,192,53283,1,0,0:0:0:0:
256,192,53382,1,0,0:0:0:0:
36,192,53479,1,0,0:0:0:0:
329,192,53479,1,0,0:0:0:0:
402,192,53479,1,0,0:0:0:0:
475,192,53479,1,0,0:0:0:0:
109,192,53479,1,0,0:0:0:0:
36,192,53578,1,0,0:0:0:0:
182,192,53675,1,0,0:0:0:0:
329,192,53675,1,0,0:0:0:0:
36,192,53773,1,0,0:0:0:0:
182,192,53773,1,0,0:0:0:0:
329,192,53773,1,0,0:0:0:0:
256,192,53872,1,0,0:0:0:0:
402,192,53872,1,0,0:0:0:0:
36,192,53969,1,0,0:0:0:0:
329,192,53969,1,0,0:0:0:0:
475,192,53969,1,0,0:0:0:0:
182,192,54166,1,0,0:0:0:0:
329,192,54166,1,0,0:0:0:0:
36,192,54166,1,0,0:0:0:0:
36,192,54263,1,0,0:0:0:0:
109,192,54263,1,0,0:0:0:0:
256,192,54263,1,0,0:0:0:0:
475,192,54263,1,0,0:0:0:0:
402,192,54263,1,0,0:0:0:0:
182,192,54362,1,0,0:0:0:0:
329,192,54362,1,0,0:0:0:0:
109,192,54460,1,0,0:0:0:0:
36,192,54460,1,0,0:0:0:0:
402,192,54460,1,0,0:0:0:0:
475,192,54460,1,0,0:0:0:0:
182,192,54558,1,0,0:0:0:0:
329,192,54558,1,0,0:0:0:0:
256,192,54656,1,0,0:0:0:0:
36,192,54656,1,0,0:0:0:0:
475,192,54656,1,0,0:0:0:0:
109,192,54754,1,0,0:0:0:0:
402,192,54754,1,0,0:0:0:0:
182,192,54852,1,0,0:0:0:0:
256,192,54852,1,0,0:0:0:0:
329,192,54852,1,0,0:0:0:0:
109,192,54950,1,0,0:0:0:0:
402,192,54950,1,0,0:0:0:0:
36,192,55048,1,0,0:0:0:0:
475,192,55048,1,0,0:0:0:0:
329,192,55048,1,0,0:0:0:0:
256,192,55048,1,0,0:0:0:0:
182,192,55048,1,0,0:0:0:0:
402,192,55146,1,0,0:0:0:0:
109,192,55146,1,0,0:0:0:0:
475,192,55244,1,0,0:0:0:0:
256,192,55244,1,0,0:0:0:0:
36,192,55244,1,0,0:0:0:0:
182,192,55342,1,0,0:0:0:0:
402,192,55342,1,0,0:0:0:0:
109,192,55440,1,0,0:0:0:0:
36,192,55440,1,0,0:0:0:0:
329,192,55440,1,0,0:0:0:0:
475,192,55440,1,0,0:0:0:0:
182,192,55538,1,0,0:0:0:0:
256,192,55538,1,0,0:0:0:0:
402,192,55538,1,0,0:0:0:0:
475,192,55636,1,0,0:0:0:0:
36,192,55636,1,0,0:0:0:0:
329,192,55636,1,0,0:0:0:0:
109,192,55734,1,0,0:0:0:0:
182,192,55734,1,0,0:0:0:0:
402,192,55734,1,0,0:0:0:0:
256,192,55832,1,0,0:0:0:0:
329,192,55832,1,0,0:0:0:0:
36,192,55832,1,0,0:0:0:0:
475,192,55832,1,0,0:0:0:0:
109,192,55930,1,0,0:0:0:0:
182,192,55930,1,0,0:0:0:0:
36,192,56028,1,0,0:0:0:0:
329,192,56028,1,0,0:0:0:0:
402,192,56028,1,0,0:0:0:0:
475,192,56028,1,0,0:0:0:0:
182,192,56127,1,0,0:0:0:0:
256,192,56127,1,0,0:0:0:0:
36,192,56224,1,0,0:0:0:0:
109,192,56224,1,0,0:0:0:0:
402,192,56224,1,0,0:0:0:0:
475,192,56224,1,0,0:0:0:0:
256,192,56322,1,0,0:0:0:0:
329,192,56322,1,0,0:0:0:0:
36,192,56421,1,0,0:0:0:0:
109,192,56421,1,0,0:0:0:0:
182,192,56421,1,0,0:0:0:0:
475,192,56421,1,0,0:0:0:0:
402,192,56518,1,0,0:0:0:0:
329,192,56518,1,0,0:0:0:0:
36,192,56617,1,0,0:0:0:0:
109,192,56617,1,0,0:0:0:0:
475,192,56617,1,0,0:0:0:0:
256,192,56617,1,0,0:0:0:0:
182,192,56617,1,0,0:0:0:0:
329,192,56715,1,0,0:0:0:0:
402,192,56715,1,0,0:0:0:0:
475,192,56812,1,0,0:0:0:0:
182,192,56812,1,0,0:0:0:0:
109,192,56812,1,0,0:0:0:0:
36,192,56812,1,0,0:0:0:0:
256,192,56911,1,0,0:0:0:0:
329,192,56911,1,0,0:0:0:0:
36,192,57008,1,0,0:0:0:0:
402,192,57008,1,0,0:0:0:0:
475,192,57008,1,0,0:0:0:0:
109,192,57008,1,0,0:0:0:0:
182,192,57107,1,0,0:0:0:0:
256,192,57107,1,0,0:0:0:0:
329,192,57205,1,0,0:0:0:0:
402,192,57205,1,0,0:0:0:0:
475,192,57205,1,0,0:0:0:0:
36,192,57205,1,0,0:0:0:0:
109,192,57302,1,0,0:0:0:0:
182,192,57302,1,0,0:0:0:0:
36,192,57401,1,0,0:0:0:0:
256,192,57401,1,0,0:0:0:0:
329,192,57401,1,0,0:0:0:0:
475,192,57401,1,0,0:0:0:0:
182,192,57499,1,0,0:0:0:0:
402,192,57499,1,0,0:0:0:0:
36,192,57597,1,0,0:0:0:0:
109,192,57597,1,0,0:0:0:0:
329,192,57597,1,0,0:0:0:0:
182,192,57695,1,0,0:0:0:0:
256,192,57695,1,0,0:0:0:0:
402,192,57695,1,0,0:0:0:0:
36,192,57793,1,0,0:0:0:0:
329,192,57793,1,0,0:0:0:0:
109,192,57793,1,0,0:0:0:0:
475,192,57793,1,0,0:0:0:0:
182,192,57891,1,0,0:0:0:0:
402,192,57891,1,0,0:0:0:0:
256,192,57989,1,0,0:0:0:0:
36,192,57989,1,0,0:0:0:0:
475,192,57989,1,0,0:0:0:0:
109,192,58088,1,0,0:0:0:0:
402,192,58088,1,0,0:0:0:0:
36,192,58185,1,0,0:0:0:0:
182,192,58185,1,0,0:0:0:0:
475,192,58185,1,0,0:0:0:0:
329,192,58185,1,0,0:0:0:0:
109,192,58283,1,0,0:0:0:0:
256,192,58283,1,0,0:0:0:0:
36,192,58382,1,0,0:0:0:0:
182,192,58382,1,0,0:0:0:0:
402,192,58382,1,0,0:0:0:0:
475,192,58382,1,0,0:0:0:0:
109,192,58479,1,0,0:0:0:0:
256,192,58479,1,0,0:0:0:0:
329,192,58479,1,0,0:0:0:0:
36,192,58578,1,0,0:0:0:0:
475,192,58578,1,0,0:0:0:0:
182,192,58675,1,0,0:0:0:0:
256,192,58675,1,0,0:0:0:0:
402,192,58675,1,0,0:0:0:0:
329,192,58773,1,0,0:0:0:0:
475,192,58773,1,0,0:0:0:0:
36,192,58773,1,0,0:0:0:0:
109,192,58773,1,0,0:0:0:0:
402,192,58872,1,0,0:0:0:0:
182,192,58872,1,0,0:0:0:0:
109,192,58969,1,0,0:0:0:0:
36,192,58969,1,0,0:0:0:0:
256,192,58969,1,0,0:0:0:0:
475,192,58969,1,0,0:0:0:0:
182,192,59068,1,0,0:0:0:0:
402,192,59068,1,0,0:0:0:0:
36,192,59166,1,0,0:0:0:0:
109,192,59166,1,0,0:0:0:0:
329,192,59166,1,0,0:0:0:0:
475,192,59166,1,0,0:0:0:0:
402,192,59263,1,0,0:0:0:0:
182,192,59263,1,0,0:0:0:0:
256,192,59263,1,0,0:0:0:0:
475,192,59362,1,0,0:0:0:0:
36,192,59362,1,0,0:0:0:0:
329,192,59460,1,0,0:0:0:0:
256,192,59460,1,0,0:0:0:0:
109,192,59460,1,0,0:0:0:0:
36,192,59558,1,0,0:0:0:0:
402,192,59558,1,0,0:0:0:0:
182,192,59558,1,0,0:0:0:0:
475,192,59558,1,0,0:0:0:0:
109,192,59656,1,0,0:0:0:0:
329,192,59656,1,0,0:0:0:0:
36,192,59754,1,0,0:0:0:0:
475,192,59754,1,0,0:0:0:0:
256,192,59754,1,0,0:0:0:0:
182,192,59754,1,0,0:0:0:0:
109,192,59852,1,0,0:0:0:0:
329,192,59852,1,0,0:0:0:0:
182,192,59950,1,0,0:0:0:0:
402,192,59950,1,0,0:0:0:0:
36,192,59950,1,0,0:0:0:0:
475,192,59950,1,0,0:0:0:0:
109,192,60048,1,0,0:0:0:0:
256,192,60048,1,0,0:0:0:0:
36,192,60146,1,0,0:0:0:0:
182,192,60146,1,0,0:0:0:0:
329,192,60146,1,0,0:0:0:0:
475,192,60146,1,0,0:0:0:0:
402,192,60244,1,0,0:0:0:0:
256,192,60244,1,0,0:0:0:0:
36,192,60342,1,0,0:0:0:0:
475,192,60342,1,0,0:0:0:0:
329,192,60342,1,0,0:0:0:0:
109,192,60342,1,0,0:0:0:0:
402,192,60440,1,0,0:0:0:0:
182,192,60440,1,0,0:0:0:0:
36,192,60538,1,0,0:0:0:0:
475,192,60538,1,0,0:0:0:0:
109,192,60538,1,0,0:0:0:0:
256,192,60538,1,0,0:0:0:0:
182,192,60636,1,0,0:0:0:0:
329,192,60636,1,0,0:0:0:0:
36,192,60734,1,0,0:0:0:0:
109,192,60734,1,0,0:0:0:0:
402,192,60734,1,0,0:0:0:0:
475,192,60734,1,0,0:0:0:0:
182,192,60832,1,0,0:0:0:0:
329,192,60832,1,0,0:0:0:0:
36,192,60930,1,0,0:0:0:0:
256,192,60930,1,0,0:0:0:0:
475,192,60930,1,0,0:0:0:0:
109,192,61028,1,0,0:0:0:0:
402,192,61028,1,0,0:0:0:0:
329,192,61127,1,0,0:0:0:0:
182,192,61127,1,0,0:0:0:0:
256,192,61127,1,0,0:0:0:0:
109,192,61224,1,0,0:0:0:0:
402,192,61224,1,0,0:0:0:0:
329,192,61322,1,0,0:0:0:0:
256,192,61322,1,0,0:0:0:0:
36,192,61322,1,0,0:0:0:0:
475,192,61322,1,0,0:0:0:0:
109,192,61421,1,0,0:0:0:0:
182,192,61421,1,0,0:0:0:0:
36,192,61518,1,0,0:0:0:0:
475,192,61518,1,0,0:0:0:0:
329,192,61518,1,0,0:0:0:0:
402,192,61518,1,0,0:0:0:0:
256,192,61617,1,0,0:0:0:0:
182,192,61617,1,0,0:0:0:0:
402,192,61715,1,0,0:0:0:0:
109,192,61715,1,0,0:0:0:0:
36,192,61715,1,0,0:0:0:0:
475,192,61715,1,0,0:0:0:0:
329,192,61812,1,0,0:0:0:0:
256,192,61812,1,0,0:0:0:0:
36,192,61911,1,0,0:0:0:0:
109,192,61911,1,0,0:0:0:0:
182,192,61911,1,0,0:0:0:0:
475,192,61911,1,0,0:0:0:0:
402,192,62008,1,0,0:0:0:0:
329,192,62008,1,0,0:0:0:0:
36,192,62107,1,0,0:0:0:0:
109,192,62107,1,0,0:0:0:0:
475,192,62107,1,0,0:0:0:0:
256,192,62107,1,0,0:0:0:0:
182,192,62205,1,0,0:0:0:0:
402,192,62205,1,0,0:0:0:0:
36,192,62302,1,0,0:0:0:0:
109,192,62302,1,0,0:0:0:0:
329,192,62302,1,0,0:0:0:0:
475,192,62302,1,0,0:0:0:0:
182,192,62401,1,0,0:0:0:0:
256,192,62401,1,0,0:0:0:0:
402,192,62401,1,0,0:0:0:0:
36,192,62499,1,0,0:0:0:0:
109,192,62499,1,0,0:0:0:0:
329,192,62499,1,0,0:0:0:0:
256,192,62597,1,0,0:0:0:0:
475,192,62597,1,0,0:0:0:0:
36,192,62695,1,0,0:0:0:0:
402,192,62695,1,0,0:0:0:0:
182,192,62695,1,0,0:0:0:0:
109,192,62695,1,0,0:0:0:0:
329,192,62793,1,0,0:0:0:0:
256,192,62793,1,0,0:0:0:0:
402,192,62891,1,0,0:0:0:0:
475,192,62891,1,0,0:0:0:0:
36,192,62891,1,0,0:0:0:0:
182,192,62891,1,0,0:0:0:0:
329,192,62989,1,0,0:0:0:0:
109,192,62989,1,0,0:0:0:0:
475,192,63088,1,0,0:0:0:0:
402,192,63088,1,0,0:0:0:0:
182,192,63088,1,0,0:0:0:0:
36,192,63088,1,0,0:0:0:0:
329,192,63185,1,0,0:0:0:0:
256,192,63185,1,0,0:0:0:0:
109,192,63185,1,0,0:0:0:0:
475,192,63283,1,0,0:0:0:0:
402,192,63283,1,0,0:0:0:0:
182,192,63283,1,0,0:0:0:0:
256,192,63382,1,0,0:0:0:0:
36,192,63382,1,0,0:0:0:0:
475,192,63479,1,0,0:0:0:0:
109,192,63479,1,0,0:0:0:0:
329,192,63479,1,0,0:0:0:0:
402,192,63479,1,0,0:0:0:0:
182,192,63578,1,0,0:0:0:0:
256,192,63578,1,0,0:0:0:0:
109,192,63675,1,0,0:0:0:0:
36,192,63675,1,0,0:0:0:0:
475,192,63675,1,0,0:0:0:0:
329,192,63675,1,0,0:0:0:0:
182,192,63773,1,0,0:0:0:0:
402,192,63773,1,0,0:0:0:0:
36,192,63872,1,0,0:0:0:0:
256,192,63872,1,0,0:0:0:0:
475,192,63872,1,0,0:0:0:0:
109,192,63969,1,0,0:0:0:0:
329,192,63969,1,0,0:0:0:0:
182,192,64068,1,0,0:0:0:0:
402,192,64068,1,0,0:0:0:0:
475,192,64068,1,0,0:0:0:0:
36,192,64068,1,0,0:0:0:0:
109,192,64166,1,0,0:0:0:0:
329,192,64166,1,0,0:0:0:0:
36,192,64263,1,0,0:0:0:0:
256,192,64263,1,0,0:0:0:0:
475,192,64263,1,0,0:0:0:0:
402,192,64263,1,0,0:0:0:0:
182,192,64362,1,0,0:0:0:0:
329,192,64362,1,0,0:0:0:0:
36,192,64460,1,0,0:0:0:0:
475,192,64460,1,0,0:0:0:0:
109,192,64460,1,0,0:0:0:0:
256,192,64460,1,0,0:0:0:0:
182,192,64558,1,0,0:0:0:0:
402,192,64558,1,0,0:0:0:0:
36,192,64656,1,0,0:0:0:0:
109,192,64656,1,0,0:0:0:0:
329,192,64656,1,0,0:0:0:0:
475,192,64656,1,0,0:0:0:0:
182,192,64754,1,0,0:0:0:0:
256,192,64754,1,0,0:0:0:0:
402,192,64754,1,0,0:0:0:0:
36,192,64852,1,0,0:0:0:0:
475,192,64852,1,0,0:0:0:0:
329,192,64852,1,0,0:0:0:0:
109,192,64852,1,0,0:0:0:0:
182,192,64950,1,0,0:0:0:0:
402,192,64950,1,0,0:0:0:0:
256,192,65048,1,0,0:0:0:0:
475,192,65048,1,0,0:0:0:0:
36,192,65048,1,0,0:0:0:0:
109,192,65048,1,0,0:0:0:0:
329,192,65146,1,0,0:0:0:0:
182,192,65146,1,0,0:0:0:0:
36,192,65244,1,0,0:0:0:0:
402,192,65244,1,0,0:0:0:0:
256,192,65244,1,0,0:0:0:0:
475,192,65244,1,0,0:0:0:0:
109,192,65342,1,0,0:0:0:0:
182,192,65342,1,0,0:0:0:0:
329,192,65342,1,0,0:0:0:0:
36,192,65440,1,0,0:0:0:0:
256,192,65440,1,0,0:0:0:0:
402,192,65440,1,0,0:0:0:0:
475,192,65440,1,0,0:0:0:0:
109,192,65538,1,0,0:0:0:0:
329,192,65538,1,0,0:0:0:0:
182,192,65636,1,0,0:0:0:0:
36,192,65636,1,0,0:0:0:0:
475,192,65636,1,0,0:0:0:0:
402,192,65636,1,0,0:0:0:0:
109,192,65734,1,0,0:0:0:0:
256,192,65734,1,0,0:0:0:0:
36,192,65832,1,0,0:0:0:0:
182,192,65832,1,0,0:0:0:0:
329,192,65832,1,0,0:0:0:0:
109,192,65930,1,0,0:0:0:0:
256,192,65930,1,0,0:0:0:0:
402,192,65930,1,0,0:0:0:0:
36,192,66028,1,0,0:0:0:0:
475,192,66028,1,0,0:0:0:0:
182,192,66028,1,0,0:0:0:0:
329,192,66028,1,0,0:0:0:0:
256,192,66224,1,0,0:0:0:0:
475,192,66224,1,0,0:0:0:0:
36,192,66224,1,0,0:0:0:0:
109,192,66224,1,0,0:0:0:0:
182,192,66322,1,0,0:0:0:0:
402,192,66322,1,0,0:0:0:0:
329,192,66420,1,0,0:0:0:0:
109,192,66420,1,0,0:0:0:0:
36,192,66420,1,0,0:0:0:0:
256,192,66518,1,0,0:0:0:0:
182,192,66518,1,0,0:0:0:0:
36,192,66616,1,0,0:0:0:0:
329,192,66616,1,0,0:0:0:0:
475,192,66616,1,0,0:0:0:0:
402,192,66616,1,0,0:0:0:0:
109,192,66713,1,0,0:0:0:0:
182,192,66713,1,0,0:0:0:0:
36,192,66812,1,0,0:0:0:0:
256,192,66812,1,0,0:0:0:0:
475,192,66812,1,0,0:0:0:0:
109,192,66909,1,0,0:0:0:0:
329,192,66909,1,0,0:0:0:0:
182,192,67008,1,0,0:0:0:0:
475,192,67008,1,0,0:0:0:0:
402,192,67008,1,0,0:0:0:0:
256,192,67106,1,0,0:0:0:0:
329,192,67106,1,0,0:0:0:0:
36,192,67203,1,0,0:0:0:0:
182,192,67203,1,0,0:0:0:0:
475,192,67203,1,0,0:0:0:0:
109,192,67203,1,0,0:0:0:0:
329,192,67302,1,0,0:0:0:0:
256,192,67400,1,0,0:0:0:0:
475,192,67400,1,0,0:0:0:0:
109,192,67400,1,0,0:0:0:0:
36,192,67400,1,0,0:0:0:0:
182,192,67498,1,0,0:0:0:0:
402,192,67498,1,0,0:0:0:0:
475,192,67596,1,0,0:0:0:0:
109,192,67596,1,0,0:0:0:0:
329,192,67596,1,0,0:0:0:0:
36,192,67693,1,0,0:0:0:0:
256,192,67693,1,0,0:0:0:0:
475,192,67792,1,0,0:0:0:0:
182,192,67792,1,0,0:0:0:0:
402,192,67792,1,0,0:0:0:0:
109,192,67890,1,0,0:0:0:0:
329,192,67890,1,0,0:0:0:0:
36,192,67988,1,0,0:0:0:0:
256,192,67988,1,0,0:0:0:0:
402,192,67988,1,0,0:0:0:0:
475,192,67988,1,0,0:0:0:0:
182,192,68086,1,0,0:0:0:0:
109,192,68184,1,0,0:0:0:0:
329,192,68184,1,0,0:0:0:0:
402,192,68184,1,0,0:0:0:0:
36,192,68184,1,0,0:0:0:0:
256,192,68282,1,0,0:0:0:0:
182,192,68380,1,0,0:0:0:0:
109,192,68380,1,0,0:0:0:0:
402,192,68380,1,0,0:0:0:0:
475,192,68380,1,0,0:0:0:0:
329,192,68478,1,0,0:0:0:0:
36,192,68576,1,0,0:0:0:0:
256,192,68576,1,0,0:0:0:0:
402,192,68576,1,0,0:0:0:0:
475,192,68576,1,0,0:0:0:0:
109,192,68576,1,0,0:0:0:0:
256,192,68772,1,0,0:0:0:0:
475,192,68772,1,0,0:0:0:0:
36,192,68772,1,0,0:0:0:0:
109,192,68772,1,0,0:0:0:0:
182,192,68870,1,0,0:0:0:0:
402,192,68870,1,0,0:0:0:0:
329,192,68968,1,0,0:0:0:0:
109,192,68968,1,0,0:0:0:0:
36,192,68968,1,0,0:0:0:0:
256,192,69067,1,0,0:0:0:0:
182,192,69067,1,0,0:0:0:0:
36,192,69164,1,0,0:0:0:0:
329,192,69164,1,0,0:0:0:0:
475,192,69164,1,0,0:0:0:0:
402,192,69164,1,0,0:0:0:0:
109,192,69262,1,0,0:0:0:0:
182,192,69262,1,0,0:0:0:0:
36,192,69360,1,0,0:0:0:0:
256,192,69360,1,0,0:0:0:0:
475,192,69360,1,0,0:0:0:0:
109,192,69458,1,0,0:0:0:0:
329,192,69458,1,0,0:0:0:0:
182,192,69556,1,0,0:0:0:0:
475,192,69556,1,0,0:0:0:0:
402,192,69556,1,0,0:0:0:0:
256,192,69654,1,0,0:0:0:0:
329,192,69654,1,0,0:0:0:0:
36,192,69752,1,0,0:0:0:0:
182,192,69752,1,0,0:0:0:0:
475,192,69752,1,0,0:0:0:0:
109,192,69752,1,0,0:0:0:0:
329,192,69850,1,0,0:0:0:0:
256,192,69948,1,0,0:0:0:0:
475,192,69948,1,0,0:0:0:0:
109,192,69948,1,0,0:0:0:0:
36,192,69948,1,0,0:0:0:0:
182,192,70046,1,0,0:0:0:0:
402,192,70046,1,0,0:0:0:0:
475,192,70144,1,0,0:0:0:0:
109,192,70144,1,0,0:0:0:0:
329,192,70144,1,0,0:0:0:0:
36,192,70242,1,0,0:0:0:0:
256,192,70242,1,0,0:0:0:0:
475,192,70340,1,0,0:0:0:0:
182,192,70340,1,0,0:0:0:0:
402,192,70340,1,0,0:0:0:0:
109,192,70438,1,0,0:0:0:0:
329,192,70438,1,0,0:0:0:0:
36,192,70536,1,0,0:0:0:0:
402,192,70536,1,0,0:0:0:0:
475,192,70536,1,0,0:0:0:0:
256,192,70536,1,0,0:0:0:0:
182,192,70634,1,0,0:0:0:0:
329,192,70732,1,0,0:0:0:0:
475,192,70732,1,0,0:0:0:0:
109,192,70732,1,0,0:0:0:0:
36,192,70732,1,0,0:0:0:0:
256,192,70830,1,0,0:0:0:0:
402,192,70928,1,0,0:0:0:0:
36,192,70928,1,0,0:0:0:0:
182,192,70928,1,0,0:0:0:0:
475,192,70928,1,0,0:0:0:0:
329,192,71027,1,0,0:0:0:0:
402,192,71124,1,0,0:0:0:0:
475,192,71124,1,0,0:0:0:0:
36,192,71124,1,0,0:0:0:0:
109,192,71124,1,0,0:0:0:0:
256,192,71124,1,0,0:0:0:0:
182,192,71321,1,0,0:0:0:0:
36,192,71321,1,0,0:0:0:0:
402,192,71321,1,0,0:0:0:0:
475,192,71321,1,0,0:0:0:0:
109,192,71418,1,0,0:0:0:0:
329,192,71418,1,0,0:0:0:0:
36,192,71517,1,0,0:0:0:0:
256,192,71517,1,0,0:0:0:0:
475,192,71517,1,0,0:0:0:0:
182,192,71615,1,0,0:0:0:0:
402,192,71615,1,0,0:0:0:0:
36,192,71712,1,0,0:0:0:0:
109,192,71712,1,0,0:0:0:0:
329,192,71712,1,0,0:0:0:0:
475,192,71712,1,0,0:0:0:0:
256,192,71811,1,0,0:0:0:0:
109,192,71908,1,0,0:0:0:0:
182,192,71908,1,0,0:0:0:0:
402,192,71908,1,0,0:0:0:0:
475,192,71908,1,0,0:0:0:0:
329,192,72007,1,0,0:0:0:0:
182,192,72105,1,0,0:0:0:0:
256,192,72105,1,0,0:0:0:0:
475,192,72105,1,0,0:0:0:0:
36,192,72105,1,0,0:0:0:0:
402,192,72202,1,0,0:0:0:0:
329,192,72301,1,0,0:0:0:0:
475,192,72301,1,0,0:0:0:0:
109,192,72301,1,0,0:0:0:0:
36,192,72301,1,0,0:0:0:0:
329,192,72497,1,0,0:0:0:0:
475,192,72497,1,0,0:0:0:0:
109,192,72497,1,0,0:0:0:0:
36,192,72497,1,0,0:0:0:0:
402,192,72595,1,0,0:0:0:0:
182,192,72595,1,0,0:0:0:0:
475,192,72693,1,0,0:0:0:0:
256,192,72693,1,0,0:0:0:0:
36,192,72693,1,0,0:0:0:0:
329,192,72791,1,0,0:0:0:0:
109,192,72791,1,0,0:0:0:0:
475,192,72889,1,0,0:0:0:0:
402,192,72889,1,0,0:0:0:0:
182,192,72889,1,0,0:0:0:0:
36,192,72889,1,0,0:0:0:0:
256,192,72988,1,0,0:0:0:0:
402,192,73085,1,0,0:0:0:0:
329,192,73085,1,0,0:0:0:0:
109,192,73085,1,0,0:0:0:0:
36,192,73085,1,0,0:0:0:0:
182,192,73183,1,0,0:0:0:0:
329,192,73282,1,0,0:0:0:0:
256,192,73282,1,0,0:0:0:0:
36,192,73282,1,0,0:0:0:0:
475,192,73282,1,0,0:0:0:0:
109,192,73379,1,0,0:0:0:0:
182,192,73478,1,0,0:0:0:0:
36,192,73478,1,0,0:0:0:0:
402,192,73478,1,0,0:0:0:0:
475,192,73478,1,0,0:0:0:0:
109,192,73575,1,0,0:0:0:0:
329,192,73575,1,0,0:0:0:0:
475,192,73673,1,0,0:0:0:0:
256,192,73673,1,0,0:0:0:0:
36,192,73673,1,0,0:0:0:0:
182,192,73772,1,0,0:0:0:0:
402,192,73772,1,0,0:0:0:0:
36,192,73869,1,0,0:0:0:0:
109,192,73869,1,0,0:0:0:0:
329,192,73869,1,0,0:0:0:0:
182,192,73968,1,0,0:0:0:0:
256,192,73968,1,0,0:0:0:0:
475,192,74066,1,0,0:0:0:0:
36,192,74066,1,0,0:0:0:0:
109,192,74066,1,0,0:0:0:0:
329,192,74066,1,0,0:0:0:0:
402,192,74163,1,0,0:0:0:0:
182,192,74163,1,0,0:0:0:0:
36,192,74262,1,0,0:0:0:0:
256,192,74262,1,0,0:0:0:0:
475,192,74262,1,0,0:0:0:0:
329,192,74359,1,0,0:0:0:0:
109,192,74359,1,0,0:0:0:0:
475,192,74458,1,0,0:0:0:0:
402,192,74458,1,0,0:0:0:0:
182,192,74458,1,0,0:0:0:0:
329,192,74556,1,0,0:0:0:0:
256,192,74556,1,0,0:0:0:0:
36,192,74653,1,0,0:0:0:0:
475,192,74653,1,0,0:0:0:0:
402,192,74653,1,0,0:0:0:0:
182,192,74653,1,0,0:0:0:0:
329,192,74752,1,0,0:0:0:0:
109,192,74752,1,0,0:0:0:0:
36,192,74850,1,0,0:0:0:0:
475,192,74850,1,0,0:0:0:0:
182,192,74850,1,0,0:0:0:0:
256,192,74850,1,0,0:0:0:0:
109,192,74948,1,0,0:0:0:0:
329,192,74948,1,0,0:0:0:0:
402,192,74948,1,0,0:0:0:0:
36,192,75046,1,0,0:0:0:0:
182,192,75046,1,0,0:0:0:0:
256,192,75046,1,0,0:0:0:0:
475,192,75046,1,0,0:0:0:0:
109,192,75144,1,0,0:0:0:0:
402,192,75144,1,0,0:0:0:0:
329,192,75144,1,0,0:0:0:0:
182,192,75340,1,0,0:0:0:0:
256,192,75340,1,0,0:0:0:0:
475,192,75340,1,0,0:0:0:0:
36,192,75340,1,0,0:0:0:0:
109,192,75536,1,0,0:0:0:0:
182,192,75536,1,0,0:0:0:0:
402,192,75536,1,0,0:0:0:0:
256,192,75634,1,0,0:0:0:0:
475,192,75634,1,0,0:0:0:0:
36,192,75634,1,0,0:0:0:0:
329,192,75634,1,0,0:0:0:0:
402,192,75830,1,0,0:0:0:0:
256,192,75830,1,0,0:0:0:0:
329,192,76026,1,0,0:0:0:0:
182,192,76026,1,0,0:0:0:0:
36,192,76026,1,0,0:0:0:0:
475,192,76026,1,0,0:0:0:0:
256,192,76222,1,0,0:0:0:0:
109,192,76222,1,0,0:0:0:0:
182,192,76320,1,0,0:0:0:0:
329,192,76320,1,0,0:0:0:0:
36,192,76418,1,0,0:0:0:0:
109,192,76418,1,0,0:0:0:0:
256,192,76418,1,0,0:0:0:0:
402,192,76418,1,0,0:0:0:0:
475,192,76418,1,0,0:0:0:0:
182,192,76517,1,0,0:0:0:0:
329,192,76517,1,0,0:0:0:0:
36,192,76614,1,0,0:0:0:0:
256,192,76614,1,0,0:0:0:0:
402,192,76614,1,0,0:0:0:0:
475,192,76614,1,0,0:0:0:0:
109,192,76712,1,0,0:0:0:0:
329,192,76712,1,0,0:0:0:0:
36,192,76811,1,0,0:0:0:0:
182,192,76811,1,0,0:0:0:0:
475,192,76811,1,0,0:0:0:0:
402,192,76811,1,0,0:0:0:0:
329,192,76908,1,0,0:0:0:0:
256,192,76908,1,0,0:0:0:0:
36,192,77007,1,0,0:0:0:0:
109,192,77007,1,0,0:0:0:0:
182,192,77007,1,0,0:0:0:0:
475,192,77007,1,0,0:0:0:0:
329,192,77105,1,0,0:0:0:0:
402,192,77105,1,0,0:0:0:0:
36,192,77202,1,0,0:0:0:0:
109,192,77202,1,0,0:0:0:0:
256,192,77202,1,0,0:0:0:0:
475,192,77202,1,0,0:0:0:0:
182,192,77301,1,0,0:0:0:0:
329,192,77301,1,0,0:0:0:0:
36,192,77399,1,0,0:0:0:0:
109,192,77399,1,0,0:0:0:0:
475,192,77399,1,0,0:0:0:0:
256,192,77399,1,0,0:0:0:0:
182,192,77497,1,0,0:0:0:0:
402,192,77497,1,0,0:0:0:0:
36,192,77595,1,0,0:0:0:0:
109,192,77595,1,0,0:0:0:0:
329,192,77595,1,0,0:0:0:0:
475,192,77595,1,0,0:0:0:0:
182,192,77692,1,0,0:0:0:0:
256,192,77692,1,0,0:0:0:0:
329,192,77791,1,0,0:0:0:0:
475,192,77791,1,0,0:0:0:0:
402,192,77791,1,0,0:0:0:0:
36,192,77791,1,0,0:0:0:0:
109,192,77889,1,0,0:0:0:0:
182,192,77889,1,0,0:0:0:0:
36,192,77987,1,0,0:0:0:0:
256,192,77987,1,0,0:0:0:0:
475,192,77987,1,0,0:0:0:0:
402,192,77987,1,0,0:0:0:0:
109,192,78085,1,0,0:0:0:0:
329,192,78085,1,0,0:0:0:0:
402,192,78183,1,0,0:0:0:0:
475,192,78183,1,0,0:0:0:0:
36,192,78183,1,0,0:0:0:0:
182,192,78183,1,0,0:0:0:0:
256,192,78281,1,0,0:0:0:0:
109,192,78281,1,0,0:0:0:0:
402,192,78379,1,0,0:0:0:0:
475,192,78379,1,0,0:0:0:0:
36,192,78379,1,0,0:0:0:0:
182,192,78379,1,0,0:0:0:0:
329,192,78379,1,0,0:0:0:0:
109,192,78478,1,0,0:0:0:0:
36,192,78575,1,0,0:0:0:0:
475,192,78575,1,0,0:0:0:0:
402,192,78575,1,0,0:0:0:0:
256,192,78575,1,0,0:0:0:0:
182,192,78673,1,0,0:0:0:0:
329,192,78673,1,0,0:0:0:0:
36,192,78772,1,0,0:0:0:0:
256,192,78772,1,0,0:0:0:0:
475,192,78772,1,0,0:0:0:0:
109,192,78772,1,0,0:0:0:0:
329,192,78869,1,0,0:0:0:0:
182,192,78869,1,0,0:0:0:0:
256,192,78968,1,0,0:0:0:0:
402,192,78968,1,0,0:0:0:0:
475,192,78968,1,0,0:0:0:0:
36,192,78968,1,0,0:0:0:0:
182,192,79066,1,0,0:0:0:0:
109,192,79163,1,0,0:0:0:0:
329,192,79163,1,0,0:0:0:0:
475,192,79163,1,0,0:0:0:0:
36,192,79163,1,0,0:0:0:0:
256,192,79262,1,0,0:0:0:0:
182,192,79262,1,0,0:0:0:0:
36,192,79359,1,0,0:0:0:0:
475,192,79359,1,0,0:0:0:0:
402,192,79359,1,0,0:0:0:0:
109,192,79359,1,0,0:0:0:0:
256,192,79458,1,0,0:0:0:0:
329,192,79458,1,0,0:0:0:0:
36,192,79556,1,0,0:0:0:0:
402,192,79556,1,0,0:0:0:0:
475,192,79556,1,0,0:0:0:0:
182,192,79556,1,0,0:0:0:0:
109,192,79653,1,0,0:0:0:0:
329,192,79653,1,0,0:0:0:0:
475,192,79752,1,0,0:0:0:0:
256,192,79752,1,0,0:0:0:0:
36,192,79752,1,0,0:0:0:0:
402,192,79752,1,0,0:0:0:0:
329,192,79850,1,0,0:0:0:0:
182,192,79850,1,0,0:0:0:0:
475,192,79948,1,0,0:0:0:0:
402,192,79948,1,0,0:0:0:0:
256,192,79948,1,0,0:0:0:0:
36,192,79948,1,0,0:0:0:0:
109,192,80046,1,0,0:0:0:0:
182,192,80046,1,0,0:0:0:0:
36,192,80144,1,0,0:0:0:0:
475,192,80144,1,0,0:0:0:0:
402,192,80144,1,0,0:0:0:0:
329,192,80144,1,0,0:0:0:0:
182,192,80242,1,0,0:0:0:0:
256,192,80242,1,0,0:0:0:0:
36,192,80340,1,0,0:0:0:0:
475,192,80340,1,0,0:0:0:0:
109,192,80340,1,0,0:0:0:0:
329,192,80340,1,0,0:0:0:0:
182,192,80438,1,0,0:0:0:0:
402,192,80438,1,0,0:0:0:0:
475,192,80536,1,0,0:0:0:0:
109,192,80536,1,0,0:0:0:0:
36,192,80536,1,0,0:0:0:0:
256,192,80536,1,0,0:0:0:0:
329,192,80634,1,0,0:0:0:0:
182,192,80634,1,0,0:0:0:0:
256,192,80732,1,0,0:0:0:0:
475,192,80732,1,0,0:0:0:0:
36,192,80732,1,0,0:0:0:0:
109,192,80732,1,0,0:0:0:0:
329,192,80830,1,0,0:0:0:0:
402,192,80830,1,0,0:0:0:0:
109,192,80928,1,0,0:0:0:0:
182,192,80928,1,0,0:0:0:0:
475,192,80928,1,0,0:0:0:0:
36,192,80928,1,0,0:0:0:0:
256,192,81026,1,0,0:0:0:0:
329,192,81026,1,0,0:0:0:0:
402,192,81124,1,0,0:0:0:0:
182,192,81124,1,0,0:0:0:0:
475,192,81124,1,0,0:0:0:0:
36,192,81124,1,0,0:0:0:0:
329,192,81222,1,0,0:0:0:0:
256,192,81222,1,0,0:0:0:0:
36,192,81320,1,0,0:0:0:0:
182,192,81320,1,0,0:0:0:0:
402,192,81320,1,0,0:0:0:0:
475,192,81320,1,0,0:0:0:0:
109,192,81418,1,0,0:0:0:0:
256,192,81418,1,0,0:0:0:0:
182,192,81517,1,0,0:0:0:0:
329,192,81517,1,0,0:0:0:0:
36,192,81517,1,0,0:0:0:0:
402,192,81517,1,0,0:0:0:0:
475,192,81517,1,0,0:0:0:0:
109,192,81614,1,0,0:0:0:0:
402,192,81712,1,0,0:0:0:0:
256,192,81712,1,0,0:0:0:0:
36,192,81712,1,0,0:0:0:0:
475,192,81712,1,0,0:0:0:0:
329,192,81811,1,0,0:0:0:0:
182,192,81811,1,0,0:0:0:0:
475,192,81908,1,0,0:0:0:0:
109,192,81908,1,0,0:0:0:0:
36,192,81908,1,0,0:0:0:0:
256,192,81908,1,0,0:0:0:0:
182,192,82007,1,0,0:0:0:0:
329,192,82007,1,0,0:0:0:0:
475,192,82105,1,0,0:0:0:0:
36,192,82105,1,0,0:0:0:0:
256,192,82105,1,0,0:0:0:0:
402,192,82105,1,0,0:0:0:0:
182,192,82202,1,0,0:0:0:0:
475,192,82301,1,0,0:0:0:0:
36,192,82301,1,0,0:0:0:0:
109,192,82301,1,0,0:0:0:0:
329,192,82301,1,0,0:0:0:0:
182,192,82399,1,0,0:0:0:0:
256,192,82399,1,0,0:0:0:0:
109,192,82497,1,0,0:0:0:0:
36,192,82497,1,0,0:0:0:0:
475,192,82497,1,0,0:0:0:0:
402,192,82497,1,0,0:0:0:0:
256,192,82595,1,0,0:0:0:0:
329,192,82595,1,0,0:0:0:0:
36,192,82692,1,0,0:0:0:0:
109,192,82692,1,0,0:0:0:0:
402,192,82692,1,0,0:0:0:0:
475,192,82692,1,0,0:0:0:0:
329,192,82791,1,0,0:0:0:0:
182,192,82791,1,0,0:0:0:0:
402,192,82889,1,0,0:0:0:0:
475,192,82889,1,0,0:0:0:0:
36,192,82889,1,0,0:0:0:0:
256,192,82889,1,0,0:0:0:0:
329,192,82987,1,0,0:0:0:0:
109,192,82987,1,0,0:0:0:0:
475,192,83085,1,0,0:0:0:0:
402,192,83085,1,0,0:0:0:0:
36,192,83085,1,0,0:0:0:0:
182,192,83085,1,0,0:0:0:0:
256,192,83183,1,0,0:0:0:0:
329,192,83183,1,0,0:0:0:0:
182,192,83281,1,0,0:0:0:0:
475,192,83281,1,0,0:0:0:0:
36,192,83281,1,0,0:0:0:0:
109,192,83281,1,0,0:0:0:0:
402,192,83379,1,0,0:0:0:0:
329,192,83379,1,0,0:0:0:0:
256,192,83478,1,0,0:0:0:0:
475,192,83478,1,0,0:0:0:0:
36,192,83478,1,0,0:0:0:0:
109,192,83478,1,0,0:0:0:0:
329,192,83575,1,0,0:0:0:0:
182,192,83575,1,0,0:0:0:0:
475,192,83673,1,0,0:0:0:0:
256,192,83673,1,0,0:0:0:0:
36,192,83673,1,0,0:0:0:0:
109,192,83673,1,0,0:0:0:0:
402,192,83772,1,0,0:0:0:0:
182,192,83772,1,0,0:0:0:0:
329,192,83869,1,0,0:0:0:0:
475,192,83869,1,0,0:0:0:0:
36,192,83869,1,0,0:0:0:0:
109,192,83869,1,0,0:0:0:0:
256,192,83968,1,0,0:0:0:0:
182,192,83968,1,0,0:0:0:0:
402,192,84066,1,0,0:0:0:0:
36,192,84066,1,0,0:0:0:0:
329,192,84066,1,0,0:0:0:0:
475,192,84066,1,0,0:0:0:0:
182,192,84163,1,0,0:0:0:0:
109,192,84163,1,0,0:0:0:0:
475,192,84262,1,0,0:0:0:0:
402,192,84262,1,0,0:0:0:0:
36,192,84262,1,0,0:0:0:0:
256,192,84262,1,0,0:0:0:0:
329,192,84359,1,0,0:0:0:0:
109,192,84359,1,0,0:0:0:0:
36,192,84458,1,0,0:0:0:0:
182,192,84458,1,0,0:0:0:0:
402,192,84458,1,0,0:0:0:0:
475,192,84458,1,0,0:0:0:0:
109,192,84556,1,0,0:0:0:0:
256,192,84556,1,0,0:0:0:0:
182,192,84653,1,0,0:0:0:0:
329,192,84653,1,0,0:0:0:0:
36,192,84653,1,0,0:0:0:0:
402,192,84653,1,0,0:0:0:0:
475,192,84653,1,0,0:0:0:0:
109,192,84752,1,0,0:0:0:0:
402,192,84850,1,0,0:0:0:0:
256,192,84850,1,0,0:0:0:0:
36,192,84850,1,0,0:0:0:0:
475,192,84850,1,0,0:0:0:0:
329,192,84948,1,0,0:0:0:0:
182,192,84948,1,0,0:0:0:0:
475,192,85046,1,0,0:0:0:0:
109,192,85046,1,0,0:0:0:0:
36,192,85046,1,0,0:0:0:0:
256,192,85046,1,0,0:0:0:0:
182,192,85144,1,0,0:0:0:0:
329,192,85144,1,0,0:0:0:0:
475,192,85242,1,0,0:0:0:0:
36,192,85242,1,0,0:0:0:0:
256,192,85242,1,0,0:0:0:0:
402,192,85242,1,0,0:0:0:0:
109,192,85340,1,0,0:0:0:0:
475,192,85438,1,0,0:0:0:0:
329,192,85438,1,0,0:0:0:0:
182,192,85438,1,0,0:0:0:0:
402,192,85438,1,0,0:0:0:0:
36,192,85536,1,0,0:0:0:0:
109,192,85536,1,0,0:0:0:0:
182,192,85634,1,0,0:0:0:0:
329,192,85634,1,0,0:0:0:0:
256,192,85634,1,0,0:0:0:0:
475,192,85732,1,0,0:0:0:0:
402,192,85732,1,0,0:0:0:0:
36,192,85830,1,0,0:0:0:0:
109,192,85830,1,0,0:0:0:0:
182,192,85830,1,0,0:0:0:0:
329,192,85830,1,0,0:0:0:0:
256,192,85928,1,0,0:0:0:0:
402,192,85928,1,0,0:0:0:0:
36,192,86026,1,0,0:0:0:0:
475,192,86026,1,0,0:0:0:0:
329,192,86026,1,0,0:0:0:0:
109,192,86026,1,0,0:0:0:0:
182,192,86124,1,0,0:0:0:0:
402,192,86124,1,0,0:0:0:0:
475,192,86222,1,0,0:0:0:0:
256,192,86222,1,0,0:0:0:0:
36,192,86222,1,0,0:0:0:0:
109,192,86222,1,0,0:0:0:0:
329,192,86320,1,0,0:0:0:0:
402,192,86320,1,0,0:0:0:0:
109,192,86418,1,0,0:0:0:0:
36,192,86418,1,0,0:0:0:0:
475,192,86418,1,0,0:0:0:0:
182,192,86418,1,0,0:0:0:0:
256,192,86517,1,0,0:0:0:0:
329,192,86517,1,0,0:0:0:0:
36,192,86614,1,0,0:0:0:0:
402,192,86614,1,0,0:0:0:0:
475,192,86614,1,0,0:0:0:0:
182,192,86614,1,0,0:0:0:0:
109,192,86712,1,0,0:0:0:0:
256,192,86712,1,0,0:0:0:0:
182,192,86811,1,0,0:0:0:0:
402,192,86811,1,0,0:0:0:0:
475,192,86811,1,0,0:0:0:0:
36,192,86811,1,0,0:0:0:0:
109,192,86908,1,0,0:0:0:0:
329,192,86908,1,0,0:0:0:0:
475,192,87007,1,0,0:0:0:0:
402,192,87007,1,0,0:0:0:0:
36,192,87007,1,0,0:0:0:0:
256,192,87007,1,0,0:0:0:0:
182,192,87007,1,0,0:0:0:0:
109,192,87105,1,0,0:0:0:0:
36,192,87202,1,0,0:0:0:0:
329,192,87202,1,0,0:0:0:0:
402,192,87202,1,0,0:0:0:0:
475,192,87202,1,0,0:0:0:0:
182,192,87301,1,0,0:0:0:0:
256,192,87301,1,0,0:0:0:0:
36,192,87399,1,0,0:0:0:0:
329,192,87399,1,0,0:0:0:0:
475,192,87399,1,0,0:0:0:0:
109,192,87399,1,0,0:0:0:0:
182,192,87497,1,0,0:0:0:0:
36,192,87595,1,0,0:0:0:0:
256,192,87595,1,0,0:0:0:0:
475,192,87595,1,0,0:0:0:0:
182,192,87692,1,0,0:0:0:0:
402,192,87692,1,0,0:0:0:0:
329,192,87791,1,0,0:0:0:0:
109,192,87791,1,0,0:0:0:0:
36,192,87791,1,0,0:0:0:0:
182,192,87889,1,0,0:0:0:0:
256,192,87889,1,0,0:0:0:0:
402,192,87889,1,0,0:0:0:0:
36,192,87987,1,0,0:0:0:0:
109,192,87987,1,0,0:0:0:0:
329,192,87987,1,0,0:0:0:0:
475,192,87987,1,0,0:0:0:0:
109,192,88183,1,0,0:0:0:0:
182,192,88183,1,0,0:0:0:0:
329,192,88183,1,0,0:0:0:0:
475,192,88183,1,0,0:0:0:0:
109,192,88379,1,0,0:0:0:0:
256,192,88379,1,0,0:0:0:0:
402,192,88379,1,0,0:0:0:0:
36,192,88379,1,0,0:0:0:0:
329,192,88478,1,0,0:0:0:0:
182,192,88478,1,0,0:0:0:0:
475,192,88478,1,0,0:0:0:0:
36,192,88575,1,0,0:0:0:0:
402,192,88575,1,0,0:0:0:0:
109,192,88575,1,0,0:0:0:0:
256,192,88575,1,0,0:0:0:0:
329,192,88673,1,0,0:0:0:0:
182,192,88673,1,0,0:0:0:0:
36,192,88772,1,0,0:0:0:0:
475,192,88772,1,0,0:0:0:0:
256,192,88772,1,0,0:0:0:0:
182,192,88869,1,0,0:0:0:0:
329,192,88869,1,0,0:0:0:0:
36,192,88968,1,0,0:0:0:0:
109,192,88968,1,0,0:0:0:0:
256,192,88968,1,0,0:0:0:0:
475,192,88968,1,0,0:0:0:0:
402,192,88968,1,0,0:0:0:0:
182,192,89066,1,0,0:0:0:0:
329,192,89066,1,0,0:0:0:0:
475,192,89163,1,0,0:0:0:0:
402,192,89163,1,0,0:0:0:0:
256,192,89163,1,0,0:0:0:0:
329,192,89262,1,0,0:0:0:0:
36,192,89262,1,0,0:0:0:0:
109,192,89262,1,0,0:0:0:0:
182,192,89359,1,0,0:0:0:0:
402,192,89359,1,0,0:0:0:0:
256,192,89458,1,0,0:0:0:0:
109,192,89458,1,0,0:0:0:0:
36,192,89458,1,0,0:0:0:0:
182,192,89556,1,0,0:0:0:0:
402,192,89556,1,0,0:0:0:0:
475,192,89556,1,0,0:0:0:0:
109,192,89653,1,0,0:0:0:0:
329,192,89653,1,0,0:0:0:0:
36,192,89752,1,0,0:0:0:0:
256,192,89752,1,0,0:0:0:0:
475,192,89752,1,0,0:0:0:0:
402,192,89752,1,0,0:0:0:0:
329,192,89850,1,0,0:0:0:0:
182,192,89850,1,0,0:0:0:0:
36,192,89948,1,0,0:0:0:0:
109,192,89948,1,0,0:0:0:0:
256,192,89948,1,0,0:0:0:0:
182,192,90046,1,0,0:0:0:0:
475,192,90046,1,0,0:0:0:0:
402,192,90046,1,0,0:0:0:0:
329,192,90144,1,0,0:0:0:0:
109,192,90144,1,0,0:0:0:0:
256,192,90242,1,0,0:0:0:0:
402,192,90242,1,0,0:0:0:0:
475,192,90242,1,0,0:0:0:0:
329,192,90340,1,0,0:0:0:0:
109,192,90340,1,0,0:0:0:0:
36,192,90340,1,0,0:0:0:0:
402,192,90438,1,0,0:0:0:0:
182,192,90438,1,0,0:0:0:0:
475,192,90536,1,0,0:0:0:0:
256,192,90536,1,0,0:0:0:0:
36,192,90536,1,0,0:0:0:0:
109,192,90536,1,0,0:0:0:0:
329,192,90634,1,0,0:0:0:0:
182,192,90634,1,0,0:0:0:0:
256,192,90732,1,0,0:0:0:0:
402,192,90732,1,0,0:0:0:0:
475,192,90732,1,0,0:0:0:0:
109,192,90830,1,0,0:0:0:0:
36,192,90830,1,0,0:0:0:0:
329,192,90830,1,0,0:0:0:0:
402,192,90928,1,0,0:0:0:0:
182,192,90928,1,0,0:0:0:0:
36,192,91026,1,0,0:0:0:0:
109,192,91026,1,0,0:0:0:0:
256,192,91026,1,0,0:0:0:0:
475,192,91124,1,0,0:0:0:0:
402,192,91124,1,0,0:0:0:0:
182,192,91124,1,0,0:0:0:0:
256,192,91222,1,0,0:0:0:0:
109,192,91222,1,0,0:0:0:0:
329,192,91320,1,0,0:0:0:0:
182,192,91320,1,0,0:0:0:0:
36,192,91320,1,0,0:0:0:0:
109,192,91418,1,0,0:0:0:0:
475,192,91418,1,0,0:0:0:0:
256,192,91418,1,0,0:0:0:0:
182,192,91517,1,0,0:0:0:0:
36,192,91517,1,0,0:0:0:0:
402,192,91517,1,0,0:0:0:0:
109,192,91614,1,0,0:0:0:0:
475,192,91614,1,0,0:0:0:0:
329,192,91614,1,0,0:0:0:0:
402,192,91712,1,0,0:0:0:0:
36,192,91712,1,0,0:0:0:0:
182,192,91712,1,0,0:0:0:0:
256,192,91712,1,0,0:0:0:0:
109,192,91908,1,0,0:0:0:0:
256,192,91908,1,0,0:0:0:0:
329,192,91908,1,0,0:0:0:0:
475,192,91908,1,0,0:0:0:0:
36,192,92105,1,0,0:0:0:0:
256,192,92105,1,0,0:0:0:0:
475,192,92105,1,0,0:0:0:0:
109,192,92105,1,0,0:0:0:0:
402,192,92105,1,0,0:0:0:0:
182,192,92202,1,0,0:0:0:0:
329,192,92202,1,0,0:0:0:0:
475,192,92301,1,0,0:0:0:0:
402,192,92301,1,0,0:0:0:0:
256,192,92301,1,0,0:0:0:0:
329,192,92399,1,0,0:0:0:0:
36,192,92399,1,0,0:0:0:0:
109,192,92399,1,0,0:0:0:0:
182,192,92497,1,0,0:0:0:0:
402,192,92497,1,0,0:0:0:0:
256,192,92595,1,0,0:0:0:0:
109,192,92595,1,0,0:0:0:0:
36,192,92595,1,0,0:0:0:0:
182,192,92692,1,0,0:0:0:0:
402,192,92692,1,0,0:0:0:0:
475,192,92692,1,0,0:0:0:0:
109,192,92791,1,0,0:0:0:0:
329,192,92791,1,0,0:0:0:0:
36,192,92889,1,0,0:0:0:0:
256,192,92889,1,0,0:0:0:0:
475,192,92889,1,0,0:0:0:0:
402,192,92889,1,0,0:0:0:0:
329,192,92987,1,0,0:0:0:0:
182,192,92987,1,0,0:0:0:0:
36,192,93085,1,0,0:0:0:0:
109,192,93085,1,0,0:0:0:0:
256,192,93085,1,0,0:0:0:0:
182,192,93183,1,0,0:0:0:0:
475,192,93183,1,0,0:0:0:0:
402,192,93183,1,0,0:0:0:0:
329,192,93281,1,0,0:0:0:0:
109,192,93281,1,0,0:0:0:0:
256,192,93379,1,0,0:0:0:0:
402,192,93379,1,0,0:0:0:0:
475,192,93379,1,0,0:0:0:0:
329,192,93478,1,0,0:0:0:0:
109,192,93478,1,0,0:0:0:0:
36,192,93478,1,0,0:0:0:0:
402,192,93575,1,0,0:0:0:0:
182,192,93575,1,0,0:0:0:0:
475,192,93673,1,0,0:0:0:0:
256,192,93673,1,0,0:0:0:0:
36,192,93673,1,0,0:0:0:0:
109,192,93673,1,0,0:0:0:0:
329,192,93772,1,0,0:0:0:0:
182,192,93772,1,0,0:0:0:0:
256,192,93869,1,0,0:0:0:0:
402,192,93869,1,0,0:0:0:0:
475,192,93869,1,0,0:0:0:0:
109,192,93968,1,0,0:0:0:0:
36,192,93968,1,0,0:0:0:0:
329,192,93968,1,0,0:0:0:0:
402,192,94066,1,0,0:0:0:0:
182,192,94066,1,0,0:0:0:0:
36,192,94163,1,0,0:0:0:0:
109,192,94163,1,0,0:0:0:0:
256,192,94163,1,0,0:0:0:0:
475,192,94262,1,0,0:0:0:0:
402,192,94262,1,0,0:0:0:0:
182,192,94262,1,0,0:0:0:0:
329,192,94359,1,0,0:0:0:0:
109,192,94359,1,0,0:0:0:0:
475,192,94458,1,0,0:0:0:0:
36,192,94458,1,0,0:0:0:0:
256,192,94458,1,0,0:0:0:0:
402,192,94458,1,0,0:0:0:0:
182,192,94653,1,0,0:0:0:0:
475,192,94653,1,0,0:0:0:0:
329,192,94653,1,0,0:0:0:0:
109,192,94653,1,0,0:0:0:0:
182,192,94850,1,0,0:0:0:0:
256,192,94850,1,0,0:0:0:0:
36,192,94850,1,0,0:0:0:0:
402,192,94850,1,0,0:0:0:0:
36,192,95046,1,0,0:0:0:0:
475,192,95046,1,0,0:0:0:0:
109,192,95095,1,0,0:0:0:0:
402,192,95095,1,0,0:0:0:0:
182,192,95144,1,0,0:0:0:0:
329,192,95144,1,0,0:0:0:0:
109,192,95192,1,0,0:0:0:0:
402,192,95192,1,0,0:0:0:0:
36,192,95242,1,0,0:0:0:0:
256,192,95242,1,0,0:0:0:0:
475,192,95242,1,0,0:0:0:0:
256,192,95438,1,0,0:0:0:0:
475,192,95438,1,0,0:0:0:0:
109,192,95438,1,0,0:0:0:0:
182,192,95536,1,0,0:0:0:0:
402,192,95536,1,0,0:0:0:0:
36,192,95634,1,0,0:0:0:0:
109,192,95634,1,0,0:0:0:0:
329,192,95634,1,0,0:0:0:0:
475,192,95634,1,0,0:0:0:0:
182,192,95830,1,0,0:0:0:0:
402,192,95830,1,0,0:0:0:0:
36,192,95830,1,0,0:0:0:0:
109,192,95928,1,0,0:0:0:0:
329,192,95928,1,0,0:0:0:0:
36,192,96026,1,0,0:0:0:0:
256,192,96026,1,0,0:0:0:0:
475,192,96026,1,0,0:0:0:0:
402,192,96026,1,0,0:0:0:0:
256,192,96222,1,0,0:0:0:0:
36,192,96222,1,0,0:0:0:0:
402,192,96222,1,0,0:0:0:0:
329,192,96320,1,0,0:0:0:0:
109,192,96320,1,0,0:0:0:0:
475,192,96418,1,0,0:0:0:0:
402,192,96418,1,0,0:0:0:0:
182,192,96418,1,0,0:0:0:0:
36,192,96418,1,0,0:0:0:0:
329,192,96614,1,0,0:0:0:0:
109,192,96614,1,0,0:0:0:0:
475,192,96614,1,0,0:0:0:0:
402,192,96712,1,0,0:0:0:0:
182,192,96712,1,0,0:0:0:0:
475,192,96811,1,0,0:0:0:0:
256,192,96811,1,0,0:0:0:0:
36,192,96811,1,0,0:0:0:0:
109,192,96811,1,0,0:0:0:0:
329,192,97007,1,0,0:0:0:0:
475,192,97007,1,0,0:0:0:0:
109,192,97007,1,0,0:0:0:0:
256,192,97105,1,0,0:0:0:0:
402,192,97105,1,0,0:0:0:0:
36,192,97202,1,0,0:0:0:0:
182,192,97202,1,0,0:0:0:0:
329,192,97202,1,0,0:0:0:0:
475,192,97202,1,0,0:0:0:0:
256,192,97399,1,0,0:0:0:0:
402,192,97399,1,0,0:0:0:0:
36,192,97399,1,0,0:0:0:0:
329,192,97497,1,0,0:0:0:0:
182,192,97497,1,0,0:0:0:0:
36,192,97595,1,0,0:0:0:0:
256,192,97595,1,0,0:0:0:0:
475,192,97595,1,0,0:0:0:0:
109,192,97595,1,0,0:0:0:0:
182,192,97791,1,0,0:0:0:0:
36,192,97791,1,0,0:0:0:0:
402,192,97791,1,0,0:0:0:0:
256,192,97889,1,0,0:0:0:0:
109,192,97889,1,0,0:0:0:0:
475,192,97987,1,0,0:0:0:0:
329,192,97987,1,0,0:0:0:0:
182,192,97987,1,0,0:0:0:0:
36,192,97987,1,0,0:0:0:0:
256,192,98183,1,0,0:0:0:0:
109,192,98183,1,0,0:0:0:0:
475,192,98183,1,0,0:0:0:0:
182,192,98281,1,0,0:0:0:0:
329,192,98281,1,0,0:0:0:0:
475,192,98379,1,0,0:0:0:0:
256,192,98379,1,0,0:0:0:0:
36,192,98379,1,0,0:0:0:0:
402,192,98379,1,0,0:0:0:0:
109,192,98478,1,0,0:0:0:0:
329,192,98478,1,0,0:0:0:0:
402,192,98575,1,0,0:0:0:0:
475,192,98575,1,0,0:0:0:0:
182,192,98575,1,0,0:0:0:0:
256,192,98673,1,0,0:0:0:0:
36,192,98673,1,0,0:0:0:0:
329,192,98673,1,0,0:0:0:0:
182,192,98772,1,0,0:0:0:0:
109,192,98772,1,0,0:0:0:0:
402,192,98772,1,0,0:0:0:0:
256,192,98869,1,0,0:0:0:0:
475,192,98869,1,0,0:0:0:0:
36,192,98869,1,0,0:0:0:0:
109,192,98968,1,0,0:0:0:0:
329,192,98968,1,0,0:0:0:0:
402,192,98968,1,0,0:0:0:0:
182,192,99066,1,0,0:0:0:0:
256,192,99066,1,0,0:0:0:0:
475,192,99066,1,0,0:0:0:0:
36,192,99163,1,0,0:0:0:0:
109,192,99163,1,0,0:0:0:0:
329,192,99163,1,0,0:0:0:0:
402,192,99163,1,0,0:0:0:0:
182,192,99262,1,0,0:0:0:0:
256,192,99359,1,0,0:0:0:0:
329,192,99359,1,0,0:0:0:0:
475,192,99359,1,0,0:0:0:0:
36,192,99359,1,0,0:0:0:0:
109,192,99458,1,0,0:0:0:0:
182,192,99556,1,0,0:0:0:0:
256,192,99556,1,0,0:0:0:0:
402,192,99556,1,0,0:0:0:0:
475,192,99556,1,0,0:0:0:0:
109,192,99653,1,0,0:0:0:0:
36,192,99752,1,0,0:0:0:0:
256,192,99752,1,0,0:0:0:0:
475,192,99752,1,0,0:0:0:0:
402,192,99752,1,0,0:0:0:0:
182,192,99850,1,0,0:0:0:0:
329,192,99850,1,0,0:0:0:0:
109,192,99948,1,0,0:0:0:0:
36,192,99948,1,0,0:0:0:0:
402,192,99948,1,0,0:0:0:0:
475,192,99948,1,0,0:0:0:0:
256,192,99948,1,0,0:0:0:0:
36,192,100046,1,0,0:0:0:0:
329,192,100144,1,0,0:0:0:0:
182,192,100144,1,0,0:0:0:0:
36,192,100242,1,0,0:0:0:0:
329,192,100242,1,0,0:0:0:0:
182,192,100242,1,0,0:0:0:0:
36,192,100438,1,0,0:0:0:0:
329,192,100438,1,0,0:0:0:0:
182,192,100438,1,0,0:0:0:0:
36,192,100634,1,0,0:0:0:0:
256,192,100634,1,0,0:0:0:0:
402,192,100634,1,0,0:0:0:0:
475,192,100732,1,0,0:0:0:0:
36,192,100732,1,0,0:0:0:0:
109,192,100732,1,0,0:0:0:0:
329,192,100732,1,0,0:0:0:0:
182,192,100830,1,0,0:0:0:0:
402,192,100830,1,0,0:0:0:0:
36,192,100928,1,0,0:0:0:0:
475,192,100928,1,0,0:0:0:0:
109,192,100928,1,0,0:0:0:0:
256,192,100928,1,0,0:0:0:0:
182,192,101026,1,0,0:0:0:0:
329,192,101026,1,0,0:0:0:0:
36,192,101124,1,0,0:0:0:0:
109,192,101124,1,0,0:0:0:0:
402,192,101124,1,0,0:0:0:0:
475,192,101124,1,0,0:0:0:0:
329,192,101222,1,0,0:0:0:0:
182,192,101222,1,0,0:0:0:0:
36,192,101320,1,0,0:0:0:0:
256,192,101320,1,0,0:0:0:0:
475,192,101320,1,0,0:0:0:0:
109,192,101418,1,0,0:0:0:0:
402,192,101418,1,0,0:0:0:0:
36,192,101517,1,0,0:0:0:0:
182,192,101517,1,0,0:0:0:0:
256,192,101517,1,0,0:0:0:0:
329,192,101517,1,0,0:0:0:0:
475,192,101517,1,0,0:0:0:0:
402,192,101614,1,0,0:0:0:0:
109,192,101614,1,0,0:0:0:0:
475,192,101712,1,0,0:0:0:0:
256,192,101712,1,0,0:0:0:0:
36,192,101712,1,0,0:0:0:0:
182,192,101811,1,0,0:0:0:0:
402,192,101811,1,0,0:0:0:0:
109,192,101908,1,0,0:0:0:0:
36,192,101908,1,0,0:0:0:0:
329,192,101908,1,0,0:0:0:0:
475,192,101908,1,0,0:0:0:0:
182,192,102007,1,0,0:0:0:0:
256,192,102007,1,0,0:0:0:0:
402,192,102007,1,0,0:0:0:0:
475,192,102105,1,0,0:0:0:0:
36,192,102105,1,0,0:0:0:0:
329,192,102105,1,0,0:0:0:0:
109,192,102202,1,0,0:0:0:0:
182,192,102202,1,0,0:0:0:0:
402,192,102202,1,0,0:0:0:0:
256,192,102301,1,0,0:0:0:0:
329,192,102301,1,0,0:0:0:0:
36,192,102301,1,0,0:0:0:0:
475,192,102301,1,0,0:0:0:0:
109,192,102399,1,0,0:0:0:0:
182,192,102399,1,0,0:0:0:0:
36,192,102497,1,0,0:0:0:0:
329,192,102497,1,0,0:0:0:0:
402,192,102497,1,0,0:0:0:0:
475,192,102497,1,0,0:0:0:0:
182,192,102595,1,0,0:0:0:0:
256,192,102595,1,0,0:0:0:0:
36,192,102692,1,0,0:0:0:0:
109,192,102692,1,0,0:0:0:0:
402,192,102692,1,0,0:0:0:0:
475,192,102692,1,0,0:0:0:0:
329,192,102791,1,0,0:0:0:0:
182,192,102791,1,0,0:0:0:0:
36,192,102889,1,0,0:0:0:0:
109,192,102889,1,0,0:0:0:0:
475,192,102889,1,0,0:0:0:0:
256,192,102889,1,0,0:0:0:0:
402,192,102987,1,0,0:0:0:0:
329,192,102987,1,0,0:0:0:0:
36,192,103085,1,0,0:0:0:0:
109,192,103085,1,0,0:0:0:0:
475,192,103085,1,0,0:0:0:0:
256,192,103085,1,0,0:0:0:0:
182,192,103085,1,0,0:0:0:0:
329,192,103183,1,0,0:0:0:0:
402,192,103183,1,0,0:0:0:0:
475,192,103281,1,0,0:0:0:0:
182,192,103281,1,0,0:0:0:0:
109,192,103281,1,0,0:0:0:0:
36,192,103281,1,0,0:0:0:0:
256,192,103379,1,0,0:0:0:0:
329,192,103379,1,0,0:0:0:0:
36,192,103478,1,0,0:0:0:0:
402,192,103478,1,0,0:0:0:0:
475,192,103478,1,0,0:0:0:0:
109,192,103478,1,0,0:0:0:0:
182,192,103575,1,0,0:0:0:0:
256,192,103575,1,0,0:0:0:0:
329,192,103673,1,0,0:0:0:0:
402,192,103673,1,0,0:0:0:0:
475,192,103673,1,0,0:0:0:0:
36,192,103673,1,0,0:0:0:0:
109,192,103772,1,0,0:0:0:0:
182,192,103772,1,0,0:0:0:0:
36,192,103869,1,0,0:0:0:0:
256,192,103869,1,0,0:0:0:0:
329,192,103869,1,0,0:0:0:0:
475,192,103869,1,0,0:0:0:0:
182,192,103968,1,0,0:0:0:0:
402,192,103968,1,0,0:0:0:0:
36,192,104066,1,0,0:0:0:0:
109,192,104066,1,0,0:0:0:0:
329,192,104066,1,0,0:0:0:0:
182,192,104163,1,0,0:0:0:0:
256,192,104163,1,0,0:0:0:0:
402,192,104163,1,0,0:0:0:0:
36,192,104262,1,0,0:0:0:0:
329,192,104262,1,0,0:0:0:0:
109,192,104262,1,0,0:0:0:0:
475,192,104262,1,0,0:0:0:0:
182,192,104359,1,0,0:0:0:0:
402,192,104359,1,0,0:0:0:0:
256,192,104458,1,0,0:0:0:0:
36,192,104458,1,0,0:0:0:0:
475,192,104458,1,0,0:0:0:0:
109,192,104556,1,0,0:0:0:0:
402,192,104556,1,0,0:0:0:0:
36,192,104653,1,0,0:0:0:0:
182,192,104653,1,0,0:0:0:0:
475,192,104653,1,0,0:0:0:0:
329,192,104653,1,0,0:0:0:0:
109,192,104752,1,0,0:0:0:0:
256,192,104752,1,0,0:0:0:0:
36,192,104850,1,0,0:0:0:0:
182,192,104850,1,0,0:0:0:0:
402,192,104850,1,0,0:0:0:0:
475,192,104850,1,0,0:0:0:0:
109,192,104948,1,0,0:0:0:0:
256,192,104948,1,0,0:0:0:0:
329,192,104948,1,0,0:0:0:0:
36,192,105046,1,0,0:0:0:0:
475,192,105046,1,0,0:0:0:0:
182,192,105144,1,0,0:0:0:0:
256,192,105144,1,0,0:0:0:0:
402,192,105144,1,0,0:0:0:0:
329,192,105242,1,0,0:0:0:0:
475,192,105242,1,0,0:0:0:0:
36,192,105242,1,0,0:0:0:0:
109,192,105242,1,0,0:0:0:0:
402,192,105340,1,0,0:0:0:0:
182,192,105340,1,0,0:0:0:0:
109,192,105438,1,0,0:0:0:0:
36,192,105438,1,0,0:0:0:0:
256,192,105438,1,0,0:0:0:0:
475,192,105438,1,0,0:0:0:0:
182,192,105536,1,0,0:0:0:0:
402,192,105536,1,0,0:0:0:0:
36,192,105634,1,0,0:0:0:0:
109,192,105634,1,0,0:0:0:0:
329,192,105634,1,0,0:0:0:0:
475,192,105634,1,0,0:0:0:0:
402,192,105732,1,0,0:0:0:0:
182,192,105732,1,0,0:0:0:0:
256,192,105732,1,0,0:0:0:0:
475,192,105830,1,0,0:0:0:0:
36,192,105830,1,0,0:0:0:0:
329,192,105928,1,0,0:0:0:0:
256,192,105928,1,0,0:0:0:0:
109,192,105928,1,0,0:0:0:0:
36,192,106026,1,0,0:0:0:0:
402,192,106026,1,0,0:0:0:0:
182,192,106026,1,0,0:0:0:0:
475,192,106026,1,0,0:0:0:0:
109,192,106124,1,0,0:0:0:0:
329,192,106124,1,0,0:0:0:0:
36,192,106222,1,0,0:0:0:0:
475,192,106222,1,0,0:0:0:0:
256,192,106222,1,0,0:0:0:0:
182,192,106222,1,0,0:0:0:0:
109,192,106320,1,0,0:0:0:0:
329,192,106320,1,0,0:0:0:0:
182,192,106418,1,0,0:0:0:0:
402,192,106418,1,0,0:0:0:0:
36,192,106418,1,0,0:0:0:0:
475,192,106418,1,0,0:0:0:0:
109,192,106517,1,0,0:0:0:0:
256,192,106517,1,0,0:0:0:0:
36,192,106614,1,0,0:0:0:0:
182,192,106614,1,0,0:0:0:0:
329,192,106614,1,0,0:0:0:0:
475,192,106614,1,0,0:0:0:0:
402,192,106712,1,0,0:0:0:0:
256,192,106712,1,0,0:0:0:0:
36,192,106811,1,0,0:0:0:0:
475,192,106811,1,0,0:0:0:0:
329,192,106811,1,0,0:0:0:0:
109,192,106811,1,0,0:0:0:0:
402,192,106908,1,0,0:0:0:0:
182,192,106908,1,0,0:0:0:0:
36,192,107007,1,0,0:0:0:0:
475,192,107007,1,0,0:0:0:0:
109,192,107007,1,0,0:0:0:0:
256,192,107007,1,0,0:0:0:0:
182,192,107105,1,0,0:0:0:0:
329,192,107105,1,0,0:0:0:0:
36,192,107202,1,0,0:0:0:0:
109,192,107202,1,0,0:0:0:0:
402,192,107202,1,0,0:0:0:0:
475,192,107202,1,0,0:0:0:0:
182,192,107301,1,0,0:0:0:0:
329,192,107301,1,0,0:0:0:0:
36,192,107399,1,0,0:0:0:0:
256,192,107399,1,0,0:0:0:0:
475,192,107399,1,0,0:0:0:0:
109,192,107497,1,0,0:0:0:0:
402,192,107497,1,0,0:0:0:0:
329,192,107595,1,0,0:0:0:0:
182,192,107595,1,0,0:0:0:0:
256,192,107595,1,0,0:0:0:0:
109,192,107692,1,0,0:0:0:0:
402,192,107692,1,0,0:0:0:0:
329,192,107791,1,0,0:0:0:0:
256,192,107791,1,0,0:0:0:0:
36,192,107791,1,0,0:0:0:0:
475,192,107791,1,0,0:0:0:0:
109,192,107889,1,0,0:0:0:0:
182,192,107889,1,0,0:0:0:0:
36,192,107987,1,0,0:0:0:0:
475,192,107987,1,0,0:0:0:0:
329,192,107987,1,0,0:0:0:0:
402,192,107987,1,0,0:0:0:0:
256,192,108085,1,0,0:0:0:0:
109,192,108085,1,0,0:0:0:0:
402,192,108183,1,0,0:0:0:0:
36,192,108183,1,0,0:0:0:0:
475,192,108183,1,0,0:0:0:0:
182,192,108183,1,0,0:0:0:0:
329,192,108281,1,0,0:0:0:0:
256,192,108281,1,0,0:0:0:0:
36,192,108379,1,0,0:0:0:0:
109,192,108379,1,0,0:0:0:0:
182,192,108379,1,0,0:0:0:0:
475,192,108379,1,0,0:0:0:0:
402,192,108478,1,0,0:0:0:0:
329,192,108478,1,0,0:0:0:0:
256,192,108575,1,0,0:0:0:0:
36,192,108575,1,0,0:0:0:0:
109,192,108575,1,0,0:0:0:0:
475,192,108575,1,0,0:0:0:0:
182,192,108673,1,0,0:0:0:0:
402,192,108673,1,0,0:0:0:0:
36,192,108772,1,0,0:0:0:0:
109,192,108772,1,0,0:0:0:0:
329,192,108772,1,0,0:0:0:0:
475,192,108772,1,0,0:0:0:0:
182,192,108869,1,0,0:0:0:0:
256,192,108869,1,0,0:0:0:0:
402,192,108869,1,0,0:0:0:0:
36,192,108968,1,0,0:0:0:0:
109,192,108968,1,0,0:0:0:0:
329,192,108968,1,0,0:0:0:0:
256,192,109066,1,0,0:0:0:0:
475,192,109066,1,0,0:0:0:0:
36,192,109163,1,0,0:0:0:0:
402,192,109163,1,0,0:0:0:0:
182,192,109163,1,0,0:0:0:0:
109,192,109163,1,0,0:0:0:0:
329,192,109262,1,0,0:0:0:0:
256,192,109262,1,0,0:0:0:0:
402,192,109359,1,0,0:0:0:0:
475,192,109359,1,0,0:0:0:0:
36,192,109359,1,0,0:0:0:0:
182,192,109359,1,0,0:0:0:0:
329,192,109458,1,0,0:0:0:0:
109,192,109458,1,0,0:0:0:0:
475,192,109556,1,0,0:0:0:0:
402,192,109556,1,0,0:0:0:0:
182,192,109556,1,0,0:0:0:0:
36,192,109556,1,0,0:0:0:0:
329,192,109653,1,0,0:0:0:0:
256,192,109653,1,0,0:0:0:0:
109,192,109653,1,0,0:0:0:0:
475,192,109752,1,0,0:0:0:0:
402,192,109752,1,0,0:0:0:0:
182,192,109752,1,0,0:0:0:0:
256,192,109850,1,0,0:0:0:0:
36,192,109850,1,0,0:0:0:0:
475,192,109948,1,0,0:0:0:0:
109,192,109948,1,0,0:0:0:0:
329,192,109948,1,0,0:0:0:0:
402,192,109948,1,0,0:0:0:0:
182,192,110046,1,0,0:0:0:0:
256,192,110046,1,0,0:0:0:0:
109,192,110144,1,0,0:0:0:0:
36,192,110144,1,0,0:0:0:0:
475,192,110144,1,0,0:0:0:0:
329,192,110144,1,0,0:0:0:0:
182,192,110242,1,0,0:0:0:0:
402,192,110242,1,0,0:0:0:0:
36,192,110340,1,0,0:0:0:0:
256,192,110340,1,0,0:0:0:0:
475,192,110340,1,0,0:0:0:0:
109,192,110438,1,0,0:0:0:0:
329,192,110438,1,0,0:0:0:0:
182,192,110536,1,0,0:0:0:0:
402,192,110536,1,0,0:0:0:0:
475,192,110536,1,0,0:0:0:0:
36,192,110536,1,0,0:0:0:0:
109,192,110634,1,0,0:0:0:0:
329,192,110634,1,0,0:0:0:0:
36,192,110732,1,0,0:0:0:0:
256,192,110732,1,0,0:0:0:0:
475,192,110732,1,0,0:0:0:0:
402,192,110732,1,0,0:0:0:0:
182,192,110830,1,0,0:0:0:0:
329,192,110830,1,0,0:0:0:0:
36,192,110928,1,0,0:0:0:0:
475,192,110928,1,0,0:0:0:0:
109,192,110928,1,0,0:0:0:0:
256,192,110928,1,0,0:0:0:0:
182,192,111026,1,0,0:0:0:0:
402,192,111026,1,0,0:0:0:0:
36,192,111124,1,0,0:0:0:0:
109,192,111124,1,0,0:0:0:0:
329,192,111124,1,0,0:0:0:0:
475,192,111124,1,0,0:0:0:0:
182,192,111222,1,0,0:0:0:0:
256,192,111222,1,0,0:0:0:0:
402,192,111222,1,0,0:0:0:0:
36,192,111320,1,0,0:0:0:0:
475,192,111320,1,0,0:0:0:0:
329,192,111320,1,0,0:0:0:0:
109,192,111320,1,0,0:0:0:0:
182,192,111418,1,0,0:0:0:0:
402,192,111418,1,0,0:0:0:0:
256,192,111517,1,0,0:0:0:0:
475,192,111517,1,0,0:0:0:0:
36,192,111517,1,0,0:0:0:0:
109,192,111517,1,0,0:0:0:0:
329,192,111614,1,0,0:0:0:0:
182,192,111614,1,0,0:0:0:0:
36,192,111712,1,0,0:0:0:0:
402,192,111712,1,0,0:0:0:0:
256,192,111712,1,0,0:0:0:0:
475,192,111712,1,0,0:0:0:0:
109,192,111811,1,0,0:0:0:0:
182,192,111811,1,0,0:0:0:0:
329,192,111811,1,0,0:0:0:0:
36,192,111908,1,0,0:0:0:0:
256,192,111908,1,0,0:0:0:0:
402,192,111908,1,0,0:0:0:0:
475,192,111908,1,0,0:0:0:0:
109,192,112007,1,0,0:0:0:0:
329,192,112007,1,0,0:0:0:0:
182,192,112105,1,0,0:0:0:0:
36,192,112105,1,0,0:0:0:0:
475,192,112105,1,0,0:0:0:0:
402,192,112105,1,0,0:0:0:0:
109,192,112202,1,0,0:0:0:0:
256,192,112202,1,0,0:0:0:0:
36,192,112301,1,0,0:0:0:0:
182,192,112301,1,0,0:0:0:0:
329,192,112301,1,0,0:0:0:0:
109,192,112399,1,0,0:0:0:0:
256,192,112399,1,0,0:0:0:0:
402,192,112399,1,0,0:0:0:0:
36,192,112497,1,0,0:0:0:0:
475,192,112497,1,0,0:0:0:0:
182,192,112497,1,0,0:0:0:0:
329,192,112497,1,0,0:0:0:0:
36,192,112913,1,0,0:0:0:0:
329,192,112913,1,0,0:0:0:0:
402,192,112913,1,0,0:0:0:0:
182,192,112913,1,0,0:0:0:0:
36,192,113306,1,0,0:0:0:0:
402,192,113306,1,0,0:0:0:0:
475,192,113306,1,0,0:0:0:0:
182,192,113306,1,0,0:0:0:0:
256,192,113600,1,0,0:0:0:0:
475,192,113600,1,0,0:0:0:0:
36,192,113698,1,0,0:0:0:0:
182,192,113698,1,0,0:0:0:0:
256,192,113894,1,0,0:0:0:0:
475,192,113894,1,0,0:0:0:0:
36,192,114090,1,0,0:0:0:0:
256,192,114090,1,0,0:0:0:0:
329,192,114090,1,0,0:0:0:0:
182,192,114090,1,0,0:0:0:0:
256,192,114286,1,0,0:0:0:0:
329,192,114286,1,0,0:0:0:0:
36,192,114482,1,0,0:0:0:0:
402,192,114482,1,0,0:0:0:0:
329,192,114482,1,0,0:0:0:0:
182,192,114482,1,0,0:0:0:0:
329,192,114678,1,0,0:0:0:0:
402,192,114678,1,0,0:0:0:0:
36,192,114874,1,0,0:0:0:0:
475,192,114874,1,0,0:0:0:0:
402,192,114874,1,0,0:0:0:0:
182,192,114874,1,0,0:0:0:0:
256,192,115168,1,0,0:0:0:0:
475,192,115168,1,0,0:0:0:0:
36,192,115267,1,0,0:0:0:0:
182,192,115267,1,0,0:0:0:0:
256,192,115364,1,0,0:0:0:0:
475,192,115364,1,0,0:0:0:0:
36,192,115462,1,0,0:0:0:0:
182,192,115528,1,0,0:0:0:0:
475,192,115593,1,0,0:0:0:0:
36,192,115658,1,0,0:0:0:0:
256,192,115658,1,0,0:0:0:0:
329,192,115658,1,0,0:0:0:0:
182,192,115658,1,0,0:0:0:0:
182,192,115855,1,0,0:0:0:0:
109,192,115952,1,0,0:0:0:0:
36,192,116051,1,0,0:0:0:0:
329,192,116051,1,0,0:0:0:0:
402,192,116051,1,0,0:0:0:0:
182,192,116051,1,0,0:0:0:0:
36,192,116247,1,0,0:0:0:0:
109,192,116345,1,0,0:0:0:0:
182,192,116442,1,0,0:0:0:0:
475,192,116442,1,0,0:0:0:0:
402,192,116442,1,0,0:0:0:0:
36,192,116442,1,0,0:0:0:0:
182,192,116639,1,0,0:0:0:0:
109,192,116737,1,0,0:0:0:0:
256,192,116737,1,0,0:0:0:0:
475,192,116737,1,0,0:0:0:0:
36,192,116835,1,0,0:0:0:0:
182,192,116835,1,0,0:0:0:0:
36,192,117031,1,0,0:0:0:0:
475,192,117031,1,0,0:0:0:0:
256,192,117031,1,0,0:0:0:0:
109,192,117129,1,0,0:0:0:0:
182,192,117228,1,0,0:0:0:0:
329,192,117228,1,0,0:0:0:0:
475,192,117228,1,0,0:0:0:0:
36,192,117228,1,0,0:0:0:0:
182,192,117423,1,0,0:0:0:0:
109,192,117423,1,0,0:0:0:0:
475,192,117423,1,0,0:0:0:0:
329,192,117423,1,0,0:0:0:0:
256,192,117619,1,0,0:0:0:0:
182,192,117619,1,0,0:0:0:0:
36,192,117619,1,0,0:0:0:0:
402,192,117619,1,0,0:0:0:0:
329,192,117815,1,0,0:0:0:0:
256,192,117815,1,0,0:0:0:0:
109,192,117815,1,0,0:0:0:0:
475,192,117815,1,0,0:0:0:0:
402,192,118012,1,0,0:0:0:0:
329,192,118012,1,0,0:0:0:0:
182,192,118012,1,0,0:0:0:0:
36,192,118012,1,0,0:0:0:0:
475,192,118208,1,0,0:0:0:0:
256,192,118208,1,0,0:0:0:0:
329,192,118208,1,0,0:0:0:0:
109,192,118208,1,0,0:0:0:0:
36,192,118403,1,0,0:0:0:0:
182,192,118403,1,0,0:0:0:0:
256,192,118403,1,0,0:0:0:0:
402,192,118403,1,0,0:0:0:0:
109,192,118600,1,0,0:0:0:0:
182,192,118600,1,0,0:0:0:0:
329,192,118600,1,0,0:0:0:0:
475,192,118600,1,0,0:0:0:0:
36,192,118796,1,0,0:0:0:0:
475,192,118796,1,0,0:0:0:0:
109,192,118796,1,0,0:0:0:0:
402,192,118796,1,0,0:0:0:0:
329,192,118796,1,0,0:0:0:0:
256,192,118894,1,0,0:0:0:0:
182,192,118992,1,0,0:0:0:0:
402,192,118992,1,0,0:0:0:0:
36,192,118992,1,0,0:0:0:0:
329,192,119090,1,0,0:0:0:0:
109,192,119090,1,0,0:0:0:0:
256,192,119188,1,0,0:0:0:0:
36,192,119188,1,0,0:0:0:0:
475,192,119188,1,0,0:0:0:0:
182,192,119286,1,0,0:0:0:0:
329,192,119384,1,0,0:0:0:0:
475,192,119384,1,0,0:0:0:0:
109,192,119384,1,0,0:0:0:0:
36,192,119384,1,0,0:0:0:0:
256,192,119482,1,0,0:0:0:0:
182,192,119580,1,0,0:0:0:0:
36,192,119580,1,0,0:0:0:0:
402,192,119580,1,0,0:0:0:0:
475,192,119580,1,0,0:0:0:0:
329,192,119678,1,0,0:0:0:0:
256,192,119776,1,0,0:0:0:0:
36,192,119776,1,0,0:0:0:0:
475,192,119776,1,0,0:0:0:0:
402,192,119874,1,0,0:0:0:0:
329,192,119972,1,0,0:0:0:0:
182,192,119972,1,0,0:0:0:0:
36,192,119972,1,0,0:0:0:0:
475,192,119972,1,0,0:0:0:0:
256,192,119972,1,0,0:0:0:0:
109,192,120070,1,0,0:0:0:0:
36,192,120168,1,0,0:0:0:0:
256,192,120168,1,0,0:0:0:0:
475,192,120168,1,0,0:0:0:0:
329,192,120267,1,0,0:0:0:0:
109,192,120364,1,0,0:0:0:0:
36,192,120364,1,0,0:0:0:0:
475,192,120364,1,0,0:0:0:0:
402,192,120364,1,0,0:0:0:0:
182,192,120364,1,0,0:0:0:0:
256,192,120462,1,0,0:0:0:0:
475,192,120561,1,0,0:0:0:0:
109,192,120561,1,0,0:0:0:0:
329,192,120561,1,0,0:0:0:0:
402,192,120658,1,0,0:0:0:0:
182,192,120658,1,0,0:0:0:0:
36,192,120757,1,0,0:0:0:0:
475,192,120757,1,0,0:0:0:0:
256,192,120757,1,0,0:0:0:0:
329,192,120855,1,0,0:0:0:0:
402,192,120952,1,0,0:0:0:0:
36,192,120952,1,0,0:0:0:0:
182,192,120952,1,0,0:0:0:0:
475,192,120952,1,0,0:0:0:0:
256,192,121051,1,0,0:0:0:0:
109,192,121148,1,0,0:0:0:0:
36,192,121148,1,0,0:0:0:0:
329,192,121148,1,0,0:0:0:0:
475,192,121148,1,0,0:0:0:0:
182,192,121247,1,0,0:0:0:0:
36,192,121345,1,0,0:0:0:0:
475,192,121345,1,0,0:0:0:0:
256,192,121345,1,0,0:0:0:0:
109,192,121442,1,0,0:0:0:0:
475,192,121541,1,0,0:0:0:0:
36,192,121541,1,0,0:0:0:0:
182,192,121541,1,0,0:0:0:0:
329,192,121541,1,0,0:0:0:0:
256,192,121541,1,0,0:0:0:0:
402,192,121639,1,0,0:0:0:0:
36,192,121737,1,0,0:0:0:0:
256,192,121737,1,0,0:0:0:0:
475,192,121737,1,0,0:0:0:0:
182,192,121835,1,0,0:0:0:0:
36,192,121933,1,0,0:0:0:0:
109,192,121933,1,0,0:0:0:0:
402,192,121933,1,0,0:0:0:0:
475,192,121933,1,0,0:0:0:0:
329,192,121933,1,0,0:0:0:0:
256,192,122031,1,0,0:0:0:0:
182,192,122129,1,0,0:0:0:0:
402,192,122129,1,0,0:0:0:0:
36,192,122129,1,0,0:0:0:0:
329,192,122228,1,0,0:0:0:0:
109,192,122228,1,0,0:0:0:0:
36,192,122325,1,0,0:0:0:0:
475,192,122325,1,0,0:0:0:0:
256,192,122325,1,0,0:0:0:0:
402,192,122423,1,0,0:0:0:0:
329,192,122522,1,0,0:0:0:0:
36,192,122522,1,0,0:0:0:0:
109,192,122522,1,0,0:0:0:0:
182,192,122522,1,0,0:0:0:0:
402,192,122619,1,0,0:0:0:0:
475,192,122718,1,0,0:0:0:0:
36,192,122718,1,0,0:0:0:0:
182,192,122718,1,0,0:0:0:0:
329,192,122718,1,0,0:0:0:0:
109,192,122718,1,0,0:0:0:0:
256,192,122815,1,0,0:0:0:0:
329,192,122913,1,0,0:0:0:0:
109,192,122913,1,0,0:0:0:0:
475,192,122913,1,0,0:0:0:0:
182,192,123012,1,0,0:0:0:0:
402,192,123012,1,0,0:0:0:0:
475,192,123109,1,0,0:0:0:0:
36,192,123109,1,0,0:0:0:0:
256,192,123109,1,0,0:0:0:0:
329,192,123109,1,0,0:0:0:0:
109,192,123208,1,0,0:0:0:0:
182,192,123306,1,0,0:0:0:0:
475,192,123306,1,0,0:0:0:0:
329,192,123306,1,0,0:0:0:0:
109,192,123403,1,0,0:0:0:0:
36,192,123502,1,0,0:0:0:0:
475,192,123502,1,0,0:0:0:0:
402,192,123502,1,0,0:0:0:0:
256,192,123502,1,0,0:0:0:0:
329,192,123502,1,0,0:0:0:0:
182,192,123600,1,0,0:0:0:0:
109,192,123698,1,0,0:0:0:0:
329,192,123698,1,0,0:0:0:0:
475,192,123698,1,0,0:0:0:0:
256,192,123796,1,0,0:0:0:0:
36,192,123796,1,0,0:0:0:0:
182,192,123894,1,0,0:0:0:0:
402,192,123894,1,0,0:0:0:0:
475,192,123894,1,0,0:0:0:0:
329,192,123992,1,0,0:0:0:0:
256,192,124090,1,0,0:0:0:0:
475,192,124090,1,0,0:0:0:0:
36,192,124090,1,0,0:0:0:0:
109,192,124090,1,0,0:0:0:0:
402,192,124188,1,0,0:0:0:0:
329,192,124286,1,0,0:0:0:0:
36,192,124286,1,0,0:0:0:0:
256,192,124286,1,0,0:0:0:0:
475,192,124286,1,0,0:0:0:0:
182,192,124286,1,0,0:0:0:0:
402,192,124384,1,0,0:0:0:0:
109,192,124384,1,0,0:0:0:0:
182,192,124482,1,0,0:0:0:0:
256,192,124482,1,0,0:0:0:0:
475,192,124482,1,0,0:0:0:0:
109,192,124548,1,0,0:0:0:0:
329,192,124580,1,0,0:0:0:0:
36,192,124612,1,0,0:0:0:0:
182,192,124678,1,0,0:0:0:0:
402,192,124678,1,0,0:0:0:0:
475,192,124678,1,0,0:0:0:0:
109,192,124743,1,0,0:0:0:0:
256,192,124776,1,0,0:0:0:0:
36,192,124809,1,0,0:0:0:0:
182,192,124874,1,0,0:0:0:0:
329,192,124874,1,0,0:0:0:0:
475,192,124874,1,0,0:0:0:0:
109,192,124939,1,0,0:0:0:0:
402,192,124972,1,0,0:0:0:0:
36,192,125005,1,0,0:0:0:0:
475,192,125070,1,0,0:0:0:0:
182,192,125070,1,0,0:0:0:0:
329,192,125070,1,0,0:0:0:0:
256,192,125168,1,0,0:0:0:0:
182,192,125267,1,0,0:0:0:0:
402,192,125267,1,0,0:0:0:0:
36,192,125267,1,0,0:0:0:0:
329,192,125364,1,0,0:0:0:0:
109,192,125364,1,0,0:0:0:0:
256,192,125462,1,0,0:0:0:0:
36,192,125462,1,0,0:0:0:0:
475,192,125462,1,0,0:0:0:0:
182,192,125561,1,0,0:0:0:0:
402,192,125561,1,0,0:0:0:0:
329,192,125658,1,0,0:0:0:0:
475,192,125658,1,0,0:0:0:0:
109,192,125658,1,0,0:0:0:0:
36,192,125658,1,0,0:0:0:0:
256,192,125757,1,0,0:0:0:0:
182,192,125757,1,0,0:0:0:0:
36,192,125855,1,0,0:0:0:0:
402,192,125855,1,0,0:0:0:0:
475,192,125855,1,0,0:0:0:0:
109,192,125855,1,0,0:0:0:0:
329,192,125952,1,0,0:0:0:0:
256,192,126051,1,0,0:0:0:0:
36,192,126051,1,0,0:0:0:0:
475,192,126051,1,0,0:0:0:0:
109,192,126051,1,0,0:0:0:0:
402,192,126148,1,0,0:0:0:0:
329,192,126247,1,0,0:0:0:0:
182,192,126247,1,0,0:0:0:0:
36,192,126247,1,0,0:0:0:0:
475,192,126247,1,0,0:0:0:0:
256,192,126247,1,0,0:0:0:0:
109,192,126345,1,0,0:0:0:0:
36,192,126442,1,0,0:0:0:0:
256,192,126442,1,0,0:0:0:0:
475,192,126442,1,0,0:0:0:0:
402,192,126442,1,0,0:0:0:0:
329,192,126541,1,0,0:0:0:0:
109,192,126639,1,0,0:0:0:0:
36,192,126639,1,0,0:0:0:0:
475,192,126639,1,0,0:0:0:0:
402,192,126639,1,0,0:0:0:0:
182,192,126639,1,0,0:0:0:0:
256,192,126737,1,0,0:0:0:0:
109,192,126835,1,0,0:0:0:0:
329,192,126835,1,0,0:0:0:0:
475,192,126835,1,0,0:0:0:0:
182,192,126933,1,0,0:0:0:0:
402,192,126933,1,0,0:0:0:0:
36,192,127031,1,0,0:0:0:0:
256,192,127031,1,0,0:0:0:0:
475,192,127031,1,0,0:0:0:0:
109,192,127129,1,0,0:0:0:0:
329,192,127129,1,0,0:0:0:0:
36,192,127228,1,0,0:0:0:0:
182,192,127228,1,0,0:0:0:0:
475,192,127228,1,0,0:0:0:0:
402,192,127228,1,0,0:0:0:0:
256,192,127325,1,0,0:0:0:0:
109,192,127423,1,0,0:0:0:0:
36,192,127423,1,0,0:0:0:0:
329,192,127423,1,0,0:0:0:0:
475,192,127423,1,0,0:0:0:0:
182,192,127522,1,0,0:0:0:0:
36,192,127619,1,0,0:0:0:0:
475,192,127619,1,0,0:0:0:0:
256,192,127619,1,0,0:0:0:0:
402,192,127619,1,0,0:0:0:0:
109,192,127718,1,0,0:0:0:0:
475,192,127815,1,0,0:0:0:0:
36,192,127815,1,0,0:0:0:0:
182,192,127815,1,0,0:0:0:0:
256,192,127815,1,0,0:0:0:0:
329,192,127815,1,0,0:0:0:0:
402,192,127913,1,0,0:0:0:0:
36,192,128012,1,0,0:0:0:0:
475,192,128012,1,0,0:0:0:0:
109,192,128012,1,0,0:0:0:0:
329,192,128012,1,0,0:0:0:0:
182,192,128109,1,0,0:0:0:0:
256,192,128109,1,0,0:0:0:0:
36,192,128208,1,0,0:0:0:0:
109,192,128208,1,0,0:0:0:0:
402,192,128208,1,0,0:0:0:0:
475,192,128208,1,0,0:0:0:0:
329,192,128208,1,0,0:0:0:0:
256,192,128306,1,0,0:0:0:0:
182,192,128403,1,0,0:0:0:0:
402,192,128403,1,0,0:0:0:0:
36,192,128403,1,0,0:0:0:0:
329,192,128502,1,0,0:0:0:0:
109,192,128502,1,0,0:0:0:0:
36,192,128600,1,0,0:0:0:0:
475,192,128600,1,0,0:0:0:0:
256,192,128600,1,0,0:0:0:0:
182,192,128600,1,0,0:0:0:0:
402,192,128698,1,0,0:0:0:0:
329,192,128796,1,0,0:0:0:0:
36,192,128796,1,0,0:0:0:0:
182,192,128796,1,0,0:0:0:0:
402,192,128894,1,0,0:0:0:0:
475,192,128992,1,0,0:0:0:0:
36,192,128992,1,0,0:0:0:0:
182,192,128992,1,0,0:0:0:0:
329,192,128992,1,0,0:0:0:0:
109,192,128992,1,0,0:0:0:0:
256,192,129090,1,0,0:0:0:0:
329,192,129188,1,0,0:0:0:0:
109,192,129188,1,0,0:0:0:0:
475,192,129188,1,0,0:0:0:0:
182,192,129286,1,0,0:0:0:0:
402,192,129286,1,0,0:0:0:0:
475,192,129384,1,0,0:0:0:0:
36,192,129384,1,0,0:0:0:0:
256,192,129384,1,0,0:0:0:0:
329,192,129384,1,0,0:0:0:0:
109,192,129482,1,0,0:0:0:0:
182,192,129580,1,0,0:0:0:0:
475,192,129580,1,0,0:0:0:0:
329,192,129580,1,0,0:0:0:0:
402,192,129580,1,0,0:0:0:0:
109,192,129678,1,0,0:0:0:0:
36,192,129776,1,0,0:0:0:0:
475,192,129776,1,0,0:0:0:0:
402,192,129776,1,0,0:0:0:0:
256,192,129776,1,0,0:0:0:0:
329,192,129776,1,0,0:0:0:0:
182,192,129874,1,0,0:0:0:0:
109,192,129972,1,0,0:0:0:0:
329,192,129972,1,0,0:0:0:0:
475,192,129972,1,0,0:0:0:0:
256,192,130070,1,0,0:0:0:0:
36,192,130070,1,0,0:0:0:0:
182,192,130168,1,0,0:0:0:0:
402,192,130168,1,0,0:0:0:0:
475,192,130168,1,0,0:0:0:0:
329,192,130267,1,0,0:0:0:0:
256,192,130364,1,0,0:0:0:0:
475,192,130364,1,0,0:0:0:0:
36,192,130364,1,0,0:0:0:0:
109,192,130364,1,0,0:0:0:0:
402,192,130462,1,0,0:0:0:0:
329,192,130561,1,0,0:0:0:0:
36,192,130561,1,0,0:0:0:0:
475,192,130561,1,0,0:0:0:0:
109,192,130561,1,0,0:0:0:0:
182,192,130658,1,0,0:0:0:0:
256,192,130757,1,0,0:0:0:0:
329,192,130855,1,0,0:0:0:0:
402,192,130952,1,0,0:0:0:0:
475,192,130952,1,0,0:0:0:0:
36,192,130952,1,0,0:0:0:0:
182,192,130952,1,0,0:0:0:0:
109,192,130952,1,0,0:0:0:0:
256,192,131051,1,0,0:0:0:0:
329,192,131051,1,0,0:0:0:0:
475,192,131148,1,0,0:0:0:0:
182,192,131148,1,0,0:0:0:0:
109,192,131148,1,0,0:0:0:0:
36,192,131148,1,0,0:0:0:0:
329,192,131247,1,0,0:0:0:0:
402,192,131247,1,0,0:0:0:0:
475,192,131345,1,0,0:0:0:0:
256,192,131345,1,0,0:0:0:0:
109,192,131345,1,0,0:0:0:0:
36,192,131345,1,0,0:0:0:0:
182,192,131442,1,0,0:0:0:0:
402,192,131442,1,0,0:0:0:0:
36,192,131541,1,0,0:0:0:0:
329,192,131541,1,0,0:0:0:0:
256,192,131541,1,0,0:0:0:0:
182,192,131639,1,0,0:0:0:0:
475,192,131639,1,0,0:0:0:0:
36,192,131737,1,0,0:0:0:0:
402,192,131737,1,0,0:0:0:0:
256,192,131737,1,0,0:0:0:0:
182,192,131835,1,0,0:0:0:0:
36,192,131933,1,0,0:0:0:0:
329,192,131933,1,0,0:0:0:0:
402,192,131933,1,0,0:0:0:0:
475,192,131933,1,0,0:0:0:0:
256,192,131933,1,0,0:0:0:0:
182,192,132031,1,0,0:0:0:0:
475,192,132129,1,0,0:0:0:0:
402,192,132129,1,0,0:0:0:0:
36,192,132129,1,0,0:0:0:0:
109,192,132129,1,0,0:0:0:0:
256,192,132129,1,0,0:0:0:0:
329,192,132228,1,0,0:0:0:0:
475,192,132325,1,0,0:0:0:0:
182,192,132325,1,0,0:0:0:0:
256,192,132325,1,0,0:0:0:0:
329,192,132423,1,0,0:0:0:0:
475,192,132522,1,0,0:0:0:0:
109,192,132522,1,0,0:0:0:0:
36,192,132522,1,0,0:0:0:0:
329,192,132619,1,0,0:0:0:0:
475,192,132718,1,0,0:0:0:0:
36,192,132718,1,0,0:0:0:0:
109,192,132718,1,0,0:0:0:0:
182,192,132718,1,0,0:0:0:0:
329,192,132815,1,0,0:0:0:0:
182,192,132815,1,0,0:0:0:0:
256,192,132815,1,0,0:0:0:0:
36,192,132913,1,0,0:0:0:0:
109,192,132913,1,0,0:0:0:0:
402,192,132913,1,0,0:0:0:0:
475,192,132913,1,0,0:0:0:0:
329,192,132913,1,0,0:0:0:0:
182,192,133012,1,0,0:0:0:0:
36,192,133109,1,0,0:0:0:0:
475,192,133109,1,0,0:0:0:0:
329,192,133109,1,0,0:0:0:0:
182,192,133208,1,0,0:0:0:0:
36,192,133306,1,0,0:0:0:0:
402,192,133306,1,0,0:0:0:0:
256,192,133306,1,0,0:0:0:0:
182,192,133403,1,0,0:0:0:0:
36,192,133502,1,0,0:0:0:0:
329,192,133502,1,0,0:0:0:0:
402,192,133502,1,0,0:0:0:0:
475,192,133502,1,0,0:0:0:0:
182,192,133600,1,0,0:0:0:0:
329,192,133600,1,0,0:0:0:0:
256,192,133600,1,0,0:0:0:0:
475,192,133698,1,0,0:0:0:0:
402,192,133698,1,0,0:0:0:0:
36,192,133698,1,0,0:0:0:0:
109,192,133698,1,0,0:0:0:0:
182,192,133698,1,0,0:0:0:0:
329,192,133796,1,0,0:0:0:0:
475,192,133894,1,0,0:0:0:0:
256,192,133894,1,0,0:0:0:0:
109,192,133894,1,0,0:0:0:0:
329,192,133992,1,0,0:0:0:0:
475,192,134090,1,0,0:0:0:0:
36,192,134090,128,0,134384:0:0:0:0:
182,192,134090,128,0,134384:0:0:0:0:
109,192,134090,1,0,0:0:0:0:
256,192,134090,1,0,0:0:0:0:
329,192,134188,1,0,0:0:0:0:
475,192,134286,1,0,0:0:0:0:
329,192,134384,1,0,0:0:0:0:
475,192,134482,1,0,0:0:0:0:
36,192,134482,1,0,0:0:0:0:
109,192,134482,1,0,0:0:0:0:
256,192,134482,1,0,0:0:0:0:
402,192,134482,1,0,0:0:0:0:
182,192,134580,1,0,0:0:0:0:
329,192,134580,1,0,0:0:0:0:
36,192,134678,1,0,0:0:0:0:
256,192,134678,1,0,0:0:0:0:
475,192,134678,1,0,0:0:0:0:
182,192,134776,1,0,0:0:0:0:
402,192,134776,1,0,0:0:0:0:
36,192,134874,1,0,0:0:0:0:
329,192,134874,1,0,0:0:0:0:
256,192,134874,1,0,0:0:0:0:
182,192,134972,1,0,0:0:0:0:
36,192,135070,1,0,0:0:0:0:
402,192,135070,1,0,0:0:0:0:
475,192,135070,1,0,0:0:0:0:
329,192,135070,1,0,0:0:0:0:
256,192,135070,1,0,0:0:0:0:
182,192,135168,1,0,0:0:0:0:
475,192,135267,1,0,0:0:0:0:
256,192,135267,1,0,0:0:0:0:
402,192,135267,1,0,0:0:0:0:
109,192,135267,1,0,0:0:0:0:
36,192,135267,1,0,0:0:0:0:
329,192,135364,1,0,0:0:0:0:
475,192,135462,1,0,0:0:0:0:
109,192,135462,1,0,0:0:0:0:
256,192,135462,1,0,0:0:0:0:
329,192,135561,1,0,0:0:0:0:
475,192,135658,1,0,0:0:0:0:
36,192,135658,1,0,0:0:0:0:
182,192,135658,1,0,0:0:0:0:
329,192,135757,1,0,0:0:0:0:
475,192,135855,1,0,0:0:0:0:
36,192,135855,1,0,0:0:0:0:
182,192,135855,1,0,0:0:0:0:
256,192,135855,1,0,0:0:0:0:
329,192,135952,1,0,0:0:0:0:
109,192,135952,1,0,0:0:0:0:
256,192,135952,1,0,0:0:0:0:
475,192,136051,1,0,0:0:0:0:
329,192,136051,1,0,0:0:0:0:
402,192,136051,1,0,0:0:0:0:
182,192,136051,1,0,0:0:0:0:
36,192,136051,1,0,0:0:0:0:
475,192,136247,1,0,0:0:0:0:
256,192,136247,1,0,0:0:0:0:
36,192,136247,1,0,0:0:0:0:
182,192,136345,1,0,0:0:0:0:
402,192,136345,1,0,0:0:0:0:
36,192,136442,1,0,0:0:0:0:
256,192,136442,1,0,0:0:0:0:
475,192,136442,1,0,0:0:0:0:
109,192,136442,1,0,0:0:0:0:
329,192,136442,1,0,0:0:0:0:
256,192,136639,1,0,0:0:0:0:
475,192,136639,1,0,0:0:0:0:
36,192,136639,1,0,0:0:0:0:
109,192,136737,1,0,0:0:0:0:
329,192,136737,1,0,0:0:0:0:
36,192,136835,1,0,0:0:0:0:
402,192,136835,1,0,0:0:0:0:
475,192,136835,1,0,0:0:0:0:
182,192,136835,1,0,0:0:0:0:
256,192,136835,1,0,0:0:0:0:
109,192,136933,1,0,0:0:0:0:
329,192,136933,1,0,0:0:0:0:
182,192,137031,1,0,0:0:0:0:
402,192,137031,1,0,0:0:0:0:
475,192,137031,1,0,0:0:0:0:
36,192,137129,1,0,0:0:0:0:
256,192,137129,1,0,0:0:0:0:
109,192,137228,1,0,0:0:0:0:
329,192,137228,1,0,0:0:0:0:
475,192,137228,1,0,0:0:0:0:
182,192,137325,1,0,0:0:0:0:
256,192,137423,1,0,0:0:0:0:
475,192,137423,1,0,0:0:0:0:
36,192,137423,1,0,0:0:0:0:
109,192,137522,1,0,0:0:0:0:
402,192,137522,1,0,0:0:0:0:
36,192,137619,1,0,0:0:0:0:
182,192,137619,1,0,0:0:0:0:
329,192,137619,1,0,0:0:0:0:
256,192,137619,1,0,0:0:0:0:
475,192,137619,1,0,0:0:0:0:
256,192,137815,1,0,0:0:0:0:
475,192,137815,1,0,0:0:0:0:
402,192,137913,1,0,0:0:0:0:
329,192,137913,1,0,0:0:0:0:
36,192,137913,1,0,0:0:0:0:
109,192,137913,1,0,0:0:0:0:
182,192,138012,1,0,0:0:0:0:
36,192,138109,1,0,0:0:0:0:
109,192,138109,1,0,0:0:0:0:
475,192,138208,1,0,0:0:0:0:
256,192,138208,1,0,0:0:0:0:
402,192,138306,1,0,0:0:0:0:
182,192,138306,1,0,0:0:0:0:
329,192,138403,1,0,0:0:0:0:
256,192,138403,1,0,0:0:0:0:
109,192,138403,1,0,0:0:0:0:
36,192,138403,1,0,0:0:0:0:
475,192,138502,1,0,0:0:0:0:
402,192,138502,1,0,0:0:0:0:
256,192,138698,1,0,0:0:0:0:
329,192,138698,1,0,0:0:0:0:
36,192,138698,1,0,0:0:0:0:
109,192,138698,1,0,0:0:0:0:
182,192,138796,1,0,0:0:0:0:
475,192,138894,1,0,0:0:0:0:
402,192,138894,1,0,0:0:0:0:
109,192,138894,1,0,0:0:0:0:
36,192,138894,1,0,0:0:0:0:
329,192,138992,1,0,0:0:0:0:
256,192,139090,1,0,0:0:0:0:
475,192,139090,1,0,0:0:0:0:
182,192,139090,1,0,0:0:0:0:
402,192,139188,1,0,0:0:0:0:
109,192,139188,1,0,0:0:0:0:
36,192,139188,1,0,0:0:0:0:
329,192,139286,1,0,0:0:0:0:
256,192,139286,1,0,0:0:0:0:
475,192,139384,1,0,0:0:0:0:
402,192,139482,1,0,0:0:0:0:
256,192,139482,1,0,0:0:0:0:
36,192,139482,1,0,0:0:0:0:
109,192,139482,1,0,0:0:0:0:
182,192,139580,1,0,0:0:0:0:
329,192,139678,1,0,0:0:0:0:
475,192,139678,1,0,0:0:0:0:
36,192,139678,1,0,0:0:0:0:
109,192,139678,1,0,0:0:0:0:
256,192,139874,1,0,0:0:0:0:
402,192,139874,1,0,0:0:0:0:
182,192,139874,1,0,0:0:0:0:
329,192,139972,1,0,0:0:0:0:
475,192,139972,1,0,0:0:0:0:
36,192,139972,1,0,0:0:0:0:
109,192,139972,1,0,0:0:0:0:
36,192,140168,1,0,0:0:0:0:
182,192,140168,1,0,0:0:0:0:
475,192,140168,1,0,0:0:0:0:
402,192,140168,1,0,0:0:0:0:
475,192,140364,1,0,0:0:0:0:
36,192,140364,1,0,0:0:0:0:
109,192,140364,1,0,0:0:0:0:
402,192,140364,1,0,0:0:0:0:
182,192,140462,1,0,0:0:0:0:
329,192,140462,1,0,0:0:0:0:
36,192,140561,1,0,0:0:0:0:
475,192,140561,1,0,0:0:0:0:
402,192,140561,1,0,0:0:0:0:
109,192,140561,1,0,0:0:0:0:
182,192,140658,1,0,0:0:0:0:
329,192,140658,1,0,0:0:0:0:
36,192,140757,1,0,0:0:0:0:
475,192,140757,1,0,0:0:0:0:
109,192,140757,1,0,0:0:0:0:
256,192,140757,1,0,0:0:0:0:
402,192,140855,1,0,0:0:0:0:
182,192,140855,1,0,0:0:0:0:
329,192,140952,1,0,0:0:0:0:
109,192,140952,1,0,0:0:0:0:
475,192,140952,1,0,0:0:0:0:
36,192,141051,1,0,0:0:0:0:
256,192,141051,1,0,0:0:0:0:
475,192,141148,1,0,0:0:0:0:
402,192,141148,1,0,0:0:0:0:
182,192,141148,1,0,0:0:0:0:
329,192,141247,1,0,0:0:0:0:
256,192,141345,1,0,0:0:0:0:
36,192,141345,1,0,0:0:0:0:
109,192,141442,1,0,0:0:0:0:
329,192,141442,1,0,0:0:0:0:
36,192,141541,1,0,0:0:0:0:
182,192,141541,1,0,0:0:0:0:
402,192,141541,1,0,0:0:0:0:
475,192,141541,1,0,0:0:0:0:
329,192,141639,1,0,0:0:0:0:
256,192,141737,1,0,0:0:0:0:
36,192,141737,1,0,0:0:0:0:
109,192,141737,1,0,0:0:0:0:
475,192,141737,1,0,0:0:0:0:
329,192,141835,1,0,0:0:0:0:
475,192,141933,1,0,0:0:0:0:
402,192,141933,1,0,0:0:0:0:
36,192,141933,1,0,0:0:0:0:
109,192,141933,1,0,0:0:0:0:
182,192,142031,1,0,0:0:0:0:
256,192,142129,1,0,0:0:0:0:
475,192,142129,1,0,0:0:0:0:
36,192,142129,1,0,0:0:0:0:
402,192,142129,1,0,0:0:0:0:
182,192,142228,1,0,0:0:0:0:
329,192,142228,1,0,0:0:0:0:
36,192,142325,1,0,0:0:0:0:
109,192,142325,1,0,0:0:0:0:
256,192,142325,1,0,0:0:0:0:
475,192,142325,1,0,0:0:0:0:
402,192,142423,1,0,0:0:0:0:
182,192,142423,1,0,0:0:0:0:
109,192,142522,1,0,0:0:0:0:
329,192,142522,1,0,0:0:0:0:
36,192,142522,1,0,0:0:0:0:
256,192,142619,1,0,0:0:0:0:
475,192,142619,1,0,0:0:0:0:
182,192,142718,1,0,0:0:0:0:
402,192,142718,1,0,0:0:0:0:
36,192,142718,1,0,0:0:0:0:
109,192,142815,1,0,0:0:0:0:
256,192,142815,1,0,0:0:0:0:
329,192,142815,1,0,0:0:0:0:
475,192,142913,1,0,0:0:0:0:
402,192,142913,1,0,0:0:0:0:
182,192,142913,1,0,0:0:0:0:
256,192,143012,1,0,0:0:0:0:
109,192,143012,1,0,0:0:0:0:
36,192,143109,1,0,0:0:0:0:
182,192,143109,1,0,0:0:0:0:
329,192,143109,1,0,0:0:0:0:
402,192,143109,1,0,0:0:0:0:
475,192,143109,1,0,0:0:0:0:
256,192,143306,1,0,0:0:0:0:
329,192,143306,1,0,0:0:0:0:
402,192,143306,1,0,0:0:0:0:
109,192,143306,1,0,0:0:0:0:
182,192,143502,1,0,0:0:0:0:
256,192,143502,1,0,0:0:0:0:
329,192,143502,1,0,0:0:0:0:
475,192,143502,1,0,0:0:0:0:
36,192,143502,1,0,0:0:0:0:
36,192,143698,1,0,0:0:0:0:
475,192,143698,1,0,0:0:0:0:
109,192,143698,1,0,0:0:0:0:
402,192,143698,1,0,0:0:0:0:
329,192,143796,1,0,0:0:0:0:
182,192,143796,1,0,0:0:0:0:
36,192,143894,1,0,0:0:0:0:
109,192,143894,1,0,0:0:0:0:
256,192,143894,1,0,0:0:0:0:
475,192,143894,1,0,0:0:0:0:
402,192,143894,1,0,0:0:0:0:
182,192,143992,1,0,0:0:0:0:
329,192,143992,1,0,0:0:0:0:
256,192,144090,1,0,0:0:0:0:
402,192,144090,1,0,0:0:0:0:
36,192,144090,1,0,0:0:0:0:
109,192,144188,1,0,0:0:0:0:
329,192,144188,1,0,0:0:0:0:
475,192,144188,1,0,0:0:0:0:
182,192,144286,1,0,0:0:0:0:
402,192,144286,1,0,0:0:0:0:
36,192,144286,1,0,0:0:0:0:
109,192,144384,1,0,0:0:0:0:
256,192,144384,1,0,0:0:0:0:
475,192,144384,1,0,0:0:0:0:
36,192,144482,1,0,0:0:0:0:
182,192,144482,1,0,0:0:0:0:
329,192,144482,1,0,0:0:0:0:
109,192,144580,1,0,0:0:0:0:
256,192,144580,1,0,0:0:0:0:
402,192,144580,1,0,0:0:0:0:
36,192,144678,1,0,0:0:0:0:
182,192,144678,1,0,0:0:0:0:
329,192,144678,1,0,0:0:0:0:
475,192,144678,1,0,0:0:0:0:
402,192,144776,1,0,0:0:0:0:
109,192,144776,1,0,0:0:0:0:
475,192,144874,1,0,0:0:0:0:
256,192,144874,1,0,0:0:0:0:
36,192,144874,1,0,0:0:0:0:
182,192,144972,1,0,0:0:0:0:
402,192,144972,1,0,0:0:0:0:
109,192,145070,1,0,0:0:0:0:
36,192,145070,1,0,0:0:0:0:
329,192,145070,1,0,0:0:0:0:
475,192,145070,1,0,0:0:0:0:
182,192,145168,1,0,0:0:0:0:
256,192,145168,1,0,0:0:0:0:
402,192,145168,1,0,0:0:0:0:
475,192,145267,1,0,0:0:0:0:
36,192,145267,1,0,0:0:0:0:
329,192,145267,1,0,0:0:0:0:
109,192,145364,1,0,0:0:0:0:
182,192,145364,1,0,0:0:0:0:
402,192,145364,1,0,0:0:0:0:
256,192,145462,1,0,0:0:0:0:
329,192,145462,1,0,0:0:0:0:
36,192,145462,1,0,0:0:0:0:
475,192,145462,1,0,0:0:0:0:
109,192,145561,1,0,0:0:0:0:
182,192,145561,1,0,0:0:0:0:
36,192,145658,1,0,0:0:0:0:
329,192,145658,1,0,0:0:0:0:
402,192,145658,1,0,0:0:0:0:
475,192,145658,1,0,0:0:0:0:
182,192,145757,1,0,0:0:0:0:
256,192,145757,1,0,0:0:0:0:
36,192,145855,1,0,0:0:0:0:
109,192,145855,1,0,0:0:0:0:
402,192,145855,1,0,0:0:0:0:
475,192,145855,1,0,0:0:0:0:
256,192,145952,1,0,0:0:0:0:
329,192,145952,1,0,0:0:0:0:
36,192,146051,1,0,0:0:0:0:
109,192,146051,1,0,0:0:0:0:
182,192,146051,1,0,0:0:0:0:
475,192,146051,1,0,0:0:0:0:
402,192,146148,1,0,0:0:0:0:
329,192,146148,1,0,0:0:0:0:
36,192,146247,1,0,0:0:0:0:
109,192,146247,1,0,0:0:0:0:
475,192,146247,1,0,0:0:0:0:
256,192,146247,1,0,0:0:0:0:
182,192,146247,1,0,0:0:0:0:
329,192,146345,1,0,0:0:0:0:
402,192,146345,1,0,0:0:0:0:
475,192,146442,1,0,0:0:0:0:
182,192,146442,1,0,0:0:0:0:
109,192,146442,1,0,0:0:0:0:
36,192,146442,1,0,0:0:0:0:
256,192,146541,1,0,0:0:0:0:
329,192,146541,1,0,0:0:0:0:
36,192,146639,1,0,0:0:0:0:
402,192,146639,1,0,0:0:0:0:
475,192,146639,1,0,0:0:0:0:
109,192,146639,1,0,0:0:0:0:
182,192,146737,1,0,0:0:0:0:
256,192,146737,1,0,0:0:0:0:
329,192,146835,1,0,0:0:0:0:
402,192,146835,1,0,0:0:0:0:
475,192,146835,1,0,0:0:0:0:
36,192,146835,1,0,0:0:0:0:
109,192,146933,1,0,0:0:0:0:
182,192,146933,1,0,0:0:0:0:
36,192,147031,1,0,0:0:0:0:
256,192,147031,1,0,0:0:0:0:
329,192,147031,1,0,0:0:0:0:
475,192,147031,1,0,0:0:0:0:
182,192,147129,1,0,0:0:0:0:
402,192,147129,1,0,0:0:0:0:
36,192,147228,1,0,0:0:0:0:
109,192,147228,1,0,0:0:0:0:
329,192,147228,1,0,0:0:0:0:
182,192,147325,1,0,0:0:0:0:
256,192,147325,1,0,0:0:0:0:
402,192,147325,1,0,0:0:0:0:
36,192,147423,1,0,0:0:0:0:
329,192,147423,1,0,0:0:0:0:
109,192,147423,1,0,0:0:0:0:
475,192,147423,1,0,0:0:0:0:
182,192,147522,1,0,0:0:0:0:
402,192,147522,1,0,0:0:0:0:
256,192,147619,1,0,0:0:0:0:
36,192,147619,1,0,0:0:0:0:
475,192,147619,1,0,0:0:0:0:
109,192,147718,1,0,0:0:0:0:
402,192,147718,1,0,0:0:0:0:
36,192,147815,1,0,0:0:0:0:
182,192,147815,1,0,0:0:0:0:
475,192,147815,1,0,0:0:0:0:
329,192,147815,1,0,0:0:0:0:
109,192,147913,1,0,0:0:0:0:
256,192,147913,1,0,0:0:0:0:
36,192,148012,1,0,0:0:0:0:
182,192,148012,1,0,0:0:0:0:
402,192,148012,1,0,0:0:0:0:
475,192,148012,1,0,0:0:0:0:
109,192,148109,1,0,0:0:0:0:
256,192,148109,1,0,0:0:0:0:
329,192,148109,1,0,0:0:0:0:
36,192,148208,1,0,0:0:0:0:
475,192,148208,1,0,0:0:0:0:
182,192,148306,1,0,0:0:0:0:
256,192,148306,1,0,0:0:0:0:
402,192,148306,1,0,0:0:0:0:
329,192,148403,1,0,0:0:0:0:
475,192,148403,1,0,0:0:0:0:
36,192,148403,1,0,0:0:0:0:
109,192,148403,1,0,0:0:0:0:
402,192,148502,1,0,0:0:0:0:
182,192,148502,1,0,0:0:0:0:
109,192,148600,1,0,0:0:0:0:
36,192,148600,1,0,0:0:0:0:
256,192,148600,1,0,0:0:0:0:
475,192,148600,1,0,0:0:0:0:
182,192,148698,1,0,0:0:0:0:
402,192,148698,1,0,0:0:0:0:
36,192,148796,1,0,0:0:0:0:
109,192,148796,1,0,0:0:0:0:
329,192,148796,1,0,0:0:0:0:
475,192,148796,1,0,0:0:0:0:
402,192,148894,1,0,0:0:0:0:
182,192,148894,1,0,0:0:0:0:
256,192,148894,1,0,0:0:0:0:
475,192,148992,1,0,0:0:0:0:
36,192,148992,1,0,0:0:0:0:
329,192,149090,1,0,0:0:0:0:
256,192,149090,1,0,0:0:0:0:
109,192,149090,1,0,0:0:0:0:
36,192,149188,1,0,0:0:0:0:
402,192,149188,1,0,0:0:0:0:
182,192,149188,1,0,0:0:0:0:
475,192,149188,1,0,0:0:0:0:
109,192,149286,1,0,0:0:0:0:
329,192,149286,1,0,0:0:0:0:
36,192,149384,1,0,0:0:0:0:
475,192,149384,1,0,0:0:0:0:
256,192,149384,1,0,0:0:0:0:
182,192,149384,1,0,0:0:0:0:
109,192,149482,1,0,0:0:0:0:
329,192,149482,1,0,0:0:0:0:
182,192,149580,1,0,0:0:0:0:
402,192,149580,1,0,0:0:0:0:
36,192,149580,1,0,0:0:0:0:
475,192,149580,1,0,0:0:0:0:
109,192,149678,1,0,0:0:0:0:
256,192,149678,1,0,0:0:0:0:
36,192,149776,1,0,0:0:0:0:
182,192,149776,1,0,0:0:0:0:
329,192,149776,1,0,0:0:0:0:
475,192,149776,1,0,0:0:0:0:
402,192,149874,1,0,0:0:0:0:
256,192,149874,1,0,0:0:0:0:
36,192,149972,1,0,0:0:0:0:
475,192,149972,1,0,0:0:0:0:
329,192,149972,1,0,0:0:0:0:
109,192,149972,1,0,0:0:0:0:
402,192,150070,1,0,0:0:0:0:
182,192,150070,1,0,0:0:0:0:
36,192,150168,1,0,0:0:0:0:
475,192,150168,1,0,0:0:0:0:
109,192,150168,1,0,0:0:0:0:
256,192,150168,1,0,0:0:0:0:
182,192,150267,1,0,0:0:0:0:
329,192,150267,1,0,0:0:0:0:
36,192,150364,1,0,0:0:0:0:
109,192,150364,1,0,0:0:0:0:
402,192,150364,1,0,0:0:0:0:
475,192,150364,1,0,0:0:0:0:
182,192,150462,1,0,0:0:0:0:
329,192,150462,1,0,0:0:0:0:
36,192,150561,1,0,0:0:0:0:
256,192,150561,1,0,0:0:0:0:
475,192,150561,1,0,0:0:0:0:
109,192,150658,1,0,0:0:0:0:
402,192,150658,1,0,0:0:0:0:
329,192,150757,1,0,0:0:0:0:
182,192,150757,1,0,0:0:0:0:
256,192,150757,1,0,0:0:0:0:
109,192,150855,1,0,0:0:0:0:
402,192,150855,1,0,0:0:0:0:
329,192,150952,1,0,0:0:0:0:
256,192,150952,1,0,0:0:0:0:
36,192,150952,1,0,0:0:0:0:
475,192,150952,1,0,0:0:0:0:
109,192,151051,1,0,0:0:0:0:
182,192,151051,1,0,0:0:0:0:
36,192,151148,1,0,0:0:0:0:
475,192,151148,1,0,0:0:0:0:
329,192,151148,1,0,0:0:0:0:
402,192,151148,1,0,0:0:0:0:
256,192,151247,1,0,0:0:0:0:
109,192,151247,1,0,0:0:0:0:
402,192,151345,1,0,0:0:0:0:
182,192,151345,1,0,0:0:0:0:
36,192,151345,1,0,0:0:0:0:
475,192,151345,1,0,0:0:0:0:
329,192,151442,1,0,0:0:0:0:
256,192,151442,1,0,0:0:0:0:
36,192,151541,1,0,0:0:0:0:
109,192,151541,1,0,0:0:0:0:
182,192,151541,1,0,0:0:0:0:
475,192,151541,1,0,0:0:0:0:
402,192,151639,1,0,0:0:0:0:
329,192,151639,1,0,0:0:0:0:
36,192,151737,1,0,0:0:0:0:
109,192,151737,1,0,0:0:0:0:
475,192,151737,1,0,0:0:0:0:
256,192,151737,1,0,0:0:0:0:
182,192,151835,1,0,0:0:0:0:
402,192,151835,1,0,0:0:0:0:
36,192,151933,1,0,0:0:0:0:
109,192,151933,1,0,0:0:0:0:
329,192,151933,1,0,0:0:0:0:
475,192,151933,1,0,0:0:0:0:
182,192,152031,1,0,0:0:0:0:
256,192,152031,1,0,0:0:0:0:
402,192,152031,1,0,0:0:0:0:
36,192,152129,1,0,0:0:0:0:
109,192,152129,1,0,0:0:0:0:
329,192,152129,1,0,0:0:0:0:
256,192,152228,1,0,0:0:0:0:
475,192,152228,1,0,0:0:0:0:
36,192,152325,1,0,0:0:0:0:
402,192,152325,1,0,0:0:0:0:
182,192,152325,1,0,0:0:0:0:
109,192,152325,1,0,0:0:0:0:
329,192,152423,1,0,0:0:0:0:
256,192,152423,1,0,0:0:0:0:
402,192,152522,1,0,0:0:0:0:
475,192,152522,1,0,0:0:0:0:
36,192,152522,1,0,0:0:0:0:
182,192,152522,1,0,0:0:0:0:
329,192,152619,1,0,0:0:0:0:
109,192,152619,1,0,0:0:0:0:
475,192,152718,1,0,0:0:0:0:
402,192,152718,1,0,0:0:0:0:
182,192,152718,1,0,0:0:0:0:
36,192,152718,1,0,0:0:0:0:
329,192,152815,1,0,0:0:0:0:
256,192,152815,1,0,0:0:0:0:
109,192,152815,1,0,0:0:0:0:
475,192,152913,1,0,0:0:0:0:
402,192,152913,1,0,0:0:0:0:
182,192,152913,1,0,0:0:0:0:
256,192,153012,1,0,0:0:0:0:
36,192,153012,1,0,0:0:0:0:
475,192,153109,1,0,0:0:0:0:
109,192,153109,1,0,0:0:0:0:
329,192,153109,1,0,0:0:0:0:
402,192,153109,1,0,0:0:0:0:
182,192,153208,1,0,0:0:0:0:
256,192,153208,1,0,0:0:0:0:
109,192,153306,1,0,0:0:0:0:
36,192,153306,1,0,0:0:0:0:
475,192,153306,1,0,0:0:0:0:
329,192,153306,1,0,0:0:0:0:
402,192,153403,1,0,0:0:0:0:
256,192,153403,1,0,0:0:0:0:
36,192,153502,1,0,0:0:0:0:
329,192,153502,1,0,0:0:0:0:
182,192,153502,1,0,0:0:0:0:
256,192,153600,1,0,0:0:0:0:
109,192,153600,1,0,0:0:0:0:
475,192,153600,1,0,0:0:0:0:
402,192,153698,1,0,0:0:0:0:
36,192,153698,1,0,0:0:0:0:
182,192,153698,1,0,0:0:0:0:
256,192,153796,1,0,0:0:0:0:
329,192,153796,1,0,0:0:0:0:
36,192,153894,1,0,0:0:0:0:
402,192,153894,1,0,0:0:0:0:
475,192,153894,1,0,0:0:0:0:
109,192,153894,1,0,0:0:0:0:
256,192,153992,1,0,0:0:0:0:
182,192,153992,1,0,0:0:0:0:
36,192,154090,1,0,0:0:0:0:
329,192,154090,1,0,0:0:0:0:
109,192,154090,1,0,0:0:0:0:
402,192,154090,1,0,0:0:0:0:
475,192,154090,1,0,0:0:0:0:
256,192,154188,1,0,0:0:0:0:
182,192,154188,1,0,0:0:0:0:
36,192,154286,1,0,0:0:0:0:
109,192,154286,1,0,0:0:0:0:
475,192,154286,1,0,0:0:0:0:
329,192,154286,1,0,0:0:0:0:
256,192,154384,1,0,0:0:0:0:
402,192,154384,1,0,0:0:0:0:
36,192,154482,1,0,0:0:0:0:
475,192,154482,1,0,0:0:0:0:
109,192,154482,1,0,0:0:0:0:
182,192,154482,1,0,0:0:0:0:
329,192,154580,1,0,0:0:0:0:
402,192,154580,1,0,0:0:0:0:
475,192,154678,1,0,0:0:0:0:
182,192,154678,1,0,0:0:0:0:
36,192,154678,1,0,0:0:0:0:
109,192,154776,1,0,0:0:0:0:
256,192,154776,1,0,0:0:0:0:
402,192,154776,1,0,0:0:0:0:
36,192,154874,1,0,0:0:0:0:
182,192,154874,1,0,0:0:0:0:
329,192,154874,1,0,0:0:0:0:
475,192,154874,1,0,0:0:0:0:
402,192,154972,1,0,0:0:0:0:
256,192,155070,1,0,0:0:0:0:
475,192,155070,1,0,0:0:0:0:
109,192,155070,1,0,0:0:0:0:
36,192,155070,1,0,0:0:0:0:
329,192,155168,1,0,0:0:0:0:
402,192,155267,1,0,0:0:0:0:
182,192,155267,1,0,0:0:0:0:
475,192,155267,1,0,0:0:0:0:
36,192,155267,1,0,0:0:0:0:
256,192,155364,1,0,0:0:0:0:
109,192,155462,1,0,0:0:0:0:
329,192,155462,1,0,0:0:0:0:
36,192,155462,1,0,0:0:0:0:
475,192,155462,1,0,0:0:0:0:
182,192,155561,1,0,0:0:0:0:
256,192,155658,1,0,0:0:0:0:
36,192,155658,1,0,0:0:0:0:
402,192,155658,1,0,0:0:0:0:
475,192,155658,1,0,0:0:0:0:
109,192,155757,1,0,0:0:0:0:
182,192,155757,1,0,0:0:0:0:
475,192,155855,1,0,0:0:0:0:
329,192,155855,1,0,0:0:0:0:
256,192,155855,1,0,0:0:0:0:
36,192,155855,1,0,0:0:0:0:
182,192,155952,1,0,0:0:0:0:
402,192,155952,1,0,0:0:0:0:
36,192,156051,1,0,0:0:0:0:
109,192,156051,1,0,0:0:0:0:
256,192,156051,1,0,0:0:0:0:
475,192,156051,1,0,0:0:0:0:
402,192,156148,1,0,0:0:0:0:
329,192,156148,1,0,0:0:0:0:
256,192,156247,1,0,0:0:0:0:
182,192,156247,1,0,0:0:0:0:
36,192,156247,1,0,0:0:0:0:
475,192,156247,1,0,0:0:0:0:
109,192,156345,1,0,0:0:0:0:
329,192,156345,1,0,0:0:0:0:
36,192,156442,1,0,0:0:0:0:
182,192,156442,1,0,0:0:0:0:
256,192,156442,1,0,0:0:0:0:
402,192,156442,1,0,0:0:0:0:
475,192,156442,1,0,0:0:0:0:
329,192,156541,1,0,0:0:0:0:
402,192,156639,1,0,0:0:0:0:
182,192,156639,1,0,0:0:0:0:
36,192,156639,1,0,0:0:0:0:
475,192,156639,1,0,0:0:0:0:
256,192,156737,1,0,0:0:0:0:
329,192,156835,1,0,0:0:0:0:
109,192,156835,1,0,0:0:0:0:
36,192,156835,1,0,0:0:0:0:
475,192,156835,1,0,0:0:0:0:
182,192,156933,1,0,0:0:0:0:
256,192,156933,1,0,0:0:0:0:
402,192,157031,1,0,0:0:0:0:
475,192,157031,1,0,0:0:0:0:
36,192,157031,1,0,0:0:0:0:
109,192,157031,1,0,0:0:0:0:
256,192,157129,1,0,0:0:0:0:
329,192,157129,1,0,0:0:0:0:
36,192,157228,1,0,0:0:0:0:
475,192,157228,1,0,0:0:0:0:
402,192,157228,1,0,0:0:0:0:
182,192,157228,1,0,0:0:0:0:
329,192,157325,1,0,0:0:0:0:
109,192,157325,1,0,0:0:0:0:
36,192,157423,1,0,0:0:0:0:
256,192,157423,1,0,0:0:0:0:
475,192,157423,1,0,0:0:0:0:
182,192,157423,1,0,0:0:0:0:
329,192,157522,1,0,0:0:0:0:
402,192,157522,1,0,0:0:0:0:
36,192,157619,1,0,0:0:0:0:
109,192,157619,1,0,0:0:0:0:
256,192,157619,1,0,0:0:0:0:
475,192,157619,1,0,0:0:0:0:
182,192,157718,1,0,0:0:0:0:
402,192,157718,1,0,0:0:0:0:
109,192,157815,1,0,0:0:0:0:
36,192,157815,1,0,0:0:0:0:
329,192,157815,1,0,0:0:0:0:
256,192,157815,1,0,0:0:0:0:
402,192,157913,1,0,0:0:0:0:
475,192,157913,1,0,0:0:0:0:
36,192,158012,1,0,0:0:0:0:
182,192,158012,1,0,0:0:0:0:
329,192,158012,1,0,0:0:0:0:
256,192,158012,1,0,0:0:0:0:
109,192,158109,1,0,0:0:0:0:
475,192,158109,1,0,0:0:0:0:
36,192,158208,1,0,0:0:0:0:
182,192,158208,1,0,0:0:0:0:
402,192,158208,1,0,0:0:0:0:
256,192,158208,1,0,0:0:0:0:
329,192,158306,1,0,0:0:0:0:
109,192,158306,1,0,0:0:0:0:
36,192,158403,1,0,0:0:0:0:
182,192,158403,1,0,0:0:0:0:
256,192,158403,1,0,0:0:0:0:
475,192,158403,1,0,0:0:0:0:
402,192,158502,1,0,0:0:0:0:
329,192,158502,1,0,0:0:0:0:
475,192,158600,1,0,0:0:0:0:
182,192,158600,1,0,0:0:0:0:
109,192,158600,1,0,0:0:0:0:
36,192,158600,1,0,0:0:0:0:
256,192,158698,1,0,0:0:0:0:
329,192,158698,1,0,0:0:0:0:
402,192,158796,1,0,0:0:0:0:
475,192,158796,1,0,0:0:0:0:
109,192,158796,1,0,0:0:0:0:
36,192,158796,1,0,0:0:0:0:
182,192,158894,1,0,0:0:0:0:
256,192,158894,1,0,0:0:0:0:
329,192,158894,1,0,0:0:0:0:
36,192,158992,1,0,0:0:0:0:
109,192,158992,1,0,0:0:0:0:
402,192,158992,1,0,0:0:0:0:
475,192,158992,1,0,0:0:0:0:
182,192,159090,1,0,0:0:0:0:
256,192,159090,1,0,0:0:0:0:
329,192,159090,1,0,0:0:0:0:
36,192,159286,1,0,0:0:0:0:
402,192,159286,1,0,0:0:0:0:
109,192,159286,1,0,0:0:0:0:
256,192,159286,1,0,0:0:0:0:
109,192,159482,1,0,0:0:0:0:
182,192,159482,1,0,0:0:0:0:
329,192,159482,1,0,0:0:0:0:
475,192,159482,1,0,0:0:0:0:
182,192,159678,1,0,0:0:0:0:
256,192,159678,1,0,0:0:0:0:
402,192,159678,1,0,0:0:0:0:
36,192,159678,1,0,0:0:0:0:
109,192,159874,1,0,0:0:0:0:
256,192,159874,1,0,0:0:0:0:
329,192,159874,1,0,0:0:0:0:
36,192,159972,1,0,0:0:0:0:
182,192,159972,1,0,0:0:0:0:
402,192,159972,1,0,0:0:0:0:
475,192,159972,1,0,0:0:0:0:
329,192,160022,1,0,0:0:0:0:
256,192,160070,1,0,0:0:0:0:
182,192,160119,1,0,0:0:0:0:
109,192,160168,1,0,0:0:0:0:
402,192,160168,1,0,0:0:0:0:
475,192,160168,1,0,0:0:0:0:
36,192,160168,1,0,0:0:0:0:
329,192,160218,1,0,0:0:0:0:
256,192,160267,1,0,0:0:0:0:
182,192,160315,1,0,0:0:0:0:
109,192,160364,1,0,0:0:0:0:
36,192,160364,1,0,0:0:0:0:
475,192,160364,1,0,0:0:0:0:
329,192,160364,1,0,0:0:0:0:
256,192,160462,1,0,0:0:0:0:
402,192,160462,1,0,0:0:0:0:
329,192,160561,1,0,0:0:0:0:
182,192,160561,1,0,0:0:0:0:
36,192,160561,1,0,0:0:0:0:
109,192,160658,1,0,0:0:0:0:
256,192,160658,1,0,0:0:0:0:
36,192,160757,1,0,0:0:0:0:
182,192,160757,1,0,0:0:0:0:
402,192,160757,1,0,0:0:0:0:
475,192,160757,1,0,0:0:0:0:
109,192,160855,1,0,0:0:0:0:
329,192,160855,1,0,0:0:0:0:
182,192,160952,1,0,0:0:0:0:
402,192,160952,1,0,0:0:0:0:
475,192,160952,1,0,0:0:0:0:
256,192,161051,1,0,0:0:0:0:
36,192,161051,1,0,0:0:0:0:
475,192,161148,1,0,0:0:0:0:
109,192,161148,1,0,0:0:0:0:
329,192,161148,1,0,0:0:0:0:
182,192,161247,1,0,0:0:0:0:
402,192,161247,1,0,0:0:0:0:
475,192,161345,1,0,0:0:0:0:
36,192,161345,1,0,0:0:0:0:
256,192,161345,1,0,0:0:0:0:
109,192,161410,1,0,0:0:0:0:
402,192,161410,1,0,0:0:0:0:
182,192,161476,1,0,0:0:0:0:
329,192,161476,1,0,0:0:0:0:
36,192,161541,1,0,0:0:0:0:
475,192,161541,1,0,0:0:0:0:
256,192,161541,1,0,0:0:0:0:
182,192,161639,1,0,0:0:0:0:
402,192,161639,1,0,0:0:0:0:
109,192,161737,1,0,0:0:0:0:
329,192,161737,1,0,0:0:0:0:
36,192,161737,1,0,0:0:0:0:
256,192,161835,1,0,0:0:0:0:
402,192,161835,1,0,0:0:0:0:
36,192,161933,1,0,0:0:0:0:
475,192,161933,1,0,0:0:0:0:
329,192,161933,1,0,0:0:0:0:
182,192,161933,1,0,0:0:0:0:
256,192,162031,1,0,0:0:0:0:
109,192,162031,1,0,0:0:0:0:
182,192,162129,1,0,0:0:0:0:
329,192,162129,1,0,0:0:0:0:
475,192,162129,1,0,0:0:0:0:
402,192,162228,1,0,0:0:0:0:
256,192,162228,1,0,0:0:0:0:
475,192,162325,1,0,0:0:0:0:
329,192,162325,1,0,0:0:0:0:
109,192,162325,1,0,0:0:0:0:
36,192,162325,1,0,0:0:0:0:
402,192,162423,1,0,0:0:0:0:
182,192,162423,1,0,0:0:0:0:
329,192,162522,1,0,0:0:0:0:
109,192,162522,1,0,0:0:0:0:
36,192,162522,1,0,0:0:0:0:
256,192,162619,1,0,0:0:0:0:
475,192,162619,1,0,0:0:0:0:
36,192,162718,1,0,0:0:0:0:
402,192,162718,1,0,0:0:0:0:
182,192,162718,1,0,0:0:0:0:
329,192,162815,1,0,0:0:0:0:
109,192,162815,1,0,0:0:0:0:
36,192,162913,1,0,0:0:0:0:
475,192,162913,1,0,0:0:0:0:
256,192,162913,1,0,0:0:0:0:
402,192,162979,1,0,0:0:0:0:
109,192,162979,1,0,0:0:0:0:
329,192,163044,1,0,0:0:0:0:
182,192,163044,1,0,0:0:0:0:
475,192,163109,1,0,0:0:0:0:
36,192,163109,1,0,0:0:0:0:
256,192,163109,1,0,0:0:0:0:
329,192,163208,1,0,0:0:0:0:
109,192,163208,1,0,0:0:0:0:
402,192,163306,1,0,0:0:0:0:
182,192,163306,1,0,0:0:0:0:
475,192,163306,1,0,0:0:0:0:
256,192,163403,1,0,0:0:0:0:
109,192,163403,1,0,0:0:0:0:
475,192,163502,1,0,0:0:0:0:
36,192,163502,1,0,0:0:0:0:
182,192,163502,1,0,0:0:0:0:
329,192,163502,1,0,0:0:0:0:
109,192,163600,1,0,0:0:0:0:
402,192,163600,1,0,0:0:0:0:
182,192,163698,1,0,0:0:0:0:
329,192,163698,1,0,0:0:0:0:
256,192,163698,1,0,0:0:0:0:
109,192,163796,1,0,0:0:0:0:
402,192,163796,1,0,0:0:0:0:
36,192,163894,1,0,0:0:0:0:
475,192,163894,1,0,0:0:0:0:
256,192,163894,1,0,0:0:0:0:
182,192,163992,1,0,0:0:0:0:
402,192,163992,1,0,0:0:0:0:
109,192,164090,1,0,0:0:0:0:
329,192,164090,1,0,0:0:0:0:
36,192,164090,1,0,0:0:0:0:
182,192,164188,1,0,0:0:0:0:
402,192,164188,1,0,0:0:0:0:
256,192,164286,1,0,0:0:0:0:
475,192,164286,1,0,0:0:0:0:
36,192,164286,1,0,0:0:0:0:
182,192,164384,1,0,0:0:0:0:
329,192,164384,1,0,0:0:0:0:
109,192,164482,1,0,0:0:0:0:
36,192,164482,1,0,0:0:0:0:
475,192,164482,1,0,0:0:0:0:
402,192,164482,1,0,0:0:0:0:
182,192,164580,1,0,0:0:0:0:
329,192,164580,1,0,0:0:0:0:
256,192,164678,1,0,0:0:0:0:
36,192,164678,1,0,0:0:0:0:
475,192,164678,1,0,0:0:0:0:
109,192,164776,1,0,0:0:0:0:
329,192,164776,1,0,0:0:0:0:
182,192,164874,1,0,0:0:0:0:
402,192,164874,1,0,0:0:0:0:
475,192,164874,1,0,0:0:0:0:
109,192,164972,1,0,0:0:0:0:
329,192,164972,1,0,0:0:0:0:
36,192,165070,1,0,0:0:0:0:
256,192,165070,1,0,0:0:0:0:
475,192,165070,1,0,0:0:0:0:
182,192,165168,1,0,0:0:0:0:
402,192,165168,1,0,0:0:0:0:
109,192,165267,1,0,0:0:0:0:
36,192,165267,1,0,0:0:0:0:
329,192,165267,1,0,0:0:0:0:
475,192,165267,1,0,0:0:0:0:
182,192,165332,1,0,0:0:0:0:
256,192,165332,1,0,0:0:0:0:
402,192,165397,1,0,0:0:0:0:
475,192,165397,1,0,0:0:0:0:
36,192,165462,1,0,0:0:0:0:
329,192,165462,1,0,0:0:0:0:
256,192,165462,1,0,0:0:0:0:
109,192,165462,1,0,0:0:0:0:
182,192,165561,1,0,0:0:0:0:
402,192,165561,1,0,0:0:0:0:
256,192,165658,1,0,0:0:0:0:
475,192,165658,1,0,0:0:0:0:
36,192,165658,1,0,0:0:0:0:
109,192,165757,1,0,0:0:0:0:
329,192,165757,1,0,0:0:0:0:
182,192,165757,1,0,0:0:0:0:
36,192,165855,1,0,0:0:0:0:
475,192,165855,1,0,0:0:0:0:
402,192,165855,1,0,0:0:0:0:
256,192,165855,1,0,0:0:0:0:
109,192,165952,1,0,0:0:0:0:
182,192,165952,1,0,0:0:0:0:
36,192,166051,1,0,0:0:0:0:
402,192,166051,1,0,0:0:0:0:
475,192,166051,1,0,0:0:0:0:
329,192,166051,1,0,0:0:0:0:
256,192,166148,1,0,0:0:0:0:
182,192,166148,1,0,0:0:0:0:
475,192,166247,1,0,0:0:0:0:
109,192,166247,1,0,0:0:0:0:
36,192,166247,1,0,0:0:0:0:
402,192,166247,1,0,0:0:0:0:
329,192,166345,1,0,0:0:0:0:
256,192,166345,1,0,0:0:0:0:
36,192,166442,1,0,0:0:0:0:
109,192,166442,1,0,0:0:0:0:
475,192,166442,1,0,0:0:0:0:
182,192,166442,1,0,0:0:0:0:
329,192,166541,1,0,0:0:0:0:
402,192,166541,1,0,0:0:0:0:
36,192,166639,1,0,0:0:0:0:
109,192,166639,1,0,0:0:0:0:
475,192,166639,1,0,0:0:0:0:
182,192,166639,1,0,0:0:0:0:
402,192,166737,1,0,0:0:0:0:
256,192,166737,1,0,0:0:0:0:
36,192,166835,1,0,0:0:0:0:
182,192,166835,1,0,0:0:0:0:
329,192,166835,1,0,0:0:0:0:
256,192,166933,1,0,0:0:0:0:
109,192,166933,1,0,0:0:0:0:
402,192,167031,1,0,0:0:0:0:
475,192,167031,1,0,0:0:0:0:
36,192,167031,1,0,0:0:0:0:
182,192,167031,1,0,0:0:0:0:
329,192,167129,1,0,0:0:0:0:
109,192,167129,1,0,0:0:0:0:
475,192,167228,1,0,0:0:0:0:
402,192,167228,1,0,0:0:0:0:
182,192,167228,1,0,0:0:0:0:
36,192,167325,1,0,0:0:0:0:
256,192,167325,1,0,0:0:0:0:
329,192,167423,1,0,0:0:0:0:
109,192,167423,1,0,0:0:0:0:
475,192,167423,1,0,0:0:0:0:
402,192,167522,1,0,0:0:0:0:
182,192,167522,1,0,0:0:0:0:
256,192,167619,1,0,0:0:0:0:
36,192,167619,1,0,0:0:0:0:
475,192,167619,1,0,0:0:0:0:
402,192,167685,1,0,0:0:0:0:
109,192,167685,1,0,0:0:0:0:
329,192,167750,1,0,0:0:0:0:
182,192,167750,1,0,0:0:0:0:
256,192,167815,1,0,0:0:0:0:
475,192,167815,1,0,0:0:0:0:
36,192,167815,1,0,0:0:0:0:
402,192,167913,1,0,0:0:0:0:
182,192,167913,1,0,0:0:0:0:
36,192,168012,1,0,0:0:0:0:
329,192,168012,1,0,0:0:0:0:
109,192,168012,1,0,0:0:0:0:
402,192,168109,1,0,0:0:0:0:
256,192,168109,1,0,0:0:0:0:
329,192,168208,1,0,0:0:0:0:
182,192,168208,1,0,0:0:0:0:
36,192,168208,1,0,0:0:0:0:
475,192,168208,1,0,0:0:0:0:
109,192,168306,1,0,0:0:0:0:
256,192,168306,1,0,0:0:0:0:
475,192,168403,1,0,0:0:0:0:
329,192,168403,1,0,0:0:0:0:
182,192,168403,1,0,0:0:0:0:
256,192,168502,1,0,0:0:0:0:
402,192,168502,1,0,0:0:0:0:
109,192,168600,1,0,0:0:0:0:
36,192,168600,1,0,0:0:0:0:
475,192,168600,1,0,0:0:0:0:
329,192,168600,1,0,0:0:0:0:
182,192,168698,1,0,0:0:0:0:
402,192,168698,1,0,0:0:0:0:
36,192,168796,1,0,0:0:0:0:
109,192,168796,1,0,0:0:0:0:
329,192,168796,1,0,0:0:0:0:
475,192,168894,1,0,0:0:0:0:
256,192,168894,1,0,0:0:0:0:
182,192,168992,1,0,0:0:0:0:
402,192,168992,1,0,0:0:0:0:
36,192,168992,1,0,0:0:0:0:
109,192,169090,1,0,0:0:0:0:
329,192,169090,1,0,0:0:0:0:
256,192,169188,1,0,0:0:0:0:
475,192,169188,1,0,0:0:0:0:
36,192,169188,1,0,0:0:0:0:
109,192,169253,1,0,0:0:0:0:
402,192,169253,1,0,0:0:0:0:
182,192,169318,1,0,0:0:0:0:
329,192,169318,1,0,0:0:0:0:
256,192,169384,1,0,0:0:0:0:
36,192,169384,1,0,0:0:0:0:
475,192,169384,1,0,0:0:0:0:
109,192,169482,1,0,0:0:0:0:
329,192,169482,1,0,0:0:0:0:
475,192,169580,1,0,0:0:0:0:
182,192,169580,1,0,0:0:0:0:
402,192,169580,1,0,0:0:0:0:
109,192,169678,1,0,0:0:0:0:
256,192,169678,1,0,0:0:0:0:
182,192,169776,1,0,0:0:0:0:
329,192,169776,1,0,0:0:0:0:
475,192,169776,1,0,0:0:0:0:
36,192,169776,1,0,0:0:0:0:
402,192,169874,1,0,0:0:0:0:
109,192,169874,1,0,0:0:0:0:
256,192,169972,1,0,0:0:0:0:
329,192,169972,1,0,0:0:0:0:
182,192,169972,1,0,0:0:0:0:
402,192,170070,1,0,0:0:0:0:
109,192,170070,1,0,0:0:0:0:
256,192,170168,1,0,0:0:0:0:
475,192,170168,1,0,0:0:0:0:
36,192,170168,1,0,0:0:0:0:
402,192,170267,1,0,0:0:0:0:
182,192,170267,1,0,0:0:0:0:
36,192,170364,1,0,0:0:0:0:
329,192,170364,1,0,0:0:0:0:
109,192,170364,1,0,0:0:0:0:
402,192,170462,1,0,0:0:0:0:
182,192,170462,1,0,0:0:0:0:
36,192,170561,1,0,0:0:0:0:
475,192,170561,1,0,0:0:0:0:
256,192,170561,1,0,0:0:0:0:
329,192,170658,1,0,0:0:0:0:
182,192,170658,1,0,0:0:0:0:
475,192,170757,1,0,0:0:0:0:
402,192,170757,1,0,0:0:0:0:
109,192,170757,1,0,0:0:0:0:
36,192,170757,1,0,0:0:0:0:
329,192,170855,1,0,0:0:0:0:
182,192,170855,1,0,0:0:0:0:
475,192,170952,1,0,0:0:0:0:
36,192,170952,1,0,0:0:0:0:
256,192,170952,1,0,0:0:0:0:
329,192,171051,1,0,0:0:0:0:
109,192,171051,1,0,0:0:0:0:
475,192,171148,1,0,0:0:0:0:
402,192,171148,1,0,0:0:0:0:
182,192,171148,1,0,0:0:0:0:
329,192,171247,1,0,0:0:0:0:
109,192,171247,1,0,0:0:0:0:
475,192,171345,1,0,0:0:0:0:
256,192,171345,1,0,0:0:0:0:
36,192,171345,1,0,0:0:0:0:
402,192,171442,1,0,0:0:0:0:
182,192,171442,1,0,0:0:0:0:
329,192,171541,1,0,0:0:0:0:
475,192,171541,1,0,0:0:0:0:
109,192,171541,1,0,0:0:0:0:
36,192,171541,1,0,0:0:0:0:
256,192,171606,1,0,0:0:0:0:
182,192,171606,1,0,0:0:0:0:
475,192,171672,1,0,0:0:0:0:
402,192,171672,1,0,0:0:0:0:
256,192,171737,1,0,0:0:0:0:
109,192,171737,1,0,0:0:0:0:
36,192,171737,1,0,0:0:0:0:
329,192,171737,1,0,0:0:0:0:
402,192,171835,1,0,0:0:0:0:
182,192,171835,1,0,0:0:0:0:
36,192,171933,1,0,0:0:0:0:
475,192,171933,1,0,0:0:0:0:
256,192,171933,1,0,0:0:0:0:
182,192,172031,1,0,0:0:0:0:
329,192,172031,1,0,0:0:0:0:
109,192,172031,1,0,0:0:0:0:
256,192,172129,1,0,0:0:0:0:
36,192,172129,1,0,0:0:0:0:
475,192,172129,1,0,0:0:0:0:
329,192,172228,1,0,0:0:0:0:
402,192,172228,1,0,0:0:0:0:
36,192,172325,1,0,0:0:0:0:
182,192,172325,1,0,0:0:0:0:
475,192,172325,1,0,0:0:0:0:
109,192,172325,1,0,0:0:0:0:
329,192,172423,1,0,0:0:0:0:
256,192,172423,1,0,0:0:0:0:
475,192,172522,1,0,0:0:0:0:
109,192,172522,1,0,0:0:0:0:
36,192,172522,1,0,0:0:0:0:
402,192,172522,1,0,0:0:0:0:
256,192,172619,1,0,0:0:0:0:
182,192,172619,1,0,0:0:0:0:
36,192,172718,1,0,0:0:0:0:
329,192,172718,1,0,0:0:0:0:
475,192,172718,1,0,0:0:0:0:
402,192,172718,1,0,0:0:0:0:
109,192,172815,1,0,0:0:0:0:
182,192,172815,1,0,0:0:0:0:
36,192,172913,1,0,0:0:0:0:
329,192,172913,1,0,0:0:0:0:
475,192,172913,1,0,0:0:0:0:
402,192,172913,1,0,0:0:0:0:
256,192,172913,1,0,0:0:0:0:
109,192,173109,1,0,0:0:0:0:
182,192,173109,1,0,0:0:0:0:
329,192,173109,1,0,0:0:0:0:
475,192,173109,1,0,0:0:0:0:
182,192,173306,1,0,0:0:0:0:
256,192,173306,1,0,0:0:0:0:
402,192,173306,1,0,0:0:0:0:
36,192,173306,1,0,0:0:0:0:
109,192,173403,1,0,0:0:0:0:
329,192,173403,1,0,0:0:0:0:
475,192,173403,1,0,0:0:0:0:
36,192,173502,1,0,0:0:0:0:
182,192,173502,1,0,0:0:0:0:
256,192,173502,1,0,0:0:0:0:
402,192,173502,1,0,0:0:0:0:
109,192,173600,1,0,0:0:0:0:
329,192,173600,1,0,0:0:0:0:
475,192,173600,1,0,0:0:0:0:
36,192,173698,1,0,0:0:0:0:
256,192,173698,1,0,0:0:0:0:
182,192,173698,1,0,0:0:0:0:
402,192,173698,1,0,0:0:0:0:
109,192,173894,1,0,0:0:0:0:
256,192,173894,1,0,0:0:0:0:
329,192,173894,1,0,0:0:0:0:
475,192,173894,1,0,0:0:0:0:
329,192,174090,1,0,0:0:0:0:
402,192,174090,1,0,0:0:0:0:
182,192,174090,1,0,0:0:0:0:
36,192,174090,1,0,0:0:0:0:
109,192,174188,1,0,0:0:0:0:
256,192,174188,1,0,0:0:0:0:
475,192,174188,1,0,0:0:0:0:
36,192,174286,1,0,0:0:0:0:
182,192,174286,1,0,0:0:0:0:
329,192,174286,1,0,0:0:0:0:
402,192,174286,1,0,0:0:0:0:
109,192,174384,1,0,0:0:0:0:
256,192,174384,1,0,0:0:0:0:
475,192,174384,1,0,0:0:0:0:
36,192,174482,1,0,0:0:0:0:
182,192,174482,1,0,0:0:0:0:
329,192,174482,1,0,0:0:0:0:
402,192,174482,1,0,0:0:0:0:
109,192,174678,1,0,0:0:0:0:
256,192,174678,1,0,0:0:0:0:
402,192,174678,1,0,0:0:0:0:
475,192,174678,1,0,0:0:0:0:
36,192,174874,1,0,0:0:0:0:
182,192,174874,1,0,0:0:0:0:
329,192,174874,1,0,0:0:0:0:
475,192,174874,1,0,0:0:0:0:
109,192,174972,1,0,0:0:0:0:
256,192,174972,1,0,0:0:0:0:
402,192,174972,1,0,0:0:0:0:
36,192,175070,1,0,0:0:0:0:
182,192,175070,1,0,0:0:0:0:
329,192,175070,1,0,0:0:0:0:
475,192,175070,1,0,0:0:0:0:
109,192,175168,1,0,0:0:0:0:
256,192,175168,1,0,0:0:0:0:
402,192,175168,1,0,0:0:0:0:
36,192,175267,1,0,0:0:0:0:
182,192,175267,1,0,0:0:0:0:
329,192,175267,1,0,0:0:0:0:
475,192,175267,1,0,0:0:0:0:
109,192,175462,1,0,0:0:0:0:
36,192,175462,1,0,0:0:0:0:
256,192,175462,1,0,0:0:0:0:
402,192,175462,1,0,0:0:0:0:
475,192,175462,1,0,0:0:0:0:
36,192,175658,1,0,0:0:0:0:
182,192,175658,1,0,0:0:0:0:
256,192,175658,1,0,0:0:0:0:
329,192,175658,1,0,0:0:0:0:
475,192,175658,1,0,0:0:0:0:
36,192,176051,1,0,0:0:0:0:
182,192,176051,1,0,0:0:0:0:
36,192,176247,1,0,0:0:0:0:
182,192,176247,1,0,0:0:0:0:
109,192,176442,1,0,0:0:0:0:
256,192,176442,1,0,0:0:0:0:
109,192,176639,1,0,0:0:0:0:
256,192,176639,1,0,0:0:0:0:
182,192,176835,1,0,0:0:0:0:
329,192,176835,1,0,0:0:0:0:
256,192,177129,1,0,0:0:0:0:
402,192,177129,1,0,0:0:0:0:
36,192,177423,1,0,0:0:0:0:
109,192,177423,1,0,0:0:0:0:
182,192,177423,1,0,0:0:0:0:
329,192,177423,1,0,0:0:0:0:
402,192,177423,1,0,0:0:0:0:
475,192,177423,1,0,0:0:0:0:
