osu file format v14

[General]
AudioFilename: nameless.mp3
AudioLeadIn: 0
PreviewTime: 65968
Countdown: 0
SampleSet: Soft
StackLeniency: 0.2
Mode: 0
LetterboxInBreaks: 0
WidescreenStoryboard: 1

[Editor]
Bookmarks: 2007,17070,22954,30251,31192,32134,47197,58495,64144,65085,66027,79207,91211,91682,105804,106745,114277,119926,120867,121809,134989,142521,156643,157114,157585,165116,172648,173590,190536,207483,210307,210542,210778,211248,212543,212896
DistanceSpacing: 1.6
BeatDivisor: 4
GridSize: 32
TimelineZoom: 2.2

[Metadata]
Title:Milk Crown on Sonnetica
TitleUnicode:ミルククラウン・オン・ソーネチカ
Artist:nameless
ArtistUnicode:nameless
Creator:Akari-
Version:i like frozen yogurt yes
Source:
Tags:utaite ユジー yuzy p 窓付き@ vocaloid hatsune miku
BeatmapID:2176346
BeatmapSetID:1041281

[Difficulty]
HPDrainRate:0.1
CircleSize:3.5
OverallDifficulty:8.4
ApproachRate:8.7
SliderMultiplier:1.6
SliderTickRate:1

[Events]
//Background and Video events
0,0,"23124.png",0,0
//Break Periods
2,79407,84682
2,142721,153174
//Storyboard Layer 0 (Background)
//Storyboard Layer 1 (Fail)
//Storyboard Layer 2 (Pass)
//Storyboard Layer 3 (Foreground)
//Storyboard Layer 4 (Overlay)
//Storyboard Sound Samples

[TimingPoints]
2007,235.367958575239,4,2,1,55,1,0
2007,-200,4,2,1,55,0,0
9538,-166.666666666667,4,2,2,60,0,0
16599,-166.666666666667,4,1,1,70,0,0
17070,-83.3333333333333,4,2,1,80,0,1
30251,-125,4,2,2,60,0,0
30604,-100,4,2,2,60,0,0
31192,-200,4,2,1,80,0,0
32134,-100,4,2,1,60,0,0
57789,-133.333333333333,4,2,1,45,0,0
58495,-100,4,2,1,70,0,0
66027,-83.3333333333333,4,2,1,80,0,1
79148,-83.3333333333333,4,2,1,70,0,0
79207,-83.3333333333333,4,2,1,65,0,1
91211,-200,4,2,1,70,0,0
91682,235.367958575239,4,2,1,60,1,0
91682,-100,4,2,1,60,0,0
106745,-100,4,2,1,55,0,0
113806,-100,4,2,1,40,0,0
114277,-100,4,2,1,70,0,0
121809,-83.3333333333333,4,2,1,80,0,1
134989,-166.666666666667,4,2,1,65,0,0
138755,-100,4,2,1,70,0,0
141815,-100,4,2,1,45,0,0
142286,-100,4,2,1,70,0,0
142521,-117.647058823529,4,2,1,70,0,0
153819,-117.647058823529,4,2,1,35,0,0
154289,-117.647058823529,4,2,1,40,0,0
154760,-117.647058823529,4,2,1,45,0,0
155231,-117.647058823529,4,2,1,50,0,0
155702,-117.647058823529,4,2,1,55,0,0
156172,-117.647058823529,4,2,1,60,0,0
157114,-200,4,2,1,50,0,0
157585,-100,4,2,1,60,0,0
165116,-100,4,2,1,70,0,0
172648,-100,4,2,12,40,0,0
172883,-100,4,2,12,60,0,0
173119,-100,4,2,12,80,0,0
173354,-100,4,2,12,100,0,0
173590,-83.3333333333333,4,2,1,80,0,1
190536,-100,4,2,1,70,0,0
192419,-83.3333333333333,4,2,1,80,0,1
211248,-200,4,2,1,65,0,0
212896,-66.6666666666667,4,2,1,80,0,0

[Colours]
Combo1 : 255,234,170
Combo2 : 179,255,179
Combo3 : 172,209,255
Combo4 : 252,194,203

[HitObjects]
229,120,2006,5,0,0:0:0:0:
229,120,2242,2,0,L|171:120,2,40
296,186,2595,2,0,L|296:282,2,80
189,120,3301,1,0,0:0:0:0:
189,120,3419,1,0,0:0:0:0:
189,120,3536,1,0,0:0:0:0:
296,266,3772,5,0,0:0:0:0:
296,266,3889,1,0,0:0:0:0:
296,266,4007,2,0,L|296:320,2,40
189,120,4478,2,0,L|91:120,2,80
296,266,5302,1,0,0:0:0:0:
109,120,5537,1,0,0:0:0:0:
77,355,5772,5,0,0:0:0:0:
149,325,5890,1,0,0:0:0:0:
223,295,6008,1,0,0:0:0:0:
296,266,6125,1,0,0:0:0:0:
149,59,6361,2,0,L|238:96,2,80
296,266,7067,5,0,0:0:0:0:
77,355,7185,5,0,0:0:0:0:
77,355,7303,1,0,0:0:0:0:
223,295,7421,5,0,0:0:0:0:
223,295,7538,1,0,0:0:0:0:
148,323,7655,6,0,L|129:285,1,40
139,157,7891,2,0,L|158:195,1,40
148,323,8244,1,0,0:0:0:0:
141,157,8479,1,0,0:0:0:0:
141,157,8714,1,0,0:0:0:0:
148,323,8950,1,0,0:0:0:0:
141,157,9068,1,0,0:0:0:0:
141,157,9303,1,0,0:0:0:0:
141,157,9538,5,0,0:0:0:0:
141,157,10009,5,0,0:0:0:0:
371,227,10480,5,0,0:0:0:0:
394,238,10951,5,0,0:0:0:0:
221,307,11421,5,0,0:0:0:0:
202,350,11892,5,0,0:0:0:0:
291,77,12363,5,0,0:0:0:0:
332,9,12834,5,0,0:0:0:0:
372,76,13069,1,0,0:0:0:0:
256,192,13304,6,0,L|305:192,1,47.9999985351563
228,169,13540,2,0,L|279:169,1,47.9999985351563
200,146,13775,2,0,L|251:146,1,47.9999985351563
200,146,14010,1,0,0:0:0:0:
259,194,14128,1,0,0:0:0:0:
453,320,14363,1,0,0:0:0:0:
259,194,14599,1,0,0:0:0:0:
453,320,14716,1,0,0:0:0:0:
359,320,14834,1,0,0:0:0:0:
359,193,14952,1,0,0:0:0:0:
259,194,15070,1,0,0:0:0:0:
163,193,15187,5,0,0:0:0:0:
453,194,15305,1,0,0:0:0:0:
359,193,15422,1,0,0:0:0:0:
163,193,15540,1,0,0:0:0:0:
259,194,15776,5,0,0:0:0:0:
163,193,16011,5,0,0:0:0:0:
259,194,16246,5,0,0:0:0:0:
163,193,16482,5,0,0:0:0:0:
259,194,16599,1,0,0:0:0:0:
163,193,16835,1,0,0:0:0:0:
259,194,16952,1,0,0:0:0:0:
378,324,17070,6,0,P|292:339|208:282,1,191.999994140625
212,104,17423,1,0,0:0:0:0:
212,104,17541,2,0,L|362:126,1,143.999995605469
449,138,17776,2,0,L|350:124,1,95.9999970703126
153,229,18012,6,0,L|303:207,1,143.999995605469
333,217,18247,1,0,0:0:0:0:
299,349,18365,1,0,0:0:0:0:
198,223,18482,2,0,L|299:207,1,95.9999970703126
299,349,18718,2,0,L|198:333,1,95.9999970703126
121,178,18953,6,0,P|56:241|-1:178,1,191.999994140625
58,22,19306,1,0,0:0:0:0:
58,22,19424,2,0,L|58:133,1,95.9999970703126
58,22,19659,2,0,L|58:141,1,95.9999970703126
190,90,19894,6,0,L|190:199,1,95.9999970703126
58,118,20130,2,0,L|58:9,1,95.9999970703126
58,22,20365,2,0,L|58:133,1,95.9999970703126
190,186,20601,2,0,L|190:90,1,95.9999970703126
111,220,20836,5,0,0:0:0:0:
140,256,20953,1,0,0:0:0:0:
185,271,21071,1,0,0:0:0:0:
231,259,21189,1,0,0:0:0:0:
264,225,21307,1,0,0:0:0:0:
185,271,21542,1,0,0:0:0:0:
111,220,21777,5,0,0:0:0:0:
185,271,21895,1,0,0:0:0:0:
264,225,22013,1,0,0:0:0:0:
140,256,22130,1,0,0:0:0:0:
231,259,22248,1,0,0:0:0:0:
185,271,22484,1,0,0:0:0:0:
231,259,22719,6,0,L|208:357,1,95.9999970703126
140,256,22954,2,0,L|163:158,1,95.9999970703126
140,256,23190,1,0,0:0:0:0:
164,157,23307,1,0,0:0:0:0:
176,60,23425,1,0,0:0:0:0:
188,181,23543,1,0,0:0:0:0:
61,197,23660,5,0,0:0:0:0:
188,181,23778,1,0,0:0:0:0:
188,181,23896,1,0,0:0:0:0:
188,181,24013,1,0,0:0:0:0:
176,60,24131,5,0,0:0:0:0:
188,181,24249,1,0,0:0:0:0:
188,181,24366,1,0,0:0:0:0:
188,181,24484,1,0,0:0:0:0:
188,181,24602,6,0,B|292:151|292:151|400:186,1,191.999994140625
352,312,24955,1,0,0:0:0:0:
188,181,25073,2,0,L|289:152,1,95.9999970703126
371,176,25308,2,0,L|264:142,1,95.9999970703126
371,176,25543,2,0,B|275:146|275:146|225:169,1,143.999995605469
272,195,25779,2,0,L|225:153,1,47.9999985351563
454,166,26014,2,0,P|444:224|374:256,1,95.9999970703126
418,84,26249,2,0,P|428:142|498:174,1,95.9999970703126
418,247,26485,5,0,0:0:0:0:
418,84,26602,1,0,0:0:0:0:
449,214,26720,1,0,0:0:0:0:
424,131,26838,1,0,0:0:0:0:
418,84,26956,5,0,0:0:0:0:
418,247,27073,1,0,0:0:0:0:
424,131,27191,1,0,0:0:0:0:
449,214,27309,1,0,0:0:0:0:
453,165,27426,5,0,0:0:0:0:
449,214,27544,1,0,0:0:0:0:
418,247,27662,1,0,0:0:0:0:
449,214,27779,1,0,0:0:0:0:
453,165,27897,5,0,0:0:0:0:
424,131,28015,1,0,0:0:0:0:
418,84,28132,1,0,0:0:0:0:
428,135,28250,1,0,0:0:0:0:
453,165,28368,6,0,P|435:234|390:255,1,95.9999970703126
382,328,28603,2,0,P|400:259|445:238,1,95.9999970703126
473,203,28838,2,0,P|430:260|380:263,1,95.9999970703126
346,328,29073,2,0,P|388:270|438:268,1,95.9999970703126
409,265,29309,1,0,0:0:0:0:
346,328,29427,1,0,0:0:0:0:
382,328,29545,1,0,0:0:0:0:
409,265,29662,1,0,0:0:0:0:
382,328,29780,1,0,0:0:0:0:
346,328,29898,1,0,0:0:0:0:
409,265,30015,1,0,0:0:0:0:
351,163,30133,1,0,0:0:0:0:
221,327,30251,5,0,0:0:0:0:
229,363,30368,1,0,0:0:0:0:
229,363,30604,1,0,0:0:0:0:
229,363,30839,1,0,0:0:0:0:
91,329,31074,5,0,0:0:0:0:
91,312,31192,1,0,0:0:0:0:
90,295,31781,6,0,P|99:259|165:234,1,100
178,303,32134,6,0,L|263:316,1,80
427,226,32369,2,0,L|342:239,1,80
257,315,32604,1,0,0:0:0:0:
347,238,32722,1,0,0:0:0:0:
427,226,32840,2,0,L|342:239,1,80
347,238,33075,5,0,0:0:0:0:
257,315,33193,1,0,0:0:0:0:
347,238,33310,2,0,L|427:226,1,80
365,345,33546,1,0,0:0:0:0:
347,238,33663,1,0,0:0:0:0:
365,345,33781,1,0,0:0:0:0:
257,315,33899,1,0,0:0:0:0:
149,285,34017,6,0,L|179:201,1,80
149,285,34252,2,0,L|179:201,1,80
175,209,34487,2,0,L|149:285,1,80
198,134,34723,1,0,0:0:0:0:
149,284,34840,2,0,B|200:129|200:129|232:148|276:129,1,240
333,48,35546,5,0,0:0:0:0:
127,43,35664,1,0,0:0:0:0:
69,108,35782,1,0,0:0:0:0:
72,201,35899,6,0,B|73:272|3:272|3:272|4:330,1,160
83,349,36253,1,0,0:0:0:0:
75,206,36370,1,0,0:0:0:0:
136,277,36488,1,0,0:0:0:0:
83,349,36606,1,0,0:0:0:0:
75,206,36723,1,0,0:0:0:0:
136,277,36841,1,0,0:0:0:0:
83,349,36959,1,0,0:0:0:0:
75,206,37076,1,0,0:0:0:0:
136,277,37194,1,0,0:0:0:0:
83,349,37312,1,0,0:0:0:0:
136,277,37429,1,0,0:0:0:0:
247,278,37547,1,0,0:0:0:0:
417,278,37665,1,0,0:0:0:0:
501,279,37782,5,0,0:0:0:0:
501,279,37900,2,0,P|490:203|431:145,1,160
196,207,38253,2,0,P|251:222|302:205,1,80
240,59,38489,2,0,P|185:44|134:61,1,80
58,111,38724,2,0,L|224:131,1,160
272,218,39077,1,0,0:0:0:0:
58,111,39195,1,0,0:0:0:0:
21,216,39312,1,0,0:0:0:0:
106,217,39430,1,0,0:0:0:0:
188,218,39548,1,0,0:0:0:0:
272,218,39665,6,0,L|164:217,1,80
21,216,39901,2,0,L|127:217,1,80
188,218,40136,2,0,L|93:218,1,80
272,218,40371,2,0,L|178:219,1,80
353,47,40607,5,0,0:0:0:0:
397,118,40725,1,0,0:0:0:0:
269,61,40842,1,0,0:0:0:0:
165,52,40960,1,0,0:0:0:0:
432,44,41078,2,0,P|383:40|340:52,1,80
269,61,41313,2,0,L|369:44,1,80
431,44,41548,5,0,0:0:0:0:
269,61,41666,1,0,0:0:0:0:
165,52,41784,1,0,0:0:0:0:
156,156,41901,1,0,0:0:0:0:
260,165,42019,1,0,0:0:0:0:
269,61,42137,1,0,0:0:0:0:
260,165,42254,1,0,0:0:0:0:
156,156,42372,2,0,P|195:201|272:175,1,120
260,165,42607,1,0,0:0:0:0:
156,156,42725,1,0,0:0:0:0:
156,156,43078,5,0,0:0:0:0:
248,356,43196,1,0,0:0:0:0:
202,256,43314,1,0,0:0:0:0:
110,56,43431,2,0,B|191:32|191:32|243:94,1,160
202,256,43784,1,0,0:0:0:0:
73,127,43902,6,0,L|112:51,1,80
238,184,44137,2,0,L|199:260,1,80
73,127,44373,2,0,L|169:161,1,80
237,183,44608,2,0,L|135:149,1,80
73,127,44843,1,0,0:0:0:0:
152,156,44961,1,0,0:0:0:0:
237,183,45079,1,0,0:0:0:0:
152,156,45197,1,0,0:0:0:0:
73,127,45314,6,0,L|178:164,1,80
237,183,45550,1,0,0:0:0:0:
382,149,45667,1,0,0:0:0:0:
441,216,45785,1,0,0:0:0:0:
314,325,45903,1,0,0:0:0:0:
196,336,46020,1,0,0:0:0:0:
74,308,46138,2,0,L|154:270,1,80
50,232,46373,2,0,L|130:194,1,80
30,157,46609,1,0,0:0:0:0:
74,308,46726,1,0,0:0:0:0:
74,308,46962,6,0,L|120:287,1,40
50,232,47079,2,0,L|96:211,1,40
192,352,47197,5,0,0:0:0:0:
192,256,47315,1,0,0:0:0:0:
192,160,47433,1,0,0:0:0:0:
288,160,47550,1,0,0:0:0:0:
288,256,47668,1,0,0:0:0:0:
192,160,47786,1,0,0:0:0:0:
288,160,47903,1,0,0:0:0:0:
288,256,48021,1,0,0:0:0:0:
288,256,48256,5,0,0:0:0:0:
288,160,48374,1,0,0:0:0:0:
288,256,48609,5,0,0:0:0:0:
288,160,48727,1,0,0:0:0:0:
288,64,48845,1,0,0:0:0:0:
288,64,49080,5,0,0:0:0:0:
384,64,49198,1,0,0:0:0:0:
480,64,49315,1,0,0:0:0:0:
384,64,49433,1,0,0:0:0:0:
192,64,49551,1,0,0:0:0:0:
384,64,49669,1,0,0:0:0:0:
288,64,49786,1,0,0:0:0:0:
192,64,49904,1,0,0:0:0:0:
192,64,50139,5,0,0:0:0:0:
288,64,50257,1,0,0:0:0:0:
288,64,50492,5,0,0:0:0:0:
192,64,50610,1,0,0:0:0:0:
96,64,50728,1,0,0:0:0:0:
96,64,50963,5,0,0:0:0:0:
96,160,51081,1,0,0:0:0:0:
96,256,51198,1,0,0:0:0:0:
96,352,51316,1,0,0:0:0:0:
288,352,51434,1,0,0:0:0:0:
384,352,51551,1,0,0:0:0:0:
480,352,51669,1,0,0:0:0:0:
192,352,51787,1,0,0:0:0:0:
384,352,52022,5,0,0:0:0:0:
288,352,52140,1,0,0:0:0:0:
384,352,52375,1,0,0:0:0:0:
288,352,52611,1,0,0:0:0:0:
384,352,52728,1,0,0:0:0:0:
384,256,52846,6,0,L|288:256,1,80
288,224,53081,2,0,L|384:224,1,80
288,256,53317,2,0,L|384:256,1,80
384,224,53552,2,0,L|288:224,1,80
192,224,54023,5,0,0:0:0:0:
192,96,54141,1,0,0:0:0:0:
192,64,54258,1,0,0:0:0:0:
192,32,54376,1,0,0:0:0:0:
224,32,54494,2,0,L|256:96,1,40
192,96,54611,2,0,L|256:64,1,40
224,160,54729,5,0,0:0:0:0:
128,160,54847,1,0,0:0:0:0:
32,64,54964,1,0,0:0:0:0:
32,160,55082,1,0,0:0:0:0:
128,160,55317,5,0,0:0:0:0:
32,160,55435,1,0,0:0:0:0:
128,160,55553,1,0,0:0:0:0:
128,160,55788,5,0,0:0:0:0:
32,160,55906,1,0,0:0:0:0:
128,160,56141,5,0,0:0:0:0:
32,160,56259,1,0,0:0:0:0:
224,256,56376,1,0,0:0:0:0:
224,256,56612,5,0,0:0:0:0:
128,160,56730,1,0,0:0:0:0:
224,160,56847,1,0,0:0:0:0:
224,64,56965,1,0,0:0:0:0:
320,160,57083,1,0,0:0:0:0:
224,160,57200,1,0,0:0:0:0:
128,160,57318,1,0,0:0:0:0:
320,160,57436,5,0,0:0:0:0:
224,64,57553,1,0,0:0:0:0:
224,160,57671,1,0,0:0:0:0:
224,64,57789,1,0,0:0:0:0:
128,160,57906,2,0,L|103:160,18,15.0000005722046
127,200,58495,6,0,P|178:213|220:200,1,80
256,52,58730,2,0,L|256:149,1,80
385,200,58966,2,0,P|334:213|292:200,1,80
256,132,59201,2,0,L|256:52,1,80
385,200,59436,1,0,0:0:0:0:
256,132,59554,1,0,0:0:0:0:
379,54,59672,1,0,0:0:0:0:
385,200,59907,5,0,0:0:0:0:
256,132,60025,1,0,0:0:0:0:
379,54,60142,1,0,0:0:0:0:
385,200,60260,1,0,0:0:0:0:
255,279,60378,6,0,P|183:311|176:310,1,80
37,193,60613,2,0,L|127:192,1,80
255,105,60848,2,0,P|183:73|176:74,1,80
116,191,61084,2,0,L|37:191,1,80
43,273,61319,5,0,0:0:0:0:
116,191,61437,1,0,0:0:0:0:
255,105,61555,1,0,0:0:0:0:
494,41,61672,1,0,0:0:0:0:
403,4,61790,1,0,0:0:0:0:
403,4,62025,5,0,0:0:0:0:
494,41,62143,1,0,0:0:0:0:
0,256,62261,6,0,L|0:355,1,80
512,384,62496,2,0,L|512:285,1,80
456,1,62731,6,0,L|358:1,1,80
100,384,62967,2,0,L|2:384,1,80
326,40,63202,5,0,0:0:0:0:
385,96,63320,1,0,0:0:0:0:
483,72,63438,1,0,0:0:0:0:
396,2,63555,1,0,0:0:0:0:
385,96,63673,1,0,0:0:0:0:
470,180,63791,1,0,0:0:0:0:
489,260,63908,1,0,0:0:0:0:
385,96,64026,1,0,0:0:0:0:
441,39,64144,6,0,L|373:108,1,80
441,39,64379,2,0,L|404:77,1,40
384,95,64497,2,0,L|347:133,1,40
256,193,64732,5,0,0:0:0:0:
256,193,64967,1,0,0:0:0:0:
328,247,65085,6,2,L|352:261,7,20
256,280,65320,6,0,L|256:307,7,20
184,247,65556,6,2,L|160:261,7,20
256,300,65791,6,8,L|256:280,7,20
249,339,66027,6,0,L|91:355,1,143.999995605469,2|0,0:0|0:0,0:0:0:0:
77,321,66262,1,8,0:0:0:0:
256,300,66380,1,0,0:0:0:0:
438,348,66497,2,0,L|464:250,1,95.9999970703126
389,168,66733,1,8,0:0:0:0:
256,300,66850,1,0,0:0:0:0:
349,191,66968,5,2,0:0:0:0:
389,168,67086,1,0,0:0:0:0:
309,192,67203,1,8,0:0:0:0:
389,168,67321,1,0,0:0:0:0:
276,265,67439,5,2,0:0:0:0:
256,300,67556,1,0,0:0:0:0:
276,218,67674,1,8,0:0:0:0:
256,300,67792,1,0,0:0:0:0:
269,176,67910,6,0,P|228:149|228:187,1,95.9999970703126
172,176,68145,2,0,P|196:142|221:176,1,95.9999970703126,8|0,0:0|0:0,0:0:0:0:
78,176,68380,2,0,P|103:143|127:177,1,95.9999970703126
172,176,68616,2,0,P|195:142|220:175,1,95.9999970703126,8|0,0:0|0:0,0:0:0:0:
127,177,68851,6,0,P|150:143|175:176,1,95.9999970703126
150,260,69086,1,8,0:0:0:0:
97,80,69204,1,0,0:0:0:0:
208,81,69322,1,8,0:0:0:0:
97,80,69557,5,8,0:0:0:0:
208,81,69675,1,8,0:0:0:0:
150,260,69792,5,0,0:0:0:0:
232,325,69910,1,0,0:0:0:0:
319,326,70028,1,8,0:0:0:0:
454,325,70146,1,0,0:0:0:0:
454,325,70381,5,0,0:0:0:0:
319,326,70499,1,8,0:0:0:0:
385,208,70616,1,0,0:0:0:0:
491,128,70734,5,0,0:0:0:0:
410,238,70852,1,0,0:0:0:0:
288,300,70969,1,8,0:0:0:0:
358,170,71087,1,0,0:0:0:0:
410,238,71322,5,0,0:0:0:0:
385,208,71440,1,8,0:0:0:0:
358,170,71558,1,0,0:0:0:0:
288,300,71675,5,0,0:0:0:0:
225,221,71793,1,0,0:0:0:0:
158,130,71911,1,8,0:0:0:0:
320,124,72028,2,0,L|436:271,1,143.999995605469
394,271,72264,1,0,0:0:0:0:
288,300,72382,1,8,0:0:0:0:
158,130,72499,1,0,0:0:0:0:
76,328,72617,6,0,L|172:342,1,95.9999970703126,0|8,0:0|0:0,0:0:0:0:
76,56,72852,2,0,L|172:42,1,95.9999970703126,8|8,0:0|0:0,0:0:0:0:
87,293,73088,2,0,L|186:350,1,95.9999970703126,8|8,0:0|0:0,0:0:0:0:
170,43,73323,2,0,L|87:91,1,95.9999970703126,0|8,0:0|0:0,0:0:0:0:
20,193,73558,6,0,P|88:218|150:172,1,143.999995605469
195,120,73794,2,0,P|221:164|207:229,1,95.9999970703126
87,293,74029,1,0,0:0:0:0:
20,193,74147,1,0,0:0:0:0:
195,120,74264,1,0,0:0:0:0:
296,165,74382,1,0,0:0:0:0:
333,264,74500,6,0,B|231:305|231:305|172:305,1,143.999995605469
172,267,74735,1,0,0:0:0:0:
296,165,74853,1,0,0:0:0:0:
238,336,74971,2,0,L|156:250,1,95.9999970703126
296,165,75206,2,0,L|336:277,1,95.9999970703126
238,336,75441,5,0,0:0:0:0:
158,336,75559,1,0,0:0:0:0:
78,336,75676,1,0,0:0:0:0:
0,336,75794,1,0,0:0:0:0:
274,48,75912,5,0,0:0:0:0:
354,48,76030,1,0,0:0:0:0:
434,48,76147,1,0,0:0:0:0:
512,48,76265,1,0,0:0:0:0:
434,144,76383,6,0,L|434:41,1,95.9999970703126
314,213,76618,2,0,L|314:110,1,95.9999970703126
200,281,76854,1,0,0:0:0:0:
200,281,77089,5,0,0:0:0:0:
102,274,77207,1,0,0:0:0:0:
36,206,77324,2,0,B|88:165|143:190|143:190|170:158,1,143.999995605469
166,131,77560,1,0,0:0:0:0:
102,274,77677,1,0,0:0:0:0:
98,73,77795,2,0,P|175:41|254:113,1,191.999994140625
102,274,78148,1,0,0:0:0:0:
203,312,78266,5,0,0:0:0:0:
278,245,78383,1,0,0:0:0:0:
359,99,78501,5,0,0:0:0:0:
264,140,78619,1,0,0:0:0:0:
79,218,78736,5,0,0:0:0:0:
154,151,78853,1,0,0:0:0:0:
235,5,78972,5,0,0:0:0:0:
140,46,79089,1,0,0:0:0:0:
42,21,79207,1,0,0:0:0:0:
455,110,85327,6,0,B|452:236|453:225|430:258|383:238,1,143.999995605469
388,212,85562,1,0,0:0:0:0:
424,242,85680,1,0,0:0:0:0:
426,321,85797,1,0,0:0:0:0:
342,352,85915,1,0,0:0:0:0:
256,296,86033,2,0,B|354:361|354:361|434:317,2,191.999994140625
256,296,86739,6,0,B|354:361|354:361|412:329,1,143.999995605469
426,321,86974,1,0,0:0:0:0:
256,296,87092,1,0,0:0:0:0:
352,356,87210,1,0,0:0:0:0:
426,321,87327,1,0,0:0:0:0:
426,272,87445,1,0,0:0:0:0:
136,351,87680,5,0,0:0:0:0:
426,272,87916,1,0,0:0:0:0:
136,351,88151,6,0,L|250:322,1,95.9999970703126
426,272,88387,2,0,L|294:307,1,95.9999970703126
229,327,88622,2,0,L|334:296,1,95.9999970703126
426,272,88857,2,0,L|294:307,1,95.9999970703126
229,327,89093,1,0,0:0:0:0:
333,296,89210,1,0,0:0:0:0:
414,369,89328,1,0,0:0:0:0:
333,296,89446,1,0,0:0:0:0:
252,223,89563,1,0,0:0:0:0:
171,150,89681,1,0,0:0:0:0:
0,0,89799,5,0,0:0:0:0:
0,0,89916,1,0,0:0:0:0:
0,0,90034,1,0,0:0:0:0:
0,0,90151,1,0,0:0:0:0:
85,0,90387,5,0,0:0:0:0:
0,0,90623,5,0,0:0:0:0:
85,0,90740,1,0,0:0:0:0:
85,0,91211,6,0,L|57:144,1,140
26,205,91682,6,0,P|122:210|185:247,1,160
198,338,92035,1,0,0:0:0:0:
26,205,92152,2,0,P|102:204|131:212,1,80
198,338,92388,2,0,P|122:339|93:331,1,80
105,204,92623,5,0,0:0:0:0:
118,338,92741,1,0,0:0:0:0:
90,346,92858,1,0,0:0:0:0:
131,199,92976,1,0,0:0:0:0:
201,325,93094,5,0,0:0:0:0:
35,248,93211,1,0,0:0:0:0:
110,161,93329,1,0,0:0:0:0:
111,377,93447,1,0,0:0:0:0:
35,248,93564,6,0,L|108:167,1,80
189,163,93800,2,0,L|82:159,1,80
35,248,94035,2,0,B|115:157|115:157|186:164,1,160
131,326,94388,1,0,0:0:0:0:
35,248,94506,1,0,0:0:0:0:
35,123,94624,1,0,0:0:0:0:
35,248,94741,1,0,0:0:0:0:
35,248,95094,5,0,0:0:0:0:
116,287,95211,1,0,0:0:0:0:
197,326,95329,1,0,0:0:0:0:
496,12,95447,6,0,B|432:37|432:37|388:37|388:37|329:54,1,160
259,151,95800,1,0,0:0:0:0:
391,193,95918,1,0,0:0:0:0:
391,193,96036,1,0,0:0:0:0:
264,157,96153,1,0,0:0:0:0:
264,157,96271,1,0,0:0:0:0:
264,157,96389,1,0,0:0:0:0:
391,193,96507,1,0,0:0:0:0:
356,320,96624,1,0,0:0:0:0:
229,284,96742,1,0,0:0:0:0:
356,320,96860,5,0,0:0:0:0:
229,284,96977,1,0,0:0:0:0:
391,193,97095,1,0,0:0:0:0:
264,157,97213,1,0,0:0:0:0:
229,284,97330,6,0,L|138:265,1,80
391,193,97566,2,0,L|410:102,1,80
264,157,97801,2,0,L|355:312,1,160
345,294,98154,1,0,0:0:0:0:
264,157,98272,1,0,0:0:0:0:
294,207,98389,1,0,0:0:0:0:
321,254,98507,1,0,0:0:0:0:
321,254,98743,5,0,0:0:0:0:
264,157,98861,1,0,0:0:0:0:
294,207,98979,1,0,0:0:0:0:
264,157,99096,1,0,0:0:0:0:
235,102,99213,6,0,L|145:116,1,80
37,228,99449,2,0,L|127:214,1,80
264,157,99684,1,0,0:0:0:0:
264,157,99802,2,0,B|232:102|232:102|117:120,1,160
136,116,100155,5,0,0:0:0:0:
231,106,100272,1,0,0:0:0:0:
172,34,100390,1,0,0:0:0:0:
322,108,100508,1,0,0:0:0:0:
231,106,100625,1,0,0:0:0:0:
172,34,100743,1,0,0:0:0:0:
276,190,100861,1,0,0:0:0:0:
231,106,100979,1,0,0:0:0:0:
219,256,101096,6,0,P|265:276|312:269,1,80
371,250,101332,2,0,P|364:319|346:338,1,80
276,190,101567,2,0,P|170:187|136:241,1,160
148,321,101920,1,0,0:0:0:0:
72,247,102038,1,0,0:0:0:0:
148,321,102155,1,0,0:0:0:0:
72,247,102273,5,0,0:0:0:0:
72,247,102508,1,0,0:0:0:0:
72,247,102744,1,0,0:0:0:0:
72,247,102979,5,0,0:0:0:0:
72,247,103097,1,0,0:0:0:0:
72,247,103215,1,0,0:0:0:0:
72,247,103332,1,0,0:0:0:0:
201,8,103450,5,0,0:0:0:0:
176,10,103568,1,0,0:0:0:0:
145,30,103685,1,0,0:0:0:0:
118,91,103803,1,0,0:0:0:0:
440,137,103921,5,0,0:0:0:0:
452,86,104038,1,0,0:0:0:0:
396,32,104156,1,0,0:0:0:0:
300,60,104274,1,0,0:0:0:0:
311,376,104391,5,0,0:0:0:0:
426,356,104509,1,0,0:0:0:0:
456,227,104627,1,0,0:0:0:0:
256,192,104744,1,0,0:0:0:0:
256,192,104862,6,0,B|224:246|224:246|290:246,1,120
256,192,105097,1,0,0:0:0:0:
271,166,105155,1,0,0:0:0:0:
286,140,105214,1,0,0:0:0:0:
260,138,105273,1,0,0:0:0:0:
230,138,105333,2,0,L|149:138,1,80
366,140,105568,2,0,L|284:140,1,80
150,138,105804,5,0,0:0:0:0:
231,138,105921,1,0,0:0:0:0:
286,140,106039,1,0,0:0:0:0:
366,141,106157,1,0,0:0:0:0:
508,143,106274,5,0,0:0:0:0:
323,141,106392,1,0,0:0:0:0:
194,140,106510,1,0,0:0:0:0:
8,141,106627,1,0,0:0:0:0:
102,302,106745,5,0,0:0:0:0:
102,302,106863,1,0,0:0:0:0:
102,302,106980,2,0,L|212:319,1,80
382,260,107216,5,0,0:0:0:0:
475,241,107333,1,0,0:0:0:0:
494,334,107451,1,0,0:0:0:0:
401,353,107569,1,0,0:0:0:0:
431,54,107687,5,0,0:0:0:0:
431,54,107804,1,0,0:0:0:0:
431,54,107922,2,0,L|413:146,1,80
140,35,108157,5,0,0:0:0:0:
43,55,108275,1,0,0:0:0:0:
140,173,108393,1,0,0:0:0:0:
43,153,108511,1,0,0:0:0:0:
222,100,108628,5,0,0:0:0:0:
222,100,108746,1,0,0:0:0:0:
222,100,108863,2,0,L|306:117,1,80
291,200,109099,5,0,0:0:0:0:
209,213,109216,1,0,0:0:0:0:
116,257,109334,1,0,0:0:0:0:
219,268,109452,1,0,0:0:0:0:
351,273,109569,5,0,0:0:0:0:
227,324,109687,1,0,0:0:0:0:
351,273,109805,1,0,0:0:0:0:
323,284,109863,1,0,0:0:0:0:
295,296,109922,1,0,0:0:0:0:
268,308,109981,1,0,0:0:0:0:
240,319,110040,1,0,0:0:0:0:
351,273,110276,1,0,0:0:0:0:
50,263,110511,5,0,0:0:0:0:
37,173,110629,1,0,0:0:0:0:
141,87,110746,2,0,L|140:134,4,40
262,69,111099,5,0,0:0:0:0:
377,155,111217,2,0,L|424:156,4,40
361,295,111570,5,0,0:0:0:0:
184,355,111688,2,0,L|184:308,2,40
82,276,111923,5,0,0:0:0:0:
185,186,112041,1,0,0:0:0:0:
374,130,112159,2,0,L|373:177,4,40
480,267,112512,5,0,0:0:0:0:
107,350,112629,2,0,L|58:348,2,40
107,350,112865,1,0,0:0:0:0:
231,322,112982,1,0,0:0:0:0:
355,294,113100,1,0,0:0:0:0:
480,267,113218,1,0,0:0:0:0:
480,267,113335,5,0,0:0:0:0:
480,267,113571,1,0,0:0:0:0:
480,267,113806,1,0,0:0:0:0:
480,267,114041,1,0,0:0:0:0:
440,267,114099,1,0,0:0:0:0:
360,267,114158,1,0,0:0:0:0:
400,267,114217,1,0,0:0:0:0:
381,309,114277,6,0,P|272:314|232:274,2,160
381,309,114865,1,0,0:0:0:0:
238,284,114983,1,0,0:0:0:0:
330,173,115101,1,0,0:0:0:0:
457,212,115218,6,0,L|362:243,1,80
201,141,115454,2,0,L|296:110,1,80
277,116,115689,2,0,B|180:148|180:148|174:181,1,120
206,216,115924,1,0,0:0:0:0:
266,216,116042,1,0,0:0:0:0:
326,216,116160,6,0,L|416:203,1,80
297,298,116395,2,0,L|387:285,1,80
326,215,116631,1,0,0:0:0:0:
297,298,116748,1,0,0:0:0:0:
164,215,116866,1,0,0:0:0:0:
193,298,116983,1,0,0:0:0:0:
297,298,117101,6,0,B|189:297|189:297|171:240,2,160,2|8|2,0:0|0:0|0:0,0:0:0:0:
411,359,117690,1,8,0:0:0:0:
447,250,117807,1,8,0:0:0:0:
297,298,117925,1,8,0:0:0:0:
411,359,118043,5,4,0:0:0:0:
447,250,118160,1,0,0:0:0:0:
297,298,118278,5,8,0:0:0:0:
316,159,118396,1,0,0:0:0:0:
167,116,118513,5,8,0:0:0:0:
171,313,118631,1,0,0:0:0:0:
297,298,118749,5,8,0:0:0:0:
316,159,118866,1,0,0:0:0:0:
171,313,118984,6,0,B|299:298|299:298|314:355,2,160,8|8|0,0:0|0:0|0:0,0:0:0:0:
389,358,119573,1,8,0:0:0:0:
298,298,119690,1,8,0:0:0:0:
41,237,119808,1,8,0:0:0:0:
120,192,119926,6,0,L|120:88,1,80,8|0,0:0|0:0,0:0:0:0:
120,112,120161,2,0,L|120:152,1,40,4|0,0:0|0:0,0:0:0:0:
120,192,120279,2,0,L|120:152,1,40,4|0,0:0|0:0,0:0:0:0:
256,193,120514,5,4,0:0:0:0:
256,193,120749,1,4,0:0:0:0:
328,137,120867,6,2,L|352:123,7,20
256,104,121102,6,0,L|256:77,7,20
184,137,121338,6,2,L|160:123,7,20
256,84,121573,6,8,L|256:104,7,20
256,31,121809,6,0,B|360:31|360:31|440:110,1,191.999994140625,4|0,0:0|0:0,0:0:0:0:
367,171,122162,1,0,0:0:0:0:
256,31,122279,2,0,L|205:125,1,95.9999970703126,8|0,0:0|0:0,0:0:0:0:
422,92,122515,2,0,L|350:197,1,95.9999970703126,8|0,0:0|0:0,0:0:0:0:
210,115,122750,5,2,0:0:0:0:
367,171,122868,1,0,0:0:0:0:
181,190,122985,1,8,0:0:0:0:
338,246,123103,1,0,0:0:0:0:
367,171,123221,5,2,0:0:0:0:
181,190,123338,1,0,0:0:0:0:
273,180,123456,1,8,0:0:0:0:
338,246,123574,1,0,0:0:0:0:
239,279,123692,6,0,P|159:289|137:285,1,95.9999970703126
46,122,123927,2,8,P|126:112|148:116,1,95.9999970703126,8|0,0:0|0:0,0:0:0:0:
144,286,124162,2,0,L|81:210,1,95.9999970703126
140,114,124398,2,8,L|203:190,1,95.9999970703126
143,285,124633,1,0,0:0:0:0:
201,187,124751,1,0,0:0:0:0:
348,194,124868,1,8,0:0:0:0:
495,307,124986,1,8,0:0:0:0:
402,335,125104,1,8,0:0:0:0:
402,335,125339,5,8,0:0:0:0:
495,307,125457,1,8,0:0:0:0:
325,144,125574,5,0,0:0:0:0:
231,114,125692,1,0,0:0:0:0:
41,48,125810,1,8,0:0:0:0:
137,81,125928,1,0,0:0:0:0:
137,81,126163,5,0,0:0:0:0:
41,48,126281,1,4,0:0:0:0:
137,81,126398,1,0,0:0:0:0:
325,144,126516,1,0,0:0:0:0:
445,222,126634,5,0,0:0:0:0:
315,181,126751,1,8,0:0:0:0:
185,140,126869,1,0,0:0:0:0:
332,100,126987,1,0,0:0:0:0:
332,100,127222,5,8,0:0:0:0:
332,100,127340,1,0,0:0:0:0:
325,144,127457,1,0,0:0:0:0:
315,181,127575,1,0,0:0:0:0:
220,257,127693,1,8,0:0:0:0:
65,178,127810,2,0,B|173:132|173:132|206:132,1,143.999995605469
231,146,128046,1,0,0:0:0:0:
220,257,128164,1,8,0:0:0:0:
337,359,128281,1,0,0:0:0:0:
477,235,128399,6,0,B|477:180|477:180|428:142,1,95.9999970703126,0|8,0:0|0:0,0:0:0:0:
231,146,128634,2,0,B|231:201|231:201|280:239,1,95.9999970703126,8|8,0:0|0:0,0:0:0:0:
444,154,128870,2,0,B|477:180|477:180|477:235,1,95.9999970703126,8|8,0:0|0:0,0:0:0:0:
263,226,129105,2,0,B|231:201|231:201|231:146,1,95.9999970703126,0|8,0:0|0:0,0:0:0:0:
444,154,129340,6,0,P|463:227|407:291,1,143.999995605469
369,227,129576,2,0,P|349:277|378:342,1,95.9999970703126
481,358,129811,1,0,0:0:0:0:
357,316,129929,1,0,0:0:0:0:
206,297,130046,1,0,0:0:0:0:
17,318,130164,1,0,0:0:0:0:
93,143,130282,5,0,0:0:0:0:
206,297,130400,1,0,0:0:0:0:
17,318,130517,2,0,L|125:347,1,95.9999970703126
17,318,130753,2,0,B|122:346|122:345|122:344|121:344|121:344|121:345|154:319,1,143.999995605469
133,244,130988,2,0,P|195:252|226:295,1,95.9999970703126
203,353,131223,5,0,0:0:0:0:
124,341,131341,1,0,0:0:0:0:
63,291,131459,1,0,0:0:0:0:
34,218,131576,1,0,0:0:0:0:
309,31,131694,5,0,0:0:0:0:
388,43,131812,1,0,0:0:0:0:
449,93,131930,1,0,0:0:0:0:
478,166,132047,1,0,0:0:0:0:
34,218,132165,6,0,L|129:181,1,95.9999970703126
478,166,132400,2,0,L|383:203,1,95.9999970703126
256,192,132636,1,0,0:0:0:0:
256,192,132871,5,0,0:0:0:0:
128,192,132989,1,0,0:0:0:0:
0,192,133106,2,0,B|44:294|44:294|81:293,1,143.999995605469
128,288,133342,1,0,0:0:0:0:
199,125,133459,1,0,0:0:0:0:
128,192,133577,1,0,0:0:0:0:
303,112,133695,1,0,0:0:0:0:
433,170,133812,1,0,0:0:0:0:
433,170,134048,5,0,0:0:0:0:
303,112,134165,1,0,0:0:0:0:
336,204,134283,1,0,0:0:0:0:
433,170,134401,1,0,0:0:0:0:
395,71,134518,1,0,0:0:0:0:
229,51,134636,1,0,0:0:0:0:
265,362,134754,1,0,0:0:0:0:
302,263,134872,1,0,0:0:0:0:
433,170,134989,1,0,0:0:0:0:
433,170,135460,5,0,0:0:0:0:
433,170,135931,5,0,0:0:0:0:
433,170,136284,1,0,0:0:0:0:
433,170,136637,1,0,0:0:0:0:
231,268,136872,5,0,0:0:0:0:
231,268,137108,1,0,0:0:0:0:
231,268,137343,1,0,0:0:0:0:
231,268,137578,1,0,0:0:0:0:
231,268,137814,2,0,P|181:286|202:252,1,119.999996337891
231,268,138167,2,0,B|232:156|232:156|271:167,1,143.999995605469
338,198,138598,1,0,0:0:0:0:
419,192,138677,1,0,0:0:0:0:
482,141,138755,6,0,P|430:111|386:120,1,80
338,198,138990,1,0,0:0:0:0:
419,192,139108,1,0,0:0:0:0:
171,265,139226,6,0,P|223:295|267:286,1,80
419,192,139461,1,0,0:0:0:0:
338,198,139579,1,0,0:0:0:0:
483,348,139697,6,0,L|383:369,1,80
338,198,139932,1,0,0:0:0:0:
419,192,140050,1,0,0:0:0:0:
404,364,140167,1,0,0:0:0:0:
404,364,140403,1,0,0:0:0:0:
404,364,140638,6,0,L|315:364,1,80
85,288,140873,2,0,L|174:288,1,80
437,288,141109,6,0,L|348:288,1,80
116,212,141344,2,0,L|205:212,1,80
458,210,141580,6,0,L|413:210,3,40
338,210,141815,2,0,L|338:158,3,40
291,216,142050,5,0,0:0:0:0:
262,189,142108,1,0,0:0:0:0:
257,150,142167,1,0,0:0:0:0:
279,117,142226,1,0,0:0:0:0:
338,111,142286,5,0,0:0:0:0:
338,160,142344,1,0,0:0:0:0:
338,210,142403,1,0,0:0:0:0:
338,260,142462,1,0,0:0:0:0:
338,310,142521,1,0,0:0:0:0:
175,139,153819,5,0,0:0:0:0:
203,273,154054,5,0,0:0:0:0:
337,245,154289,5,0,0:0:0:0:
309,111,154525,5,0,0:0:0:0:
203,273,154760,5,0,0:0:0:0:
309,111,154995,5,0,0:0:0:0:
203,273,155231,5,0,0:0:0:0:
337,245,155466,5,0,0:0:0:0:
203,273,155584,5,0,0:0:0:0:
203,273,155643,1,0,0:0:0:0:
203,273,155702,1,0,0:0:0:0:
365,341,155937,5,0,0:0:0:0:
405,83,156172,5,0,0:0:0:0:
147,43,156408,5,0,0:0:0:0:
107,301,156643,5,0,0:0:0:0:
256,193,156878,5,0,0:0:0:0:
208,279,156996,1,0,0:0:0:0:
107,301,157114,2,0,L|129:166,1,120
208,279,157585,5,0,0:0:0:0:
107,301,157702,1,0,0:0:0:0:
126,182,157820,2,0,L|109:290,1,80
37,183,158055,2,0,P|71:114|168:104,1,160
213,182,158408,1,0,0:0:0:0:
37,183,158526,5,0,0:0:0:0:
213,182,158644,1,0,0:0:0:0:
126,182,158761,1,0,0:0:0:0:
263,260,158879,1,0,0:0:0:0:
307,338,158997,1,0,0:0:0:0:
307,338,159232,5,0,0:0:0:0:
263,260,159350,1,0,0:0:0:0:
385,163,159467,2,0,P|400:211|396:247,1,80
330,107,159703,2,0,P|369:137|387:169,1,80
397,240,159938,2,0,P|395:186|334:108,1,120
330,107,160174,5,0,0:0:0:0:
397,240,160291,1,0,0:0:0:0:
487,289,160409,1,0,0:0:0:0:
487,289,160644,5,0,0:0:0:0:
487,289,160880,5,0,0:0:0:0:
386,329,160997,1,0,0:0:0:0:
237,234,161115,1,0,0:0:0:0:
310,77,161233,1,0,0:0:0:0:
508,47,161350,1,0,0:0:0:0:
508,47,161586,5,0,0:0:0:0:
508,47,161821,5,0,0:0:0:0:
244,228,161939,1,0,0:0:0:0:
420,107,162057,1,0,0:0:0:0:
332,168,162174,1,0,0:0:0:0:
46,364,162292,1,0,0:0:0:0:
46,364,162527,5,0,0:0:0:0:
46,364,162763,5,0,0:0:0:0:
46,256,162880,1,0,0:0:0:0:
205,367,162998,1,0,0:0:0:0:
311,367,163116,1,0,0:0:0:0:
43,148,163233,1,0,0:0:0:0:
43,148,163469,5,0,0:0:0:0:
142,95,163586,1,0,0:0:0:0:
241,42,163704,1,0,0:0:0:0:
241,42,163939,5,0,0:0:0:0:
142,95,164057,1,0,0:0:0:0:
43,148,164175,2,0,L|108:214,1,80
469,236,164410,2,0,L|404:170,1,80
325,337,164646,5,8,0:0:0:0:
110,261,164763,1,8,0:0:0:0:
186,46,164881,1,8,0:0:0:0:
401,122,164999,1,2,0:0:0:0:
469,236,165116,6,0,L|404:170,1,80
313,227,165352,1,0,0:0:0:0:
152,226,165469,1,0,0:0:0:0:
233,227,165587,2,0,L|337:227,1,80
72,226,165822,2,0,L|176:226,1,80
233,227,166058,6,0,L|40:228,1,160
53,343,166411,1,0,0:0:0:0:
225,317,166529,1,0,0:0:0:0:
394,370,166646,2,0,L|300:358,1,80
356,198,166882,1,0,0:0:0:0:
394,370,166999,5,0,0:0:0:0:
374,283,167117,1,0,0:0:0:0:
356,198,167235,1,0,0:0:0:0:
467,133,167352,1,0,0:0:0:0:
355,197,167470,1,0,0:0:0:0:
245,263,167588,1,0,0:0:0:0:
96,156,167705,1,0,0:0:0:0:
245,263,167823,1,0,0:0:0:0:
394,370,167941,2,0,B|479:370|479:370|492:286,2,160
270,354,168529,5,0,0:0:0:0:
146,338,168647,1,0,0:0:0:0:
22,322,168764,1,0,0:0:0:0:
490,295,168882,6,0,L|402:283,1,80
424,198,169118,2,0,L|342:198,1,80
279,252,169353,2,0,P|258:203|316:121,1,160
424,198,169706,1,0,0:0:0:0:
293,348,169824,6,0,B|206:344|206:344|129:311,1,160
64,364,170177,1,0,0:0:0:0:
454,79,170294,2,0,L|468:0,1,80
345,106,170530,1,0,0:0:0:0:
256,129,170647,1,0,0:0:0:0:
163,260,170765,5,0,0:0:0:0:
175,88,170883,1,0,0:0:0:0:
345,106,171001,5,0,0:0:0:0:
256,129,171118,1,0,0:0:0:0:
163,260,171236,5,0,0:0:0:0:
175,88,171354,1,0,0:0:0:0:
256,129,171471,5,0,0:0:0:0:
345,106,171589,1,0,0:0:0:0:
175,88,171707,5,0,0:0:0:0:
163,260,171824,1,0,0:0:0:0:
256,129,171942,5,0,0:0:0:0:
175,88,172060,1,0,0:0:0:0:
175,88,172177,5,0,0:0:0:0:
256,129,172295,1,0,0:0:0:0:
175,88,172413,5,0,0:0:0:0:
256,129,172530,1,0,0:0:0:0:
337,170,172648,6,0,P|337:192|337:192,30,20
361,228,173590,6,0,B|318:291|247:271|247:271|241:254,1,143.999995605469
242,218,173825,1,0,0:0:0:0:
447,187,173943,1,0,0:0:0:0:
253,313,174060,2,0,L|240:208,1,95.9999970703126
242,218,174296,1,0,0:0:0:0:
69,165,174413,1,0,0:0:0:0:
472,346,174531,5,2,0:0:0:0:
415,278,174649,1,0,0:0:0:0:
169,279,174766,1,8,0:0:0:0:
82,280,174884,1,0,0:0:0:0:
169,279,175002,5,2,0:0:0:0:
82,280,175119,1,0,0:0:0:0:
415,278,175237,1,8,0:0:0:0:
472,346,175355,1,0,0:0:0:0:
415,278,175472,6,0,P|357:240|302:249,1,95.9999970703126
82,280,175708,2,0,P|143:249|163:197,1,95.9999970703126,8|0,0:0|0:0,0:0:0:0:
249,18,175943,2,0,P|245:86|280:129,1,95.9999970703126
415,278,176179,2,0,P|357:240|302:249,1,95.9999970703126,8|0,0:0|0:0,0:0:0:0:
179,315,176414,6,0,P|237:353|292:344,1,95.9999970703126
415,278,176649,1,8,0:0:0:0:
332,239,176767,1,8,0:0:0:0:
179,315,176885,1,8,0:0:0:0:
179,315,177120,5,8,0:0:0:0:
332,239,177238,1,8,0:0:0:0:
63,125,177355,5,0,0:0:0:0:
36,28,177473,1,0,0:0:0:0:
63,161,177591,1,8,0:0:0:0:
179,315,177708,1,0,0:0:0:0:
179,315,177944,5,0,0:0:0:0:
63,161,178062,1,8,0:0:0:0:
122,237,178179,1,0,0:0:0:0:
292,106,178297,5,0,0:0:0:0:
150,276,178415,1,0,0:0:0:0:
31,353,178532,1,8,0:0:0:0:
94,200,178650,1,0,0:0:0:0:
94,200,178885,5,0,0:0:0:0:
122,237,179003,1,8,0:0:0:0:
150,276,179121,1,0,0:0:0:0:
356,43,179238,5,0,0:0:0:0:
326,134,179356,1,0,0:0:0:0:
297,225,179474,1,8,0:0:0:0:
356,43,179591,5,0,0:0:0:0:
320,154,179709,1,0,0:0:0:0:
284,266,179827,1,0,0:0:0:0:
356,43,179944,5,8,0:0:0:0:
315,169,180062,1,0,0:0:0:0:
273,298,180180,6,0,P|197:312|165:307,1,95.9999970703126,0|8,0:0|0:0,0:0:0:0:
262,54,180415,2,0,P|338:40|370:45,1,95.9999970703126,8|8,0:0|0:0,0:0:0:0:
355,42,180651,1,8,0:0:0:0:
262,54,180768,1,8,0:0:0:0:
273,298,180886,2,0,P|197:312|165:307,1,95.9999970703126,0|8,0:0|0:0,0:0:0:0:
22,239,181121,6,0,L|188:238,1,143.999995605469
177,166,181357,2,0,P|224:165|270:178,1,95.9999970703126,8|0,0:0|0:0,0:0:0:0:
273,298,181592,1,0,0:0:0:0:
270,178,181710,1,0,0:0:0:0:
188,271,181827,1,8,0:0:0:0:
206,383,181945,1,0,0:0:0:0:
150,57,182063,6,0,L|172:184,1,95.9999970703126
188,271,182298,1,8,0:0:0:0:
206,383,182416,1,0,0:0:0:0:
150,57,182534,6,0,L|172:184,1,95.9999970703126
206,383,182769,1,8,0:0:0:0:
188,271,182887,1,0,0:0:0:0:
106,383,183004,5,0,0:0:0:0:
206,383,183122,1,0,0:0:0:0:
206,383,183240,1,8,0:0:0:0:
296,354,183357,1,0,0:0:0:0:
378,307,183475,1,0,0:0:0:0:
378,307,183593,1,0,0:0:0:0:
415,219,183710,2,0,L|517:204,1,95.9999970703126,8|0,0:0|0:0,0:0:0:0:
0,0,183946,5,2,0:0:0:0:
512,384,184063,1,2,0:0:0:0:
378,307,184181,1,8,0:0:0:0:
300,266,184299,1,8,0:0:0:0:
212,262,184416,1,12,0:0:0:0:
230,74,184652,5,8,0:0:0:0:
318,78,184770,1,0,0:0:0:0:
199,158,184887,5,0,0:0:0:0:
230,74,185005,1,0,0:0:0:0:
377,155,185123,5,8,0:0:0:0:
199,158,185240,1,0,0:0:0:0:
289,333,185358,5,0,0:0:0:0:
377,155,185476,1,0,0:0:0:0:
199,158,185593,1,8,0:0:0:0:
21,161,185711,1,0,0:0:0:0:
76,343,185829,2,0,P|124:283|171:257,1,95.9999970703126
230,240,186064,2,0,P|287:244|334:261,1,95.9999970703126,8|0,0:0|0:0,0:0:0:0:
420,340,186299,1,0,0:0:0:0:
420,44,186535,5,8,0:0:0:0:
291,34,186652,1,0,0:0:0:0:
267,112,186770,5,0,0:0:0:0:
163,104,186887,1,0,0:0:0:0:
140,179,187006,5,8,0:0:0:0:
56,172,187123,1,0,0:0:0:0:
163,104,187241,5,0,0:0:0:0:
267,112,187359,1,0,0:0:0:0:
140,179,187476,1,8,0:0:0:0:
56,172,187594,1,0,0:0:0:0:
163,104,187712,2,0,P|239:92|291:105,1,95.9999970703126
345,133,187947,2,0,P|383:174|406:219,1,95.9999970703126,8|0,0:0|0:0,0:0:0:0:
416,336,188182,1,0,0:0:0:0:
512,384,188300,1,8,0:0:0:0:
416,336,188418,5,8,0:0:0:0:
512,384,188535,1,8,0:0:0:0:
0,0,188653,6,0,L|104:0,1,95.9999970703126
512,0,188888,2,0,L|512:109,1,95.9999970703126
0,96,189124,2,0,L|0:-1,1,95.9999970703126
416,0,189359,2,0,L|525:0,1,95.9999970703126
0,384,189595,6,0,L|109:384,1,95.9999970703126
81,306,189830,1,0,0:0:0:0:
256,296,189948,1,0,0:0:0:0:
354,224,190065,1,0,0:0:0:0:
317,107,190183,1,0,0:0:0:0:
194,107,190301,1,0,0:0:0:0:
157,224,190418,1,0,0:0:0:0:
256,296,190536,5,0,0:0:0:0:
402,247,190654,1,0,0:0:0:0:
438,92,190771,1,0,0:0:0:0:
512,0,190889,1,0,0:0:0:0:
256,192,191124,5,0,0:0:0:0:
0,0,191360,5,0,0:0:0:0:
256,192,191595,5,0,0:0:0:0:
0,0,191831,5,0,0:0:0:0:
256,192,191948,1,0,0:0:0:0:
219,175,192006,1,0,0:0:0:0:
184,156,192065,1,0,0:0:0:0:
150,135,192124,1,0,0:0:0:0:
117,112,192183,1,0,0:0:0:0:
85,88,192242,1,0,0:0:0:0:
55,61,192301,1,0,0:0:0:0:
27,33,192359,1,0,0:0:0:0:
0,0,192418,1,0,0:0:0:0:
