osu file format v14

[General]
AudioFilename: nameless.mp3
AudioLeadIn: 0
PreviewTime: 88714
Countdown: 0
SampleSet: None
StackLeniency: 0.7
Mode: 3
LetterboxInBreaks: 0
SpecialStyle: 0
WidescreenStoryboard: 0

[Editor]
DistanceSpacing: 1
BeatDivisor: 4
GridSize: 8
TimelineZoom: 2.100001

[Metadata]
Title:Last Battle
TitleUnicode:Last Battle
Artist:nameless
ArtistUnicode:nameless
Creator:qodtjr
Version:Battle Ground
Source:
Tags:utaite 七尾 黒魔 Vocaloid じたばたP rock and roll
BeatmapID:1397355
BeatmapSetID:348498

[Difficulty]
HPDrainRate:8
CircleSize:4
OverallDifficulty:8
ApproachRate:5
SliderMultiplier:1.4
SliderTickRate:1

[Events]
//Background and Video events
0,0,"bg.png",0,0
//Break Periods
//Storyboard Layer 0 (Background)
//Storyboard Layer 1 (Fail)
//Storyboard Layer 2 (Pass)
//Storyboard Layer 3 (Foreground)
//Storyboard Sound Samples

[TimingPoints]
1457,342.857142857143,4,3,1,30,1,0
87857,-76.9230769230769,4,3,1,30,0,0
88114,-1000,4,3,1,30,0,0
88199,-76.9230769230769,4,3,1,30,0,0
88457,-1000,4,3,1,30,0,0
88542,-100,4,3,1,30,0,0
89228,-100,4,3,1,30,0,1
133114,-66.6666666666667,4,3,1,30,0,0
133199,-200,4,3,1,30,0,0
133285,-100,4,3,1,30,0,0
134142,-66.6666666666667,4,3,1,30,0,0
134228,-200,4,3,1,30,0,0
134314,-66.6666666666667,4,3,1,30,0,0
134399,-200,4,3,1,30,0,0
134485,-100,4,3,1,30,0,0
176999,-76.9230769230769,4,3,1,30,0,0
177257,-1000,4,3,1,30,0,0
177342,-76.9230769230769,4,3,1,30,0,0
177599,-1000,4,3,1,30,0,0
177685,-100,4,3,1,30,0,0
177857,-100,4,3,1,30,0,1
200314,-100,4,3,1,30,0,0
211285,-100,4,3,1,50,0,0
216771,-100,4,3,1,30,0,0
222257,-133.333333333333,4,3,1,30,0,0
233228,-100,4,3,1,30,0,0
266142,-76.9230769230769,4,3,1,30,0,0
266399,-1000,4,3,1,30,0,0
266485,-76.9230769230769,4,3,1,30,0,0
266742,-1000,4,3,1,30,0,0
266828,-100,4,3,1,30,0,0
267171,-76.9230769230769,4,3,1,30,0,0
267428,-1000,4,3,1,30,0,0
267514,-76.9230769230769,4,3,1,30,0,0
267771,-1000,4,3,1,30,0,0
267857,-76.9230769230769,4,3,1,30,0,0
268114,-1000,4,3,1,30,0,0
268199,-100,4,3,1,30,0,0
268371,-100,4,3,1,30,0,1
311399,-100,4,3,1,30,0,0

[HitObjects]
448,192,1457,5,0,0:0:0:0:
192,192,1628,1,0,0:0:0:0:
448,192,1799,1,0,0:0:0:0:
64,192,1971,1,0,0:0:0:0:
320,192,2142,1,0,0:0:0:0:
192,192,2314,1,0,0:0:0:0:
320,192,2485,1,0,0:0:0:0:
192,192,2657,1,0,0:0:0:0:
320,192,2828,1,0,0:0:0:0:
64,192,2999,1,0,0:0:0:0:
320,192,3171,1,0,0:0:0:0:
192,192,3342,1,0,0:0:0:0:
64,192,3514,1,0,0:0:0:0:
192,192,3685,1,0,0:0:0:0:
320,192,3857,1,0,0:0:0:0:
64,192,4028,1,0,0:0:0:0:
448,192,4199,1,0,0:0:0:0:
192,192,4371,1,0,0:0:0:0:
448,192,4542,1,0,0:0:0:0:
64,192,4714,1,0,0:0:0:0:
192,192,4885,1,0,0:0:0:0:
320,192,5057,1,0,0:0:0:0:
192,192,5228,1,0,0:0:0:0:
320,192,5399,1,0,0:0:0:0:
448,192,5571,1,0,0:0:0:0:
64,192,5742,1,0,0:0:0:0:
320,192,5914,1,0,0:0:0:0:
192,192,6085,1,0,0:0:0:0:
64,192,6257,1,0,0:0:0:0:
192,192,6428,1,0,0:0:0:0:
320,192,6599,1,0,0:0:0:0:
64,192,6771,1,0,0:0:0:0:
448,192,6942,1,0,0:0:0:0:
192,192,7114,1,0,0:0:0:0:
448,192,7285,1,0,0:0:0:0:
64,192,7457,1,0,0:0:0:0:
192,192,7628,1,0,0:0:0:0:
320,192,7799,1,0,0:0:0:0:
192,192,7971,1,0,0:0:0:0:
320,192,8142,1,0,0:0:0:0:
192,192,8314,1,0,0:0:0:0:
64,192,8485,1,0,0:0:0:0:
448,192,8657,1,0,0:0:0:0:
320,192,8828,1,0,0:0:0:0:
192,192,8999,1,0,0:0:0:0:
320,192,9171,1,0,0:0:0:0:
448,192,9342,1,0,0:0:0:0:
192,192,9514,1,0,0:0:0:0:
64,192,9685,1,0,0:0:0:0:
192,192,9857,1,0,0:0:0:0:
64,192,10028,1,0,0:0:0:0:
448,192,10199,1,0,0:0:0:0:
320,192,10371,1,0,0:0:0:0:
64,192,10542,1,0,0:0:0:0:
320,192,10714,1,0,0:0:0:0:
64,192,10885,1,0,0:0:0:0:
320,192,11057,1,0,0:0:0:0:
64,192,11228,1,0,0:0:0:0:
448,192,11399,1,0,0:0:0:0:
320,192,11571,1,0,0:0:0:0:
192,192,11742,1,0,0:0:0:0:
320,192,11914,1,0,0:0:0:0:
448,192,12085,1,0,0:0:0:0:
64,192,12257,1,0,0:0:0:0:
320,192,12428,1,0,0:0:0:0:
448,192,12599,1,0,0:0:0:0:
320,192,12771,1,0,0:0:0:0:
64,192,12942,1,0,0:0:0:0:
320,192,13114,1,0,0:0:0:0:
192,192,13285,1,0,0:0:0:0:
320,192,13457,1,0,0:0:0:0:
192,192,13628,1,0,0:0:0:0:
448,192,13799,1,0,0:0:0:0:
64,192,13971,1,0,0:0:0:0:
320,192,14142,1,0,0:0:0:0:
192,192,14314,1,0,0:0:0:0:
64,192,14485,1,0,0:0:0:0:
192,192,14657,1,0,0:0:0:0:
320,192,14828,1,0,0:0:0:0:
64,192,14999,1,0,0:0:0:0:
448,192,15171,1,0,0:0:0:0:
192,192,15342,1,0,0:0:0:0:
448,192,15514,1,0,0:0:0:0:
64,192,15685,1,0,0:0:0:0:
320,192,15857,1,0,0:0:0:0:
64,192,16028,1,0,0:0:0:0:
320,192,16199,1,0,0:0:0:0:
64,192,16371,1,0,0:0:0:0:
192,192,16542,1,0,0:0:0:0:
448,192,16714,1,0,0:0:0:0:
192,192,16885,1,0,0:0:0:0:
320,192,17057,1,0,0:0:0:0:
448,192,17228,1,0,0:0:0:0:
320,192,17399,1,0,0:0:0:0:
192,192,17571,1,0,0:0:0:0:
448,192,17742,1,0,0:0:0:0:
64,192,17914,1,2,0:0:0:0:
192,192,17914,1,0,0:0:0:0:
448,192,18085,1,0,0:0:0:0:
64,192,18257,1,2,0:0:0:0:
192,192,18257,1,0,0:0:0:0:
320,192,18428,1,0,0:0:0:0:
64,192,18599,1,2,0:0:0:0:
448,192,18599,1,0,0:0:0:0:
192,192,18771,1,0,0:0:0:0:
64,192,18942,1,2,0:0:0:0:
448,192,18942,1,0,0:0:0:0:
192,192,19114,1,0,0:0:0:0:
64,192,19285,1,2,0:0:0:0:
320,192,19285,1,0,0:0:0:0:
448,192,19457,1,0,0:0:0:0:
64,192,19628,1,2,0:0:0:0:
320,192,19628,1,0,0:0:0:0:
192,192,19799,1,0,0:0:0:0:
64,192,19971,1,2,0:0:0:0:
448,192,19971,1,0,0:0:0:0:
192,192,20142,1,0,0:0:0:0:
64,192,20314,1,2,0:0:0:0:
320,192,20314,1,0,0:0:0:0:
448,192,20485,1,0,0:0:0:0:
64,192,20657,1,2,0:0:0:0:
192,192,20657,1,0,0:0:0:0:
448,192,20828,1,0,0:0:0:0:
64,192,20999,1,2,0:0:0:0:
192,192,20999,1,0,0:0:0:0:
320,192,21171,1,0,0:0:0:0:
64,192,21342,1,2,0:0:0:0:
448,192,21342,1,0,0:0:0:0:
192,192,21514,1,0,0:0:0:0:
64,192,21685,1,2,0:0:0:0:
448,192,21685,1,0,0:0:0:0:
192,192,21857,1,0,0:0:0:0:
64,192,22028,1,2,0:0:0:0:
320,192,22028,1,0,0:0:0:0:
448,192,22199,1,0,0:0:0:0:
64,192,22371,1,2,0:0:0:0:
192,192,22371,1,0,0:0:0:0:
320,192,22542,1,0,0:0:0:0:
64,192,22714,1,2,0:0:0:0:
448,192,22714,1,0,0:0:0:0:
192,192,22885,1,0,0:0:0:0:
448,192,23057,1,8,0:0:0:0:
64,192,23057,1,8,0:0:0:0:
320,192,23057,1,0,0:0:0:0:
192,192,23228,1,2,0:0:0:0:
64,192,23399,1,2,0:0:0:0:
448,192,23399,1,2,0:0:0:0:
448,192,23571,1,2,0:0:0:0:
320,192,23571,1,2,0:0:0:0:
64,192,23657,1,2,0:0:0:0:
320,192,23742,1,8,0:0:0:0:
448,192,23742,1,8,0:0:0:0:
64,192,23828,1,8,0:0:0:0:
192,192,23871,1,8,0:0:0:0:
320,192,23914,1,2,0:0:0:0:
448,192,23914,1,2,0:0:0:0:
192,192,23999,1,8,0:0:0:0:
64,192,23999,1,8,0:0:0:0:
448,192,24085,1,2,0:0:0:0:
64,192,24171,1,8,0:0:0:0:
192,192,24171,1,8,0:0:0:0:
320,192,24257,1,2,0:0:0:0:
448,192,24428,1,8,0:0:0:0:
192,192,24428,1,8,0:0:0:0:
320,192,24599,1,2,0:0:0:0:
448,192,24685,1,2,0:0:0:0:
192,192,24771,1,2,0:0:0:0:
64,192,24771,1,2,0:0:0:0:
320,192,24942,1,2,0:0:0:0:
192,192,24942,1,2,0:0:0:0:
448,192,25114,1,8,0:0:0:0:
64,192,25114,1,8,0:0:0:0:
320,192,25285,1,2,0:0:0:0:
192,192,25371,1,8,0:0:0:0:
64,192,25371,1,8,0:0:0:0:
320,192,25457,1,2,0:0:0:0:
192,192,25542,1,8,0:0:0:0:
64,192,25542,1,8,0:0:0:0:
448,192,25628,1,2,0:0:0:0:
64,192,25799,1,8,0:0:0:0:
448,192,25799,1,8,0:0:0:0:
192,192,25885,1,8,0:0:0:0:
320,192,25885,1,8,0:0:0:0:
64,192,25971,1,8,0:0:0:0:
448,192,25971,1,8,0:0:0:0:
192,192,26057,1,8,0:0:0:0:
320,192,26057,1,8,0:0:0:0:
64,192,26142,1,2,0:0:0:0:
448,192,26142,1,2,0:0:0:0:
320,192,26314,1,2,0:0:0:0:
64,192,26314,1,2,0:0:0:0:
192,192,26399,1,2,0:0:0:0:
64,192,26485,1,8,0:0:0:0:
320,192,26485,1,8,0:0:0:0:
448,192,26571,1,8,0:0:0:0:
320,192,26614,1,8,0:0:0:0:
192,192,26657,1,2,0:0:0:0:
64,192,26657,1,2,0:0:0:0:
448,192,26742,1,8,0:0:0:0:
320,192,26742,1,8,0:0:0:0:
192,192,26828,1,2,0:0:0:0:
64,192,26914,1,8,0:0:0:0:
448,192,26914,1,8,0:0:0:0:
192,192,26999,1,2,0:0:0:0:
64,192,27171,1,8,0:0:0:0:
448,192,27171,1,8,0:0:0:0:
64,192,27342,1,2,0:0:0:0:
448,192,27342,1,2,0:0:0:0:
192,192,27428,1,2,0:0:0:0:
320,192,27428,1,2,0:0:0:0:
64,192,27514,1,2,0:0:0:0:
448,192,27514,1,2,0:0:0:0:
192,192,27685,1,2,0:0:0:0:
320,192,27685,1,2,0:0:0:0:
64,192,27857,1,8,0:0:0:0:
320,192,27857,1,8,0:0:0:0:
192,192,28028,1,2,0:0:0:0:
320,192,28114,1,8,0:0:0:0:
64,192,28114,1,8,0:0:0:0:
448,192,28199,1,0,0:0:0:0:
448,192,28285,1,0,0:0:0:0:
320,192,28371,1,0,0:0:0:0:
320,192,28457,1,0,0:0:0:0:
192,192,28542,1,0,0:0:0:0:
192,192,28628,1,0,0:0:0:0:
64,192,28714,1,0,0:0:0:0:
64,192,28799,1,0,0:0:0:0:
320,192,28885,1,4,0:0:0:0:
448,192,28885,1,4,0:0:0:0:
64,192,29057,1,2,0:0:0:0:
448,192,29057,1,2,0:0:0:0:
192,192,29142,1,2,0:0:0:0:
320,192,29228,1,8,0:0:0:0:
64,192,29228,1,8,0:0:0:0:
192,192,29314,1,8,0:0:0:0:
320,192,29357,1,8,0:0:0:0:
64,192,29399,1,2,0:0:0:0:
448,192,29399,1,2,0:0:0:0:
320,192,29485,1,8,0:0:0:0:
192,192,29485,1,8,0:0:0:0:
448,192,29571,1,2,0:0:0:0:
64,192,29657,1,8,0:0:0:0:
320,192,29657,1,8,0:0:0:0:
192,192,29742,1,2,0:0:0:0:
192,192,29914,1,8,0:0:0:0:
448,192,29914,1,8,0:0:0:0:
64,192,30085,1,2,0:0:0:0:
320,192,30085,1,2,0:0:0:0:
192,192,30171,1,2,0:0:0:0:
320,192,30257,1,2,0:0:0:0:
448,192,30257,1,2,0:0:0:0:
64,192,30428,1,2,0:0:0:0:
448,192,30428,1,2,0:0:0:0:
192,192,30599,1,8,0:0:0:0:
448,192,30599,1,8,0:0:0:0:
64,192,30771,1,2,0:0:0:0:
320,192,30857,1,8,0:0:0:0:
448,192,30857,1,8,0:0:0:0:
192,192,30942,1,2,0:0:0:0:
320,192,31028,1,8,0:0:0:0:
448,192,31028,1,8,0:0:0:0:
64,192,31114,1,2,0:0:0:0:
320,192,31285,1,8,0:0:0:0:
448,192,31285,1,8,0:0:0:0:
192,192,31371,1,8,0:0:0:0:
64,192,31371,1,8,0:0:0:0:
320,192,31457,1,8,0:0:0:0:
448,192,31457,1,8,0:0:0:0:
192,192,31542,1,8,0:0:0:0:
64,192,31542,1,8,0:0:0:0:
448,192,31628,1,2,0:0:0:0:
320,192,31628,1,2,0:0:0:0:
448,192,31799,1,2,0:0:0:0:
64,192,31799,1,2,0:0:0:0:
320,192,31885,1,2,0:0:0:0:
192,192,31971,1,8,0:0:0:0:
448,192,31971,1,8,0:0:0:0:
64,192,32057,1,8,0:0:0:0:
192,192,32099,1,8,0:0:0:0:
320,192,32142,1,2,0:0:0:0:
448,192,32142,1,2,0:0:0:0:
64,192,32228,1,8,0:0:0:0:
192,192,32228,1,8,0:0:0:0:
448,192,32314,1,2,0:0:0:0:
320,192,32399,1,8,0:0:0:0:
64,192,32399,1,8,0:0:0:0:
448,192,32485,1,2,0:0:0:0:
64,192,32657,1,8,0:0:0:0:
320,192,32657,1,8,0:0:0:0:
448,192,32828,1,2,0:0:0:0:
64,192,32828,1,2,0:0:0:0:
192,192,32914,1,2,0:0:0:0:
320,192,32914,1,2,0:0:0:0:
448,192,32999,1,2,0:0:0:0:
64,192,32999,1,2,0:0:0:0:
192,192,33171,1,2,0:0:0:0:
64,192,33171,1,2,0:0:0:0:
448,192,33342,1,8,0:0:0:0:
192,192,33342,1,8,0:0:0:0:
448,192,33514,1,2,0:0:0:0:
192,192,33599,1,8,0:0:0:0:
64,192,33599,1,8,0:0:0:0:
320,192,33685,1,2,0:0:0:0:
64,192,33771,1,8,0:0:0:0:
192,192,33771,1,8,0:0:0:0:
448,192,33857,1,2,0:0:0:0:
192,192,34028,1,8,0:0:0:0:
448,192,34028,1,8,0:0:0:0:
320,192,34114,1,8,0:0:0:0:
64,192,34114,1,8,0:0:0:0:
192,192,34199,1,8,0:0:0:0:
448,192,34199,1,8,0:0:0:0:
64,192,34285,1,8,0:0:0:0:
320,192,34285,1,8,0:0:0:0:
192,192,34371,1,4,0:0:0:0:
448,192,34371,1,4,0:0:0:0:
64,192,34542,1,2,0:0:0:0:
448,192,34542,1,2,0:0:0:0:
320,192,34628,1,2,0:0:0:0:
448,192,34714,1,8,0:0:0:0:
192,192,34714,1,8,0:0:0:0:
64,192,34799,1,8,0:0:0:0:
192,192,34842,1,8,0:0:0:0:
320,192,34885,1,2,0:0:0:0:
448,192,34885,1,2,0:0:0:0:
192,192,34971,1,8,0:0:0:0:
64,192,34971,1,8,0:0:0:0:
320,192,35057,1,2,0:0:0:0:
448,192,35142,1,8,0:0:0:0:
64,192,35142,1,8,0:0:0:0:
320,192,35228,1,2,0:0:0:0:
64,192,35399,1,8,0:0:0:0:
448,192,35399,1,8,0:0:0:0:
64,192,35571,1,2,0:0:0:0:
448,192,35571,1,2,0:0:0:0:
192,192,35657,1,2,0:0:0:0:
320,192,35657,1,2,0:0:0:0:
64,192,35742,1,2,0:0:0:0:
448,192,35742,1,2,0:0:0:0:
192,192,35914,1,2,0:0:0:0:
64,192,35914,1,2,0:0:0:0:
192,192,36085,1,8,0:0:0:0:
448,192,36085,1,8,0:0:0:0:
448,192,36257,1,2,0:0:0:0:
64,192,36342,1,8,0:0:0:0:
320,192,36342,1,8,0:0:0:0:
192,192,36428,1,2,0:0:0:0:
64,192,36514,1,8,0:0:0:0:
320,192,36514,1,8,0:0:0:0:
448,192,36599,1,2,0:0:0:0:
448,192,36771,1,8,0:0:0:0:
64,192,36771,1,8,0:0:0:0:
192,192,36857,1,8,0:0:0:0:
320,192,36857,1,8,0:0:0:0:
64,192,36942,1,8,0:0:0:0:
448,192,36942,1,8,0:0:0:0:
192,192,37028,1,8,0:0:0:0:
320,192,37028,1,8,0:0:0:0:
64,192,37114,1,2,0:0:0:0:
448,192,37114,1,2,0:0:0:0:
192,192,37285,1,2,0:0:0:0:
448,192,37285,1,2,0:0:0:0:
320,192,37371,1,2,0:0:0:0:
64,192,37457,1,8,0:0:0:0:
192,192,37457,1,8,0:0:0:0:
448,192,37542,1,8,0:0:0:0:
320,192,37585,1,8,0:0:0:0:
192,192,37628,1,2,0:0:0:0:
64,192,37628,1,2,0:0:0:0:
320,192,37714,1,8,0:0:0:0:
448,192,37714,1,8,0:0:0:0:
64,192,37799,1,2,0:0:0:0:
192,192,37885,1,8,0:0:0:0:
448,192,37885,1,8,0:0:0:0:
64,192,37971,1,2,0:0:0:0:
320,192,38142,1,8,0:0:0:0:
448,192,38142,1,8,0:0:0:0:
192,192,38314,1,2,0:0:0:0:
448,192,38314,1,2,0:0:0:0:
64,192,38399,1,2,0:0:0:0:
320,192,38399,1,2,0:0:0:0:
192,192,38485,1,2,0:0:0:0:
448,192,38485,1,2,0:0:0:0:
192,192,38657,1,2,0:0:0:0:
64,192,38657,1,2,0:0:0:0:
192,192,38828,1,8,0:0:0:0:
448,192,38828,1,8,0:0:0:0:
448,192,38999,1,2,0:0:0:0:
192,192,39085,1,8,0:0:0:0:
64,192,39085,1,8,0:0:0:0:
448,192,39171,1,2,0:0:0:0:
192,192,39257,1,8,0:0:0:0:
64,192,39257,1,8,0:0:0:0:
320,192,39342,1,2,0:0:0:0:
64,192,39514,1,8,0:0:0:0:
448,192,39514,1,8,0:0:0:0:
320,192,39599,1,8,0:0:0:0:
192,192,39599,1,8,0:0:0:0:
448,192,39685,1,8,0:0:0:0:
64,192,39685,1,8,0:0:0:0:
192,192,39771,1,8,0:0:0:0:
320,192,39771,1,8,0:0:0:0:
64,192,39857,1,4,0:0:0:0:
448,192,39857,1,4,0:0:0:0:
64,192,40028,1,2,0:0:0:0:
448,192,40028,1,2,0:0:0:0:
192,192,40114,1,2,0:0:0:0:
320,192,40199,1,8,0:0:0:0:
448,192,40199,1,8,0:0:0:0:
64,192,40285,1,8,0:0:0:0:
192,192,40328,1,8,0:0:0:0:
320,192,40371,1,2,0:0:0:0:
448,192,40371,1,2,0:0:0:0:
192,192,40457,1,8,0:0:0:0:
64,192,40457,1,8,0:0:0:0:
448,192,40542,1,2,0:0:0:0:
64,192,40628,1,8,0:0:0:0:
320,192,40628,1,8,0:0:0:0:
448,192,40714,1,2,0:0:0:0:
192,192,40885,1,8,0:0:0:0:
64,192,40885,1,8,0:0:0:0:
320,192,41057,1,2,0:0:0:0:
64,192,41057,1,2,0:0:0:0:
192,192,41142,1,2,0:0:0:0:
448,192,41142,1,2,0:0:0:0:
320,192,41228,1,2,0:0:0:0:
64,192,41228,1,2,0:0:0:0:
192,192,41399,1,2,0:0:0:0:
64,192,41399,1,2,0:0:0:0:
192,192,41571,1,8,0:0:0:0:
448,192,41571,1,8,0:0:0:0:
320,192,41742,1,2,0:0:0:0:
192,192,41828,1,8,0:0:0:0:
64,192,41828,1,8,0:0:0:0:
320,192,41914,1,2,0:0:0:0:
192,192,41999,1,8,0:0:0:0:
64,192,41999,1,8,0:0:0:0:
448,192,42085,1,2,0:0:0:0:
192,192,42257,1,8,0:0:0:0:
64,192,42257,1,8,0:0:0:0:
320,192,42342,1,8,0:0:0:0:
448,192,42342,1,8,0:0:0:0:
192,192,42428,1,8,0:0:0:0:
64,192,42428,1,8,0:0:0:0:
320,192,42514,1,8,0:0:0:0:
448,192,42514,1,8,0:0:0:0:
64,192,42599,1,2,0:0:0:0:
192,192,42599,1,2,0:0:0:0:
448,192,42771,1,2,0:0:0:0:
320,192,42771,1,2,0:0:0:0:
192,192,42857,1,2,0:0:0:0:
64,192,42942,1,8,0:0:0:0:
448,192,42942,1,8,0:0:0:0:
320,192,43028,1,8,0:0:0:0:
192,192,43071,1,8,0:0:0:0:
448,192,43114,1,2,0:0:0:0:
64,192,43114,1,2,0:0:0:0:
320,192,43199,1,8,0:0:0:0:
192,192,43199,1,8,0:0:0:0:
64,192,43285,1,2,0:0:0:0:
192,192,43371,1,8,0:0:0:0:
448,192,43371,1,8,0:0:0:0:
64,192,43457,1,2,0:0:0:0:
192,192,43628,1,8,0:0:0:0:
448,192,43628,1,8,0:0:0:0:
192,192,43799,1,2,0:0:0:0:
64,192,43799,1,2,0:0:0:0:
320,192,43885,1,2,0:0:0:0:
448,192,43885,1,2,0:0:0:0:
192,192,43971,1,2,0:0:0:0:
64,192,43971,1,2,0:0:0:0:
448,192,44142,1,2,0:0:0:0:
64,192,44142,1,2,0:0:0:0:
192,192,44314,1,8,0:0:0:0:
320,192,44314,1,8,0:0:0:0:
64,192,44485,1,2,0:0:0:0:
192,192,44571,1,8,0:0:0:0:
448,192,44571,1,8,0:0:0:0:
64,192,44657,1,2,0:0:0:0:
192,192,44742,1,8,0:0:0:0:
448,192,44742,1,8,0:0:0:0:
320,192,44828,1,2,0:0:0:0:
64,192,44999,1,8,0:0:0:0:
192,192,44999,1,8,0:0:0:0:
320,192,45085,1,8,0:0:0:0:
448,192,45085,1,8,0:0:0:0:
192,192,45171,1,8,0:0:0:0:
64,192,45171,1,8,0:0:0:0:
320,192,45257,1,8,0:0:0:0:
448,192,45257,1,8,0:0:0:0:
192,192,45342,1,4,0:0:0:0:
64,192,45342,1,4,0:0:0:0:
448,192,45514,1,2,0:0:0:0:
64,192,45514,1,2,0:0:0:0:
192,192,45599,1,2,0:0:0:0:
64,192,45685,1,8,0:0:0:0:
448,192,45685,1,8,0:0:0:0:
320,192,45771,1,8,0:0:0:0:
192,192,45814,1,8,0:0:0:0:
64,192,45857,1,2,0:0:0:0:
448,192,45857,1,2,0:0:0:0:
320,192,45942,1,8,0:0:0:0:
192,192,45942,1,8,0:0:0:0:
64,192,46028,1,2,0:0:0:0:
192,192,46114,1,8,0:0:0:0:
448,192,46114,1,8,0:0:0:0:
64,192,46199,1,2,0:0:0:0:
192,192,46371,1,8,0:0:0:0:
448,192,46371,1,8,0:0:0:0:
448,192,46542,1,2,0:0:0:0:
64,192,46542,1,2,0:0:0:0:
192,192,46628,1,2,0:0:0:0:
320,192,46628,1,2,0:0:0:0:
64,192,46714,1,2,0:0:0:0:
448,192,46714,1,2,0:0:0:0:
192,192,46885,1,2,0:0:0:0:
448,192,46885,1,2,0:0:0:0:
64,192,47057,1,8,0:0:0:0:
320,192,47057,1,8,0:0:0:0:
64,192,47228,1,2,0:0:0:0:
320,192,47314,1,8,0:0:0:0:
448,192,47314,1,8,0:0:0:0:
192,192,47399,1,2,0:0:0:0:
448,192,47485,1,8,0:0:0:0:
320,192,47485,1,8,0:0:0:0:
64,192,47571,1,2,0:0:0:0:
320,192,47742,1,8,0:0:0:0:
448,192,47742,1,8,0:0:0:0:
192,192,47828,1,8,0:0:0:0:
64,192,47828,1,8,0:0:0:0:
320,192,47914,1,8,0:0:0:0:
448,192,47914,1,8,0:0:0:0:
192,192,47999,1,8,0:0:0:0:
64,192,47999,1,8,0:0:0:0:
320,192,48085,1,2,0:0:0:0:
448,192,48085,1,2,0:0:0:0:
64,192,48257,1,2,0:0:0:0:
448,192,48257,1,2,0:0:0:0:
192,192,48342,1,2,0:0:0:0:
320,192,48428,1,8,0:0:0:0:
64,192,48428,1,8,0:0:0:0:
448,192,48514,1,8,0:0:0:0:
320,192,48557,1,8,0:0:0:0:
192,192,48599,1,2,0:0:0:0:
64,192,48599,1,2,0:0:0:0:
320,192,48685,1,8,0:0:0:0:
448,192,48685,1,8,0:0:0:0:
192,192,48771,1,2,0:0:0:0:
64,192,48857,1,8,0:0:0:0:
448,192,48857,1,8,0:0:0:0:
320,192,48942,1,2,0:0:0:0:
448,192,49114,1,8,0:0:0:0:
192,192,49114,1,8,0:0:0:0:
192,192,49285,1,2,0:0:0:0:
64,192,49285,1,2,0:0:0:0:
320,192,49371,1,2,0:0:0:0:
448,192,49371,1,2,0:0:0:0:
64,192,49457,128,0,50142:0:0:0:0:
448,192,50142,1,10,0:0:0:0:
320,192,50142,128,0,50485:0:0:0:0:
192,192,50228,1,10,0:0:0:0:
448,192,50314,1,10,0:0:0:0:
192,192,50399,1,10,0:0:0:0:
448,192,50485,1,10,0:0:0:0:
64,192,50485,128,0,50828:0:0:0:0:
192,192,50571,1,10,0:0:0:0:
448,192,50657,1,10,0:0:0:0:
192,192,50742,1,10,0:0:0:0:
448,192,50828,1,4,0:0:0:0:
320,192,50828,1,4,0:0:0:0:
192,192,50999,1,2,0:0:0:0:
320,192,51171,1,8,0:0:0:0:
64,192,51171,1,8,0:0:0:0:
192,192,51342,1,2,0:0:0:0:
448,192,51514,1,2,0:0:0:0:
64,192,51685,1,2,0:0:0:0:
192,192,51771,1,2,0:0:0:0:
320,192,51857,1,8,0:0:0:0:
64,192,51857,1,8,0:0:0:0:
448,192,52028,1,2,0:0:0:0:
64,192,52199,1,2,0:0:0:0:
192,192,52371,1,2,0:0:0:0:
320,192,52542,1,8,0:0:0:0:
448,192,52542,1,8,0:0:0:0:
192,192,52714,1,2,0:0:0:0:
64,192,52885,1,2,0:0:0:0:
448,192,52885,1,2,0:0:0:0:
320,192,53057,1,2,0:0:0:0:
192,192,53142,1,2,0:0:0:0:
64,192,53228,1,8,0:0:0:0:
448,192,53228,1,8,0:0:0:0:
320,192,53314,1,8,0:0:0:0:
192,192,53314,1,8,0:0:0:0:
448,192,53399,1,2,0:0:0:0:
64,192,53399,1,2,0:0:0:0:
192,192,53485,1,8,0:0:0:0:
320,192,53485,1,8,0:0:0:0:
64,192,53571,1,2,0:0:0:0:
448,192,53571,1,2,0:0:0:0:
320,192,53742,1,2,0:0:0:0:
192,192,53914,1,8,0:0:0:0:
64,192,53914,1,8,0:0:0:0:
448,192,54085,1,2,0:0:0:0:
64,192,54257,1,2,0:0:0:0:
320,192,54257,1,2,0:0:0:0:
192,192,54428,1,2,0:0:0:0:
320,192,54514,1,2,0:0:0:0:
448,192,54599,1,8,0:0:0:0:
192,192,54599,1,8,0:0:0:0:
320,192,54771,1,2,0:0:0:0:
64,192,54771,1,2,0:0:0:0:
448,192,54942,1,2,0:0:0:0:
192,192,54942,1,2,0:0:0:0:
64,192,55114,1,2,0:0:0:0:
320,192,55285,1,8,0:0:0:0:
448,192,55285,1,8,0:0:0:0:
192,192,55457,1,2,0:0:0:0:
64,192,55628,1,2,0:0:0:0:
448,192,55628,1,2,0:0:0:0:
320,192,55799,1,2,0:0:0:0:
192,192,55885,1,2,0:0:0:0:
64,192,55971,1,8,0:0:0:0:
320,192,55971,1,8,0:0:0:0:
192,192,56057,1,8,0:0:0:0:
448,192,56057,1,8,0:0:0:0:
320,192,56142,1,2,0:0:0:0:
64,192,56142,1,2,0:0:0:0:
192,192,56228,1,8,0:0:0:0:
448,192,56228,1,8,0:0:0:0:
64,192,56314,1,2,0:0:0:0:
320,192,56314,1,2,0:0:0:0:
192,192,56399,1,2,0:0:0:0:
320,192,56485,1,2,0:0:0:0:
448,192,56657,1,8,0:0:0:0:
320,192,56657,1,8,0:0:0:0:
192,192,56828,1,2,0:0:0:0:
64,192,56999,1,2,0:0:0:0:
320,192,56999,1,2,0:0:0:0:
448,192,57171,1,2,0:0:0:0:
320,192,57257,1,2,0:0:0:0:
192,192,57342,1,8,0:0:0:0:
64,192,57342,1,8,0:0:0:0:
448,192,57514,1,2,0:0:0:0:
64,192,57514,1,2,0:0:0:0:
192,192,57599,1,2,0:0:0:0:
320,192,57685,1,2,0:0:0:0:
448,192,57685,1,2,0:0:0:0:
192,192,57771,1,2,0:0:0:0:
64,192,57857,1,2,0:0:0:0:
320,192,58028,1,8,0:0:0:0:
448,192,58028,1,8,0:0:0:0:
192,192,58199,1,2,0:0:0:0:
320,192,58285,1,2,0:0:0:0:
64,192,58371,1,2,0:0:0:0:
448,192,58371,1,2,0:0:0:0:
192,192,58542,1,2,0:0:0:0:
320,192,58628,1,2,0:0:0:0:
192,192,58714,1,8,0:0:0:0:
64,192,58714,1,8,0:0:0:0:
320,192,58799,1,8,0:0:0:0:
448,192,58799,1,8,0:0:0:0:
192,192,58885,1,2,0:0:0:0:
64,192,58885,1,2,0:0:0:0:
320,192,58971,1,8,0:0:0:0:
448,192,58971,1,8,0:0:0:0:
192,192,59057,1,2,0:0:0:0:
64,192,59057,1,2,0:0:0:0:
320,192,59142,1,2,0:0:0:0:
448,192,59228,1,2,0:0:0:0:
192,192,59399,1,8,0:0:0:0:
64,192,59399,1,8,0:0:0:0:
448,192,59571,1,2,0:0:0:0:
192,192,59657,1,2,0:0:0:0:
320,192,59742,1,2,0:0:0:0:
64,192,59742,1,2,0:0:0:0:
192,192,59914,1,2,0:0:0:0:
448,192,59999,1,2,0:0:0:0:
320,192,60085,1,8,0:0:0:0:
64,192,60085,1,8,0:0:0:0:
192,192,60257,1,2,0:0:0:0:
448,192,60257,1,2,0:0:0:0:
320,192,60342,1,2,0:0:0:0:
192,192,60428,1,2,0:0:0:0:
64,192,60428,1,2,0:0:0:0:
320,192,60514,1,2,0:0:0:0:
448,192,60599,1,2,0:0:0:0:
192,192,60771,1,8,0:0:0:0:
320,192,60771,1,8,0:0:0:0:
448,192,60942,1,2,0:0:0:0:
64,192,61114,1,2,0:0:0:0:
192,192,61114,1,2,0:0:0:0:
448,192,61285,1,2,0:0:0:0:
320,192,61371,1,2,0:0:0:0:
448,192,61457,1,8,0:0:0:0:
64,192,61457,1,8,0:0:0:0:
192,192,61542,1,8,0:0:0:0:
320,192,61542,1,8,0:0:0:0:
64,192,61628,1,2,0:0:0:0:
448,192,61628,1,2,0:0:0:0:
192,192,61714,1,8,0:0:0:0:
320,192,61714,1,8,0:0:0:0:
64,192,61799,128,4,63171:0:0:0:0:
448,192,61799,1,4,0:0:0:0:
320,192,61971,1,2,0:0:0:0:
192,192,62142,1,8,0:0:0:0:
448,192,62142,1,8,0:0:0:0:
320,192,62314,1,2,0:0:0:0:
320,192,62485,1,2,0:0:0:0:
192,192,62485,1,2,0:0:0:0:
448,192,62657,1,2,0:0:0:0:
320,192,62742,1,2,0:0:0:0:
448,192,62828,1,8,0:0:0:0:
192,192,62828,1,8,0:0:0:0:
192,192,62999,1,2,0:0:0:0:
448,192,63171,128,0,63857:0:0:0:0:
320,192,63171,1,2,0:0:0:0:
192,192,63342,1,2,0:0:0:0:
64,192,63514,1,8,0:0:0:0:
320,192,63514,1,8,0:0:0:0:
64,192,63685,1,2,0:0:0:0:
192,192,63857,128,0,64542:0:0:0:0:
320,192,63857,1,2,0:0:0:0:
448,192,64028,1,2,0:0:0:0:
320,192,64114,1,2,0:0:0:0:
64,192,64199,1,8,0:0:0:0:
448,192,64285,1,8,0:0:0:0:
320,192,64371,1,8,0:0:0:0:
448,192,64457,1,8,0:0:0:0:
320,192,64542,128,0,65914:0:0:0:0:
64,192,64542,1,8,0:0:0:0:
448,192,64714,1,2,0:0:0:0:
192,192,64885,1,8,0:0:0:0:
64,192,64885,1,8,0:0:0:0:
448,192,65057,1,2,0:0:0:0:
64,192,65228,1,2,0:0:0:0:
448,192,65228,1,2,0:0:0:0:
192,192,65399,1,2,0:0:0:0:
448,192,65485,1,2,0:0:0:0:
192,192,65571,1,8,0:0:0:0:
64,192,65571,1,8,0:0:0:0:
448,192,65742,1,2,0:0:0:0:
64,192,65914,128,0,66599:0:0:0:0:
192,192,65914,1,2,0:0:0:0:
448,192,66085,1,2,0:0:0:0:
320,192,66257,1,8,0:0:0:0:
192,192,66257,1,8,0:0:0:0:
448,192,66428,1,2,0:0:0:0:
448,192,66599,128,0,67285:0:0:0:0:
192,192,66599,1,2,0:0:0:0:
320,192,66771,5,2,0:0:0:0:
192,192,66857,5,2,0:0:0:0:
64,192,66942,1,8,0:0:0:0:
320,192,67028,1,8,0:0:0:0:
192,192,67114,1,2,0:0:0:0:
320,192,67199,1,8,0:0:0:0:
192,192,67285,128,0,68657:0:0:0:0:
64,192,67285,1,2,0:0:0:0:
320,192,67457,1,2,0:0:0:0:
448,192,67628,1,8,0:0:0:0:
64,192,67628,1,8,0:0:0:0:
320,192,67799,1,2,0:0:0:0:
448,192,67971,1,2,0:0:0:0:
320,192,67971,1,2,0:0:0:0:
64,192,68142,1,2,0:0:0:0:
320,192,68228,1,2,0:0:0:0:
448,192,68314,1,8,0:0:0:0:
64,192,68314,1,8,0:0:0:0:
320,192,68485,1,2,0:0:0:0:
448,192,68657,128,0,69342:0:0:0:0:
64,192,68657,1,2,0:0:0:0:
320,192,68828,1,2,0:0:0:0:
192,192,68999,1,8,0:0:0:0:
64,192,68999,1,8,0:0:0:0:
192,192,69171,1,2,0:0:0:0:
64,192,69342,128,0,70028:0:0:0:0:
320,192,69342,1,2,0:0:0:0:
192,192,69514,1,2,0:0:0:0:
448,192,69599,1,2,0:0:0:0:
320,192,69685,1,8,0:0:0:0:
192,192,69771,1,8,0:0:0:0:
448,192,69857,1,2,0:0:0:0:
192,192,69942,1,8,0:0:0:0:
448,192,70028,128,0,71399:0:0:0:0:
320,192,70028,1,2,0:0:0:0:
192,192,70199,1,2,0:0:0:0:
64,192,70371,1,8,0:0:0:0:
320,192,70371,1,8,0:0:0:0:
64,192,70542,1,2,0:0:0:0:
192,192,70714,1,2,0:0:0:0:
320,192,70714,1,2,0:0:0:0:
64,192,70885,1,2,0:0:0:0:
192,192,70971,1,2,0:0:0:0:
320,192,71057,1,8,0:0:0:0:
64,192,71057,1,8,0:0:0:0:
192,192,71228,1,2,0:0:0:0:
64,192,71399,1,2,0:0:0:0:
320,192,71399,1,2,0:0:0:0:
192,192,71571,1,2,0:0:0:0:
448,192,71742,1,8,0:0:0:0:
64,192,71742,1,8,0:0:0:0:
192,192,71914,1,2,0:0:0:0:
320,192,72085,1,2,0:0:0:0:
448,192,72085,1,2,0:0:0:0:
64,192,72257,128,0,72771:0:0:0:0:
192,192,72257,1,2,0:0:0:0:
320,192,72342,1,2,0:0:0:0:
448,192,72428,1,8,0:0:0:0:
192,192,72514,1,8,0:0:0:0:
448,192,72599,1,2,0:0:0:0:
320,192,72685,1,8,0:0:0:0:
448,192,72771,1,2,0:0:0:0:
192,192,72771,1,4,0:0:0:0:
320,192,72857,1,2,0:0:0:0:
192,192,72942,1,2,0:0:0:0:
448,192,73114,1,2,0:0:0:0:
64,192,73114,1,2,0:0:0:0:
192,192,73199,1,2,0:0:0:0:
320,192,73285,1,2,0:0:0:0:
192,192,73457,1,8,0:0:0:0:
448,192,73542,1,8,0:0:0:0:
320,192,73628,1,2,0:0:0:0:
192,192,73714,1,2,0:0:0:0:
64,192,73799,1,4,0:0:0:0:
320,192,73799,1,2,0:0:0:0:
448,192,73885,1,2,0:0:0:0:
320,192,73971,1,2,0:0:0:0:
64,192,74057,1,0,0:0:0:0:
192,192,74142,1,0,0:0:0:0:
320,192,74228,1,0,0:0:0:0:
192,192,74314,1,2,0:0:0:0:
320,192,74399,1,2,0:0:0:0:
448,192,74485,1,8,0:0:0:0:
64,192,74485,1,8,0:0:0:0:
192,192,74657,1,4,0:0:0:0:
320,192,74657,1,0,0:0:0:0:
448,192,74742,1,2,0:0:0:0:
320,192,74828,1,2,0:0:0:0:
64,192,74914,1,2,0:0:0:0:
448,192,74999,1,2,0:0:0:0:
320,192,75042,1,2,0:0:0:0:
192,192,75085,1,2,0:0:0:0:
64,192,75128,1,2,0:0:0:0:
448,192,75171,1,0,0:0:0:0:
320,192,75171,1,2,0:0:0:0:
192,192,75257,1,0,0:0:0:0:
64,192,75342,1,2,0:0:0:0:
448,192,75428,1,0,0:0:0:0:
192,192,75514,1,2,0:0:0:0:
64,192,75514,1,2,0:0:0:0:
320,192,75599,1,2,0:0:0:0:
448,192,75685,1,8,0:0:0:0:
64,192,75771,1,0,0:0:0:0:
448,192,75857,1,2,0:0:0:0:
192,192,75857,1,2,0:0:0:0:
320,192,75942,1,2,0:0:0:0:
64,192,76028,1,8,0:0:0:0:
448,192,76114,1,0,0:0:0:0:
64,192,76199,1,2,0:0:0:0:
192,192,76257,1,2,0:0:0:0:
448,192,76314,1,2,0:0:0:0:
320,192,76371,1,2,0:0:0:0:
64,192,76428,1,2,0:0:0:0:
448,192,76485,1,2,0:0:0:0:
192,192,76542,1,2,0:0:0:0:
320,192,76599,1,2,0:0:0:0:
448,192,76657,1,2,0:0:0:0:
64,192,76714,1,2,0:0:0:0:
320,192,76771,1,2,0:0:0:0:
192,192,76828,1,2,0:0:0:0:
64,192,76885,1,0,0:0:0:0:
448,192,76885,1,4,0:0:0:0:
320,192,76885,1,4,0:0:0:0:
448,192,77057,1,2,0:0:0:0:
192,192,77057,1,2,0:0:0:0:
64,192,77228,1,2,0:0:0:0:
320,192,77228,1,2,0:0:0:0:
448,192,77399,1,2,0:0:0:0:
192,192,77399,1,2,0:0:0:0:
64,192,77571,1,8,0:0:0:0:
192,192,77571,1,8,0:0:0:0:
320,192,77742,1,2,0:0:0:0:
448,192,77742,1,2,0:0:0:0:
192,192,77914,1,2,0:0:0:0:
64,192,77914,1,2,0:0:0:0:
320,192,78085,1,8,0:0:0:0:
448,192,78085,1,8,0:0:0:0:
192,192,78257,1,4,0:0:0:0:
64,192,78257,1,4,0:0:0:0:
320,192,78257,1,2,0:0:0:0:
320,192,78428,1,2,0:0:0:0:
192,192,78514,1,2,0:0:0:0:
64,192,78599,1,8,0:0:0:0:
448,192,78599,1,8,0:0:0:0:
192,192,78685,1,8,0:0:0:0:
320,192,78728,1,8,0:0:0:0:
448,192,78771,1,2,0:0:0:0:
64,192,78771,1,2,0:0:0:0:
192,192,78857,1,8,0:0:0:0:
320,192,78857,1,8,0:0:0:0:
64,192,78942,1,2,0:0:0:0:
192,192,79028,1,8,0:0:0:0:
448,192,79028,1,8,0:0:0:0:
320,192,79114,1,2,0:0:0:0:
192,192,79285,1,8,0:0:0:0:
448,192,79285,1,8,0:0:0:0:
192,192,79457,1,2,0:0:0:0:
64,192,79457,1,2,0:0:0:0:
320,192,79542,1,2,0:0:0:0:
448,192,79542,1,2,0:0:0:0:
192,192,79628,1,2,0:0:0:0:
64,192,79628,1,2,0:0:0:0:
192,192,79799,1,2,0:0:0:0:
448,192,79799,1,2,0:0:0:0:
64,192,79971,1,8,0:0:0:0:
320,192,79971,1,8,0:0:0:0:
192,192,80142,1,2,0:0:0:0:
64,192,80228,1,8,0:0:0:0:
320,192,80228,1,8,0:0:0:0:
448,192,80314,1,2,0:0:0:0:
64,192,80399,1,8,0:0:0:0:
320,192,80399,1,8,0:0:0:0:
192,192,80485,1,2,0:0:0:0:
192,192,80657,1,8,0:0:0:0:
64,192,80657,1,8,0:0:0:0:
448,192,80742,1,8,0:0:0:0:
320,192,80742,1,8,0:0:0:0:
192,192,80828,1,8,0:0:0:0:
64,192,80828,1,8,0:0:0:0:
320,192,80914,1,8,0:0:0:0:
448,192,80914,1,8,0:0:0:0:
192,192,80999,1,2,0:0:0:0:
64,192,80999,1,2,0:0:0:0:
448,192,81171,1,2,0:0:0:0:
64,192,81171,1,2,0:0:0:0:
320,192,81257,1,2,0:0:0:0:
64,192,81342,1,8,0:0:0:0:
448,192,81342,1,8,0:0:0:0:
192,192,81428,1,8,0:0:0:0:
320,192,81471,1,8,0:0:0:0:
448,192,81514,1,2,0:0:0:0:
64,192,81514,1,2,0:0:0:0:
192,192,81599,1,8,0:0:0:0:
320,192,81599,1,8,0:0:0:0:
64,192,81685,1,2,0:0:0:0:
448,192,81771,1,8,0:0:0:0:
320,192,81771,1,8,0:0:0:0:
64,192,81857,1,2,0:0:0:0:
320,192,82028,1,8,0:0:0:0:
448,192,82028,1,8,0:0:0:0:
64,192,82199,1,2,0:0:0:0:
448,192,82199,1,2,0:0:0:0:
320,192,82285,1,2,0:0:0:0:
192,192,82285,1,2,0:0:0:0:
448,192,82371,1,2,0:0:0:0:
64,192,82371,1,2,0:0:0:0:
192,192,82542,1,2,0:0:0:0:
320,192,82542,1,2,0:0:0:0:
448,192,82714,1,8,0:0:0:0:
64,192,82714,1,8,0:0:0:0:
448,192,82885,1,2,0:0:0:0:
192,192,82971,1,8,0:0:0:0:
64,192,82971,1,8,0:0:0:0:
320,192,83057,1,2,0:0:0:0:
64,192,83142,1,8,0:0:0:0:
192,192,83142,1,8,0:0:0:0:
320,192,83228,1,2,0:0:0:0:
64,192,83399,1,8,0:0:0:0:
320,192,83399,1,8,0:0:0:0:
192,192,83485,1,8,0:0:0:0:
448,192,83485,1,8,0:0:0:0:
64,192,83571,1,8,0:0:0:0:
320,192,83571,1,8,0:0:0:0:
192,192,83657,1,8,0:0:0:0:
448,192,83657,1,8,0:0:0:0:
320,192,83742,1,4,0:0:0:0:
64,192,83742,1,4,0:0:0:0:
448,192,83914,1,2,0:0:0:0:
320,192,83914,1,2,0:0:0:0:
64,192,83999,1,2,0:0:0:0:
320,192,84085,1,8,0:0:0:0:
448,192,84085,1,8,0:0:0:0:
64,192,84171,1,8,0:0:0:0:
192,192,84214,1,8,0:0:0:0:
320,192,84257,1,2,0:0:0:0:
448,192,84257,1,2,0:0:0:0:
64,192,84342,1,8,0:0:0:0:
192,192,84342,1,8,0:0:0:0:
320,192,84428,1,2,0:0:0:0:
192,192,84514,1,8,0:0:0:0:
448,192,84514,1,8,0:0:0:0:
320,192,84599,1,2,0:0:0:0:
448,192,84771,1,8,0:0:0:0:
192,192,84771,1,8,0:0:0:0:
448,192,84942,1,2,0:0:0:0:
64,192,84942,1,2,0:0:0:0:
192,192,85028,1,2,0:0:0:0:
320,192,85028,1,2,0:0:0:0:
64,192,85114,1,2,0:0:0:0:
448,192,85114,1,2,0:0:0:0:
64,192,85285,1,2,0:0:0:0:
192,192,85285,1,2,0:0:0:0:
64,192,85457,1,8,0:0:0:0:
448,192,85457,1,8,0:0:0:0:
320,192,85628,1,2,0:0:0:0:
192,192,85714,1,8,0:0:0:0:
64,192,85714,1,8,0:0:0:0:
448,192,85799,1,2,0:0:0:0:
192,192,85885,1,8,0:0:0:0:
64,192,85885,1,8,0:0:0:0:
320,192,85971,1,2,0:0:0:0:
320,192,86142,1,8,0:0:0:0:
64,192,86142,1,8,0:0:0:0:
448,192,86228,1,8,0:0:0:0:
192,192,86228,1,8,0:0:0:0:
320,192,86314,1,8,0:0:0:0:
64,192,86314,1,8,0:0:0:0:
192,192,86399,1,8,0:0:0:0:
448,192,86399,1,8,0:0:0:0:
64,192,86485,1,2,0:0:0:0:
320,192,86485,1,2,0:0:0:0:
448,192,86657,1,2,0:0:0:0:
320,192,86657,1,2,0:0:0:0:
192,192,86742,1,2,0:0:0:0:
320,192,86828,1,8,0:0:0:0:
448,192,86828,1,8,0:0:0:0:
64,192,86914,1,8,0:0:0:0:
192,192,86957,1,8,0:0:0:0:
320,192,86999,1,2,0:0:0:0:
448,192,86999,1,2,0:0:0:0:
64,192,87085,1,8,0:0:0:0:
192,192,87085,1,8,0:0:0:0:
320,192,87171,1,2,0:0:0:0:
64,192,87257,1,8,0:0:0:0:
448,192,87257,1,8,0:0:0:0:
320,192,87342,1,2,0:0:0:0:
448,192,87514,1,8,0:0:0:0:
64,192,87514,1,8,0:0:0:0:
448,192,87685,1,2,0:0:0:0:
320,192,87685,1,2,0:0:0:0:
192,192,87771,1,2,0:0:0:0:
64,192,87771,1,2,0:0:0:0:
320,192,87857,1,8,0:0:0:0:
448,192,87857,1,8,0:0:0:0:
64,192,88199,1,8,0:0:0:0:
192,192,88199,1,8,0:0:0:0:
64,192,88542,1,4,0:0:0:0:
448,192,88542,1,2,0:0:0:0:
320,192,88628,1,2,0:0:0:0:
64,192,88714,1,2,0:0:0:0:
192,192,88799,1,2,0:0:0:0:
320,192,88885,1,8,0:0:0:0:
448,192,88885,1,8,0:0:0:0:
192,192,88971,1,8,0:0:0:0:
64,192,88971,1,8,0:0:0:0:
320,192,89057,1,8,0:0:0:0:
448,192,89057,1,8,0:0:0:0:
192,192,89142,1,8,0:0:0:0:
64,192,89142,1,8,0:0:0:0:
320,192,89228,1,2,0:0:0:0:
448,192,89228,1,2,0:0:0:0:
320,192,89399,1,2,0:0:0:0:
448,192,89399,1,2,0:0:0:0:
64,192,89485,1,2,0:0:0:0:
320,192,89571,1,8,0:0:0:0:
448,192,89571,1,8,0:0:0:0:
64,192,89657,1,8,0:0:0:0:
192,192,89699,1,8,0:0:0:0:
448,192,89742,1,2,0:0:0:0:
320,192,89742,1,2,0:0:0:0:
192,192,89828,1,8,0:0:0:0:
64,192,89828,1,8,0:0:0:0:
448,192,89914,1,2,0:0:0:0:
320,192,89999,1,8,0:0:0:0:
64,192,89999,1,8,0:0:0:0:
448,192,90085,1,2,0:0:0:0:
320,192,90257,1,8,0:0:0:0:
64,192,90257,1,8,0:0:0:0:
320,192,90428,1,2,0:0:0:0:
448,192,90428,1,2,0:0:0:0:
192,192,90514,1,2,0:0:0:0:
64,192,90599,1,2,0:0:0:0:
448,192,90599,1,2,0:0:0:0:
192,192,90771,1,2,0:0:0:0:
64,192,90771,1,2,0:0:0:0:
64,192,90942,1,8,0:0:0:0:
448,192,90942,1,8,0:0:0:0:
192,192,91114,1,2,0:0:0:0:
320,192,91199,1,8,0:0:0:0:
448,192,91199,1,8,0:0:0:0:
64,192,91285,1,2,0:0:0:0:
320,192,91371,1,8,0:0:0:0:
448,192,91371,1,8,0:0:0:0:
192,192,91457,1,2,0:0:0:0:
320,192,91628,1,8,0:0:0:0:
448,192,91628,1,8,0:0:0:0:
192,192,91714,1,8,0:0:0:0:
64,192,91714,1,8,0:0:0:0:
320,192,91799,1,8,0:0:0:0:
448,192,91799,1,8,0:0:0:0:
192,192,91885,1,8,0:0:0:0:
64,192,91885,1,8,0:0:0:0:
320,192,91971,1,2,0:0:0:0:
448,192,91971,1,2,0:0:0:0:
192,192,92142,1,2,0:0:0:0:
448,192,92142,1,2,0:0:0:0:
320,192,92228,1,2,0:0:0:0:
64,192,92314,1,8,0:0:0:0:
448,192,92314,1,8,0:0:0:0:
192,192,92399,1,8,0:0:0:0:
320,192,92442,1,8,0:0:0:0:
448,192,92485,1,2,0:0:0:0:
64,192,92485,1,2,0:0:0:0:
320,192,92571,1,8,0:0:0:0:
192,192,92571,1,8,0:0:0:0:
448,192,92657,1,2,0:0:0:0:
64,192,92742,1,8,0:0:0:0:
192,192,92742,1,8,0:0:0:0:
448,192,92828,1,2,0:0:0:0:
64,192,92999,1,8,0:0:0:0:
320,192,92999,1,8,0:0:0:0:
64,192,93171,1,2,0:0:0:0:
192,192,93171,1,2,0:0:0:0:
320,192,93257,1,2,0:0:0:0:
448,192,93257,1,2,0:0:0:0:
64,192,93342,1,2,0:0:0:0:
192,192,93342,1,2,0:0:0:0:
192,192,93514,1,2,0:0:0:0:
64,192,93514,1,2,0:0:0:0:
192,192,93685,1,8,0:0:0:0:
320,192,93685,1,8,0:0:0:0:
448,192,93857,1,2,0:0:0:0:
192,192,93942,1,8,0:0:0:0:
64,192,93942,1,8,0:0:0:0:
320,192,94028,1,2,0:0:0:0:
192,192,94114,1,8,0:0:0:0:
64,192,94114,1,8,0:0:0:0:
320,192,94199,1,2,0:0:0:0:
64,192,94371,1,8,0:0:0:0:
320,192,94371,1,8,0:0:0:0:
192,192,94457,1,8,0:0:0:0:
448,192,94457,1,8,0:0:0:0:
320,192,94542,1,8,0:0:0:0:
64,192,94542,1,8,0:0:0:0:
192,192,94628,1,8,0:0:0:0:
448,192,94628,1,8,0:0:0:0:
320,192,94714,1,4,0:0:0:0:
64,192,94714,1,4,0:0:0:0:
320,192,94885,1,2,0:0:0:0:
448,192,94885,1,2,0:0:0:0:
192,192,94971,1,2,0:0:0:0:
64,192,95057,1,8,0:0:0:0:
320,192,95057,1,8,0:0:0:0:
448,192,95142,1,8,0:0:0:0:
320,192,95185,1,8,0:0:0:0:
192,192,95228,1,2,0:0:0:0:
64,192,95228,1,2,0:0:0:0:
320,192,95314,1,8,0:0:0:0:
448,192,95314,1,8,0:0:0:0:
192,192,95399,1,2,0:0:0:0:
64,192,95485,1,8,0:0:0:0:
448,192,95485,1,8,0:0:0:0:
192,192,95571,1,2,0:0:0:0:
64,192,95742,1,8,0:0:0:0:
320,192,95742,1,8,0:0:0:0:
192,192,95914,1,2,0:0:0:0:
64,192,95914,1,2,0:0:0:0:
320,192,95999,1,2,0:0:0:0:
448,192,95999,1,2,0:0:0:0:
192,192,96085,1,2,0:0:0:0:
64,192,96085,1,2,0:0:0:0:
64,192,96257,1,2,0:0:0:0:
448,192,96257,1,2,0:0:0:0:
192,192,96428,1,8,0:0:0:0:
64,192,96428,1,8,0:0:0:0:
192,192,96599,1,2,0:0:0:0:
64,192,96685,1,8,0:0:0:0:
448,192,96685,1,8,0:0:0:0:
320,192,96771,1,2,0:0:0:0:
64,192,96857,1,8,0:0:0:0:
448,192,96857,1,8,0:0:0:0:
320,192,96942,1,2,0:0:0:0:
448,192,97114,1,8,0:0:0:0:
320,192,97114,1,8,0:0:0:0:
192,192,97199,1,8,0:0:0:0:
64,192,97199,1,8,0:0:0:0:
320,192,97285,1,8,0:0:0:0:
448,192,97285,1,8,0:0:0:0:
192,192,97371,1,8,0:0:0:0:
64,192,97371,1,8,0:0:0:0:
320,192,97457,1,2,0:0:0:0:
448,192,97457,1,2,0:0:0:0:
64,192,97628,1,2,0:0:0:0:
320,192,97628,1,2,0:0:0:0:
448,192,97714,1,2,0:0:0:0:
320,192,97799,1,8,0:0:0:0:
192,192,97799,1,8,0:0:0:0:
64,192,97885,1,8,0:0:0:0:
192,192,97928,1,8,0:0:0:0:
448,192,97971,1,2,0:0:0:0:
320,192,97971,1,2,0:0:0:0:
192,192,98057,1,8,0:0:0:0:
64,192,98057,1,8,0:0:0:0:
320,192,98142,1,2,0:0:0:0:
448,192,98228,1,8,0:0:0:0:
64,192,98228,1,8,0:0:0:0:
192,192,98314,1,2,0:0:0:0:
192,192,98485,1,8,0:0:0:0:
448,192,98485,1,8,0:0:0:0:
192,192,98657,1,2,0:0:0:0:
448,192,98657,1,2,0:0:0:0:
320,192,98742,1,2,0:0:0:0:
64,192,98742,1,2,0:0:0:0:
448,192,98828,1,2,0:0:0:0:
192,192,98828,1,2,0:0:0:0:
64,192,98999,1,2,0:0:0:0:
320,192,98999,1,2,0:0:0:0:
448,192,99171,1,8,0:0:0:0:
192,192,99171,1,8,0:0:0:0:
64,192,99342,1,2,0:0:0:0:
320,192,99428,1,8,0:0:0:0:
448,192,99428,1,8,0:0:0:0:
64,192,99514,1,2,0:0:0:0:
448,192,99599,1,8,0:0:0:0:
192,192,99599,1,8,0:0:0:0:
320,192,99685,1,2,0:0:0:0:
448,192,99771,1,8,0:0:0:0:
192,192,99771,1,8,0:0:0:0:
320,192,99857,1,8,0:0:0:0:
64,192,99857,1,8,0:0:0:0:
192,192,99942,1,8,0:0:0:0:
448,192,99942,1,8,0:0:0:0:
320,192,100028,1,8,0:0:0:0:
64,192,100028,1,8,0:0:0:0:
192,192,100114,1,8,0:0:0:0:
448,192,100114,1,8,0:0:0:0:
320,192,100199,1,4,0:0:0:0:
64,192,100199,1,4,0:0:0:0:
320,192,100371,1,2,0:0:0:0:
448,192,100371,1,2,0:0:0:0:
64,192,100457,1,2,0:0:0:0:
192,192,100542,1,8,0:0:0:0:
320,192,100542,1,8,0:0:0:0:
448,192,100628,1,8,0:0:0:0:
320,192,100671,1,8,0:0:0:0:
64,192,100714,1,2,0:0:0:0:
192,192,100714,1,2,0:0:0:0:
448,192,100799,1,8,0:0:0:0:
320,192,100799,1,8,0:0:0:0:
64,192,100885,1,2,0:0:0:0:
320,192,100971,1,8,0:0:0:0:
192,192,100971,1,8,0:0:0:0:
64,192,101057,1,2,0:0:0:0:
192,192,101228,1,8,0:0:0:0:
448,192,101228,1,8,0:0:0:0:
192,192,101399,1,2,0:0:0:0:
64,192,101399,1,2,0:0:0:0:
448,192,101485,1,2,0:0:0:0:
320,192,101485,1,2,0:0:0:0:
64,192,101571,1,2,0:0:0:0:
192,192,101571,1,2,0:0:0:0:
448,192,101742,1,2,0:0:0:0:
192,192,101742,1,2,0:0:0:0:
320,192,101914,1,8,0:0:0:0:
448,192,101914,1,8,0:0:0:0:
64,192,102085,1,2,0:0:0:0:
192,192,102171,1,8,0:0:0:0:
448,192,102171,1,8,0:0:0:0:
64,192,102257,1,2,0:0:0:0:
192,192,102342,1,8,0:0:0:0:
448,192,102342,1,8,0:0:0:0:
320,192,102428,1,2,0:0:0:0:
192,192,102599,1,8,0:0:0:0:
64,192,102599,1,8,0:0:0:0:
320,192,102685,1,8,0:0:0:0:
448,192,102685,1,8,0:0:0:0:
192,192,102771,1,8,0:0:0:0:
64,192,102771,1,8,0:0:0:0:
320,192,102857,1,8,0:0:0:0:
448,192,102857,1,8,0:0:0:0:
192,192,102942,1,2,0:0:0:0:
64,192,102942,1,2,0:0:0:0:
320,192,103114,1,2,0:0:0:0:
448,192,103114,1,2,0:0:0:0:
192,192,103199,1,2,0:0:0:0:
64,192,103285,1,8,0:0:0:0:
448,192,103285,1,8,0:0:0:0:
192,192,103371,1,8,0:0:0:0:
320,192,103414,1,8,0:0:0:0:
448,192,103457,1,2,0:0:0:0:
64,192,103457,1,2,0:0:0:0:
320,192,103542,1,8,0:0:0:0:
192,192,103542,1,8,0:0:0:0:
64,192,103628,1,2,0:0:0:0:
192,192,103714,1,8,0:0:0:0:
448,192,103714,1,8,0:0:0:0:
64,192,103799,1,2,0:0:0:0:
320,192,103971,1,8,0:0:0:0:
448,192,103971,1,8,0:0:0:0:
320,192,104142,1,2,0:0:0:0:
448,192,104142,1,2,0:0:0:0:
64,192,104228,1,2,0:0:0:0:
192,192,104228,1,2,0:0:0:0:
448,192,104314,1,2,0:0:0:0:
320,192,104314,1,2,0:0:0:0:
64,192,104485,1,2,0:0:0:0:
320,192,104485,1,2,0:0:0:0:
192,192,104657,1,8,0:0:0:0:
64,192,104657,1,8,0:0:0:0:
64,192,104828,1,2,0:0:0:0:
192,192,104914,1,8,0:0:0:0:
320,192,104914,1,8,0:0:0:0:
64,192,104999,1,2,0:0:0:0:
192,192,105085,1,8,0:0:0:0:
320,192,105085,1,8,0:0:0:0:
448,192,105171,1,2,0:0:0:0:
192,192,105342,1,8,0:0:0:0:
64,192,105342,1,8,0:0:0:0:
320,192,105428,1,8,0:0:0:0:
448,192,105428,1,8,0:0:0:0:
192,192,105514,1,8,0:0:0:0:
64,192,105514,1,8,0:0:0:0:
320,192,105599,1,8,0:0:0:0:
448,192,105599,1,8,0:0:0:0:
64,192,105685,1,4,0:0:0:0:
192,192,105685,1,4,0:0:0:0:
320,192,105857,1,2,0:0:0:0:
64,192,105857,1,2,0:0:0:0:
192,192,105942,1,2,0:0:0:0:
320,192,106028,1,8,0:0:0:0:
448,192,106028,1,8,0:0:0:0:
64,192,106114,1,8,0:0:0:0:
192,192,106157,1,8,0:0:0:0:
448,192,106199,1,2,0:0:0:0:
320,192,106199,1,2,0:0:0:0:
64,192,106285,1,8,0:0:0:0:
192,192,106285,1,8,0:0:0:0:
448,192,106371,1,2,0:0:0:0:
320,192,106457,1,8,0:0:0:0:
64,192,106457,1,8,0:0:0:0:
448,192,106542,1,2,0:0:0:0:
320,192,106714,1,8,0:0:0:0:
64,192,106714,1,8,0:0:0:0:
320,192,106885,1,2,0:0:0:0:
448,192,106885,1,2,0:0:0:0:
192,192,106971,1,2,0:0:0:0:
64,192,106971,1,2,0:0:0:0:
320,192,107057,1,2,0:0:0:0:
448,192,107057,1,2,0:0:0:0:
64,192,107228,1,2,0:0:0:0:
448,192,107228,1,2,0:0:0:0:
192,192,107399,1,8,0:0:0:0:
448,192,107399,1,8,0:0:0:0:
64,192,107571,1,2,0:0:0:0:
320,192,107657,1,8,0:0:0:0:
448,192,107657,1,8,0:0:0:0:
192,192,107742,1,2,0:0:0:0:
320,192,107828,1,8,0:0:0:0:
448,192,107828,1,8,0:0:0:0:
64,192,107914,1,2,0:0:0:0:
192,192,108085,1,8,0:0:0:0:
448,192,108085,1,8,0:0:0:0:
320,192,108171,1,8,0:0:0:0:
64,192,108171,1,8,0:0:0:0:
192,192,108257,1,8,0:0:0:0:
448,192,108257,1,8,0:0:0:0:
320,192,108342,1,8,0:0:0:0:
64,192,108342,1,8,0:0:0:0:
192,192,108428,1,2,0:0:0:0:
448,192,108428,1,2,0:0:0:0:
320,192,108599,1,2,0:0:0:0:
64,192,108599,1,2,0:0:0:0:
192,192,108685,1,2,0:0:0:0:
320,192,108771,1,8,0:0:0:0:
448,192,108771,1,8,0:0:0:0:
64,192,108857,1,8,0:0:0:0:
192,192,108899,1,8,0:0:0:0:
320,192,108942,1,2,0:0:0:0:
448,192,108942,1,2,0:0:0:0:
192,192,109028,1,8,0:0:0:0:
64,192,109028,1,8,0:0:0:0:
320,192,109114,1,2,0:0:0:0:
64,192,109199,1,8,0:0:0:0:
192,192,109199,1,8,0:0:0:0:
320,192,109285,1,2,0:0:0:0:
448,192,109457,1,8,0:0:0:0:
64,192,109457,1,8,0:0:0:0:
320,192,109628,1,2,0:0:0:0:
192,192,109628,1,2,0:0:0:0:
64,192,109714,1,2,0:0:0:0:
448,192,109714,1,2,0:0:0:0:
320,192,109799,1,2,0:0:0:0:
192,192,109799,1,2,0:0:0:0:
192,192,109971,1,2,0:0:0:0:
448,192,109971,1,2,0:0:0:0:
320,192,110142,1,8,0:0:0:0:
64,192,110142,1,8,0:0:0:0:
320,192,110314,1,2,0:0:0:0:
448,192,110399,1,8,0:0:0:0:
192,192,110399,1,8,0:0:0:0:
320,192,110485,1,2,0:0:0:0:
192,192,110571,1,8,0:0:0:0:
64,192,110571,1,8,0:0:0:0:
448,192,110657,1,2,0:0:0:0:
192,192,110828,1,8,0:0:0:0:
64,192,110828,1,8,0:0:0:0:
448,192,110914,1,8,0:0:0:0:
320,192,110914,1,8,0:0:0:0:
192,192,110999,1,8,0:0:0:0:
64,192,110999,1,8,0:0:0:0:
320,192,111085,1,8,0:0:0:0:
448,192,111085,1,8,0:0:0:0:
192,192,111171,1,4,0:0:0:0:
64,192,111171,1,4,0:0:0:0:
448,192,111342,1,2,0:0:0:0:
64,192,111342,1,2,0:0:0:0:
320,192,111428,1,2,0:0:0:0:
448,192,111514,1,8,0:0:0:0:
192,192,111514,1,8,0:0:0:0:
64,192,111599,1,8,0:0:0:0:
192,192,111642,1,8,0:0:0:0:
320,192,111685,1,2,0:0:0:0:
448,192,111685,1,2,0:0:0:0:
64,192,111771,1,8,0:0:0:0:
192,192,111771,1,8,0:0:0:0:
320,192,111857,1,2,0:0:0:0:
64,192,111942,1,8,0:0:0:0:
448,192,111942,1,8,0:0:0:0:
320,192,112028,1,2,0:0:0:0:
192,192,112199,1,8,0:0:0:0:
448,192,112199,1,8,0:0:0:0:
448,192,112371,1,2,0:0:0:0:
64,192,112371,1,2,0:0:0:0:
192,192,112457,1,2,0:0:0:0:
320,192,112457,1,2,0:0:0:0:
448,192,112542,1,2,0:0:0:0:
64,192,112542,1,2,0:0:0:0:
448,192,112714,1,2,0:0:0:0:
320,192,112714,1,2,0:0:0:0:
64,192,112885,1,8,0:0:0:0:
320,192,112885,1,8,0:0:0:0:
192,192,113057,1,2,0:0:0:0:
64,192,113142,1,8,0:0:0:0:
448,192,113142,1,8,0:0:0:0:
192,192,113228,1,2,0:0:0:0:
64,192,113314,1,8,0:0:0:0:
448,192,113314,1,8,0:0:0:0:
320,192,113399,1,2,0:0:0:0:
64,192,113571,1,8,0:0:0:0:
320,192,113571,1,8,0:0:0:0:
448,192,113657,1,8,0:0:0:0:
192,192,113657,1,8,0:0:0:0:
320,192,113742,1,8,0:0:0:0:
64,192,113742,1,8,0:0:0:0:
192,192,113828,1,8,0:0:0:0:
448,192,113828,1,8,0:0:0:0:
320,192,113914,1,2,0:0:0:0:
64,192,113914,1,2,0:0:0:0:
448,192,114085,1,2,0:0:0:0:
64,192,114085,1,2,0:0:0:0:
320,192,114171,1,2,0:0:0:0:
192,192,114257,1,8,0:0:0:0:
64,192,114257,1,8,0:0:0:0:
448,192,114342,1,8,0:0:0:0:
320,192,114385,1,8,0:0:0:0:
192,192,114428,1,2,0:0:0:0:
64,192,114428,1,2,0:0:0:0:
320,192,114514,1,8,0:0:0:0:
448,192,114514,1,8,0:0:0:0:
192,192,114599,1,2,0:0:0:0:
64,192,114685,1,8,0:0:0:0:
448,192,114685,1,8,0:0:0:0:
192,192,114771,1,2,0:0:0:0:
192,192,114942,1,8,0:0:0:0:
448,192,114942,1,8,0:0:0:0:
64,192,115114,1,2,0:0:0:0:
192,192,115114,1,2,0:0:0:0:
448,192,115199,1,2,0:0:0:0:
320,192,115199,1,2,0:0:0:0:
192,192,115285,1,2,0:0:0:0:
64,192,115285,1,2,0:0:0:0:
448,192,115457,1,2,0:0:0:0:
192,192,115457,1,2,0:0:0:0:
320,192,115628,1,8,0:0:0:0:
448,192,115628,1,8,0:0:0:0:
320,192,115799,1,2,0:0:0:0:
192,192,115885,1,8,0:0:0:0:
64,192,115885,1,8,0:0:0:0:
448,192,115971,1,2,0:0:0:0:
192,192,116057,1,8,0:0:0:0:
64,192,116057,1,8,0:0:0:0:
448,192,116142,1,2,0:0:0:0:
64,192,116314,1,8,0:0:0:0:
448,192,116314,1,8,0:0:0:0:
320,192,116399,1,8,0:0:0:0:
192,192,116399,1,8,0:0:0:0:
64,192,116485,1,8,0:0:0:0:
448,192,116485,1,8,0:0:0:0:
320,192,116571,1,8,0:0:0:0:
192,192,116571,1,8,0:0:0:0:
64,192,116657,1,4,0:0:0:0:
448,192,116657,1,4,0:0:0:0:
192,192,116828,1,2,0:0:0:0:
448,192,116828,1,2,0:0:0:0:
320,192,116914,1,2,0:0:0:0:
192,192,116999,1,8,0:0:0:0:
64,192,116999,1,8,0:0:0:0:
448,192,117085,1,8,0:0:0:0:
320,192,117128,1,8,0:0:0:0:
192,192,117171,1,2,0:0:0:0:
64,192,117171,1,2,0:0:0:0:
320,192,117257,1,8,0:0:0:0:
448,192,117257,1,8,0:0:0:0:
64,192,117342,1,2,0:0:0:0:
192,192,117428,1,8,0:0:0:0:
448,192,117428,1,8,0:0:0:0:
64,192,117514,1,2,0:0:0:0:
192,192,117685,1,8,0:0:0:0:
448,192,117685,1,8,0:0:0:0:
192,192,117857,1,2,0:0:0:0:
64,192,117857,1,2,0:0:0:0:
320,192,117942,1,2,0:0:0:0:
448,192,117942,1,2,0:0:0:0:
192,192,118028,1,2,0:0:0:0:
64,192,118028,1,2,0:0:0:0:
448,192,118199,1,2,0:0:0:0:
192,192,118199,1,2,0:0:0:0:
320,192,118371,1,8,0:0:0:0:
448,192,118371,1,8,0:0:0:0:
64,192,118542,1,2,0:0:0:0:
192,192,118628,1,8,0:0:0:0:
448,192,118628,1,8,0:0:0:0:
320,192,118714,1,2,0:0:0:0:
192,192,118799,1,8,0:0:0:0:
448,192,118799,1,8,0:0:0:0:
64,192,118885,1,2,0:0:0:0:
320,192,119057,1,8,0:0:0:0:
448,192,119057,1,8,0:0:0:0:
192,192,119142,1,8,0:0:0:0:
64,192,119142,1,8,0:0:0:0:
320,192,119228,1,8,0:0:0:0:
448,192,119228,1,8,0:0:0:0:
192,192,119314,1,8,0:0:0:0:
64,192,119314,1,8,0:0:0:0:
320,192,119399,1,2,0:0:0:0:
448,192,119399,1,2,0:0:0:0:
64,192,119571,1,2,0:0:0:0:
320,192,119571,1,2,0:0:0:0:
448,192,119657,1,2,0:0:0:0:
320,192,119742,1,8,0:0:0:0:
192,192,119742,1,8,0:0:0:0:
64,192,119828,1,8,0:0:0:0:
192,192,119871,1,8,0:0:0:0:
320,192,119914,1,2,0:0:0:0:
448,192,119914,1,2,0:0:0:0:
64,192,119999,1,8,0:0:0:0:
192,192,119999,1,8,0:0:0:0:
320,192,120085,1,2,0:0:0:0:
192,192,120171,1,8,0:0:0:0:
64,192,120171,1,8,0:0:0:0:
448,192,120257,1,2,0:0:0:0:
320,192,120428,1,8,0:0:0:0:
64,192,120428,1,8,0:0:0:0:
320,192,120599,1,2,0:0:0:0:
192,192,120599,1,2,0:0:0:0:
64,192,120685,1,2,0:0:0:0:
448,192,120685,1,2,0:0:0:0:
192,192,120771,1,2,0:0:0:0:
320,192,120771,1,2,0:0:0:0:
192,192,120942,1,2,0:0:0:0:
448,192,120942,1,2,0:0:0:0:
192,192,121114,1,8,0:0:0:0:
64,192,121114,1,8,0:0:0:0:
320,192,121285,1,2,0:0:0:0:
192,192,121371,1,8,0:0:0:0:
448,192,121371,1,8,0:0:0:0:
320,192,121457,1,2,0:0:0:0:
192,192,121542,1,8,0:0:0:0:
448,192,121542,1,8,0:0:0:0:
64,192,121628,1,2,0:0:0:0:
448,192,121799,1,8,0:0:0:0:
320,192,121799,1,8,0:0:0:0:
192,192,121885,1,8,0:0:0:0:
64,192,121885,1,8,0:0:0:0:
320,192,121971,1,8,0:0:0:0:
448,192,121971,1,8,0:0:0:0:
192,192,122057,1,8,0:0:0:0:
64,192,122057,1,8,0:0:0:0:
320,192,122142,1,4,0:0:0:0:
448,192,122142,1,4,0:0:0:0:
448,192,122314,1,2,0:0:0:0:
64,192,122314,1,2,0:0:0:0:
192,192,122399,1,2,0:0:0:0:
64,192,122485,1,8,0:0:0:0:
320,192,122485,1,8,0:0:0:0:
448,192,122571,1,8,0:0:0:0:
320,192,122614,1,8,0:0:0:0:
192,192,122657,1,2,0:0:0:0:
64,192,122657,1,2,0:0:0:0:
320,192,122742,1,8,0:0:0:0:
448,192,122742,1,8,0:0:0:0:
192,192,122828,1,2,0:0:0:0:
64,192,122914,1,8,0:0:0:0:
320,192,122914,1,8,0:0:0:0:
192,192,122999,1,2,0:0:0:0:
320,192,123171,1,8,0:0:0:0:
64,192,123171,1,8,0:0:0:0:
320,192,123342,1,2,0:0:0:0:
448,192,123342,1,2,0:0:0:0:
192,192,123428,1,2,0:0:0:0:
64,192,123428,1,2,0:0:0:0:
320,192,123514,1,2,0:0:0:0:
448,192,123514,1,2,0:0:0:0:
192,192,123685,1,2,0:0:0:0:
320,192,123685,1,2,0:0:0:0:
320,192,123857,1,8,0:0:0:0:
64,192,123857,1,8,0:0:0:0:
448,192,124028,1,2,0:0:0:0:
192,192,124114,1,8,0:0:0:0:
64,192,124114,1,8,0:0:0:0:
320,192,124199,1,2,0:0:0:0:
192,192,124285,1,8,0:0:0:0:
64,192,124285,1,8,0:0:0:0:
448,192,124371,1,2,0:0:0:0:
64,192,124542,1,8,0:0:0:0:
320,192,124542,1,8,0:0:0:0:
448,192,124628,1,8,0:0:0:0:
192,192,124628,1,8,0:0:0:0:
320,192,124714,1,8,0:0:0:0:
64,192,124714,1,8,0:0:0:0:
192,192,124799,1,8,0:0:0:0:
448,192,124799,1,8,0:0:0:0:
320,192,124885,1,2,0:0:0:0:
64,192,124885,1,2,0:0:0:0:
192,192,125057,1,2,0:0:0:0:
64,192,125057,1,2,0:0:0:0:
320,192,125142,1,2,0:0:0:0:
448,192,125228,1,8,0:0:0:0:
64,192,125228,1,8,0:0:0:0:
320,192,125314,1,8,0:0:0:0:
448,192,125357,1,8,0:0:0:0:
192,192,125399,1,2,0:0:0:0:
64,192,125399,1,2,0:0:0:0:
320,192,125485,1,8,0:0:0:0:
448,192,125485,1,8,0:0:0:0:
192,192,125571,1,2,0:0:0:0:
64,192,125657,1,8,0:0:0:0:
448,192,125657,1,8,0:0:0:0:
192,192,125742,1,2,0:0:0:0:
64,192,125914,1,8,0:0:0:0:
320,192,125914,1,8,0:0:0:0:
320,192,126085,1,2,0:0:0:0:
448,192,126085,1,2,0:0:0:0:
192,192,126171,1,2,0:0:0:0:
64,192,126171,1,2,0:0:0:0:
320,192,126257,1,2,0:0:0:0:
448,192,126257,1,2,0:0:0:0:
192,192,126428,1,2,0:0:0:0:
448,192,126428,1,2,0:0:0:0:
192,192,126599,1,8,0:0:0:0:
64,192,126599,1,8,0:0:0:0:
64,192,126771,1,2,0:0:0:0:
320,192,126857,1,8,0:0:0:0:
448,192,126857,1,8,0:0:0:0:
64,192,126942,1,2,0:0:0:0:
320,192,127028,1,8,0:0:0:0:
448,192,127028,1,8,0:0:0:0:
192,192,127114,1,2,0:0:0:0:
448,192,127285,1,8,0:0:0:0:
64,192,127285,1,8,0:0:0:0:
192,192,127371,1,8,0:0:0:0:
320,192,127371,1,8,0:0:0:0:
64,192,127457,1,8,0:0:0:0:
448,192,127457,1,8,0:0:0:0:
320,192,127542,1,8,0:0:0:0:
192,192,127542,1,8,0:0:0:0:
64,192,127628,1,4,0:0:0:0:
448,192,127628,1,4,0:0:0:0:
192,192,127799,1,2,0:0:0:0:
64,192,127799,1,2,0:0:0:0:
448,192,127885,1,2,0:0:0:0:
192,192,127971,1,8,0:0:0:0:
64,192,127971,1,8,0:0:0:0:
448,192,128057,1,8,0:0:0:0:
320,192,128099,1,8,0:0:0:0:
192,192,128142,1,2,0:0:0:0:
64,192,128142,1,2,0:0:0:0:
320,192,128228,1,8,0:0:0:0:
448,192,128228,1,8,0:0:0:0:
192,192,128314,1,2,0:0:0:0:
64,192,128399,1,8,0:0:0:0:
320,192,128399,1,8,0:0:0:0:
448,192,128485,1,2,0:0:0:0:
64,192,128657,1,8,0:0:0:0:
448,192,128657,1,8,0:0:0:0:
192,192,128828,1,2,0:0:0:0:
64,192,128828,1,2,0:0:0:0:
320,192,128914,1,2,0:0:0:0:
448,192,128914,1,2,0:0:0:0:
192,192,128999,1,2,0:0:0:0:
64,192,128999,1,2,0:0:0:0:
192,192,129171,1,2,0:0:0:0:
448,192,129171,1,2,0:0:0:0:
192,192,129342,1,8,0:0:0:0:
320,192,129342,1,8,0:0:0:0:
320,192,129514,1,2,0:0:0:0:
192,192,129599,1,8,0:0:0:0:
448,192,129599,1,8,0:0:0:0:
64,192,129685,1,2,0:0:0:0:
192,192,129771,1,8,0:0:0:0:
448,192,129771,1,8,0:0:0:0:
64,192,129857,1,2,0:0:0:0:
320,192,130028,1,8,0:0:0:0:
448,192,130028,1,8,0:0:0:0:
192,192,130114,1,8,0:0:0:0:
64,192,130114,1,8,0:0:0:0:
320,192,130199,1,8,0:0:0:0:
448,192,130199,1,8,0:0:0:0:
192,192,130285,1,8,0:0:0:0:
64,192,130285,1,8,0:0:0:0:
320,192,130371,1,2,0:0:0:0:
448,192,130371,1,2,0:0:0:0:
64,192,130542,1,2,0:0:0:0:
448,192,130542,1,2,0:0:0:0:
320,192,130628,1,2,0:0:0:0:
192,192,130714,1,8,0:0:0:0:
448,192,130714,1,8,0:0:0:0:
320,192,130799,1,8,0:0:0:0:
192,192,130842,1,8,0:0:0:0:
64,192,130885,1,2,0:0:0:0:
448,192,130885,1,2,0:0:0:0:
192,192,130971,1,8,0:0:0:0:
320,192,130971,1,8,0:0:0:0:
64,192,131057,1,2,0:0:0:0:
192,192,131142,1,8,0:0:0:0:
448,192,131142,1,8,0:0:0:0:
64,192,131228,1,2,0:0:0:0:
192,192,131399,1,8,0:0:0:0:
448,192,131399,1,8,0:0:0:0:
192,192,131571,1,2,0:0:0:0:
64,192,131571,1,2,0:0:0:0:
320,192,131657,1,2,0:0:0:0:
448,192,131657,1,2,0:0:0:0:
192,192,131742,1,2,0:0:0:0:
64,192,131742,1,2,0:0:0:0:
320,192,131914,1,2,0:0:0:0:
64,192,131914,1,2,0:0:0:0:
448,192,132085,1,8,0:0:0:0:
320,192,132085,1,8,0:0:0:0:
64,192,132257,1,2,0:0:0:0:
448,192,132342,1,8,0:0:0:0:
192,192,132342,1,8,0:0:0:0:
64,192,132428,1,2,0:0:0:0:
192,192,132514,1,8,0:0:0:0:
448,192,132514,1,8,0:0:0:0:
320,192,132599,1,2,0:0:0:0:
64,192,132685,1,2,0:0:0:0:
448,192,132771,1,8,0:0:0:0:
320,192,132771,1,8,0:0:0:0:
192,192,132857,1,8,0:0:0:0:
64,192,132857,1,8,0:0:0:0:
320,192,132942,1,8,0:0:0:0:
448,192,132942,1,8,0:0:0:0:
192,192,133028,1,8,0:0:0:0:
64,192,133028,1,8,0:0:0:0:
448,192,133114,1,2,0:0:0:0:
320,192,133114,1,2,0:0:0:0:
64,192,133285,1,2,0:0:0:0:
192,192,133285,1,2,0:0:0:0:
448,192,134142,1,2,0:0:0:0:
192,192,134142,1,2,0:0:0:0:
320,192,134314,1,2,0:0:0:0:
64,192,134314,1,2,0:0:0:0:
192,192,134485,1,2,0:0:0:0:
448,192,134485,1,4,0:0:0:0:
64,192,134485,1,4,0:0:0:0:
192,192,134657,1,2,0:0:0:0:
448,192,134828,1,8,0:0:0:0:
64,192,134828,1,8,0:0:0:0:
320,192,134999,1,2,0:0:0:0:
192,192,135171,1,2,0:0:0:0:
64,192,135171,1,2,0:0:0:0:
448,192,135342,1,2,0:0:0:0:
320,192,135428,1,2,0:0:0:0:
192,192,135514,1,8,0:0:0:0:
64,192,135514,1,8,0:0:0:0:
320,192,135599,1,8,0:0:0:0:
448,192,135599,1,8,0:0:0:0:
192,192,135685,1,2,0:0:0:0:
64,192,135685,1,2,0:0:0:0:
320,192,135771,1,8,0:0:0:0:
448,192,135771,1,8,0:0:0:0:
192,192,135857,1,2,0:0:0:0:
64,192,135857,1,2,0:0:0:0:
320,192,136028,1,2,0:0:0:0:
448,192,136199,1,8,0:0:0:0:
192,192,136199,1,8,0:0:0:0:
320,192,136371,1,2,0:0:0:0:
64,192,136542,1,2,0:0:0:0:
448,192,136542,1,2,0:0:0:0:
192,192,136714,1,2,0:0:0:0:
320,192,136799,1,2,0:0:0:0:
448,192,136885,1,8,0:0:0:0:
64,192,136885,1,8,0:0:0:0:
320,192,137057,1,2,0:0:0:0:
192,192,137057,1,2,0:0:0:0:
192,192,137228,1,2,0:0:0:0:
64,192,137228,1,2,0:0:0:0:
448,192,137399,1,2,0:0:0:0:
320,192,137571,1,8,0:0:0:0:
64,192,137571,1,8,0:0:0:0:
192,192,137742,1,2,0:0:0:0:
320,192,137914,1,2,0:0:0:0:
448,192,137914,1,2,0:0:0:0:
64,192,138085,1,2,0:0:0:0:
320,192,138171,1,2,0:0:0:0:
448,192,138257,1,8,0:0:0:0:
192,192,138257,1,8,0:0:0:0:
320,192,138342,1,8,0:0:0:0:
64,192,138342,1,8,0:0:0:0:
192,192,138428,1,2,0:0:0:0:
448,192,138428,1,2,0:0:0:0:
320,192,138514,1,8,0:0:0:0:
64,192,138514,1,8,0:0:0:0:
192,192,138599,1,2,0:0:0:0:
448,192,138599,1,2,0:0:0:0:
320,192,138685,1,2,0:0:0:0:
192,192,138771,1,2,0:0:0:0:
64,192,138942,1,8,0:0:0:0:
448,192,138942,1,8,0:0:0:0:
192,192,139114,1,2,0:0:0:0:
448,192,139199,1,2,0:0:0:0:
64,192,139285,1,2,0:0:0:0:
320,192,139285,1,2,0:0:0:0:
192,192,139457,1,2,0:0:0:0:
320,192,139542,1,2,0:0:0:0:
448,192,139628,1,8,0:0:0:0:
64,192,139628,1,8,0:0:0:0:
192,192,139799,1,2,0:0:0:0:
448,192,139799,1,2,0:0:0:0:
320,192,139885,1,2,0:0:0:0:
64,192,139971,1,8,0:0:0:0:
448,192,139971,1,8,0:0:0:0:
320,192,140057,1,2,0:0:0:0:
192,192,140142,1,2,0:0:0:0:
64,192,140314,1,8,0:0:0:0:
320,192,140314,1,8,0:0:0:0:
448,192,140485,1,2,0:0:0:0:
320,192,140571,1,2,0:0:0:0:
192,192,140657,1,2,0:0:0:0:
64,192,140657,1,2,0:0:0:0:
320,192,140828,1,2,0:0:0:0:
192,192,140914,1,2,0:0:0:0:
64,192,140999,1,8,0:0:0:0:
448,192,140999,1,8,0:0:0:0:
192,192,141085,1,8,0:0:0:0:
320,192,141085,1,8,0:0:0:0:
64,192,141171,1,2,0:0:0:0:
448,192,141171,1,2,0:0:0:0:
320,192,141257,1,8,0:0:0:0:
192,192,141257,1,8,0:0:0:0:
64,192,141342,1,2,0:0:0:0:
448,192,141342,1,2,0:0:0:0:
192,192,141428,1,2,0:0:0:0:
320,192,141514,1,2,0:0:0:0:
192,192,141685,1,8,0:0:0:0:
64,192,141685,1,8,0:0:0:0:
320,192,141857,1,2,0:0:0:0:
64,192,142028,1,2,0:0:0:0:
448,192,142028,1,2,0:0:0:0:
320,192,142199,1,2,0:0:0:0:
64,192,142285,1,2,0:0:0:0:
192,192,142371,1,8,0:0:0:0:
448,192,142371,1,8,0:0:0:0:
320,192,142542,1,2,0:0:0:0:
64,192,142542,1,2,0:0:0:0:
192,192,142628,1,2,0:0:0:0:
320,192,142714,1,2,0:0:0:0:
448,192,142714,1,2,0:0:0:0:
192,192,142799,1,2,0:0:0:0:
64,192,142885,1,2,0:0:0:0:
320,192,143057,1,8,0:0:0:0:
448,192,143057,1,8,0:0:0:0:
192,192,143228,1,2,0:0:0:0:
320,192,143314,1,2,0:0:0:0:
64,192,143399,1,2,0:0:0:0:
448,192,143399,1,2,0:0:0:0:
320,192,143571,1,2,0:0:0:0:
192,192,143657,1,2,0:0:0:0:
64,192,143742,1,8,0:0:0:0:
320,192,143742,1,8,0:0:0:0:
448,192,143828,1,8,0:0:0:0:
192,192,143828,1,8,0:0:0:0:
320,192,143914,1,2,0:0:0:0:
64,192,143914,1,2,0:0:0:0:
448,192,143999,1,8,0:0:0:0:
192,192,143999,1,8,0:0:0:0:
320,192,144085,128,4,145457:0:0:0:0:
64,192,144085,1,4,0:0:0:0:
192,192,144257,1,2,0:0:0:0:
64,192,144428,1,8,0:0:0:0:
448,192,144428,1,8,0:0:0:0:
192,192,144599,1,2,0:0:0:0:
64,192,144771,1,2,0:0:0:0:
448,192,144771,1,0,0:0:0:0:
448,192,144942,1,2,0:0:0:0:
192,192,145028,1,2,0:0:0:0:
64,192,145114,1,8,0:0:0:0:
448,192,145114,1,8,0:0:0:0:
192,192,145285,1,2,0:0:0:0:
64,192,145285,1,2,0:0:0:0:
64,192,145457,128,0,146142:0:0:0:0:
448,192,145457,1,2,0:0:0:0:
192,192,145457,1,2,0:0:0:0:
192,192,145628,1,2,0:0:0:0:
320,192,145799,1,8,0:0:0:0:
448,192,145799,1,8,0:0:0:0:
320,192,145971,1,2,0:0:0:0:
192,192,146142,128,0,146828:0:0:0:0:
448,192,146142,1,2,0:0:0:0:
320,192,146142,1,2,0:0:0:0:
64,192,146314,1,2,0:0:0:0:
448,192,146399,1,2,0:0:0:0:
320,192,146485,1,8,0:0:0:0:
64,192,146571,1,8,0:0:0:0:
448,192,146657,1,2,0:0:0:0:
64,192,146742,1,8,0:0:0:0:
448,192,146828,128,0,148199:0:0:0:0:
320,192,146828,1,2,0:0:0:0:
64,192,146999,1,2,0:0:0:0:
192,192,147171,1,8,0:0:0:0:
320,192,147171,1,8,0:0:0:0:
64,192,147342,1,2,0:0:0:0:
320,192,147514,1,2,0:0:0:0:
64,192,147514,1,2,0:0:0:0:
192,192,147685,1,2,0:0:0:0:
320,192,147771,1,2,0:0:0:0:
64,192,147857,1,8,0:0:0:0:
192,192,147857,1,8,0:0:0:0:
320,192,148028,1,2,0:0:0:0:
192,192,148028,1,2,0:0:0:0:
192,192,148199,128,0,148885:0:0:0:0:
64,192,148199,1,2,0:0:0:0:
320,192,148199,1,2,0:0:0:0:
320,192,148371,1,2,0:0:0:0:
448,192,148542,1,8,0:0:0:0:
64,192,148542,1,8,0:0:0:0:
320,192,148714,1,2,0:0:0:0:
64,192,148885,128,0,149571:0:0:0:0:
448,192,148885,1,2,0:0:0:0:
192,192,149057,1,2,0:0:0:0:
320,192,149142,1,2,0:0:0:0:
448,192,149228,1,8,0:0:0:0:
192,192,149314,1,8,0:0:0:0:
320,192,149399,1,2,0:0:0:0:
192,192,149485,1,8,0:0:0:0:
320,192,149571,128,0,150942:0:0:0:0:
448,192,149571,1,2,0:0:0:0:
192,192,149742,1,2,0:0:0:0:
64,192,149914,1,8,0:0:0:0:
448,192,149914,1,8,0:0:0:0:
192,192,150085,1,2,0:0:0:0:
64,192,150257,1,2,0:0:0:0:
192,192,150257,1,2,0:0:0:0:
448,192,150428,1,2,0:0:0:0:
64,192,150514,1,2,0:0:0:0:
192,192,150599,1,8,0:0:0:0:
448,192,150599,1,8,0:0:0:0:
64,192,150771,1,2,0:0:0:0:
448,192,150771,1,2,0:0:0:0:
64,192,150942,128,0,151628:0:0:0:0:
192,192,150942,1,2,0:0:0:0:
448,192,150942,1,2,0:0:0:0:
448,192,151114,1,2,0:0:0:0:
320,192,151285,1,8,0:0:0:0:
192,192,151285,1,8,0:0:0:0:
448,192,151457,1,2,0:0:0:0:
192,192,151628,128,0,152314:0:0:0:0:
320,192,151628,1,2,0:0:0:0:
448,192,151799,1,2,0:0:0:0:
320,192,151885,1,2,0:0:0:0:
64,192,151971,1,8,0:0:0:0:
320,192,152057,1,8,0:0:0:0:
448,192,152142,1,2,0:0:0:0:
320,192,152228,1,8,0:0:0:0:
448,192,152314,128,0,153685:0:0:0:0:
64,192,152314,1,2,0:0:0:0:
192,192,152485,1,2,0:0:0:0:
64,192,152657,1,8,0:0:0:0:
320,192,152657,1,8,0:0:0:0:
192,192,152828,1,2,0:0:0:0:
64,192,152999,1,2,0:0:0:0:
192,192,152999,1,2,0:0:0:0:
320,192,153171,1,2,0:0:0:0:
192,192,153257,1,2,0:0:0:0:
64,192,153342,1,8,0:0:0:0:
320,192,153342,1,8,0:0:0:0:
192,192,153514,1,2,0:0:0:0:
64,192,153685,1,2,0:0:0:0:
320,192,153685,1,2,0:0:0:0:
192,192,153857,1,2,0:0:0:0:
320,192,154028,1,8,0:0:0:0:
448,192,154028,1,8,0:0:0:0:
192,192,154199,1,2,0:0:0:0:
64,192,154371,1,2,0:0:0:0:
192,192,154457,1,2,0:0:0:0:
320,192,154542,1,2,0:0:0:0:
192,192,154628,1,2,0:0:0:0:
320,192,154714,1,8,0:0:0:0:
448,192,154714,1,8,0:0:0:0:
192,192,154799,1,8,0:0:0:0:
64,192,154799,1,8,0:0:0:0:
320,192,154885,1,2,0:0:0:0:
448,192,154885,1,2,0:0:0:0:
192,192,154971,1,8,0:0:0:0:
64,192,154971,1,8,0:0:0:0:
448,192,155057,1,4,0:0:0:0:
320,192,155057,1,4,0:0:0:0:
320,192,155228,128,0,155399:0:0:0:0:
192,192,155399,1,2,0:0:0:0:
64,192,155399,1,2,0:0:0:0:
448,192,155571,128,0,155742:0:0:0:0:
192,192,155742,1,2,0:0:0:0:
320,192,155742,1,2,0:0:0:0:
64,192,155914,128,0,156085:0:0:0:0:
320,192,156085,1,2,0:0:0:0:
192,192,156085,1,2,0:0:0:0:
448,192,156257,128,0,156428:0:0:0:0:
64,192,156428,1,2,0:0:0:0:
192,192,156428,1,2,0:0:0:0:
320,192,156599,128,0,156771:0:0:0:0:
448,192,156771,1,2,0:0:0:0:
64,192,156771,1,2,0:0:0:0:
192,192,156942,128,0,157114:0:0:0:0:
320,192,157114,1,2,0:0:0:0:
64,192,157114,1,2,0:0:0:0:
448,192,157285,128,0,157457:0:0:0:0:
192,192,157457,1,2,0:0:0:0:
320,192,157457,1,2,0:0:0:0:
64,192,157628,128,0,157799:0:0:0:0:
448,192,157799,1,2,0:0:0:0:
192,192,157799,1,2,0:0:0:0:
320,192,157971,128,0,158142:0:0:0:0:
448,192,158142,1,2,0:0:0:0:
192,192,158142,1,2,0:0:0:0:
64,192,158314,128,0,158485:0:0:0:0:
320,192,158485,1,2,0:0:0:0:
448,192,158485,1,2,0:0:0:0:
192,192,158657,128,0,158828:0:0:0:0:
448,192,158828,1,2,0:0:0:0:
320,192,158828,1,2,0:0:0:0:
64,192,158999,128,0,159171:0:0:0:0:
192,192,159171,1,2,0:0:0:0:
448,192,159171,1,2,0:0:0:0:
320,192,159342,128,0,159514:0:0:0:0:
192,192,159514,1,2,0:0:0:0:
64,192,159514,1,2,0:0:0:0:
448,192,159685,128,0,159857:0:0:0:0:
320,192,159857,1,2,0:0:0:0:
64,192,159857,1,2,0:0:0:0:
192,192,160028,128,0,160199:0:0:0:0:
448,192,160199,1,2,0:0:0:0:
320,192,160199,1,2,0:0:0:0:
64,192,160371,128,0,160542:0:0:0:0:
448,192,160542,1,4,0:0:0:0:
320,192,160542,1,2,0:0:0:0:
192,192,160714,128,0,160885:0:0:0:0:
64,192,160885,1,2,0:0:0:0:
448,192,160885,1,2,0:0:0:0:
320,192,161057,128,0,161228:0:0:0:0:
192,192,161228,1,2,0:0:0:0:
448,192,161228,1,2,0:0:0:0:
64,192,161399,128,0,161571:0:0:0:0:
320,192,161571,1,2,0:0:0:0:
192,192,161571,1,2,0:0:0:0:
448,192,161742,128,0,161914:0:0:0:0:
320,192,161914,1,2,0:0:0:0:
64,192,161914,1,2,0:0:0:0:
192,192,162085,128,0,162257:0:0:0:0:
448,192,162257,1,2,0:0:0:0:
64,192,162257,1,2,0:0:0:0:
320,192,162428,128,0,162599:0:0:0:0:
448,192,162599,1,2,0:0:0:0:
192,192,162599,1,2,0:0:0:0:
64,192,162771,128,0,162942:0:0:0:0:
448,192,162942,1,2,0:0:0:0:
192,192,162942,1,2,0:0:0:0:
320,192,163114,128,0,163285:0:0:0:0:
64,192,163285,1,2,0:0:0:0:
448,192,163285,1,2,0:0:0:0:
192,192,163457,128,0,163628:0:0:0:0:
448,192,163628,1,2,0:0:0:0:
64,192,163628,1,2,0:0:0:0:
448,192,163799,128,0,163971:0:0:0:0:
320,192,163971,1,2,0:0:0:0:
64,192,163971,1,2,0:0:0:0:
192,192,164142,128,0,164314:0:0:0:0:
320,192,164314,1,2,0:0:0:0:
64,192,164314,1,2,0:0:0:0:
448,192,164485,128,0,164657:0:0:0:0:
320,192,164657,1,2,0:0:0:0:
64,192,164657,1,2,0:0:0:0:
192,192,164828,128,0,164999:0:0:0:0:
64,192,164999,1,2,0:0:0:0:
448,192,164999,1,2,0:0:0:0:
320,192,165171,128,0,165342:0:0:0:0:
448,192,165342,1,2,0:0:0:0:
192,192,165342,1,2,0:0:0:0:
64,192,165514,128,0,165685:0:0:0:0:
320,192,165685,1,2,0:0:0:0:
192,192,165685,1,2,0:0:0:0:
448,192,165857,128,0,166028:0:0:0:0:
320,192,166028,1,2,0:0:0:0:
64,192,166028,128,4,168771:0:0:0:0:
448,192,166199,128,0,166371:0:0:0:0:
192,192,166371,1,2,0:0:0:0:
320,192,166542,128,0,166714:0:0:0:0:
448,192,166714,1,2,0:0:0:0:
192,192,166885,128,0,167057:0:0:0:0:
320,192,167057,1,2,0:0:0:0:
448,192,167228,128,0,167399:0:0:0:0:
320,192,167399,1,2,0:0:0:0:
192,192,167571,128,0,167742:0:0:0:0:
448,192,167742,1,2,0:0:0:0:
320,192,167914,128,0,168085:0:0:0:0:
448,192,168085,1,2,0:0:0:0:
192,192,168257,128,0,168428:0:0:0:0:
320,192,168428,1,2,0:0:0:0:
448,192,168599,128,0,168771:0:0:0:0:
320,192,168771,1,2,0:0:0:0:
64,192,168942,128,0,169114:0:0:0:0:
192,192,169114,1,2,0:0:0:0:
448,192,169114,1,2,0:0:0:0:
448,192,169285,128,0,169457:0:0:0:0:
192,192,169457,1,2,0:0:0:0:
320,192,169457,1,2,0:0:0:0:
64,192,169628,128,0,169799:0:0:0:0:
192,192,169799,1,2,0:0:0:0:
320,192,169799,1,2,0:0:0:0:
448,192,169971,128,0,170142:0:0:0:0:
320,192,170142,1,2,0:0:0:0:
64,192,170142,1,2,0:0:0:0:
64,192,170314,128,0,170485:0:0:0:0:
192,192,170485,1,2,0:0:0:0:
448,192,170485,1,2,0:0:0:0:
448,192,170657,128,0,170828:0:0:0:0:
320,192,170828,1,2,0:0:0:0:
192,192,170828,1,2,0:0:0:0:
64,192,170999,128,0,171171:0:0:0:0:
192,192,171171,1,2,0:0:0:0:
320,192,171171,1,2,0:0:0:0:
448,192,171342,128,0,171514:0:0:0:0:
320,192,171514,1,2,0:0:0:0:
64,192,171514,128,4,174257:0:0:0:0:
192,192,171685,128,0,171857:0:0:0:0:
448,192,171857,1,2,0:0:0:0:
320,192,172028,128,0,172199:0:0:0:0:
192,192,172199,1,2,0:0:0:0:
448,192,172371,128,0,172542:0:0:0:0:
320,192,172542,1,2,0:0:0:0:
192,192,172714,128,0,172885:0:0:0:0:
448,192,172885,1,2,0:0:0:0:
320,192,173057,128,0,173228:0:0:0:0:
448,192,173228,1,2,0:0:0:0:
192,192,173399,128,0,173571:0:0:0:0:
320,192,173571,1,2,0:0:0:0:
448,192,173742,128,0,173914:0:0:0:0:
192,192,173914,1,2,0:0:0:0:
320,192,174085,128,0,174257:0:0:0:0:
64,192,174428,128,0,174599:0:0:0:0:
448,192,174771,128,0,174942:0:0:0:0:
192,192,175114,128,0,175285:0:0:0:0:
64,192,175457,128,0,175628:0:0:0:0:
448,192,175628,1,2,0:0:0:0:
320,192,175628,1,2,0:0:0:0:
192,192,175799,1,2,0:0:0:0:
64,192,175799,1,2,0:0:0:0:
448,192,175971,1,2,0:0:0:0:
192,192,175971,1,2,0:0:0:0:
320,192,176142,1,2,0:0:0:0:
64,192,176142,1,2,0:0:0:0:
192,192,176314,1,8,0:0:0:0:
64,192,176314,1,8,0:0:0:0:
320,192,176399,1,2,0:0:0:0:
448,192,176485,1,8,0:0:0:0:
64,192,176485,1,8,0:0:0:0:
192,192,176571,1,2,0:0:0:0:
320,192,176657,1,8,0:0:0:0:
64,192,176657,1,8,0:0:0:0:
192,192,176742,1,2,0:0:0:0:
64,192,176828,1,8,0:0:0:0:
320,192,176828,1,8,0:0:0:0:
448,192,176914,1,2,0:0:0:0:
64,192,176999,1,2,0:0:0:0:
320,192,176999,1,4,0:0:0:0:
192,192,176999,1,4,0:0:0:0:
192,192,177342,1,4,0:0:0:0:
64,192,177342,1,4,0:0:0:0:
448,192,177342,1,2,0:0:0:0:
320,192,177685,1,4,0:0:0:0:
64,192,177685,1,2,0:0:0:0:
448,192,177685,1,4,0:0:0:0:
192,192,177771,1,2,0:0:0:0:
448,192,177857,1,2,0:0:0:0:
320,192,177942,1,2,0:0:0:0:
192,192,178028,1,8,0:0:0:0:
64,192,178028,1,8,0:0:0:0:
320,192,178114,1,8,0:0:0:0:
448,192,178114,1,8,0:0:0:0:
192,192,178199,1,8,0:0:0:0:
64,192,178199,1,8,0:0:0:0:
320,192,178285,1,8,0:0:0:0:
448,192,178285,1,8,0:0:0:0:
64,192,178371,1,2,0:0:0:0:
192,192,178371,1,2,0:0:0:0:
448,192,178542,1,2,0:0:0:0:
192,192,178542,1,2,0:0:0:0:
64,192,178628,1,2,0:0:0:0:
192,192,178714,1,8,0:0:0:0:
448,192,178714,1,8,0:0:0:0:
64,192,178799,1,8,0:0:0:0:
192,192,178842,1,8,0:0:0:0:
320,192,178885,1,2,0:0:0:0:
448,192,178885,1,2,0:0:0:0:
192,192,178971,1,8,0:0:0:0:
64,192,178971,1,8,0:0:0:0:
448,192,179057,1,2,0:0:0:0:
320,192,179142,1,8,0:0:0:0:
64,192,179142,1,8,0:0:0:0:
192,192,179228,1,2,0:0:0:0:
320,192,179399,1,8,0:0:0:0:
64,192,179399,1,8,0:0:0:0:
320,192,179571,1,2,0:0:0:0:
448,192,179571,1,2,0:0:0:0:
192,192,179657,1,2,0:0:0:0:
64,192,179657,1,2,0:0:0:0:
320,192,179742,1,2,0:0:0:0:
448,192,179742,1,2,0:0:0:0:
64,192,179914,1,2,0:0:0:0:
192,192,179914,1,2,0:0:0:0:
192,192,180085,1,8,0:0:0:0:
448,192,180085,1,8,0:0:0:0:
64,192,180257,1,2,0:0:0:0:
448,192,180342,1,8,0:0:0:0:
320,192,180342,1,8,0:0:0:0:
192,192,180428,1,2,0:0:0:0:
320,192,180514,1,8,0:0:0:0:
448,192,180514,1,8,0:0:0:0:
192,192,180599,1,2,0:0:0:0:
448,192,180771,1,8,0:0:0:0:
320,192,180771,1,8,0:0:0:0:
192,192,180857,1,8,0:0:0:0:
64,192,180857,1,8,0:0:0:0:
448,192,180942,1,8,0:0:0:0:
320,192,180942,1,8,0:0:0:0:
64,192,181028,1,8,0:0:0:0:
192,192,181028,1,8,0:0:0:0:
448,192,181114,1,2,0:0:0:0:
320,192,181114,1,2,0:0:0:0:
320,192,181285,1,2,0:0:0:0:
448,192,181285,1,2,0:0:0:0:
192,192,181371,1,2,0:0:0:0:
64,192,181457,1,8,0:0:0:0:
320,192,181457,1,8,0:0:0:0:
448,192,181542,1,8,0:0:0:0:
320,192,181585,1,8,0:0:0:0:
192,192,181628,1,2,0:0:0:0:
64,192,181628,1,2,0:0:0:0:
448,192,181714,1,8,0:0:0:0:
320,192,181714,1,8,0:0:0:0:
192,192,181799,1,2,0:0:0:0:
64,192,181885,1,8,0:0:0:0:
320,192,181885,1,8,0:0:0:0:
192,192,181971,1,2,0:0:0:0:
64,192,182142,1,8,0:0:0:0:
320,192,182142,1,8,0:0:0:0:
448,192,182314,1,2,0:0:0:0:
64,192,182314,1,2,0:0:0:0:
192,192,182399,1,2,0:0:0:0:
320,192,182399,1,2,0:0:0:0:
448,192,182485,1,2,0:0:0:0:
64,192,182485,1,2,0:0:0:0:
192,192,182657,1,2,0:0:0:0:
64,192,182657,1,2,0:0:0:0:
64,192,182828,1,8,0:0:0:0:
448,192,182828,1,8,0:0:0:0:
448,192,182999,1,2,0:0:0:0:
192,192,183085,1,8,0:0:0:0:
64,192,183085,1,8,0:0:0:0:
448,192,183171,1,2,0:0:0:0:
192,192,183257,1,8,0:0:0:0:
64,192,183257,1,8,0:0:0:0:
320,192,183342,1,2,0:0:0:0:
192,192,183514,1,8,0:0:0:0:
64,192,183514,1,8,0:0:0:0:
448,192,183599,1,8,0:0:0:0:
320,192,183599,1,8,0:0:0:0:
64,192,183685,1,8,0:0:0:0:
192,192,183685,1,8,0:0:0:0:
448,192,183771,1,8,0:0:0:0:
320,192,183771,1,8,0:0:0:0:
192,192,183857,1,4,0:0:0:0:
64,192,183857,1,4,0:0:0:0:
448,192,184028,1,2,0:0:0:0:
64,192,184028,1,2,0:0:0:0:
192,192,184114,1,2,0:0:0:0:
448,192,184199,1,8,0:0:0:0:
320,192,184199,1,8,0:0:0:0:
64,192,184285,1,8,0:0:0:0:
192,192,184328,1,8,0:0:0:0:
448,192,184371,1,2,0:0:0:0:
320,192,184371,1,2,0:0:0:0:
64,192,184457,1,8,0:0:0:0:
192,192,184457,1,8,0:0:0:0:
320,192,184542,1,2,0:0:0:0:
192,192,184628,1,8,0:0:0:0:
448,192,184628,1,8,0:0:0:0:
64,192,184714,1,2,0:0:0:0:
64,192,184885,1,8,0:0:0:0:
448,192,184885,1,8,0:0:0:0:
192,192,185057,1,2,0:0:0:0:
64,192,185057,1,2,0:0:0:0:
320,192,185142,1,2,0:0:0:0:
448,192,185142,1,2,0:0:0:0:
64,192,185228,1,2,0:0:0:0:
192,192,185228,1,2,0:0:0:0:
192,192,185399,1,2,0:0:0:0:
448,192,185399,1,2,0:0:0:0:
64,192,185571,1,8,0:0:0:0:
320,192,185571,1,8,0:0:0:0:
192,192,185742,1,2,0:0:0:0:
64,192,185828,1,8,0:0:0:0:
448,192,185828,1,8,0:0:0:0:
320,192,185914,1,2,0:0:0:0:
448,192,185999,1,8,0:0:0:0:
64,192,185999,1,8,0:0:0:0:
320,192,186085,1,2,0:0:0:0:
320,192,186257,1,8,0:0:0:0:
448,192,186257,1,8,0:0:0:0:
192,192,186342,1,8,0:0:0:0:
64,192,186342,1,8,0:0:0:0:
448,192,186428,1,8,0:0:0:0:
320,192,186428,1,8,0:0:0:0:
64,192,186514,1,8,0:0:0:0:
192,192,186514,1,8,0:0:0:0:
320,192,186599,1,2,0:0:0:0:
448,192,186599,1,2,0:0:0:0:
64,192,186771,1,2,0:0:0:0:
320,192,186771,1,2,0:0:0:0:
448,192,186857,1,2,0:0:0:0:
320,192,186942,1,8,0:0:0:0:
192,192,186942,1,8,0:0:0:0:
64,192,187028,1,8,0:0:0:0:
192,192,187071,1,8,0:0:0:0:
448,192,187114,1,2,0:0:0:0:
320,192,187114,1,2,0:0:0:0:
64,192,187199,1,8,0:0:0:0:
192,192,187199,1,8,0:0:0:0:
320,192,187285,1,2,0:0:0:0:
448,192,187371,1,8,0:0:0:0:
64,192,187371,1,8,0:0:0:0:
192,192,187457,1,2,0:0:0:0:
320,192,187628,1,8,0:0:0:0:
64,192,187628,1,8,0:0:0:0:
320,192,187799,1,2,0:0:0:0:
448,192,187799,1,2,0:0:0:0:
192,192,187885,1,2,0:0:0:0:
64,192,187885,1,2,0:0:0:0:
448,192,187971,1,2,0:0:0:0:
320,192,187971,1,2,0:0:0:0:
320,192,188142,1,2,0:0:0:0:
64,192,188142,1,2,0:0:0:0:
448,192,188314,1,8,0:0:0:0:
192,192,188314,1,8,0:0:0:0:
64,192,188485,1,2,0:0:0:0:
320,192,188571,1,8,0:0:0:0:
448,192,188571,1,8,0:0:0:0:
64,192,188657,1,2,0:0:0:0:
448,192,188742,1,8,0:0:0:0:
192,192,188742,1,8,0:0:0:0:
320,192,188828,1,2,0:0:0:0:
320,192,188999,1,8,0:0:0:0:
64,192,188999,1,8,0:0:0:0:
192,192,189085,1,8,0:0:0:0:
448,192,189085,1,8,0:0:0:0:
64,192,189171,1,8,0:0:0:0:
320,192,189171,1,8,0:0:0:0:
448,192,189257,1,8,0:0:0:0:
192,192,189257,1,8,0:0:0:0:
320,192,189342,1,4,0:0:0:0:
64,192,189342,1,4,0:0:0:0:
448,192,189514,1,2,0:0:0:0:
320,192,189514,1,2,0:0:0:0:
64,192,189599,1,2,0:0:0:0:
320,192,189685,1,8,0:0:0:0:
192,192,189685,1,8,0:0:0:0:
448,192,189771,1,8,0:0:0:0:
320,192,189814,1,8,0:0:0:0:
192,192,189857,1,2,0:0:0:0:
64,192,189857,1,2,0:0:0:0:
320,192,189942,1,8,0:0:0:0:
448,192,189942,1,8,0:0:0:0:
64,192,190028,1,2,0:0:0:0:
192,192,190114,1,8,0:0:0:0:
320,192,190114,1,8,0:0:0:0:
64,192,190199,1,2,0:0:0:0:
192,192,190371,1,8,0:0:0:0:
448,192,190371,1,8,0:0:0:0:
64,192,190542,1,2,0:0:0:0:
192,192,190542,1,2,0:0:0:0:
448,192,190628,1,2,0:0:0:0:
320,192,190628,1,2,0:0:0:0:
64,192,190714,1,2,0:0:0:0:
192,192,190714,1,2,0:0:0:0:
192,192,190885,1,2,0:0:0:0:
448,192,190885,1,2,0:0:0:0:
320,192,191057,1,8,0:0:0:0:
448,192,191057,1,8,0:0:0:0:
64,192,191228,1,2,0:0:0:0:
192,192,191314,1,8,0:0:0:0:
448,192,191314,1,8,0:0:0:0:
64,192,191399,1,2,0:0:0:0:
192,192,191485,1,8,0:0:0:0:
448,192,191485,1,8,0:0:0:0:
320,192,191571,1,2,0:0:0:0:
192,192,191742,1,8,0:0:0:0:
64,192,191742,1,8,0:0:0:0:
448,192,191828,1,8,0:0:0:0:
320,192,191828,1,8,0:0:0:0:
64,192,191914,1,8,0:0:0:0:
192,192,191914,1,8,0:0:0:0:
448,192,191999,1,8,0:0:0:0:
320,192,191999,1,8,0:0:0:0:
192,192,192085,1,2,0:0:0:0:
64,192,192085,1,2,0:0:0:0:
448,192,192257,1,2,0:0:0:0:
64,192,192257,1,2,0:0:0:0:
192,192,192342,1,2,0:0:0:0:
64,192,192428,1,8,0:0:0:0:
448,192,192428,1,8,0:0:0:0:
320,192,192514,1,8,0:0:0:0:
192,192,192557,1,8,0:0:0:0:
448,192,192599,1,2,0:0:0:0:
64,192,192599,1,2,0:0:0:0:
192,192,192685,1,8,0:0:0:0:
320,192,192685,1,8,0:0:0:0:
64,192,192771,1,2,0:0:0:0:
192,192,192857,1,8,0:0:0:0:
448,192,192857,1,8,0:0:0:0:
320,192,192942,1,2,0:0:0:0:
448,192,193114,1,8,0:0:0:0:
320,192,193114,1,8,0:0:0:0:
192,192,193199,1,8,0:0:0:0:
64,192,193199,1,8,0:0:0:0:
320,192,193285,1,2,0:0:0:0:
448,192,193285,1,2,0:0:0:0:
192,192,193371,1,8,0:0:0:0:
64,192,193371,1,8,0:0:0:0:
448,192,193457,1,2,0:0:0:0:
320,192,193457,1,2,0:0:0:0:
320,192,193628,1,2,0:0:0:0:
64,192,193628,1,2,0:0:0:0:
64,192,193799,1,8,0:0:0:0:
192,192,193799,1,8,0:0:0:0:
448,192,193971,1,2,0:0:0:0:
192,192,194057,1,8,0:0:0:0:
320,192,194057,1,8,0:0:0:0:
448,192,194142,1,2,0:0:0:0:
192,192,194228,1,8,0:0:0:0:
320,192,194228,1,8,0:0:0:0:
64,192,194314,1,2,0:0:0:0:
192,192,194485,1,8,0:0:0:0:
64,192,194485,1,8,0:0:0:0:
320,192,194571,1,8,0:0:0:0:
448,192,194571,1,8,0:0:0:0:
64,192,194657,1,8,0:0:0:0:
192,192,194657,1,8,0:0:0:0:
448,192,194742,1,8,0:0:0:0:
320,192,194742,1,8,0:0:0:0:
64,192,194828,1,4,0:0:0:0:
192,192,194828,1,4,0:0:0:0:
320,192,194999,1,2,0:0:0:0:
64,192,194999,1,2,0:0:0:0:
192,192,195085,1,2,0:0:0:0:
448,192,195171,1,8,0:0:0:0:
320,192,195171,1,8,0:0:0:0:
64,192,195257,1,8,0:0:0:0:
192,192,195299,1,8,0:0:0:0:
320,192,195342,1,2,0:0:0:0:
448,192,195342,1,2,0:0:0:0:
192,192,195428,1,8,0:0:0:0:
64,192,195428,1,8,0:0:0:0:
448,192,195514,1,2,0:0:0:0:
320,192,195599,1,8,0:0:0:0:
64,192,195599,1,8,0:0:0:0:
192,192,195685,1,2,0:0:0:0:
320,192,195857,1,8,0:0:0:0:
64,192,195857,1,8,0:0:0:0:
320,192,196028,1,2,0:0:0:0:
448,192,196028,1,2,0:0:0:0:
192,192,196114,1,2,0:0:0:0:
64,192,196114,1,2,0:0:0:0:
320,192,196199,1,2,0:0:0:0:
448,192,196199,1,2,0:0:0:0:
64,192,196371,1,2,0:0:0:0:
448,192,196371,1,2,0:0:0:0:
192,192,196542,1,8,0:0:0:0:
448,192,196542,1,8,0:0:0:0:
192,192,196714,1,2,0:0:0:0:
448,192,196799,1,8,0:0:0:0:
320,192,196799,1,8,0:0:0:0:
64,192,196885,1,2,0:0:0:0:
320,192,196971,1,8,0:0:0:0:
448,192,196971,1,8,0:0:0:0:
64,192,197057,1,2,0:0:0:0:
192,192,197228,1,8,0:0:0:0:
448,192,197228,1,8,0:0:0:0:
320,192,197314,1,8,0:0:0:0:
64,192,197314,1,8,0:0:0:0:
448,192,197399,1,8,0:0:0:0:
192,192,197399,1,8,0:0:0:0:
64,192,197485,1,8,0:0:0:0:
320,192,197485,1,8,0:0:0:0:
192,192,197571,1,2,0:0:0:0:
448,192,197571,1,2,0:0:0:0:
64,192,197742,1,2,0:0:0:0:
320,192,197742,1,2,0:0:0:0:
192,192,197828,1,2,0:0:0:0:
320,192,197914,1,8,0:0:0:0:
448,192,197914,1,8,0:0:0:0:
64,192,197999,1,8,0:0:0:0:
192,192,198042,1,8,0:0:0:0:
448,192,198085,1,2,0:0:0:0:
320,192,198085,1,2,0:0:0:0:
192,192,198171,1,8,0:0:0:0:
64,192,198171,1,8,0:0:0:0:
320,192,198257,1,2,0:0:0:0:
64,192,198342,1,8,0:0:0:0:
192,192,198342,1,8,0:0:0:0:
448,192,198428,1,2,0:0:0:0:
192,192,198599,1,8,0:0:0:0:
64,192,198599,1,8,0:0:0:0:
320,192,198771,1,2,0:0:0:0:
192,192,198771,1,2,0:0:0:0:
448,192,198857,1,2,0:0:0:0:
64,192,198857,1,2,0:0:0:0:
320,192,198942,1,2,0:0:0:0:
192,192,198942,1,2,0:0:0:0:
192,192,199114,1,2,0:0:0:0:
448,192,199114,1,2,0:0:0:0:
64,192,199285,1,8,0:0:0:0:
192,192,199285,1,8,0:0:0:0:
64,192,199457,1,2,0:0:0:0:
192,192,199542,1,8,0:0:0:0:
448,192,199542,1,8,0:0:0:0:
64,192,199628,1,2,0:0:0:0:
192,192,199714,1,8,0:0:0:0:
448,192,199714,1,8,0:0:0:0:
320,192,199799,1,2,0:0:0:0:
320,192,199971,1,8,0:0:0:0:
64,192,199971,1,8,0:0:0:0:
192,192,200057,1,8,0:0:0:0:
448,192,200057,1,8,0:0:0:0:
64,192,200142,1,8,0:0:0:0:
320,192,200142,1,8,0:0:0:0:
192,192,200228,1,8,0:0:0:0:
448,192,200228,1,8,0:0:0:0:
64,192,200314,1,2,0:0:0:0:
320,192,200314,1,4,0:0:0:0:
192,192,200399,1,2,0:0:0:0:
320,192,200485,1,2,0:0:0:0:
448,192,200657,1,2,0:0:0:0:
320,192,200742,1,2,0:0:0:0:
192,192,200828,1,2,0:0:0:0:
64,192,200999,1,2,0:0:0:0:
192,192,201085,1,2,0:0:0:0:
320,192,201171,1,2,0:0:0:0:
448,192,201342,1,2,0:0:0:0:
320,192,201428,1,2,0:0:0:0:
192,192,201514,1,2,0:0:0:0:
64,192,201685,1,2,0:0:0:0:
192,192,201771,1,2,0:0:0:0:
320,192,201857,1,2,0:0:0:0:
448,192,202028,1,2,0:0:0:0:
320,192,202114,1,2,0:0:0:0:
192,192,202199,1,2,0:0:0:0:
64,192,202371,1,2,0:0:0:0:
192,192,202457,1,2,0:0:0:0:
320,192,202542,1,2,0:0:0:0:
448,192,202714,1,2,0:0:0:0:
320,192,202799,1,2,0:0:0:0:
192,192,202885,1,2,0:0:0:0:
320,192,203057,1,2,0:0:0:0:
192,192,203142,1,2,0:0:0:0:
64,192,203228,1,2,0:0:0:0:
192,192,203399,1,2,0:0:0:0:
320,192,203485,1,2,0:0:0:0:
448,192,203571,1,2,0:0:0:0:
320,192,203742,1,2,0:0:0:0:
192,192,203828,1,2,0:0:0:0:
64,192,203914,1,2,0:0:0:0:
192,192,204085,1,2,0:0:0:0:
320,192,204171,1,2,0:0:0:0:
448,192,204257,1,2,0:0:0:0:
320,192,204428,1,2,0:0:0:0:
192,192,204514,1,2,0:0:0:0:
64,192,204599,1,2,0:0:0:0:
192,192,204771,1,2,0:0:0:0:
320,192,204857,1,2,0:0:0:0:
448,192,204942,1,2,0:0:0:0:
320,192,205114,1,2,0:0:0:0:
192,192,205199,1,2,0:0:0:0:
64,192,205285,1,2,0:0:0:0:
192,192,205457,1,2,0:0:0:0:
320,192,205542,1,2,0:0:0:0:
448,192,205628,1,2,0:0:0:0:
64,192,205799,1,2,0:0:0:0:
320,192,205799,1,4,0:0:0:0:
192,192,205885,1,2,0:0:0:0:
320,192,205971,1,2,0:0:0:0:
448,192,206142,1,2,0:0:0:0:
320,192,206228,1,2,0:0:0:0:
192,192,206314,1,2,0:0:0:0:
64,192,206485,1,2,0:0:0:0:
192,192,206571,1,2,0:0:0:0:
320,192,206657,1,2,0:0:0:0:
448,192,206828,1,2,0:0:0:0:
320,192,206914,1,2,0:0:0:0:
192,192,206999,1,2,0:0:0:0:
64,192,207171,1,2,0:0:0:0:
192,192,207257,1,2,0:0:0:0:
320,192,207342,1,2,0:0:0:0:
448,192,207514,1,2,0:0:0:0:
320,192,207599,1,2,0:0:0:0:
192,192,207685,1,2,0:0:0:0:
64,192,207857,1,2,0:0:0:0:
192,192,207942,1,2,0:0:0:0:
320,192,208028,1,2,0:0:0:0:
448,192,208199,1,2,0:0:0:0:
320,192,208285,1,2,0:0:0:0:
192,192,208371,1,2,0:0:0:0:
320,192,208542,1,2,0:0:0:0:
192,192,208628,1,2,0:0:0:0:
64,192,208714,1,2,0:0:0:0:
192,192,208885,1,2,0:0:0:0:
320,192,208971,1,2,0:0:0:0:
448,192,209057,1,2,0:0:0:0:
320,192,209228,1,2,0:0:0:0:
192,192,209314,1,2,0:0:0:0:
64,192,209399,1,2,0:0:0:0:
192,192,209571,1,2,0:0:0:0:
320,192,209657,1,2,0:0:0:0:
448,192,209742,1,2,0:0:0:0:
320,192,209914,1,2,0:0:0:0:
192,192,209999,1,2,0:0:0:0:
64,192,210085,1,2,0:0:0:0:
192,192,210257,1,2,0:0:0:0:
320,192,210342,1,2,0:0:0:0:
448,192,210428,1,2,0:0:0:0:
320,192,210599,1,2,0:0:0:0:
192,192,210685,1,2,0:0:0:0:
64,192,210771,1,2,0:0:0:0:
192,192,210942,1,2,0:0:0:0:
320,192,211028,1,2,0:0:0:0:
448,192,211114,1,2,0:0:0:0:
64,192,211285,1,4,0:0:0:0:
192,192,211285,1,4,0:0:0:0:
320,192,211371,1,2,0:0:0:0:
64,192,211457,1,2,0:0:0:0:
320,192,211542,1,2,0:0:0:0:
192,192,211628,1,2,0:0:0:0:
448,192,211628,1,2,0:0:0:0:
320,192,211714,1,2,0:0:0:0:
192,192,211799,1,2,0:0:0:0:
64,192,211885,1,2,0:0:0:0:
192,192,211971,1,2,0:0:0:0:
320,192,211971,1,2,0:0:0:0:
448,192,212057,1,2,0:0:0:0:
320,192,212142,1,2,0:0:0:0:
192,192,212228,1,2,0:0:0:0:
448,192,212314,1,2,0:0:0:0:
320,192,212314,1,2,0:0:0:0:
64,192,212399,1,2,0:0:0:0:
320,192,212485,1,2,0:0:0:0:
192,192,212571,1,2,0:0:0:0:
448,192,212657,1,2,0:0:0:0:
64,192,212657,1,2,0:0:0:0:
320,192,212742,1,2,0:0:0:0:
64,192,212828,1,2,0:0:0:0:
192,192,212914,1,2,0:0:0:0:
448,192,212999,1,2,0:0:0:0:
64,192,212999,1,2,0:0:0:0:
320,192,213085,1,2,0:0:0:0:
448,192,213171,1,2,0:0:0:0:
192,192,213257,1,2,0:0:0:0:
320,192,213342,1,2,0:0:0:0:
448,192,213342,1,2,0:0:0:0:
64,192,213428,1,2,0:0:0:0:
192,192,213514,1,2,0:0:0:0:
448,192,213599,1,2,0:0:0:0:
320,192,213685,1,2,0:0:0:0:
192,192,213685,1,2,0:0:0:0:
64,192,213771,1,2,0:0:0:0:
192,192,213857,1,2,0:0:0:0:
448,192,213942,1,2,0:0:0:0:
320,192,214028,1,2,0:0:0:0:
192,192,214028,1,2,0:0:0:0:
64,192,214114,1,2,0:0:0:0:
192,192,214199,1,2,0:0:0:0:
448,192,214285,1,2,0:0:0:0:
64,192,214371,1,2,0:0:0:0:
192,192,214371,1,2,0:0:0:0:
320,192,214457,1,2,0:0:0:0:
192,192,214542,1,2,0:0:0:0:
448,192,214628,1,2,0:0:0:0:
320,192,214714,1,2,0:0:0:0:
64,192,214714,1,2,0:0:0:0:
448,192,214799,1,2,0:0:0:0:
64,192,214885,1,2,0:0:0:0:
192,192,214971,1,2,0:0:0:0:
320,192,215057,1,2,0:0:0:0:
448,192,215057,1,2,0:0:0:0:
64,192,215142,1,2,0:0:0:0:
448,192,215228,1,2,0:0:0:0:
320,192,215314,1,2,0:0:0:0:
192,192,215399,1,2,0:0:0:0:
64,192,215399,1,2,0:0:0:0:
448,192,215485,1,2,0:0:0:0:
320,192,215571,1,2,0:0:0:0:
64,192,215657,1,2,0:0:0:0:
448,192,215742,1,2,0:0:0:0:
320,192,215742,1,2,0:0:0:0:
192,192,215828,1,2,0:0:0:0:
320,192,215914,1,2,0:0:0:0:
64,192,215999,1,2,0:0:0:0:
192,192,216085,1,2,0:0:0:0:
320,192,216085,1,2,0:0:0:0:
448,192,216171,1,2,0:0:0:0:
192,192,216257,1,2,0:0:0:0:
320,192,216342,1,2,0:0:0:0:
64,192,216428,1,2,0:0:0:0:
448,192,216428,1,2,0:0:0:0:
192,192,216514,1,2,0:0:0:0:
320,192,216599,1,2,0:0:0:0:
192,192,216685,1,2,0:0:0:0:
448,192,216771,1,4,0:0:0:0:
64,192,216771,1,2,0:0:0:0:
320,192,216771,1,4,0:0:0:0:
192,192,216942,1,8,0:0:0:0:
64,192,216942,1,8,0:0:0:0:
320,192,217028,1,8,0:0:0:0:
448,192,217114,1,8,0:0:0:0:
64,192,217114,1,8,0:0:0:0:
320,192,217199,1,8,0:0:0:0:
192,192,217242,1,8,0:0:0:0:
64,192,217285,1,2,0:0:0:0:
448,192,217285,1,2,0:0:0:0:
192,192,217371,1,8,0:0:0:0:
320,192,217371,1,8,0:0:0:0:
64,192,217457,1,2,0:0:0:0:
320,192,217542,1,8,0:0:0:0:
448,192,217542,1,8,0:0:0:0:
64,192,217628,1,2,0:0:0:0:
448,192,217799,1,8,0:0:0:0:
192,192,217799,1,8,0:0:0:0:
64,192,217971,1,2,0:0:0:0:
320,192,217971,1,2,0:0:0:0:
192,192,218057,1,2,0:0:0:0:
448,192,218057,1,2,0:0:0:0:
320,192,218142,1,2,0:0:0:0:
64,192,218142,1,2,0:0:0:0:
448,192,218314,1,2,0:0:0:0:
320,192,218314,1,2,0:0:0:0:
64,192,218485,1,8,0:0:0:0:
448,192,218485,1,8,0:0:0:0:
64,192,218657,1,2,0:0:0:0:
320,192,218742,1,8,0:0:0:0:
448,192,218742,1,8,0:0:0:0:
192,192,218828,1,2,0:0:0:0:
320,192,218914,1,8,0:0:0:0:
448,192,218914,1,8,0:0:0:0:
64,192,218999,1,2,0:0:0:0:
192,192,219171,1,8,0:0:0:0:
448,192,219171,1,8,0:0:0:0:
320,192,219257,1,8,0:0:0:0:
64,192,219257,1,8,0:0:0:0:
192,192,219342,1,8,0:0:0:0:
448,192,219342,1,8,0:0:0:0:
64,192,219428,1,8,0:0:0:0:
320,192,219428,1,8,0:0:0:0:
448,192,219514,1,2,0:0:0:0:
192,192,219514,1,2,0:0:0:0:
320,192,219685,1,2,0:0:0:0:
64,192,219685,1,2,0:0:0:0:
448,192,219771,1,2,0:0:0:0:
192,192,219771,1,2,0:0:0:0:
64,192,219857,1,8,0:0:0:0:
320,192,219857,1,8,0:0:0:0:
448,192,219942,1,8,0:0:0:0:
320,192,219985,1,8,0:0:0:0:
192,192,220028,1,2,0:0:0:0:
64,192,220028,1,2,0:0:0:0:
320,192,220114,1,8,0:0:0:0:
448,192,220114,1,8,0:0:0:0:
192,192,220199,1,2,0:0:0:0:
64,192,220199,1,2,0:0:0:0:
448,192,220285,1,8,0:0:0:0:
320,192,220285,1,8,0:0:0:0:
64,192,220371,1,2,0:0:0:0:
192,192,220457,1,2,0:0:0:0:
448,192,220542,1,2,0:0:0:0:
320,192,220542,1,2,0:0:0:0:
64,192,220628,1,2,0:0:0:0:
192,192,220628,1,2,0:0:0:0:
320,192,220714,1,2,0:0:0:0:
448,192,220714,1,2,0:0:0:0:
192,192,220799,1,2,0:0:0:0:
64,192,220799,1,2,0:0:0:0:
448,192,220885,1,2,0:0:0:0:
320,192,220928,1,2,0:0:0:0:
192,192,220971,1,2,0:0:0:0:
64,192,221014,1,2,0:0:0:0:
448,192,221057,1,2,0:0:0:0:
320,192,221099,1,2,0:0:0:0:
192,192,221142,1,2,0:0:0:0:
64,192,221185,1,2,0:0:0:0:
448,192,221228,1,2,0:0:0:0:
320,192,221271,1,2,0:0:0:0:
192,192,221314,1,2,0:0:0:0:
64,192,221357,1,2,0:0:0:0:
448,192,221399,1,2,0:0:0:0:
320,192,221442,1,2,0:0:0:0:
192,192,221485,1,8,0:0:0:0:
64,192,221485,1,8,0:0:0:0:
320,192,221571,1,2,0:0:0:0:
448,192,221571,1,2,0:0:0:0:
192,192,221657,1,8,0:0:0:0:
64,192,221657,1,8,0:0:0:0:
320,192,221742,1,2,0:0:0:0:
448,192,221828,1,2,0:0:0:0:
64,192,221914,1,2,0:0:0:0:
192,192,221957,1,2,0:0:0:0:
320,192,221999,1,2,0:0:0:0:
448,192,222042,1,2,0:0:0:0:
192,192,222085,1,8,0:0:0:0:
64,192,222085,1,8,0:0:0:0:
448,192,222171,1,8,0:0:0:0:
320,192,222171,1,8,0:0:0:0:
192,192,222257,128,0,227742:0:0:0:0:
64,192,222257,1,2,0:0:0:0:
64,192,222942,1,2,0:0:0:0:
64,192,223628,1,2,0:0:0:0:
64,192,224314,1,2,0:0:0:0:
64,192,224999,1,2,0:0:0:0:
64,192,225685,1,2,0:0:0:0:
64,192,226371,1,2,0:0:0:0:
64,192,227057,1,2,0:0:0:0:
448,192,227742,1,2,0:0:0:0:
320,192,227742,128,0,233228:0:0:0:0:
448,192,228428,1,2,0:0:0:0:
448,192,229114,1,2,0:0:0:0:
448,192,229799,1,2,0:0:0:0:
448,192,230485,1,2,0:0:0:0:
448,192,231171,1,2,0:0:0:0:
448,192,231857,1,2,0:0:0:0:
448,192,232199,1,2,0:0:0:0:
448,192,232542,1,2,0:0:0:0:
64,192,232885,1,8,0:0:0:0:
192,192,232885,1,8,0:0:0:0:
64,192,233228,1,4,0:0:0:0:
448,192,233228,1,4,0:0:0:0:
64,192,233399,1,2,0:0:0:0:
320,192,233399,1,2,0:0:0:0:
192,192,233485,1,2,0:0:0:0:
448,192,233571,1,8,0:0:0:0:
320,192,233571,1,8,0:0:0:0:
64,192,233657,1,8,0:0:0:0:
192,192,233699,1,8,0:0:0:0:
448,192,233742,1,2,0:0:0:0:
320,192,233742,1,2,0:0:0:0:
64,192,233828,1,8,0:0:0:0:
192,192,233828,1,8,0:0:0:0:
320,192,233914,1,2,0:0:0:0:
64,192,233999,1,8,0:0:0:0:
192,192,233999,1,8,0:0:0:0:
448,192,234085,1,2,0:0:0:0:
192,192,234257,1,8,0:0:0:0:
64,192,234257,1,8,0:0:0:0:
192,192,234428,1,2,0:0:0:0:
320,192,234428,1,2,0:0:0:0:
448,192,234514,1,2,0:0:0:0:
64,192,234514,1,2,0:0:0:0:
192,192,234599,1,2,0:0:0:0:
320,192,234599,1,2,0:0:0:0:
192,192,234771,1,2,0:0:0:0:
448,192,234771,1,2,0:0:0:0:
64,192,234942,1,8,0:0:0:0:
192,192,234942,1,8,0:0:0:0:
64,192,235114,1,2,0:0:0:0:
192,192,235199,1,8,0:0:0:0:
448,192,235199,1,8,0:0:0:0:
64,192,235285,1,2,0:0:0:0:
192,192,235371,1,8,0:0:0:0:
448,192,235371,1,8,0:0:0:0:
320,192,235457,1,2,0:0:0:0:
64,192,235628,1,8,0:0:0:0:
320,192,235628,1,8,0:0:0:0:
192,192,235714,1,8,0:0:0:0:
448,192,235714,1,8,0:0:0:0:
320,192,235799,1,8,0:0:0:0:
64,192,235799,1,8,0:0:0:0:
192,192,235885,1,8,0:0:0:0:
448,192,235885,1,8,0:0:0:0:
320,192,235971,1,2,0:0:0:0:
64,192,235971,1,2,0:0:0:0:
320,192,236142,1,2,0:0:0:0:
192,192,236142,1,2,0:0:0:0:
64,192,236228,1,2,0:0:0:0:
192,192,236314,1,8,0:0:0:0:
320,192,236314,1,8,0:0:0:0:
64,192,236399,1,8,0:0:0:0:
192,192,236442,1,8,0:0:0:0:
448,192,236485,1,2,0:0:0:0:
320,192,236485,1,2,0:0:0:0:
192,192,236571,1,8,0:0:0:0:
64,192,236571,1,8,0:0:0:0:
320,192,236657,1,2,0:0:0:0:
64,192,236742,1,8,0:0:0:0:
448,192,236742,1,8,0:0:0:0:
192,192,236828,1,2,0:0:0:0:
192,192,236999,1,8,0:0:0:0:
64,192,236999,1,8,0:0:0:0:
64,192,237171,1,2,0:0:0:0:
192,192,237171,1,2,0:0:0:0:
320,192,237257,1,2,0:0:0:0:
448,192,237257,1,2,0:0:0:0:
192,192,237342,1,2,0:0:0:0:
64,192,237342,1,2,0:0:0:0:
448,192,237514,1,2,0:0:0:0:
64,192,237514,1,2,0:0:0:0:
64,192,237685,1,8,0:0:0:0:
320,192,237685,1,8,0:0:0:0:
192,192,237857,1,2,0:0:0:0:
64,192,237942,1,8,0:0:0:0:
448,192,237942,1,8,0:0:0:0:
192,192,238028,1,2,0:0:0:0:
64,192,238114,1,8,0:0:0:0:
448,192,238114,1,8,0:0:0:0:
320,192,238199,1,2,0:0:0:0:
64,192,238371,1,8,0:0:0:0:
320,192,238371,1,8,0:0:0:0:
192,192,238457,1,8,0:0:0:0:
448,192,238457,1,8,0:0:0:0:
320,192,238542,1,8,0:0:0:0:
64,192,238542,1,8,0:0:0:0:
448,192,238628,1,8,0:0:0:0:
192,192,238628,1,8,0:0:0:0:
64,192,238714,1,2,0:0:0:0:
320,192,238714,1,2,0:0:0:0:
448,192,238885,1,2,0:0:0:0:
64,192,238885,1,2,0:0:0:0:
320,192,238971,1,2,0:0:0:0:
192,192,239057,1,8,0:0:0:0:
64,192,239057,1,8,0:0:0:0:
320,192,239142,1,8,0:0:0:0:
448,192,239185,1,8,0:0:0:0:
64,192,239228,1,2,0:0:0:0:
192,192,239228,1,2,0:0:0:0:
320,192,239314,1,8,0:0:0:0:
448,192,239314,1,8,0:0:0:0:
192,192,239399,1,2,0:0:0:0:
448,192,239485,1,8,0:0:0:0:
64,192,239485,1,8,0:0:0:0:
320,192,239571,1,2,0:0:0:0:
192,192,239742,1,8,0:0:0:0:
448,192,239742,1,8,0:0:0:0:
192,192,239914,1,2,0:0:0:0:
64,192,239914,1,2,0:0:0:0:
320,192,239999,1,2,0:0:0:0:
448,192,239999,1,2,0:0:0:0:
64,192,240085,1,2,0:0:0:0:
192,192,240085,1,2,0:0:0:0:
192,192,240257,1,2,0:0:0:0:
448,192,240257,1,2,0:0:0:0:
64,192,240428,1,8,0:0:0:0:
320,192,240428,1,8,0:0:0:0:
448,192,240599,1,2,0:0:0:0:
192,192,240685,1,8,0:0:0:0:
64,192,240685,1,8,0:0:0:0:
448,192,240771,1,2,0:0:0:0:
64,192,240857,1,8,0:0:0:0:
192,192,240857,1,8,0:0:0:0:
320,192,240942,1,2,0:0:0:0:
448,192,241114,1,8,0:0:0:0:
64,192,241114,1,8,0:0:0:0:
320,192,241199,1,8,0:0:0:0:
192,192,241199,1,8,0:0:0:0:
448,192,241285,1,8,0:0:0:0:
64,192,241285,1,8,0:0:0:0:
320,192,241371,1,8,0:0:0:0:
192,192,241371,1,8,0:0:0:0:
64,192,241457,1,2,0:0:0:0:
448,192,241457,1,2,0:0:0:0:
64,192,241628,1,2,0:0:0:0:
448,192,241628,1,2,0:0:0:0:
192,192,241714,1,2,0:0:0:0:
64,192,241799,1,8,0:0:0:0:
320,192,241799,1,8,0:0:0:0:
448,192,241885,1,8,0:0:0:0:
320,192,241928,1,8,0:0:0:0:
192,192,241971,1,2,0:0:0:0:
64,192,241971,1,2,0:0:0:0:
320,192,242057,1,8,0:0:0:0:
448,192,242057,1,8,0:0:0:0:
192,192,242142,1,2,0:0:0:0:
320,192,242228,1,8,0:0:0:0:
64,192,242228,1,8,0:0:0:0:
192,192,242314,1,2,0:0:0:0:
448,192,242485,1,8,0:0:0:0:
64,192,242485,1,8,0:0:0:0:
192,192,242657,1,2,0:0:0:0:
64,192,242657,1,2,0:0:0:0:
320,192,242742,1,2,0:0:0:0:
448,192,242742,1,2,0:0:0:0:
192,192,244199,128,0,245571:0:0:0:0:
320,192,245571,1,2,0:0:0:0:
64,192,245571,1,4,3:0:0:0:
448,192,245657,1,2,0:0:0:0:
64,192,245742,1,2,0:0:0:0:
192,192,245914,1,2,0:0:0:0:
448,192,245914,1,2,0:0:0:0:
320,192,245999,1,2,0:0:0:0:
64,192,246085,1,2,0:0:0:0:
448,192,246257,1,8,0:0:0:0:
320,192,246342,1,2,0:0:0:0:
64,192,246428,1,2,0:0:0:0:
192,192,246514,1,0,0:0:0:0:
64,192,246599,1,4,0:0:0:0:
448,192,246599,1,2,0:0:0:0:
320,192,246685,1,2,0:0:0:0:
448,192,246771,1,2,0:0:0:0:
64,192,246857,1,0,0:0:0:0:
320,192,246942,1,2,0:0:0:0:
64,192,247028,1,2,0:0:0:0:
192,192,247114,1,2,0:0:0:0:
448,192,247199,1,2,0:0:0:0:
320,192,247285,1,2,0:0:0:0:
64,192,247285,1,4,0:0:0:0:
192,192,247371,1,0,0:0:0:0:
64,192,247457,1,4,0:0:0:0:
320,192,247457,1,2,0:0:0:0:
448,192,247542,1,2,0:0:0:0:
192,192,247628,1,2,0:0:0:0:
320,192,247714,1,2,0:0:0:0:
64,192,247799,1,2,0:0:0:0:
192,192,247842,1,2,0:0:0:0:
320,192,247885,1,2,0:0:0:0:
448,192,247928,1,2,0:0:0:0:
64,192,247971,1,4,0:0:0:0:
192,192,247971,1,2,0:0:0:0:
320,192,248057,1,0,0:0:0:0:
448,192,248142,1,2,0:0:0:0:
320,192,248228,1,0,0:0:0:0:
192,192,248314,1,2,0:0:0:0:
64,192,248314,1,4,0:0:0:0:
448,192,248399,1,2,0:0:0:0:
64,192,248485,1,2,0:0:0:0:
320,192,248571,1,0,0:0:0:0:
448,192,248657,1,4,0:0:0:0:
192,192,248657,1,2,0:0:0:0:
320,192,248742,1,2,0:0:0:0:
64,192,248828,1,2,0:0:0:0:
192,192,248914,1,2,0:0:0:0:
448,192,248999,1,2,0:0:0:0:
320,192,249057,1,2,0:0:0:0:
192,192,249114,1,2,0:0:0:0:
64,192,249171,1,2,0:0:0:0:
448,192,249228,1,2,0:0:0:0:
192,192,249285,1,2,0:0:0:0:
64,192,249342,1,2,0:0:0:0:
448,192,249399,1,2,0:0:0:0:
320,192,249457,1,2,0:0:0:0:
64,192,249514,1,2,0:0:0:0:
192,192,249571,1,2,0:0:0:0:
320,192,249628,1,2,0:0:0:0:
64,192,249685,1,4,0:0:0:0:
192,192,249685,1,4,0:0:0:0:
448,192,249685,1,2,0:0:0:0:
64,192,249857,1,2,0:0:0:0:
320,192,249857,1,2,0:0:0:0:
192,192,250028,1,2,0:0:0:0:
448,192,250028,1,2,0:0:0:0:
64,192,250199,1,2,0:0:0:0:
192,192,250199,1,2,0:0:0:0:
448,192,250371,1,8,0:0:0:0:
192,192,250371,1,8,0:0:0:0:
64,192,250542,1,2,0:0:0:0:
448,192,250628,1,0,0:0:0:0:
192,192,250714,1,2,0:0:0:0:
320,192,250714,1,2,0:0:0:0:
64,192,250885,1,8,0:0:0:0:
448,192,250885,1,8,0:0:0:0:
192,192,250971,1,0,0:0:0:0:
320,192,251057,1,4,0:0:0:0:
64,192,251057,1,2,0:0:0:0:
448,192,251057,1,4,0:0:0:0:
320,192,251228,1,2,0:0:0:0:
448,192,251228,1,2,0:0:0:0:
192,192,251314,1,2,0:0:0:0:
64,192,251399,1,8,0:0:0:0:
448,192,251399,1,8,0:0:0:0:
192,192,251485,1,8,0:0:0:0:
320,192,251528,1,8,0:0:0:0:
64,192,251571,1,2,0:0:0:0:
448,192,251571,1,2,0:0:0:0:
320,192,251657,1,8,0:0:0:0:
192,192,251657,1,8,0:0:0:0:
64,192,251742,1,2,0:0:0:0:
448,192,251828,1,8,0:0:0:0:
192,192,251828,1,8,0:0:0:0:
320,192,251914,1,2,0:0:0:0:
448,192,252085,1,8,0:0:0:0:
192,192,252085,1,8,0:0:0:0:
192,192,252257,1,2,0:0:0:0:
64,192,252257,1,2,0:0:0:0:
320,192,252342,1,2,0:0:0:0:
448,192,252342,1,2,0:0:0:0:
192,192,252428,1,2,0:0:0:0:
64,192,252428,1,2,0:0:0:0:
64,192,252599,1,2,0:0:0:0:
192,192,252599,1,2,0:0:0:0:
192,192,252771,1,8,0:0:0:0:
320,192,252771,1,8,0:0:0:0:
448,192,252942,1,2,0:0:0:0:
320,192,253028,1,8,0:0:0:0:
64,192,253028,1,8,0:0:0:0:
448,192,253114,1,2,0:0:0:0:
320,192,253199,1,8,0:0:0:0:
64,192,253199,1,8,0:0:0:0:
192,192,253285,1,2,0:0:0:0:
64,192,253457,1,8,0:0:0:0:
192,192,253457,1,8,0:0:0:0:
320,192,253542,1,8,0:0:0:0:
448,192,253542,1,8,0:0:0:0:
64,192,253628,1,8,0:0:0:0:
192,192,253628,1,8,0:0:0:0:
448,192,253714,1,8,0:0:0:0:
320,192,253714,1,8,0:0:0:0:
64,192,253799,1,2,0:0:0:0:
192,192,253799,1,2,0:0:0:0:
192,192,253971,1,2,0:0:0:0:
448,192,253971,1,2,0:0:0:0:
320,192,254057,1,2,0:0:0:0:
64,192,254142,1,8,0:0:0:0:
448,192,254142,1,8,0:0:0:0:
192,192,254228,1,8,0:0:0:0:
320,192,254271,1,8,0:0:0:0:
448,192,254314,1,2,0:0:0:0:
64,192,254314,1,2,0:0:0:0:
320,192,254399,1,8,0:0:0:0:
192,192,254399,1,8,0:0:0:0:
64,192,254485,1,2,0:0:0:0:
320,192,254571,1,8,0:0:0:0:
448,192,254571,1,8,0:0:0:0:
192,192,254657,1,2,0:0:0:0:
320,192,254828,1,8,0:0:0:0:
448,192,254828,1,8,0:0:0:0:
448,192,254999,1,2,0:0:0:0:
64,192,254999,1,2,0:0:0:0:
320,192,255085,1,2,0:0:0:0:
192,192,255085,1,2,0:0:0:0:
64,192,255171,1,2,0:0:0:0:
448,192,255171,1,2,0:0:0:0:
64,192,255342,1,2,0:0:0:0:
192,192,255342,1,2,0:0:0:0:
64,192,255514,1,8,0:0:0:0:
448,192,255514,1,8,0:0:0:0:
320,192,255685,1,2,0:0:0:0:
64,192,255771,1,8,0:0:0:0:
192,192,255771,1,8,0:0:0:0:
320,192,255857,1,2,0:0:0:0:
192,192,255942,1,8,0:0:0:0:
64,192,255942,1,8,0:0:0:0:
448,192,256028,1,2,0:0:0:0:
320,192,256199,1,8,0:0:0:0:
64,192,256199,1,8,0:0:0:0:
448,192,256285,1,8,0:0:0:0:
192,192,256285,1,8,0:0:0:0:
64,192,256371,1,8,0:0:0:0:
320,192,256371,1,8,0:0:0:0:
192,192,256457,1,8,0:0:0:0:
448,192,256457,1,8,0:0:0:0:
64,192,256542,1,4,0:0:0:0:
320,192,256542,1,4,0:0:0:0:
320,192,256714,1,2,0:0:0:0:
64,192,256714,1,2,0:0:0:0:
192,192,256799,1,2,0:0:0:0:
64,192,256885,1,8,0:0:0:0:
448,192,256885,1,8,0:0:0:0:
192,192,256971,1,8,0:0:0:0:
320,192,257014,1,8,0:0:0:0:
64,192,257057,1,2,0:0:0:0:
448,192,257057,1,2,0:0:0:0:
320,192,257142,1,8,0:0:0:0:
192,192,257142,1,8,0:0:0:0:
64,192,257228,1,2,0:0:0:0:
448,192,257314,1,8,0:0:0:0:
192,192,257314,1,8,0:0:0:0:
320,192,257399,1,2,0:0:0:0:
448,192,257571,1,8,0:0:0:0:
192,192,257571,1,8,0:0:0:0:
192,192,257742,1,2,0:0:0:0:
64,192,257742,1,2,0:0:0:0:
320,192,257828,1,2,0:0:0:0:
448,192,257828,1,2,0:0:0:0:
192,192,257914,1,2,0:0:0:0:
64,192,257914,1,2,0:0:0:0:
64,192,258085,1,2,0:0:0:0:
192,192,258085,1,2,0:0:0:0:
192,192,258257,1,8,0:0:0:0:
320,192,258257,1,8,0:0:0:0:
448,192,258428,1,2,0:0:0:0:
320,192,258514,1,8,0:0:0:0:
64,192,258514,1,8,0:0:0:0:
448,192,258599,1,2,0:0:0:0:
320,192,258685,1,8,0:0:0:0:
64,192,258685,1,8,0:0:0:0:
192,192,258771,1,2,0:0:0:0:
64,192,258942,1,8,0:0:0:0:
192,192,258942,1,8,0:0:0:0:
320,192,259028,1,8,0:0:0:0:
448,192,259028,1,8,0:0:0:0:
64,192,259114,1,8,0:0:0:0:
192,192,259114,1,8,0:0:0:0:
448,192,259199,1,8,0:0:0:0:
320,192,259199,1,8,0:0:0:0:
64,192,259285,1,2,0:0:0:0:
192,192,259285,1,2,0:0:0:0:
64,192,259457,1,2,0:0:0:0:
320,192,259457,1,2,0:0:0:0:
448,192,259542,1,2,0:0:0:0:
64,192,259628,1,8,0:0:0:0:
320,192,259628,1,8,0:0:0:0:
448,192,259714,1,8,0:0:0:0:
320,192,259757,1,8,0:0:0:0:
192,192,259799,1,2,0:0:0:0:
64,192,259799,1,2,0:0:0:0:
448,192,259885,1,8,0:0:0:0:
320,192,259885,1,8,0:0:0:0:
64,192,259971,1,2,0:0:0:0:
320,192,260057,1,8,0:0:0:0:
448,192,260057,1,8,0:0:0:0:
64,192,260142,1,2,0:0:0:0:
320,192,260314,1,8,0:0:0:0:
448,192,260314,1,8,0:0:0:0:
448,192,260485,1,2,0:0:0:0:
64,192,260485,1,2,0:0:0:0:
320,192,260571,1,2,0:0:0:0:
192,192,260571,1,2,0:0:0:0:
64,192,260657,1,2,0:0:0:0:
448,192,260657,1,2,0:0:0:0:
64,192,260828,1,2,0:0:0:0:
192,192,260828,1,2,0:0:0:0:
64,192,260999,1,8,0:0:0:0:
320,192,260999,1,8,0:0:0:0:
448,192,261171,1,2,0:0:0:0:
64,192,261257,1,8,0:0:0:0:
192,192,261257,1,8,0:0:0:0:
320,192,261342,1,2,0:0:0:0:
192,192,261428,1,8,0:0:0:0:
64,192,261428,1,8,0:0:0:0:
320,192,261514,1,2,0:0:0:0:
320,192,261685,1,8,0:0:0:0:
64,192,261685,1,8,0:0:0:0:
448,192,261771,1,8,0:0:0:0:
192,192,261771,1,8,0:0:0:0:
64,192,261857,1,8,0:0:0:0:
320,192,261857,1,8,0:0:0:0:
192,192,261942,1,8,0:0:0:0:
448,192,261942,1,8,0:0:0:0:
64,192,262028,1,4,0:0:0:0:
320,192,262028,1,4,0:0:0:0:
320,192,262199,1,2,0:0:0:0:
448,192,262199,1,2,0:0:0:0:
192,192,262285,1,2,0:0:0:0:
64,192,262371,1,8,0:0:0:0:
320,192,262371,1,8,0:0:0:0:
448,192,262457,1,8,0:0:0:0:
320,192,262499,1,8,0:0:0:0:
64,192,262542,1,2,0:0:0:0:
192,192,262542,1,2,0:0:0:0:
448,192,262628,1,8,0:0:0:0:
320,192,262628,1,8,0:0:0:0:
64,192,262714,1,2,0:0:0:0:
320,192,262799,1,8,0:0:0:0:
448,192,262799,1,8,0:0:0:0:
192,192,262885,1,2,0:0:0:0:
320,192,263057,1,8,0:0:0:0:
448,192,263057,1,8,0:0:0:0:
448,192,263228,1,2,0:0:0:0:
64,192,263228,1,2,0:0:0:0:
192,192,263314,1,2,0:0:0:0:
320,192,263314,1,2,0:0:0:0:
64,192,263399,1,2,0:0:0:0:
448,192,263399,1,2,0:0:0:0:
64,192,263571,1,2,0:0:0:0:
192,192,263571,1,2,0:0:0:0:
320,192,263742,1,8,0:0:0:0:
64,192,263742,1,8,0:0:0:0:
192,192,263914,1,2,0:0:0:0:
320,192,263999,1,8,0:0:0:0:
448,192,263999,1,8,0:0:0:0:
192,192,264085,1,2,0:0:0:0:
320,192,264171,1,8,0:0:0:0:
448,192,264171,1,8,0:0:0:0:
64,192,264257,1,2,0:0:0:0:
448,192,264428,1,8,0:0:0:0:
64,192,264428,1,8,0:0:0:0:
192,192,264514,1,8,0:0:0:0:
320,192,264514,1,8,0:0:0:0:
64,192,264599,1,8,0:0:0:0:
448,192,264599,1,8,0:0:0:0:
320,192,264685,1,8,0:0:0:0:
192,192,264685,1,8,0:0:0:0:
64,192,264771,1,2,0:0:0:0:
448,192,264771,1,2,0:0:0:0:
192,192,264942,1,2,0:0:0:0:
64,192,264942,1,2,0:0:0:0:
448,192,265028,1,2,0:0:0:0:
192,192,265114,1,8,0:0:0:0:
64,192,265114,1,8,0:0:0:0:
448,192,265199,1,8,0:0:0:0:
320,192,265242,1,8,0:0:0:0:
192,192,265285,1,2,0:0:0:0:
64,192,265285,1,2,0:0:0:0:
320,192,265371,1,8,0:0:0:0:
448,192,265371,1,8,0:0:0:0:
192,192,265457,1,2,0:0:0:0:
448,192,265542,1,8,0:0:0:0:
320,192,265542,1,8,0:0:0:0:
64,192,265628,1,2,0:0:0:0:
320,192,265799,1,8,0:0:0:0:
64,192,265799,1,8,0:0:0:0:
192,192,265971,1,2,0:0:0:0:
64,192,265971,1,2,0:0:0:0:
320,192,266057,1,2,0:0:0:0:
448,192,266057,1,2,0:0:0:0:
64,192,266142,1,8,0:0:0:0:
192,192,266142,1,8,0:0:0:0:
448,192,266142,1,0,0:0:0:0:
320,192,266485,1,8,0:0:0:0:
448,192,266485,1,8,0:0:0:0:
64,192,266485,1,0,0:0:0:0:
192,192,266828,1,8,0:0:0:0:
64,192,266828,1,0,0:0:0:0:
320,192,266828,1,8,0:0:0:0:
448,192,267171,1,8,0:0:0:0:
320,192,267171,1,8,0:0:0:0:
192,192,267514,1,8,0:0:0:0:
64,192,267514,1,8,0:0:0:0:
192,192,267857,1,8,0:0:0:0:
320,192,267857,1,8,0:0:0:0:
64,192,268199,1,2,0:0:0:0:
320,192,268199,1,2,0:0:0:0:
192,192,268285,1,2,0:0:0:0:
448,192,268371,1,2,0:0:0:0:
320,192,268457,1,2,0:0:0:0:
192,192,268542,1,8,0:0:0:0:
64,192,268542,1,8,0:0:0:0:
320,192,268628,1,8,0:0:0:0:
448,192,268628,1,8,0:0:0:0:
192,192,268714,1,8,0:0:0:0:
64,192,268714,1,8,0:0:0:0:
320,192,268799,1,8,0:0:0:0:
448,192,268799,1,8,0:0:0:0:
192,192,268885,1,4,0:0:0:0:
64,192,268885,1,4,0:0:0:0:
320,192,269057,1,2,0:0:0:0:
64,192,269057,1,2,0:0:0:0:
192,192,269142,1,2,0:0:0:0:
64,192,269228,1,8,0:0:0:0:
320,192,269228,1,8,0:0:0:0:
448,192,269314,1,8,0:0:0:0:
320,192,269357,1,8,0:0:0:0:
192,192,269399,1,2,0:0:0:0:
64,192,269399,1,2,0:0:0:0:
320,192,269485,1,8,0:0:0:0:
448,192,269485,1,8,0:0:0:0:
64,192,269571,1,2,0:0:0:0:
448,192,269657,1,8,0:0:0:0:
320,192,269657,1,8,0:0:0:0:
192,192,269742,1,2,0:0:0:0:
320,192,269914,1,8,0:0:0:0:
64,192,269914,1,8,0:0:0:0:
448,192,270085,1,2,0:0:0:0:
320,192,270085,1,2,0:0:0:0:
192,192,270171,1,2,0:0:0:0:
64,192,270171,1,2,0:0:0:0:
448,192,270257,1,2,0:0:0:0:
320,192,270257,1,2,0:0:0:0:
192,192,270428,1,2,0:0:0:0:
64,192,270428,1,2,0:0:0:0:
448,192,270599,1,8,0:0:0:0:
192,192,270599,1,8,0:0:0:0:
64,192,270771,1,2,0:0:0:0:
448,192,270857,1,8,0:0:0:0:
320,192,270857,1,8,0:0:0:0:
64,192,270942,1,2,0:0:0:0:
320,192,271028,1,8,0:0:0:0:
448,192,271028,1,8,0:0:0:0:
192,192,271114,1,2,0:0:0:0:
448,192,271285,1,8,0:0:0:0:
320,192,271285,1,8,0:0:0:0:
64,192,271371,1,8,0:0:0:0:
192,192,271371,1,8,0:0:0:0:
448,192,271457,1,8,0:0:0:0:
320,192,271457,1,8,0:0:0:0:
64,192,271542,1,8,0:0:0:0:
192,192,271542,1,8,0:0:0:0:
448,192,271628,1,2,0:0:0:0:
320,192,271628,1,2,0:0:0:0:
64,192,271799,1,2,0:0:0:0:
320,192,271799,1,2,0:0:0:0:
192,192,271885,1,2,0:0:0:0:
448,192,271971,1,8,0:0:0:0:
320,192,271971,1,8,0:0:0:0:
64,192,272057,1,8,0:0:0:0:
192,192,272099,1,8,0:0:0:0:
320,192,272142,1,2,0:0:0:0:
448,192,272142,1,2,0:0:0:0:
192,192,272228,1,8,0:0:0:0:
64,192,272228,1,8,0:0:0:0:
448,192,272314,1,2,0:0:0:0:
192,192,272399,1,8,0:0:0:0:
64,192,272399,1,8,0:0:0:0:
320,192,272485,1,2,0:0:0:0:
320,192,272657,1,8,0:0:0:0:
448,192,272657,1,8,0:0:0:0:
448,192,272828,1,2,0:0:0:0:
64,192,272828,1,2,0:0:0:0:
192,192,272914,1,2,0:0:0:0:
320,192,272914,1,2,0:0:0:0:
448,192,272999,1,2,0:0:0:0:
64,192,272999,1,2,0:0:0:0:
192,192,273171,1,2,0:0:0:0:
64,192,273171,1,2,0:0:0:0:
64,192,273342,1,8,0:0:0:0:
320,192,273342,1,8,0:0:0:0:
448,192,273514,1,2,0:0:0:0:
64,192,273599,1,8,0:0:0:0:
192,192,273599,1,8,0:0:0:0:
448,192,273685,1,2,0:0:0:0:
192,192,273771,1,8,0:0:0:0:
64,192,273771,1,8,0:0:0:0:
320,192,273857,1,2,0:0:0:0:
64,192,274028,1,8,0:0:0:0:
320,192,274028,1,8,0:0:0:0:
448,192,274114,1,8,0:0:0:0:
192,192,274114,1,8,0:0:0:0:
320,192,274199,1,8,0:0:0:0:
64,192,274199,1,8,0:0:0:0:
448,192,274285,1,8,0:0:0:0:
192,192,274285,1,8,0:0:0:0:
64,192,274371,1,4,0:0:0:0:
320,192,274371,1,4,0:0:0:0:
448,192,274542,1,2,0:0:0:0:
320,192,274542,1,2,0:0:0:0:
192,192,274628,1,2,0:0:0:0:
64,192,274714,1,8,0:0:0:0:
320,192,274714,1,8,0:0:0:0:
192,192,274799,1,8,0:0:0:0:
320,192,274842,1,8,0:0:0:0:
448,192,274885,1,2,0:0:0:0:
64,192,274885,1,2,0:0:0:0:
320,192,274971,1,8,0:0:0:0:
192,192,274971,1,8,0:0:0:0:
448,192,275057,1,2,0:0:0:0:
192,192,275142,1,8,0:0:0:0:
320,192,275142,1,8,0:0:0:0:
64,192,275228,1,2,0:0:0:0:
320,192,275399,1,8,0:0:0:0:
64,192,275399,1,8,0:0:0:0:
192,192,275571,1,2,0:0:0:0:
64,192,275571,1,2,0:0:0:0:
448,192,275657,1,2,0:0:0:0:
320,192,275657,1,2,0:0:0:0:
192,192,275742,1,2,0:0:0:0:
64,192,275742,1,2,0:0:0:0:
448,192,275914,1,2,0:0:0:0:
64,192,275914,1,2,0:0:0:0:
64,192,276085,1,8,0:0:0:0:
192,192,276085,1,8,0:0:0:0:
192,192,276257,1,2,0:0:0:0:
64,192,276342,1,8,0:0:0:0:
448,192,276342,1,8,0:0:0:0:
192,192,276428,1,2,0:0:0:0:
64,192,276514,1,8,0:0:0:0:
448,192,276514,1,8,0:0:0:0:
320,192,276599,1,2,0:0:0:0:
192,192,276771,1,8,0:0:0:0:
320,192,276771,1,8,0:0:0:0:
64,192,276857,1,8,0:0:0:0:
448,192,276857,1,8,0:0:0:0:
320,192,276942,1,8,0:0:0:0:
192,192,276942,1,8,0:0:0:0:
64,192,277028,1,8,0:0:0:0:
448,192,277028,1,8,0:0:0:0:
192,192,277114,1,2,0:0:0:0:
320,192,277114,1,2,0:0:0:0:
448,192,277285,1,2,0:0:0:0:
192,192,277285,1,2,0:0:0:0:
320,192,277371,1,2,0:0:0:0:
192,192,277457,1,8,0:0:0:0:
448,192,277457,1,8,0:0:0:0:
64,192,277542,1,8,0:0:0:0:
192,192,277585,1,8,0:0:0:0:
448,192,277628,1,2,0:0:0:0:
320,192,277628,1,2,0:0:0:0:
192,192,277714,1,8,0:0:0:0:
64,192,277714,1,8,0:0:0:0:
320,192,277799,1,2,0:0:0:0:
448,192,277885,1,8,0:0:0:0:
64,192,277885,1,8,0:0:0:0:
192,192,277971,1,2,0:0:0:0:
64,192,278142,1,8,0:0:0:0:
448,192,278142,1,8,0:0:0:0:
448,192,278314,1,2,0:0:0:0:
320,192,278314,1,2,0:0:0:0:
64,192,278399,1,2,0:0:0:0:
192,192,278399,1,2,0:0:0:0:
320,192,278485,1,2,0:0:0:0:
448,192,278485,1,2,0:0:0:0:
320,192,278657,1,2,0:0:0:0:
64,192,278657,1,2,0:0:0:0:
64,192,278828,1,8,0:0:0:0:
192,192,278828,1,8,0:0:0:0:
320,192,278999,1,2,0:0:0:0:
448,192,279085,1,8,0:0:0:0:
192,192,279085,1,8,0:0:0:0:
64,192,279171,1,2,0:0:0:0:
448,192,279257,1,8,0:0:0:0:
320,192,279257,1,8,0:0:0:0:
192,192,279342,1,2,0:0:0:0:
192,192,279514,1,8,0:0:0:0:
64,192,279514,1,8,0:0:0:0:
448,192,279599,1,8,0:0:0:0:
320,192,279599,1,8,0:0:0:0:
64,192,279685,1,8,0:0:0:0:
192,192,279685,1,8,0:0:0:0:
448,192,279771,1,8,0:0:0:0:
320,192,279771,1,8,0:0:0:0:
192,192,279857,1,4,0:0:0:0:
64,192,279857,1,4,0:0:0:0:
320,192,280028,1,2,0:0:0:0:
64,192,280028,1,2,0:0:0:0:
192,192,280114,1,2,0:0:0:0:
64,192,280199,1,8,0:0:0:0:
320,192,280199,1,8,0:0:0:0:
448,192,280285,1,8,0:0:0:0:
320,192,280328,1,8,0:0:0:0:
192,192,280371,1,2,0:0:0:0:
64,192,280371,1,2,0:0:0:0:
448,192,280457,1,8,0:0:0:0:
320,192,280457,1,8,0:0:0:0:
64,192,280542,1,2,0:0:0:0:
192,192,280628,1,8,0:0:0:0:
320,192,280628,1,8,0:0:0:0:
64,192,280714,1,2,0:0:0:0:
448,192,280885,1,8,0:0:0:0:
192,192,280885,1,8,0:0:0:0:
64,192,281057,1,2,0:0:0:0:
192,192,281057,1,2,0:0:0:0:
448,192,281142,1,2,0:0:0:0:
320,192,281142,1,2,0:0:0:0:
192,192,281228,1,2,0:0:0:0:
64,192,281228,1,2,0:0:0:0:
448,192,281399,1,2,0:0:0:0:
192,192,281399,1,2,0:0:0:0:
320,192,281571,1,8,0:0:0:0:
448,192,281571,1,8,0:0:0:0:
64,192,281742,1,2,0:0:0:0:
448,192,281828,1,8,0:0:0:0:
192,192,281828,1,8,0:0:0:0:
64,192,281914,1,2,0:0:0:0:
192,192,281999,1,8,0:0:0:0:
448,192,281999,1,8,0:0:0:0:
320,192,282085,1,2,0:0:0:0:
64,192,282257,1,8,0:0:0:0:
320,192,282257,1,8,0:0:0:0:
192,192,282342,1,8,0:0:0:0:
448,192,282342,1,8,0:0:0:0:
320,192,282428,1,8,0:0:0:0:
64,192,282428,1,8,0:0:0:0:
448,192,282514,1,8,0:0:0:0:
192,192,282514,1,8,0:0:0:0:
320,192,282599,1,2,0:0:0:0:
64,192,282599,1,2,0:0:0:0:
448,192,282771,1,2,0:0:0:0:
192,192,282771,1,2,0:0:0:0:
64,192,282857,1,2,0:0:0:0:
448,192,282942,1,8,0:0:0:0:
320,192,282942,1,8,0:0:0:0:
64,192,283028,1,8,0:0:0:0:
192,192,283071,1,8,0:0:0:0:
448,192,283114,1,2,0:0:0:0:
320,192,283114,1,2,0:0:0:0:
192,192,283199,1,8,0:0:0:0:
64,192,283199,1,8,0:0:0:0:
320,192,283285,1,2,0:0:0:0:
448,192,283371,1,8,0:0:0:0:
64,192,283371,1,8,0:0:0:0:
192,192,283457,1,2,0:0:0:0:
448,192,283628,1,8,0:0:0:0:
64,192,283628,1,8,0:0:0:0:
448,192,283799,1,2,0:0:0:0:
320,192,283799,1,2,0:0:0:0:
64,192,283885,1,2,0:0:0:0:
192,192,283885,1,2,0:0:0:0:
320,192,283971,1,2,0:0:0:0:
448,192,283971,1,2,0:0:0:0:
320,192,284142,1,2,0:0:0:0:
64,192,284142,1,2,0:0:0:0:
192,192,284314,1,8,0:0:0:0:
448,192,284314,1,8,0:0:0:0:
64,192,284485,1,2,0:0:0:0:
192,192,284571,1,8,0:0:0:0:
320,192,284571,1,8,0:0:0:0:
64,192,284657,1,2,0:0:0:0:
192,192,284742,1,8,0:0:0:0:
320,192,284742,1,8,0:0:0:0:
448,192,284828,1,2,0:0:0:0:
64,192,284999,1,8,0:0:0:0:
192,192,284999,1,8,0:0:0:0:
448,192,285085,1,8,0:0:0:0:
320,192,285085,1,8,0:0:0:0:
64,192,285171,1,8,0:0:0:0:
192,192,285171,1,8,0:0:0:0:
320,192,285257,1,8,0:0:0:0:
448,192,285257,1,8,0:0:0:0:
64,192,285342,1,4,0:0:0:0:
192,192,285342,1,4,0:0:0:0:
320,192,285514,1,2,0:0:0:0:
64,192,285514,1,2,0:0:0:0:
192,192,285599,1,2,0:0:0:0:
320,192,285685,1,8,0:0:0:0:
448,192,285685,1,8,0:0:0:0:
64,192,285771,1,8,0:0:0:0:
192,192,285814,1,8,0:0:0:0:
448,192,285857,1,2,0:0:0:0:
320,192,285857,1,2,0:0:0:0:
192,192,285942,1,8,0:0:0:0:
64,192,285942,1,8,0:0:0:0:
448,192,286028,1,2,0:0:0:0:
320,192,286114,1,8,0:0:0:0:
64,192,286114,1,8,0:0:0:0:
192,192,286199,1,2,0:0:0:0:
320,192,286371,1,8,0:0:0:0:
64,192,286371,1,8,0:0:0:0:
320,192,286542,1,2,0:0:0:0:
448,192,286542,1,2,0:0:0:0:
64,192,286628,1,2,0:0:0:0:
192,192,286628,1,2,0:0:0:0:
320,192,286714,1,2,0:0:0:0:
448,192,286714,1,2,0:0:0:0:
192,192,286885,1,2,0:0:0:0:
64,192,286885,1,2,0:0:0:0:
192,192,287057,1,8,0:0:0:0:
448,192,287057,1,8,0:0:0:0:
64,192,287228,1,2,0:0:0:0:
448,192,287314,1,8,0:0:0:0:
320,192,287314,1,8,0:0:0:0:
192,192,287399,1,2,0:0:0:0:
448,192,287485,1,8,0:0:0:0:
320,192,287485,1,8,0:0:0:0:
192,192,287571,1,2,0:0:0:0:
448,192,287742,1,8,0:0:0:0:
192,192,287742,1,8,0:0:0:0:
320,192,287828,1,8,0:0:0:0:
64,192,287828,1,8,0:0:0:0:
192,192,287914,1,8,0:0:0:0:
448,192,287914,1,8,0:0:0:0:
320,192,287999,1,8,0:0:0:0:
64,192,287999,1,8,0:0:0:0:
192,192,288085,1,2,0:0:0:0:
448,192,288085,1,2,0:0:0:0:
192,192,288257,1,2,0:0:0:0:
64,192,288257,1,2,0:0:0:0:
320,192,288342,1,2,0:0:0:0:
192,192,288428,1,8,0:0:0:0:
448,192,288428,1,8,0:0:0:0:
64,192,288514,1,8,0:0:0:0:
192,192,288557,1,8,0:0:0:0:
320,192,288599,1,2,0:0:0:0:
448,192,288599,1,2,0:0:0:0:
64,192,288685,1,8,0:0:0:0:
192,192,288685,1,8,0:0:0:0:
320,192,288771,1,2,0:0:0:0:
64,192,288857,1,8,0:0:0:0:
192,192,288857,1,8,0:0:0:0:
448,192,288942,1,2,0:0:0:0:
192,192,289114,1,2,0:0:0:0:
64,192,289114,1,2,0:0:0:0:
192,192,289285,1,2,0:0:0:0:
64,192,289285,1,2,0:0:0:0:
448,192,289371,1,2,0:0:0:0:
320,192,289371,1,2,0:0:0:0:
192,192,289457,1,2,0:0:0:0:
64,192,289457,128,0,289628:0:0:0:0:
448,192,289628,1,2,0:0:0:0:
192,192,289628,128,0,289799:0:0:0:0:
448,192,289799,128,0,289971:0:0:0:0:
320,192,289799,1,8,0:0:0:0:
192,192,289971,1,2,0:0:0:0:
64,192,289971,128,0,290485:0:0:0:0:
320,192,290057,1,8,0:0:0:0:
192,192,290142,1,2,0:0:0:0:
320,192,290228,1,8,0:0:0:0:
448,192,290314,1,2,0:0:0:0:
320,192,290485,1,8,0:0:0:0:
448,192,290485,128,0,290828:0:0:0:0:
192,192,290571,1,8,0:0:0:0:
320,192,290657,1,8,0:0:0:0:
192,192,290742,1,8,0:0:0:0:
320,192,290828,1,4,0:0:0:0:
64,192,290828,128,0,292885:0:0:0:0:
192,192,290999,1,2,0:0:0:0:
448,192,291085,1,2,0:0:0:0:
192,192,291171,1,8,0:0:0:0:
448,192,291257,1,8,0:0:0:0:
320,192,291299,1,8,0:0:0:0:
192,192,291342,1,2,0:0:0:0:
448,192,291428,1,8,0:0:0:0:
192,192,291514,1,2,0:0:0:0:
448,192,291599,1,8,0:0:0:0:
192,192,291685,1,2,0:0:0:0:
448,192,291857,1,8,0:0:0:0:
320,192,291857,1,8,0:0:0:0:
192,192,292028,1,2,0:0:0:0:
448,192,292114,1,2,0:0:0:0:
192,192,292199,1,2,0:0:0:0:
320,192,292371,1,2,0:0:0:0:
192,192,292371,1,2,0:0:0:0:
320,192,292542,1,8,0:0:0:0:
448,192,292542,1,8,0:0:0:0:
192,192,292714,1,2,0:0:0:0:
448,192,292799,1,8,0:0:0:0:
320,192,292885,1,2,0:0:0:0:
192,192,292885,128,0,293571:0:0:0:0:
448,192,292971,1,8,0:0:0:0:
320,192,293057,1,2,0:0:0:0:
320,192,293228,1,8,0:0:0:0:
64,192,293314,1,8,0:0:0:0:
320,192,293399,1,8,0:0:0:0:
64,192,293485,1,8,0:0:0:0:
320,192,293571,1,2,0:0:0:0:
448,192,293571,128,0,296314:0:0:0:0:
64,192,293742,1,2,0:0:0:0:
320,192,293828,1,2,0:0:0:0:
64,192,293914,1,8,0:0:0:0:
320,192,293999,1,8,0:0:0:0:
192,192,294042,1,8,0:0:0:0:
64,192,294085,1,2,0:0:0:0:
320,192,294171,1,8,0:0:0:0:
192,192,294257,1,2,0:0:0:0:
64,192,294342,1,8,0:0:0:0:
320,192,294428,1,2,0:0:0:0:
192,192,294599,1,8,0:0:0:0:
320,192,294599,1,8,0:0:0:0:
64,192,294771,1,2,0:0:0:0:
320,192,294857,1,2,0:0:0:0:
64,192,294942,1,2,0:0:0:0:
192,192,295114,1,2,0:0:0:0:
320,192,295114,1,2,0:0:0:0:
320,192,295285,1,8,0:0:0:0:
64,192,295285,1,8,0:0:0:0:
192,192,295457,1,2,0:0:0:0:
64,192,295542,1,8,0:0:0:0:
192,192,295628,1,2,0:0:0:0:
64,192,295714,1,8,0:0:0:0:
320,192,295799,1,2,0:0:0:0:
64,192,295971,1,8,0:0:0:0:
320,192,296057,1,8,0:0:0:0:
64,192,296142,1,8,0:0:0:0:
320,192,296228,1,8,0:0:0:0:
64,192,296314,1,4,0:0:0:0:
192,192,296314,1,4,0:0:0:0:
192,192,296485,1,2,0:0:0:0:
64,192,296485,1,2,0:0:0:0:
320,192,296571,1,2,0:0:0:0:
64,192,296657,1,8,0:0:0:0:
448,192,296657,1,8,0:0:0:0:
192,192,296742,1,8,0:0:0:0:
320,192,296785,1,8,0:0:0:0:
64,192,296828,1,2,0:0:0:0:
448,192,296828,1,2,0:0:0:0:
320,192,296914,1,8,0:0:0:0:
192,192,296914,1,8,0:0:0:0:
64,192,296999,1,2,0:0:0:0:
448,192,297085,1,8,0:0:0:0:
192,192,297085,1,8,0:0:0:0:
320,192,297171,1,2,0:0:0:0:
64,192,297342,1,8,0:0:0:0:
448,192,297342,1,8,0:0:0:0:
192,192,297514,1,2,0:0:0:0:
64,192,297514,1,2,0:0:0:0:
448,192,297599,1,2,0:0:0:0:
320,192,297599,1,2,0:0:0:0:
64,192,297685,1,2,0:0:0:0:
192,192,297685,1,2,0:0:0:0:
192,192,297857,1,2,0:0:0:0:
448,192,297857,1,2,0:0:0:0:
320,192,298028,1,8,0:0:0:0:
448,192,298028,1,8,0:0:0:0:
320,192,298199,1,2,0:0:0:0:
192,192,298285,1,8,0:0:0:0:
448,192,298285,1,8,0:0:0:0:
64,192,298371,1,2,0:0:0:0:
192,192,298457,1,8,0:0:0:0:
448,192,298457,1,8,0:0:0:0:
64,192,298542,1,2,0:0:0:0:
320,192,298714,1,8,0:0:0:0:
448,192,298714,1,8,0:0:0:0:
64,192,298799,1,8,0:0:0:0:
192,192,298799,1,8,0:0:0:0:
320,192,298885,1,8,0:0:0:0:
448,192,298885,1,8,0:0:0:0:
64,192,298971,1,8,0:0:0:0:
192,192,298971,1,8,0:0:0:0:
320,192,299057,1,2,0:0:0:0:
448,192,299057,1,2,0:0:0:0:
64,192,299228,1,2,0:0:0:0:
320,192,299228,1,2,0:0:0:0:
448,192,299314,1,2,0:0:0:0:
320,192,299399,1,8,0:0:0:0:
192,192,299399,1,8,0:0:0:0:
64,192,299485,1,8,0:0:0:0:
192,192,299528,1,8,0:0:0:0:
320,192,299571,1,2,0:0:0:0:
448,192,299571,1,2,0:0:0:0:
64,192,299657,1,8,0:0:0:0:
192,192,299657,1,8,0:0:0:0:
320,192,299742,1,2,0:0:0:0:
64,192,299828,1,8,0:0:0:0:
448,192,299828,1,8,0:0:0:0:
192,192,299914,1,2,0:0:0:0:
64,192,300085,1,8,0:0:0:0:
448,192,300085,1,8,0:0:0:0:
64,192,300257,1,2,0:0:0:0:
192,192,300257,1,2,0:0:0:0:
320,192,300342,1,2,0:0:0:0:
448,192,300342,1,2,0:0:0:0:
192,192,300428,1,2,0:0:0:0:
64,192,300428,1,2,0:0:0:0:
448,192,300599,1,2,0:0:0:0:
192,192,300599,1,2,0:0:0:0:
64,192,300771,1,8,0:0:0:0:
192,192,300771,1,8,0:0:0:0:
320,192,300942,1,2,0:0:0:0:
448,192,301028,1,8,0:0:0:0:
192,192,301028,1,8,0:0:0:0:
64,192,301114,1,2,0:0:0:0:
192,192,301199,1,8,0:0:0:0:
448,192,301199,1,8,0:0:0:0:
64,192,301285,1,2,0:0:0:0:
448,192,301457,1,8,0:0:0:0:
320,192,301457,1,8,0:0:0:0:
64,192,301542,1,8,0:0:0:0:
192,192,301542,1,8,0:0:0:0:
320,192,301628,1,8,0:0:0:0:
448,192,301628,1,8,0:0:0:0:
192,192,301714,1,8,0:0:0:0:
64,192,301714,1,8,0:0:0:0:
320,192,301799,1,4,0:0:0:0:
448,192,301799,1,4,0:0:0:0:
64,192,301971,1,2,0:0:0:0:
448,192,301971,1,2,0:0:0:0:
192,192,302057,1,2,0:0:0:0:
320,192,302142,1,8,0:0:0:0:
64,192,302142,1,8,0:0:0:0:
448,192,302228,1,8,0:0:0:0:
320,192,302271,1,8,0:0:0:0:
192,192,302314,1,2,0:0:0:0:
64,192,302314,1,2,0:0:0:0:
320,192,302399,1,8,0:0:0:0:
448,192,302399,1,8,0:0:0:0:
192,192,302485,1,2,0:0:0:0:
64,192,302571,1,8,0:0:0:0:
320,192,302571,1,8,0:0:0:0:
192,192,302657,1,2,0:0:0:0:
320,192,302828,1,8,0:0:0:0:
64,192,302828,1,8,0:0:0:0:
320,192,302999,1,2,0:0:0:0:
448,192,302999,1,2,0:0:0:0:
192,192,303085,1,2,0:0:0:0:
64,192,303085,1,2,0:0:0:0:
320,192,303171,1,2,0:0:0:0:
448,192,303171,1,2,0:0:0:0:
64,192,303342,1,2,0:0:0:0:
320,192,303342,1,2,0:0:0:0:
448,192,303514,1,8,0:0:0:0:
192,192,303514,1,8,0:0:0:0:
448,192,303685,1,2,0:0:0:0:
192,192,303771,1,8,0:0:0:0:
64,192,303771,1,8,0:0:0:0:
320,192,303857,1,2,0:0:0:0:
192,192,303942,1,8,0:0:0:0:
64,192,303942,1,8,0:0:0:0:
320,192,304028,1,2,0:0:0:0:
320,192,304199,1,8,0:0:0:0:
64,192,304199,1,8,0:0:0:0:
448,192,304285,1,8,0:0:0:0:
192,192,304285,1,8,0:0:0:0:
320,192,304371,1,8,0:0:0:0:
64,192,304371,1,8,0:0:0:0:
192,192,304457,1,8,0:0:0:0:
448,192,304457,1,8,0:0:0:0:
320,192,304542,1,2,0:0:0:0:
64,192,304542,1,2,0:0:0:0:
64,192,304714,1,2,0:0:0:0:
192,192,304714,1,2,0:0:0:0:
320,192,304799,1,2,0:0:0:0:
448,192,304885,1,8,0:0:0:0:
64,192,304885,1,8,0:0:0:0:
320,192,304971,1,8,0:0:0:0:
192,192,305014,1,8,0:0:0:0:
448,192,305057,1,2,0:0:0:0:
64,192,305057,1,2,0:0:0:0:
192,192,305142,1,8,0:0:0:0:
320,192,305142,1,8,0:0:0:0:
448,192,305228,1,2,0:0:0:0:
64,192,305314,1,8,0:0:0:0:
320,192,305314,1,8,0:0:0:0:
192,192,305399,1,2,0:0:0:0:
64,192,305571,1,8,0:0:0:0:
320,192,305571,1,8,0:0:0:0:
320,192,305742,1,2,0:0:0:0:
448,192,305742,1,2,0:0:0:0:
192,192,305828,1,2,0:0:0:0:
64,192,305828,1,2,0:0:0:0:
320,192,305914,1,2,0:0:0:0:
448,192,305914,1,2,0:0:0:0:
192,192,306085,1,2,0:0:0:0:
448,192,306085,1,2,0:0:0:0:
64,192,306257,1,8,0:0:0:0:
192,192,306257,1,8,0:0:0:0:
64,192,306428,1,2,0:0:0:0:
448,192,306514,1,8,0:0:0:0:
320,192,306514,1,8,0:0:0:0:
192,192,306599,1,2,0:0:0:0:
448,192,306685,1,8,0:0:0:0:
320,192,306685,1,8,0:0:0:0:
64,192,306771,1,2,0:0:0:0:
64,192,306942,1,8,0:0:0:0:
448,192,306942,1,8,0:0:0:0:
192,192,307028,1,8,0:0:0:0:
320,192,307028,1,8,0:0:0:0:
448,192,307114,1,8,0:0:0:0:
64,192,307114,1,8,0:0:0:0:
320,192,307199,1,8,0:0:0:0:
192,192,307199,1,8,0:0:0:0:
64,192,307285,1,4,0:0:0:0:
448,192,307285,1,4,0:0:0:0:
192,192,307457,1,2,0:0:0:0:
64,192,307457,1,2,0:0:0:0:
320,192,307542,1,2,0:0:0:0:
448,192,307628,1,8,0:0:0:0:
192,192,307628,1,8,0:0:0:0:
64,192,307714,1,8,0:0:0:0:
192,192,307757,1,8,0:0:0:0:
448,192,307799,1,2,0:0:0:0:
320,192,307799,1,2,0:0:0:0:
64,192,307885,1,8,0:0:0:0:
192,192,307885,1,8,0:0:0:0:
320,192,307971,1,2,0:0:0:0:
192,192,308057,1,8,0:0:0:0:
448,192,308057,1,8,0:0:0:0:
320,192,308142,1,2,0:0:0:0:
448,192,308314,1,8,0:0:0:0:
64,192,308314,1,8,0:0:0:0:
64,192,308485,1,2,0:0:0:0:
192,192,308485,1,2,0:0:0:0:
320,192,308571,1,2,0:0:0:0:
448,192,308571,1,2,0:0:0:0:
64,192,308657,1,2,0:0:0:0:
192,192,308657,1,2,0:0:0:0:
192,192,308828,1,2,0:0:0:0:
448,192,308828,1,2,0:0:0:0:
192,192,308999,1,8,0:0:0:0:
320,192,308999,1,8,0:0:0:0:
64,192,309171,1,2,0:0:0:0:
192,192,309257,1,8,0:0:0:0:
448,192,309257,1,8,0:0:0:0:
320,192,309342,1,2,0:0:0:0:
192,192,309428,1,8,0:0:0:0:
448,192,309428,1,8,0:0:0:0:
64,192,309514,1,2,0:0:0:0:
448,192,309685,1,8,0:0:0:0:
320,192,309685,1,8,0:0:0:0:
64,192,309771,1,8,0:0:0:0:
192,192,309771,1,8,0:0:0:0:
448,192,309857,1,8,0:0:0:0:
320,192,309857,1,8,0:0:0:0:
192,192,309942,1,8,0:0:0:0:
64,192,309942,1,8,0:0:0:0:
448,192,310028,1,2,0:0:0:0:
320,192,310028,1,2,0:0:0:0:
320,192,310199,1,2,0:0:0:0:
64,192,310199,1,2,0:0:0:0:
192,192,310285,1,2,0:0:0:0:
448,192,310371,1,8,0:0:0:0:
320,192,310371,1,8,0:0:0:0:
64,192,310457,1,8,0:0:0:0:
192,192,310499,1,8,0:0:0:0:
448,192,310542,1,2,0:0:0:0:
320,192,310542,1,2,0:0:0:0:
64,192,310628,1,8,0:0:0:0:
192,192,310628,1,8,0:0:0:0:
320,192,310714,1,2,0:0:0:0:
448,192,310799,1,8,0:0:0:0:
192,192,310799,1,8,0:0:0:0:
320,192,310885,1,2,0:0:0:0:
448,192,311057,1,8,0:0:0:0:
64,192,311057,1,8,0:0:0:0:
64,192,311228,1,2,0:0:0:0:
320,192,311228,1,2,0:0:0:0:
192,192,311314,1,2,0:0:0:0:
448,192,311314,1,2,0:0:0:0:
320,192,311399,1,2,0:0:0:0:
64,192,311399,1,2,0:0:0:0:
64,192,311571,1,2,0:0:0:0:
192,192,311571,1,2,0:0:0:0:
448,192,311742,1,8,0:0:0:0:
320,192,311742,1,8,0:0:0:0:
64,192,311914,1,2,0:0:0:0:
448,192,311999,1,8,0:0:0:0:
320,192,311999,1,8,0:0:0:0:
64,192,312085,1,2,0:0:0:0:
192,192,312171,1,8,0:0:0:0:
448,192,312171,1,8,0:0:0:0:
320,192,312257,1,2,0:0:0:0:
64,192,312342,1,2,0:0:0:0:
320,192,312428,1,2,0:0:0:0:
448,192,312428,1,2,0:0:0:0:
192,192,312514,1,2,0:0:0:0:
64,192,312514,1,2,0:0:0:0:
320,192,312599,1,2,0:0:0:0:
448,192,312599,1,2,0:0:0:0:
192,192,312685,1,2,0:0:0:0:
64,192,312685,1,2,0:0:0:0:
64,192,312771,128,0,312942:0:0:0:0:
320,192,312771,1,2,0:0:0:0:
448,192,312771,1,2,0:0:0:0:
192,192,312942,128,0,313114:0:0:0:0:
448,192,312942,1,0,0:0:0:0:
320,192,313114,128,0,313285:0:0:0:0:
64,192,313114,1,2,0:0:0:0:
448,192,313285,128,0,313628:0:0:0:0:
64,192,313285,1,4,0:0:0:0:
320,192,313457,1,0,0:0:0:0:
64,192,313628,128,0,313799:0:0:0:0:
192,192,313628,1,0,0:0:0:0:
192,192,313799,128,0,313971:0:0:0:0:
448,192,313799,1,0,0:0:0:0:
320,192,313971,128,0,314314:0:0:0:0:
64,192,313971,1,0,0:0:0:0:
448,192,314142,1,0,0:0:0:0:
64,192,314314,128,0,314485:0:0:0:0:
192,192,314314,1,0,0:0:0:0:
448,192,314485,1,0,0:0:0:0:
192,192,314485,128,0,314657:0:0:0:0:
320,192,314657,128,0,314999:0:0:0:0:
64,192,314657,1,0,0:0:0:0:
448,192,314828,1,0,0:0:0:0:
64,192,314999,128,0,315171:0:0:0:0:
192,192,314999,1,0,0:0:0:0:
192,192,315171,128,0,315342:0:0:0:0:
448,192,315171,1,0,0:0:0:0:
64,192,315342,1,0,0:0:0:0:
320,192,315342,128,0,315514:0:0:0:0:
448,192,315514,1,0,0:0:0:0:
64,192,315685,1,0,0:0:0:0:
