osu file format v14

[General]
AudioFilename: audio.mp3
AudioLeadIn: 0
PreviewTime: 69434
Countdown: 0
SampleSet: Soft
StackLeniency: 0.2
Mode: 0
LetterboxInBreaks: 0
WidescreenStoryboard: 1

[Editor]
DistanceSpacing: 1
BeatDivisor: 4
GridSize: 32
TimelineZoom: 3.499999

[Metadata]
Title:All I Need are Things I Like
TitleUnicode:すきなことだけでいいです
Artist:nameless
ArtistUnicode:nameless
Creator:Yusomi
Version:Comfy AR9.5
Source:
Tags:fun ピノキオピー PinocchioP
BeatmapID:1377587
BeatmapSetID:650027

[Difficulty]
HPDrainRate:2.8
CircleSize:7
OverallDifficulty:9.8
ApproachRate:9.5
SliderMultiplier:2.1
SliderTickRate:1

[Events]
//Background and Video events
0,0,"Konachan.com - 245752 2girls animal apron blue_eyes breasts cat drink food glasses hug logo loli long_hair panties ponytail red_eyes tsliuyixin twintails underwear.jpg",0,0
//Break Periods
2,103974,109581
2,201688,207820
//Storyboard Layer 0 (Background)
//Storyboard Layer 1 (Fail)
//Storyboard Layer 2 (Pass)
//Storyboard Layer 3 (Foreground)
//Storyboard Sound Samples

[TimingPoints]
7774,428.571428571429,4,2,0,60,1,0

[HitObjects]
174,139,14631,6,0,P|168:110|168:81,1,52.5,0|0,0:0|0:0,0:0:0:0:
261,35,14845,2,0,P|260:61|254:86,1,52.5,0|0,0:0|0:0,0:0:0:0:
246,193,15059,5,0,0:0:0:0:
231,178,15166,1,0,0:0:0:0:
246,163,15274,1,0,0:0:0:0:
260,178,15381,1,0,0:0:0:0:
248,246,15488,6,0,L|251:287,2,26.25,0|0|0,0:0|0:0|0:0,0:0:0:0:
202,223,15702,1,0,0:0:0:0:
155,233,15809,1,0,0:0:0:0:
108,223,15916,6,0,P|91:248|91:275,1,52.5,0|0,0:0|0:0,0:0:0:0:
117,319,16131,2,0,P|102:319|89:323,2,26.25,0|0|0,0:0|0:0|0:0,0:0:0:0:
171,336,16345,5,0,0:0:0:0:
221,321,16452,1,0,0:0:0:0:
271,336,16559,1,0,0:0:0:0:
321,323,16666,1,0,0:0:0:0:
268,316,16774,5,0,0:0:0:0:
333,337,16881,1,0,0:0:0:0:
286,269,16988,5,0,0:0:0:0:
303,379,17095,1,0,0:0:0:0:
312,273,17202,6,0,L|307:242,3,26.25,0|0|0|0,0:0|0:0|0:0|0:0,0:0:0:0:
302,181,17416,1,0,0:0:0:0:
302,181,17524,1,0,0:0:0:0:
326,68,17631,2,0,P|331:96|323:136,1,52.5,0|0,0:0|0:0,0:0:0:0:
210,162,17845,2,0,P|172:171|139:193,1,78.75,0|0,0:0|0:0,0:0:0:0:
138,252,18059,6,0,P|165:260|190:258,1,52.5,0|0,0:0|0:0,0:0:0:0:
264,183,18274,2,0,P|291:175|316:177,1,52.5,0|0,0:0|0:0,0:0:0:0:
316,331,18488,1,0,0:0:0:0:
298,243,18595,1,0,0:0:0:0:
364,287,18702,1,0,0:0:0:0:
257,298,18809,1,0,0:0:0:0:
377,265,18916,6,0,L|338:272,3,26.25,0|0|0|0,0:0|0:0|0:0|0:0,0:0:0:0:
435,250,19131,1,0,0:0:0:0:
452,305,19238,1,0,0:0:0:0:
417,237,19345,1,0,0:0:0:0:
434,182,19452,1,0,0:0:0:0:
443,215,19559,2,0,L|386:210,1,52.5,0|0,0:0|0:0,0:0:0:0:
293,191,19774,6,0,P|292:217|298:243,1,52.5,0|0,0:0|0:0,0:0:0:0:
385,145,19988,2,0,P|390:119|389:93,1,52.5,0|0,0:0|0:0,0:0:0:0:
312,59,20202,1,0,0:0:0:0:
277,103,20309,1,0,0:0:0:0:
255,60,20416,1,0,0:0:0:0:
217,91,20523,1,0,0:0:0:0:
190,62,20631,6,0,P|175:63|154:67,3,26.25,0|0|0|0,0:0|0:0|0:0|0:0,0:0:0:0:
188,138,20845,2,0,L|125:145,1,52.5,0|0,0:0|0:0,0:0:0:0:
41,152,21059,5,0,0:0:0:0:
108,100,21166,1,0,0:0:0:0:
9,96,21274,5,0,0:0:0:0:
121,94,21381,1,0,0:0:0:0:
92,192,21488,6,0,P|94:223|87:257,1,52.5,0|0,0:0|0:0,0:0:0:0:
18,335,21702,2,0,P|43:317|76:306,1,52.5,0|0,0:0|0:0,0:0:0:0:
133,299,21916,5,0,0:0:0:0:
210,320,22024,1,0,0:0:0:0:
147,318,22131,5,0,0:0:0:0:
217,296,22238,1,0,0:0:0:0:
169,241,22345,6,0,P|194:228|227:226,1,52.5,0|0,0:0|0:0,0:0:0:0:
277,182,22559,2,0,L|331:189,1,52.5,0|0,0:0|0:0,0:0:0:0:
445,190,22774,5,0,0:0:0:0:
379,209,22881,1,0,0:0:0:0:
473,213,22988,2,0,L|433:209,3,26.25,0|0|0|0,0:0|0:0|0:0|0:0,0:0:0:0:
498,150,23202,6,0,P|468:127|437:124,1,52.5,0|0,0:0|0:0,0:0:0:0:
406,82,23416,1,0,0:0:0:0:
335,128,23524,1,0,0:0:0:0:
372,35,23631,5,0,0:0:0:0:
362,113,23738,1,0,0:0:0:0:
359,34,23845,5,0,0:0:0:0:
374,111,23952,1,0,0:0:0:0:
295,55,24059,6,0,B|244:35|244:66|192:44,1,105,0|0,0:0|0:0,0:0:0:0:
181,35,24488,5,0,0:0:0:0:
166,136,24595,1,0,0:0:0:0:
127,52,24702,1,0,0:0:0:0:
208,100,24809,1,0,0:0:0:0:
117,107,24916,6,0,P|88:103|60:104,1,52.5,0|0,0:0|0:0,0:0:0:0:
11,169,25131,5,0,0:0:0:0:
49,243,25238,1,0,0:0:0:0:
28,183,25345,5,0,0:0:0:0:
32,266,25452,1,0,0:0:0:0:
80,197,25559,5,0,0:0:0:0:
0,226,25666,1,0,0:0:0:0:
105,220,25774,6,0,P|134:216|162:217,1,52.5,0|0,0:0|0:0,0:0:0:0:
245,302,25988,5,0,0:0:0:0:
167,267,26095,1,0,0:0:0:0:
229,275,26202,5,0,0:0:0:0:
145,287,26309,1,0,0:0:0:0:
220,226,26416,5,0,0:0:0:0:
198,315,26524,1,0,0:0:0:0:
207,215,26631,6,0,L|213:151,1,52.5,0|0,0:0|0:0,0:0:0:0:
247,53,26845,2,0,L|253:-11,1,52.5,0|0,0:0|0:0,0:0:0:0:
327,149,27059,6,0,L|263:143,1,52.5,0|0,0:0|0:0,0:0:0:0:
127,104,27273,2,0,L|63:98,1,52.5,0|0,0:0|0:0,0:0:0:0:
112,198,27488,5,0,0:0:0:0:
214,109,27595,1,0,0:0:0:0:
160,251,27702,5,0,0:0:0:0:
162,60,27809,1,0,0:0:0:0:
217,209,27916,6,0,L|219:246,3,26.25,0|0|0|0,0:0|0:0|0:0|0:0,0:0:0:0:
222,286,28131,1,0,0:0:0:0:
263,78,28345,5,0,0:0:0:0:
157,129,28559,2,0,B|241:126|241:126|208:106,1,105,0|0,0:0|0:0,0:0:0:0:
162,60,28988,1,0,0:0:0:0:
90,149,29202,2,0,P|75:199|93:248,1,105,0|0,0:0|0:0,0:0:0:0:
50,280,29631,2,0,B|127:251|127:317|204:272,1,157.5,0|0,0:0|0:0,0:0:0:0:
246,293,30059,6,0,L|191:288,1,52.5,0|0,0:0|0:0,0:0:0:0:
155,220,30274,2,0,P|212:204|253:226,1,105,0|0,0:0|0:0,0:0:0:0:
318,272,30702,2,0,L|373:267,1,52.5,0|0,0:0|0:0,0:0:0:0:
387,208,30916,2,0,B|388:194|377:185|377:185|353:216|378:261,1,105,0|0,0:0|0:0,0:0:0:0:
503,293,31345,2,0,B|456:305|456:305|429:296|429:296|410:317|410:317|352:333,1,157.5,0|0,0:0|0:0,0:0:0:0:
358,133,31774,6,0,P|353:105|368:75,1,52.5,0|0,0:0|0:0,0:0:0:0:
426,51,31988,2,0,B|390:66|390:66|323:51,1,105,0|0,0:0|0:0,0:0:0:0:
229,0,32416,2,0,B|222:26|222:26|229:55,1,52.5,0|0,0:0|0:0,0:0:0:0:
290,99,32631,2,0,B|259:92|259:92|239:106|239:106|188:92,1,105,0|0,0:0|0:0,0:0:0:0:
152,6,33059,2,0,B|131:28|131:28|141:124|141:124|170:142,1,157.5,0|0,0:0|0:0,0:0:0:0:
285,207,33488,6,0,P|257:197|222:201,1,52.5,0|0,0:0|0:0,0:0:0:0:
196,234,33702,2,0,P|141:246|94:218,1,105,0|0,0:0|0:0,0:0:0:0:
29,318,34131,2,0,P|45:296|78:279,1,52.5,0|0,0:0|0:0,0:0:0:0:
140,295,34345,5,0,0:0:0:0:
142,305,34452,1,0,0:0:0:0:
96,349,34559,1,0,0:0:0:0:
157,363,34774,2,0,B|194:346|194:346|257:366,1,105,0|0,0:0|0:0,0:0:0:0:
337,337,35095,1,0,0:0:0:0:
349,319,35202,6,0,P|353:295|349:268,1,52.5,0|0,0:0|0:0,0:0:0:0:
379,384,35416,1,0,0:0:0:0:
302,227,35631,5,0,0:0:0:0:
408,258,35738,1,0,0:0:0:0:
283,284,35845,1,0,0:0:0:0:
362,213,35952,1,0,0:0:0:0:
352,311,36059,6,0,L|343:274,2,26.25,0|0|0,0:0|0:0|0:0,0:0:0:0:
400,174,36273,1,0,0:0:0:0:
403,279,36381,1,0,0:0:0:0:
347,202,36488,1,0,0:0:0:0:
264,296,36702,6,0,L|303:295,2,26.25,0|0|0,0:0|0:0|0:0,0:0:0:0:
228,259,36916,6,0,P|221:220|226:193,1,52.5,0|0,0:0|0:0,0:0:0:0:
257,140,37131,5,0,0:0:0:0:
187,172,37238,1,0,0:0:0:0:
287,186,37345,5,0,0:0:0:0:
172,164,37452,1,0,0:0:0:0:
167,230,37559,5,0,0:0:0:0:
145,118,37666,1,0,0:0:0:0:
145,243,37774,2,0,L|146:209,3,26.25,0|0|0|0,0:0|0:0|0:0|0:0,0:0:0:0:
111,166,37988,1,0,0:0:0:0:
377,125,38202,2,0,P|313:93|298:95,1,78.75,0|0,0:0|0:0,0:0:0:0:
291,111,38416,2,0,L|265:117,2,26.25,0|0|0,0:0|0:0|0:0,0:0:0:0:
214,88,38631,6,0,P|209:62|212:34,1,52.5,0|0,0:0|0:0,0:0:0:0:
177,136,38845,1,0,0:0:0:0:
339,264,39059,1,0,0:0:0:0:
173,289,39274,5,0,0:0:0:0:
270,299,39381,1,0,0:0:0:0:
158,311,39488,5,0,0:0:0:0:
257,243,39595,2,0,L|252:278,1,26.25,0|0,0:0|0:0,0:0:0:0:
241,344,39702,1,0,0:0:0:0:
239,224,39809,5,0,0:0:0:0:
259,324,39916,1,0,0:0:0:0:
139,195,40131,6,0,L|136:170,2,26.25,0|0|0,0:0|0:0|0:0,0:0:0:0:
118,154,40345,6,0,L|122:97,1,52.5,0|0,0:0|0:0,0:0:0:0:
154,48,40559,1,0,0:0:0:0:
85,197,40666,1,0,0:0:0:0:
174,105,40774,5,0,0:0:0:0:
59,122,40881,1,0,0:0:0:0:
182,125,40988,1,0,0:0:0:0:
92,63,41095,5,0,0:0:0:0:
118,154,41202,1,0,0:0:0:0:
158,35,41309,1,0,0:0:0:0:
162,223,41524,5,0,0:0:0:0:
186,138,41631,1,0,0:0:0:0:
108,171,41738,1,0,0:0:0:0:
249,190,41845,2,0,L|309:187,1,52.5,0|0,0:0|0:0,0:0:0:0:
398,146,42059,6,0,B|406:132|406:132|339:164,1,78.75,0|0,0:0|0:0,0:0:0:0:
348,213,42274,2,0,B|404:239|404:239|396:226,1,78.75,0|0,0:0|0:0,0:0:0:0:
445,190,42488,1,0,0:0:0:0:
318,270,42702,2,0,P|315:293|323:333,1,52.5,0|0,0:0|0:0,0:0:0:0:
312,252,42916,2,0,P|287:288|220:301,1,105,0|0,0:0|0:0,0:0:0:0:
230,303,43345,2,0,P|201:289|230:344,1,157.5,0|0,0:0|0:0,0:0:0:0:
211,238,43774,6,0,B|217:182|217:182|201:190|202:203,1,78.75,0|0,0:0|0:0,0:0:0:0:
111,219,43988,2,0,B|156:252|156:252|157:234|145:228,1,78.75,0|0,0:0|0:0,0:0:0:0:
150,172,44202,1,0,0:0:0:0:
70,261,44416,2,0,P|62:290|66:318,1,52.5,0|0,0:0|0:0,0:0:0:0:
87,353,44631,2,0,P|88:307|67:244,1,105,0|0,0:0|0:0,0:0:0:0:
54,152,45059,2,0,B|49:137|49:137|18:205|18:205|86:197,1,157.5,0|0,0:0|0:0,0:0:0:0:
110,145,45488,6,0,B|131:131|139:101|139:101|139:116|144:128,1,78.75,0|0,0:0|0:0,0:0:0:0:
196,200,45702,2,0,B|173:188|143:196|143:196|156:189|164:179,1,78.75,0|0,0:0|0:0,0:0:0:0:
202,140,45916,1,0,0:0:0:0:
241,228,46131,2,0,P|262:246|274:273,1,52.5,0|0,0:0|0:0,0:0:0:0:
217,276,46345,2,0,P|277:268|332:287,1,105,0|0,0:0|0:0,0:0:0:0:
319,279,46774,2,0,B|342:293|355:310|355:310|400:298|405:251|405:251|371:253,1,157.5,0|0,0:0|0:0,0:0:0:0:
324,209,47202,6,0,B|303:156|341:155|310:105,1,105,0|0,0:0|0:0,0:0:0:0:
264,143,47631,1,0,0:0:0:0:
383,180,47845,1,0,0:0:0:0:
270,224,48059,2,0,L|236:227,3,26.25,0|0|0|0,0:0|0:0|0:0|0:0,0:0:0:0:
195,232,48274,1,0,0:0:0:0:
207,181,48381,1,0,0:0:0:0:
218,280,48488,2,0,L|237:307,3,26.25,0|0|0|0,0:0|0:0|0:0|0:0,0:0:0:0:
292,297,48702,2,0,L|306:266,3,26.25,0|0|0|0,0:0|0:0|0:0|0:0,0:0:0:0:
264,346,48916,5,0,0:0:0:0:
140,286,49131,1,0,0:0:0:0:
9,325,49345,1,0,0:0:0:0:
180,356,49559,5,0,0:0:0:0:
4,312,49666,1,0,0:0:0:0:
163,300,49881,5,0,0:0:0:0:
70,331,49988,1,0,0:0:0:0:
180,288,50095,1,0,0:0:0:0:
94,262,50202,1,0,0:0:0:0:
129,376,50416,6,0,L|129:346,3,26.25,0|0|0|0,0:0|0:0|0:0|0:0,0:0:0:0:
117,316,50631,6,0,L|127:257,1,52.5,0|0,0:0|0:0,0:0:0:0:
123,196,50845,1,0,0:0:0:0:
142,270,50952,1,0,0:0:0:0:
136,100,51166,5,0,0:0:0:0:
38,171,51381,5,0,0:0:0:0:
185,151,51488,2,0,L|143:150,3,26.25,0|0|0|0,0:0|0:0|0:0|0:0,0:0:0:0:
120,184,51702,1,0,0:0:0:0:
230,115,51916,6,0,P|286:100|313:122,1,78.75,0|0,0:0|0:0,0:0:0:0:
295,118,52131,2,0,L|328:121,1,26.25,0|0,0:0|0:0,0:0:0:0:
319,172,52238,2,0,L|348:187,1,26.25,0|0,0:0|0:0,0:0:0:0:
319,231,52345,5,0,0:0:0:0:
503,274,52559,2,0,L|422:281,1,78.75,0|0,0:0|0:0,0:0:0:0:
387,315,52774,1,0,0:0:0:0:
501,260,52881,1,0,0:0:0:0:
408,191,53095,5,0,0:0:0:0:
429,293,53202,1,0,0:0:0:0:
359,218,53309,1,0,0:0:0:0:
359,296,53416,1,0,0:0:0:0:
308,240,53524,1,0,0:0:0:0:
296,296,53631,2,0,P|268:302|233:304,1,52.5,0|0,0:0|0:0,0:0:0:0:
184,268,53845,2,0,P|166:268|151:273,3,26.25,0|0|0|0,0:0|0:0|0:0|0:0,0:0:0:0:
235,237,54059,6,0,B|284:186|239:132|239:132|191:160,1,157.5,0|0,0:0|0:0,0:0:0:0:
81,187,54488,2,0,B|98:224|142:234|180:208|180:208|163:192|142:194,1,157.5,0|0,0:0|0:0,0:0:0:0:
137,120,54916,1,0,0:0:0:0:
134,104,55024,1,0,0:0:0:0:
131,88,55131,2,0,P|148:67|183:64,1,52.5,0|0,0:0|0:0,0:0:0:0:
228,99,55345,2,0,P|259:111|290:106,1,52.5,0|0,0:0|0:0,0:0:0:0:
332,150,55559,2,0,L|392:142,1,52.5,0|0,0:0|0:0,0:0:0:0:
439,101,55774,5,0,0:0:0:0:
402,350,55988,1,0,0:0:0:0:
402,350,56095,1,0,0:0:0:0:
412,364,56416,5,0,0:0:0:0:
431,239,56631,1,0,0:0:0:0:
448,114,56845,1,0,0:0:0:0:
451,123,56952,1,0,0:0:0:0:
454,132,57059,1,0,0:0:0:0:
423,182,57274,1,0,0:0:0:0:
301,150,57488,5,0,0:0:0:0:
58,217,57702,1,0,0:0:0:0:
58,217,57809,1,0,0:0:0:0:
47,227,58131,5,0,0:0:0:0:
171,209,58345,1,0,0:0:0:0:
278,143,58559,1,0,0:0:0:0:
275,153,58666,1,0,0:0:0:0:
271,162,58774,1,0,0:0:0:0:
212,163,58988,1,0,0:0:0:0:
246,284,59202,5,0,0:0:0:0:
261,32,59416,1,0,0:0:0:0:
261,32,59524,1,0,0:0:0:0:
245,21,59845,5,0,0:0:0:0:
348,3,60059,1,0,0:0:0:0:
412,86,60274,1,0,0:0:0:0:
308,232,60488,1,0,0:0:0:0:
404,190,60702,1,0,0:0:0:0:
210,194,60916,5,0,0:0:0:0:
488,356,61131,1,0,0:0:0:0:
488,356,61238,1,0,0:0:0:0:
500,343,61559,1,0,0:0:0:0:
251,295,61774,1,0,0:0:0:0:
367,343,61988,1,0,0:0:0:0:
321,369,62095,1,0,0:0:0:0:
269,360,62202,1,0,0:0:0:0:
483,287,62416,1,0,0:0:0:0:
104,260,62631,5,0,0:0:0:0:
315,123,62845,1,0,0:0:0:0:
315,123,62952,1,0,0:0:0:0:
332,134,63274,5,0,0:0:0:0:
208,159,63488,1,0,0:0:0:0:
130,258,63702,1,0,0:0:0:0:
140,259,63809,1,0,0:0:0:0:
150,260,63916,1,0,0:0:0:0:
154,198,64131,1,0,0:0:0:0:
30,220,64345,5,0,0:0:0:0:
280,246,64559,1,0,0:0:0:0:
280,246,64666,1,0,0:0:0:0:
293,234,64988,5,0,0:0:0:0:
171,200,65202,1,0,0:0:0:0:
47,224,65416,1,0,0:0:0:0:
50,234,65524,1,0,0:0:0:0:
52,244,65631,1,0,0:0:0:0:
104,192,65845,1,0,0:0:0:0:
6,12,66059,5,0,0:0:0:0:
55,167,66274,2,0,P|61:110|54:59,1,105,0|0,0:0|0:0,0:0:0:0:
4,190,66702,1,0,0:0:0:0:
142,302,66916,5,0,0:0:0:0:
320,288,67131,1,0,0:0:0:0:
215,239,67345,1,0,0:0:0:0:
101,261,67559,1,0,0:0:0:0:
9,141,67774,5,0,0:0:0:0:
183,169,67988,1,0,0:0:0:0:
31,206,68202,1,0,0:0:0:0:
277,132,68416,1,0,0:0:0:0:
59,13,68631,1,0,0:0:0:0:
49,30,69059,5,0,0:0:0:0:
106,24,69166,1,0,0:0:0:0:
129,76,69274,1,0,0:0:0:0:
86,113,69381,1,0,0:0:0:0:
123,196,69488,5,0,0:0:0:0:
43,150,69595,1,0,0:0:0:0:
168,157,69702,5,0,0:0:0:0:
65,200,69809,1,0,0:0:0:0:
181,146,69916,5,0,0:0:0:0:
46,81,70024,1,0,0:0:0:0:
95,247,70131,5,0,0:0:0:0:
108,146,70238,1,0,0:0:0:0:
40,259,70345,6,0,L|42:312,1,52.5,0|0,0:0|0:0,0:0:0:0:
94,363,70506,1,0,0:0:0:0:
94,363,70559,2,0,P|98:342|118:310,1,52.5,0|0,0:0|0:0,0:0:0:0:
198,367,70774,2,0,P|228:371|268:367,1,52.5,0|0,0:0|0:0,0:0:0:0:
286,331,70988,5,0,0:0:0:0:
148,376,71095,1,0,0:0:0:0:
95,247,71309,5,0,0:0:0:0:
233,292,71416,1,0,0:0:0:0:
467,198,71631,5,0,0:0:0:0:
341,193,71738,1,0,0:0:0:0:
504,134,71845,1,0,0:0:0:0:
150,136,72059,6,0,L|192:130,1,26.25,0|0,0:0|0:0,0:0:0:0:
276,131,72166,2,0,L|234:125,1,26.25,0|0,0:0|0:0,0:0:0:0:
113,72,72273,1,0,0:0:0:0:
256,320,72488,5,0,0:0:0:0:
466,59,72916,5,0,0:0:0:0:
333,103,73024,1,0,0:0:0:0:
447,111,73131,5,0,0:0:0:0:
314,51,73238,1,0,0:0:0:0:
356,188,73345,5,0,0:0:0:0:
351,6,73452,1,0,0:0:0:0:
316,155,73559,5,0,0:0:0:0:
377,76,73666,1,0,0:0:0:0:
261,84,73774,6,0,L|201:87,1,52.5,0|0,0:0|0:0,0:0:0:0:
151,62,73934,1,0,0:0:0:0:
151,62,73988,2,0,P|110:58|81:69,1,52.5,0|0,0:0|0:0,0:0:0:0:
129,136,74202,2,0,P|154:139|180:134,1,52.5,0|0,0:0|0:0,0:0:0:0:
223,170,74416,5,0,0:0:0:0:
77,114,74524,1,0,0:0:0:0:
4,264,74738,5,0,0:0:0:0:
150,208,74846,1,0,0:0:0:0:
336,342,75059,5,0,0:0:0:0:
326,123,75166,1,0,0:0:0:0:
336,342,75274,1,0,0:0:0:0:
143,141,75488,6,0,L|169:145,1,26.25,0|0,0:0|0:0,0:0:0:0:
298,167,75595,2,0,L|272:171,1,26.25,0|0,0:0|0:0,0:0:0:0:
171,214,75702,1,0,0:0:0:0:
242,248,75809,1,0,0:0:0:0:
191,314,75916,1,0,0:0:0:0:
262,230,76024,5,0,0:0:0:0:
129,155,76131,1,0,0:0:0:0:
311,77,76238,1,0,0:0:0:0:
78,24,76345,5,0,0:0:0:0:
115,140,76452,1,0,0:0:0:0:
134,46,76559,5,0,0:0:0:0:
63,154,76666,1,0,0:0:0:0:
60,11,76774,5,0,0:0:0:0:
105,203,76881,1,0,0:0:0:0:
91,83,76988,5,0,0:0:0:0:
58,268,77095,1,0,0:0:0:0:
40,103,77202,6,0,L|113:97,1,52.5,0|0,0:0|0:0,0:0:0:0:
151,142,77416,2,0,P|180:129|207:127,1,52.5,0|0,0:0|0:0,0:0:0:0:
263,88,77631,2,0,L|276:142,1,52.5,0|0,0:0|0:0,0:0:0:0:
226,188,77845,5,0,0:0:0:0:
245,33,77952,1,0,0:0:0:0:
365,117,78166,5,0,0:0:0:0:
346,272,78273,1,0,0:0:0:0:
302,152,78381,5,0,0:0:0:0:
427,168,78488,1,0,0:0:0:0:
296,208,78595,5,0,0:0:0:0:
427,224,78702,1,0,0:0:0:0:
347,107,78809,5,0,0:0:0:0:
362,219,78916,2,0,P|364:248|357:282,1,52.5,0|0,0:0|0:0,0:0:0:0:
301,316,79131,2,0,L|230:324,1,52.5,0|0,0:0|0:0,0:0:0:0:
180,294,79345,1,0,0:0:0:0:
247,335,79452,1,0,0:0:0:0:
58,35,79774,5,0,0:0:0:0:
124,365,79988,1,0,0:0:0:0:
271,17,80202,5,0,0:0:0:0:
215,379,80416,1,0,0:0:0:0:
419,57,80631,5,0,0:0:0:0:
396,223,80738,1,0,0:0:0:0:
421,45,80845,5,0,0:0:0:0:
446,187,80952,1,0,0:0:0:0:
381,324,81059,1,0,0:0:0:0:
207,120,81274,5,0,0:0:0:0:
301,144,81381,1,0,0:0:0:0:
130,160,81488,5,0,0:0:0:0:
299,83,81595,1,0,0:0:0:0:
167,257,81702,5,0,0:0:0:0:
342,113,81809,1,0,0:0:0:0:
247,324,81916,5,0,0:0:0:0:
376,153,82023,1,0,0:0:0:0:
349,345,82131,5,0,0:0:0:0:
400,199,82238,1,0,0:0:0:0:
448,314,82345,5,0,0:0:0:0:
413,250,82452,1,0,0:0:0:0:
401,353,82559,5,0,0:0:0:0:
488,281,82666,1,0,0:0:0:0:
362,235,82774,6,0,P|324:228|295:232,1,52.5,0|0,0:0|0:0,0:0:0:0:
241,254,82988,5,0,0:0:0:0:
236,263,83095,1,0,0:0:0:0:
275,303,83202,5,0,0:0:0:0:
244,201,83309,1,0,0:0:0:0:
234,332,83416,5,0,0:0:0:0:
258,178,83524,1,0,0:0:0:0:
183,271,83631,5,0,0:0:0:0:
294,252,83738,1,0,0:0:0:0:
163,252,83845,5,0,0:0:0:0:
315,271,83952,1,0,0:0:0:0:
194,158,84059,6,0,P|194:187|200:219,1,52.5,0|0,0:0|0:0,0:0:0:0:
140,177,84220,1,0,0:0:0:0:
140,177,84274,2,0,L|35:170,1,105,0|0,0:0|0:0,0:0:0:0:
38,45,84595,5,0,0:0:0:0:
38,188,84702,1,0,0:0:0:0:
0,104,84809,1,0,0:0:0:0:
150,123,84916,5,0,0:0:0:0:
12,125,85024,1,0,0:0:0:0:
104,84,85131,5,0,0:0:0:0:
84,223,85238,1,0,0:0:0:0:
64,123,85345,2,0,P|83:155|89:176,1,52.5,0|0,0:0|0:0,0:0:0:0:
110,301,85559,5,0,0:0:0:0:
142,190,85666,1,0,0:0:0:0:
47,256,85774,6,0,L|86:251,1,26.25,0|0,0:0|0:0,0:0:0:0:
181,243,85881,2,0,L|142:238,1,26.25,0|0,0:0|0:0,0:0:0:0:
89,204,85988,1,0,0:0:0:0:
98,384,86202,5,0,0:0:0:0:
385,202,86631,5,0,0:0:0:0:
306,238,86738,1,0,0:0:0:0:
420,240,86845,5,0,0:0:0:0:
272,201,86952,1,0,0:0:0:0:
340,309,87059,5,0,0:0:0:0:
351,162,87166,1,0,0:0:0:0:
360,253,87274,5,0,0:0:0:0:
335,150,87381,1,0,0:0:0:0:
405,185,87488,6,0,P|435:190|471:190,1,52.5,0|0,0:0|0:0,0:0:0:0:
487,143,87649,1,0,0:0:0:0:
487,143,87702,2,0,P|476:114|458:83,1,52.5,0|0,0:0|0:0,0:0:0:0:
411,12,87916,2,0,P|400:40|382:71,1,52.5,0|0,0:0|0:0,0:0:0:0:
342,94,88131,5,0,0:0:0:0:
225,57,88238,1,0,0:0:0:0:
307,47,88345,5,0,0:0:0:0:
274,153,88452,1,0,0:0:0:0:
264,17,88559,5,0,0:0:0:0:
272,169,88666,1,0,0:0:0:0:
211,75,88774,5,0,0:0:0:0:
341,105,88881,1,0,0:0:0:0:
181,130,88988,5,0,0:0:0:0:
302,71,89095,1,0,0:0:0:0:
240,206,89202,6,0,L|244:175,1,26.25,0|0,0:0|0:0,0:0:0:0:
258,93,89309,2,0,L|262:124,1,26.25,0|0,0:0|0:0,0:0:0:0:
271,255,89416,1,0,0:0:0:0:
143,77,89631,6,0,P|114:71|79:71,1,52.5,0|0,0:0|0:0,0:0:0:0:
7,179,89845,2,0,P|33:177|58:172,1,52.5,0|0,0:0|0:0,0:0:0:0:
172,167,90059,5,0,0:0:0:0:
100,211,90166,1,0,0:0:0:0:
179,253,90274,5,0,0:0:0:0:
141,125,90381,1,0,0:0:0:0:
128,256,90488,5,0,0:0:0:0:
197,170,90595,1,0,0:0:0:0:
89,221,90702,5,0,0:0:0:0:
234,256,90809,1,0,0:0:0:0:
156,299,90916,6,0,P|130:308|104:308,1,52.5,0|0,0:0|0:0,0:0:0:0:
0,357,91131,2,0,P|26:357|50:366,1,52.5,0|0,0:0|0:0,0:0:0:0:
161,359,91345,2,0,L|167:297,1,52.5,0|0,0:0|0:0,0:0:0:0:
225,268,91559,5,0,0:0:0:0:
171,374,91666,1,0,0:0:0:0:
162,287,91774,5,0,0:0:0:0:
253,310,91881,1,0,0:0:0:0:
327,251,91988,5,0,0:0:0:0:
232,253,92095,1,0,0:0:0:0:
302,330,92202,5,0,0:0:0:0:
324,200,92309,1,0,0:0:0:0:
251,261,92416,5,0,0:0:0:0:
380,273,92524,1,0,0:0:0:0:
314,187,92631,6,0,P|304:156|301:134,1,52.5,0|0,0:0|0:0,0:0:0:0:
238,51,92845,2,0,P|233:76|225:101,1,52.5,0|0,0:0|0:0,0:0:0:0:
185,135,93059,5,0,0:0:0:0:
154,79,93166,1,0,0:0:0:0:
123,131,93274,1,0,0:0:0:0:
89,92,93381,1,0,0:0:0:0:
59,130,93488,5,0,0:0:0:0:
449,62,93702,1,0,0:0:0:0:
4,180,93916,5,0,0:0:0:0:
394,248,94130,1,0,0:0:0:0:
64,353,94345,5,0,0:0:0:0:
198,369,94452,1,0,0:0:0:0:
60,339,94559,5,0,0:0:0:0:
204,292,94666,1,0,0:0:0:0:
348,339,94774,1,0,0:0:0:0:
117,130,94988,5,0,0:0:0:0:
165,89,95095,1,0,0:0:0:0:
158,178,95202,5,0,0:0:0:0:
223,65,95310,1,0,0:0:0:0:
210,213,95416,5,0,0:0:0:0:
286,61,95524,1,0,0:0:0:0:
271,229,95631,5,0,0:0:0:0:
346,77,95738,1,0,0:0:0:0:
333,225,95845,5,0,0:0:0:0:
399,111,95953,1,0,0:0:0:0:
391,201,96058,5,0,0:0:0:0:
471,106,96167,1,0,0:0:0:0:
460,218,96274,5,0,0:0:0:0:
439,160,96381,1,0,0:0:0:0:
457,280,96488,6,0,L|450:248,1,26.25,0|0,0:0|0:0,0:0:0:0:
471,106,96595,2,0,L|465:131,1,26.25,0|0,0:0|0:0,0:0:0:0:
391,201,96702,6,0,L|396:175,1,26.25,0|0,0:0|0:0,0:0:0:0:
346,77,96809,2,0,L|351:102,1,26.25,0|0,0:0|0:0,0:0:0:0:
333,225,96916,6,0,P|277:210|205:218,1,105,0|0,0:0|0:0,0:0:0:0:
226,227,97238,1,0,0:0:0:0:
233,284,97346,5,0,0:0:0:0:
180,308,97452,1,0,0:0:0:0:
140,265,97559,1,0,0:0:0:0:
86,289,97666,1,0,0:0:0:0:
92,347,97774,1,0,0:0:0:0:
24,174,97988,5,0,0:0:0:0:
75,177,98095,1,0,0:0:0:0:
87,227,98203,1,0,0:0:0:0:
109,138,98309,1,0,0:0:0:0:
159,126,98416,1,0,0:0:0:0:
181,37,98524,1,0,0:0:0:0:
192,27,98631,5,0,0:0:0:0:
170,116,98739,1,0,0:0:0:0:
120,128,98846,1,0,0:0:0:0:
98,217,98952,1,0,0:0:0:0:
134,179,99059,5,0,0:0:0:0:
181,201,99166,1,0,0:0:0:0:
174,252,99274,1,0,0:0:0:0:
123,262,99381,1,0,0:0:0:0:
156,300,99488,1,0,0:0:0:0:
260,313,99702,5,0,0:0:0:0:
312,297,99809,1,0,0:0:0:0:
419,325,99916,1,0,0:0:0:0:
444,280,100024,1,0,0:0:0:0:
429,183,100131,1,0,0:0:0:0:
391,283,100238,1,0,0:0:0:0:
485,315,100345,5,0,0:0:0:0:
496,280,100452,1,0,0:0:0:0:
481,246,100559,1,0,0:0:0:0:
467,183,100666,5,0,0:0:0:0:
429,183,100774,1,0,0:0:0:0:
398,162,100881,1,0,0:0:0:0:
351,209,100988,5,0,0:0:0:0:
316,196,101095,1,0,0:0:0:0:
287,220,101202,5,0,0:0:0:0:
278,223,101256,1,0,0:0:0:0:
269,226,101309,2,0,L|239:234,1,26.25,0|0,0:0|0:0,0:0:0:0:
210,217,101416,5,0,0:0:0:0:
175,230,101524,1,0,0:0:0:0:
139,294,101631,1,0,0:0:0:0:
176,292,101738,1,0,0:0:0:0:
208,273,101845,1,0,0:0:0:0:
230,303,101952,1,0,0:0:0:0:
263,319,102059,6,0,P|293:324|327:318,1,52.5,0|0,0:0|0:0,0:0:0:0:
317,311,102274,2,0,P|292:305|266:306,1,52.5,0|0,0:0|0:0,0:0:0:0:
120,241,102488,6,0,P|93:238|68:243,1,52.5,0|0,0:0|0:0,0:0:0:0:
55,256,102702,2,0,P|87:256|112:248,1,52.5,0|0,0:0|0:0,0:0:0:0:
173,214,102916,6,0,L|166:157,1,52.5,0|0,0:0|0:0,0:0:0:0:
184,113,103131,2,0,L|177:170,1,52.5,0|0,0:0|0:0,0:0:0:0:
211,272,103345,6,0,L|204:329,1,52.5,0|0,0:0|0:0,0:0:0:0:
222,373,103560,2,0,L|215:316,1,52.5,0|0,0:0|0:0,0:0:0:0:
242,211,103774,5,0,0:0:0:0:
256,192,110631,5,0,0:0:0:0:
327,175,110738,1,0,0:0:0:0:
327,175,110952,1,0,0:0:0:0:
398,192,111059,1,0,0:0:0:0:
398,192,111274,1,0,0:0:0:0:
399,298,111488,5,0,0:0:0:0:
328,315,111595,1,0,0:0:0:0:
328,315,111809,1,0,0:0:0:0:
257,298,111916,1,0,0:0:0:0:
257,298,112024,1,0,0:0:0:0:
257,298,112131,1,0,0:0:0:0:
18,183,112345,5,0,0:0:0:0:
89,200,112452,1,0,0:0:0:0:
89,200,112666,1,0,0:0:0:0:
127,137,112774,1,0,0:0:0:0:
127,137,112988,1,0,0:0:0:0:
16,29,113202,5,0,0:0:0:0:
87,12,113309,1,0,0:0:0:0:
87,12,113523,1,0,0:0:0:0:
125,75,113631,1,0,0:0:0:0:
125,75,113738,1,0,0:0:0:0:
125,75,113845,1,0,0:0:0:0:
478,27,114059,5,0,0:0:0:0:
409,53,114166,1,0,0:0:0:0:
409,53,114381,1,0,0:0:0:0:
395,125,114488,1,0,0:0:0:0:
395,125,114702,1,0,0:0:0:0:
478,291,114916,5,0,0:0:0:0:
464,219,115023,1,0,0:0:0:0:
464,219,115238,1,0,0:0:0:0:
392,202,115345,1,0,0:0:0:0:
392,202,115452,1,0,0:0:0:0:
392,202,115559,1,0,0:0:0:0:
313,80,115774,6,0,P|290:60|259:46,1,52.5,0|0,0:0|0:0,0:0:0:0:
217,49,115988,2,0,P|188:59|160:79,1,52.5,0|0,0:0|0:0,0:0:0:0:
142,116,116202,2,0,P|136:146|139:180,1,52.5,0|0,0:0|0:0,0:0:0:0:
162,215,116417,2,0,P|185:235|217:249,1,52.5,0|0,0:0|0:0,0:0:0:0:
258,246,116631,2,0,P|287:236|315:216,1,52.5,0|0,0:0|0:0,0:0:0:0:
332,178,116845,2,0,P|338:149|334:114,1,52.5,0|0,0:0|0:0,0:0:0:0:
237,130,117059,2,0,L|237:143,14,13.125,0|0|0|0|0|0|0|0|0|0|0|0|0|0|0,0:0|0:0|0:0|0:0|0:0|0:0|0:0|0:0|0:0|0:0|0:0|0:0|0:0|0:0|0:0,0:0:0:0:
210,82,117488,6,0,P|188:96|152:98,1,52.5,0|0,0:0|0:0,0:0:0:0:
140,47,117702,2,0,B|139:34|154:21|154:21|170:60|150:94,1,105,0|0,0:0|0:0,0:0:0:0:
102,142,118131,2,0,P|77:135|46:138,1,52.5,0|0,0:0|0:0,0:0:0:0:
43,193,118345,2,0,B|45:205|63:214|63:214|68:172|40:145,1,105,0|0,0:0|0:0,0:0:0:0:
12,299,118774,2,0,B|42:271|60:267|60:267|80:271|80:271|95:257|95:257|113:252|153:261,1,157.5,0|0,0:0|0:0,0:0:0:0:
212,313,119202,6,0,P|238:312|264:308,1,52.5,0|0,0:0|0:0,0:0:0:0:
201,300,119416,2,0,L|323:302,1,105,0|0,0:0|0:0,0:0:0:0:
375,260,119845,2,0,P|401:260|427:264,1,52.5,0|0,0:0|0:0,0:0:0:0:
364,273,120059,2,0,L|486:271,1,105,0|0,0:0|0:0,0:0:0:0:
332,163,120488,2,0,B|314:167|297:162|297:162|292:205|340:214|340:214|362:200|388:208,1,157.5,0|0,0:0|0:0,0:0:0:0:
392,145,120916,6,0,P|396:117|392:82,1,52.5,0|0,0:0|0:0,0:0:0:0:
424,39,121131,2,0,P|365:38|333:77,1,105,0|0,0:0|0:0,0:0:0:0:
270,151,121559,2,0,P|244:151|218:142,1,52.5,0|0,0:0|0:0,0:0:0:0:
166,61,121774,2,0,B|176:75|178:95|178:95|150:118|158:160,1,105,0|0,0:0|0:0,0:0:0:0:
242,220,122202,2,0,B|260:209|260:209|202:194|146:217|146:217|166:225,1,157.5,0|0,0:0|0:0,0:0:0:0:
211,317,122631,6,0,L|206:259,1,52.5,0|0,0:0|0:0,0:0:0:0:
170,345,122845,2,0,B|227:332|227:363|282:350,1,105,0|0,0:0|0:0,0:0:0:0:
363,295,123274,2,0,L|368:237,1,52.5,0|0,0:0|0:0,0:0:0:0:
403,197,123488,5,0,0:0:0:0:
401,186,123595,1,0,0:0:0:0:
374,112,123702,1,0,0:0:0:0:
432,141,123916,6,0,B|399:130|399:130|331:155,1,105,0|0,0:0|0:0,0:0:0:0:
264,197,124238,1,0,0:0:0:0:
258,211,124345,6,0,P|234:213|206:210,1,52.5,0|0,0:0|0:0,0:0:0:0:
135,230,124559,1,0,0:0:0:0:
44,134,124774,5,0,0:0:0:0:
111,159,124881,1,0,0:0:0:0:
31,140,124988,5,0,0:0:0:0:
153,108,125095,1,0,0:0:0:0:
80,85,125202,1,0,0:0:0:0:
85,260,125416,5,0,0:0:0:0:
65,185,125524,1,0,0:0:0:0:
57,306,125631,1,0,0:0:0:0:
160,241,125845,2,0,L|119:242,2,26.25,0|0|0,0:0|0:0|0:0,0:0:0:0:
194,286,126059,6,0,P|217:298|253:294,1,52.5,0|0,0:0|0:0,0:0:0:0:
297,330,126274,1,0,0:0:0:0:
394,290,126381,1,0,0:0:0:0:
408,303,126595,5,0,0:0:0:0:
297,307,126702,1,0,0:0:0:0:
370,350,126809,1,0,0:0:0:0:
379,221,126916,1,0,0:0:0:0:
298,108,127131,5,0,0:0:0:0:
311,199,127238,1,0,0:0:0:0:
349,124,127345,5,0,0:0:0:0:
252,165,127452,1,0,0:0:0:0:
364,149,127559,6,0,L|332:154,1,26.25,0|0,0:0|0:0,0:0:0:0:
257,139,127666,2,0,L|225:134,1,26.25,0|0,0:0|0:0,0:0:0:0:
188,88,127774,6,0,B|229:149|188:201|188:180|146:222|188:284,1,210,0|0,0:0|0:0,0:0:0:0:
187,283,129488,6,0,B|211:288|234:277|234:277|260:290|260:290|282:271|282:271|307:276|337:264,1,157.5,0|0,0:0|0:0,0:0:0:0:
251,214,129916,2,0,B|204:172|243:115|243:115|248:141|277:153,1,157.5,0|0,0:0|0:0,0:0:0:0:
312,118,130345,5,0,0:0:0:0:
418,105,130452,1,0,0:0:0:0:
362,90,130559,5,0,0:0:0:0:
446,155,130666,1,0,0:0:0:0:
368,149,130774,5,0,0:0:0:0:
400,57,130881,1,0,0:0:0:0:
381,168,130988,5,0,0:0:0:0:
375,63,131095,1,0,0:0:0:0:
421,201,131202,5,0,0:0:0:0:
150,164,131416,1,0,0:0:0:0:
150,164,131524,1,0,0:0:0:0:
140,154,131845,5,0,0:0:0:0:
254,205,132059,1,0,0:0:0:0:
138,255,132274,1,0,0:0:0:0:
127,256,132381,1,0,0:0:0:0:
116,253,132488,1,0,0:0:0:0:
187,216,132702,1,0,0:0:0:0:
236,331,132916,5,0,0:0:0:0:
483,278,133131,1,0,0:0:0:0:
483,278,133238,1,0,0:0:0:0:
491,266,133559,5,0,0:0:0:0:
391,343,133774,1,0,0:0:0:0:
265,333,133988,1,0,0:0:0:0:
273,326,134095,1,0,0:0:0:0:
283,324,134202,1,0,0:0:0:0:
166,370,134416,1,0,0:0:0:0:
85,124,134631,5,0,0:0:0:0:
86,249,134845,1,0,0:0:0:0:
205,286,135059,1,0,0:0:0:0:
279,247,135274,1,0,0:0:0:0:
338,305,135488,1,0,0:0:0:0:
301,379,135702,1,0,0:0:0:0:
338,189,135916,1,0,0:0:0:0:
414,153,136131,1,0,0:0:0:0:
471,214,136345,5,0,0:0:0:0:
227,148,136559,1,0,0:0:0:0:
227,148,136666,1,0,0:0:0:0:
214,137,136988,5,0,0:0:0:0:
461,93,137202,1,0,0:0:0:0:
387,203,137416,1,0,0:0:0:0:
335,214,137523,1,0,0:0:0:0:
288,188,137631,1,0,0:0:0:0:
476,176,137845,1,0,0:0:0:0:
85,254,138059,5,0,0:0:0:0:
329,317,138274,1,0,0:0:0:0:
329,317,138381,1,0,0:0:0:0:
346,309,138702,5,0,0:0:0:0:
231,256,138916,1,0,0:0:0:0:
114,304,139131,1,0,0:0:0:0:
123,307,139238,1,0,0:0:0:0:
133,307,139345,1,0,0:0:0:0:
141,181,139559,1,0,0:0:0:0:
206,336,139774,5,0,0:0:0:0:
245,87,139988,1,0,0:0:0:0:
245,87,140095,1,0,0:0:0:0:
231,69,140416,5,0,0:0:0:0:
335,140,140631,1,0,0:0:0:0:
458,116,140845,1,0,0:0:0:0:
463,106,140952,1,0,0:0:0:0:
466,96,141059,1,0,0:0:0:0:
386,69,141274,1,0,0:0:0:0:
436,228,141488,5,0,0:0:0:0:
319,274,141702,1,0,0:0:0:0:
211,208,141916,1,0,0:0:0:0:
375,243,142131,1,0,0:0:0:0:
192,346,142345,5,0,0:0:0:0:
18,228,142559,1,0,0:0:0:0:
182,266,142774,1,0,0:0:0:0:
304,151,142988,1,0,0:0:0:0:
489,321,143202,5,0,0:0:0:0:
252,234,143416,1,0,0:0:0:0:
419,213,143631,5,0,0:0:0:0:
199,336,143845,1,0,0:0:0:0:
407,323,144059,5,0,0:0:0:0:
315,284,144166,1,0,0:0:0:0:
374,278,144274,5,0,0:0:0:0:
284,330,144381,1,0,0:0:0:0:
419,239,144488,6,0,L|418:211,6,26.25,0|0|0|0|0|0|0,0:0|0:0|0:0|0:0|0:0|0:0|0:0,0:0:0:0:
418,163,144916,5,0,0:0:0:0:
366,259,145024,1,0,0:0:0:0:
470,197,145131,5,0,0:0:0:0:
317,174,145238,1,0,0:0:0:0:
479,206,145345,5,0,0:0:0:0:
309,237,145452,1,0,0:0:0:0:
424,133,145559,5,0,0:0:0:0:
440,265,145666,1,0,0:0:0:0:
369,161,145774,6,0,P|347:150|318:149,1,52.5,0|0,0:0|0:0,0:0:0:0:
266,180,145934,1,0,0:0:0:0:
266,180,145988,2,0,P|240:192|215:191,1,52.5,0|0,0:0|0:0,0:0:0:0:
159,115,146202,6,0,L|159:57,1,52.5,0|0,0:0|0:0,0:0:0:0:
135,16,146416,1,0,0:0:0:0:
168,167,146524,1,0,0:0:0:0:
45,128,146738,5,0,0:0:0:0:
243,76,146845,1,0,0:0:0:0:
67,259,147059,5,0,0:0:0:0:
273,230,147166,1,0,0:0:0:0:
126,311,147274,1,0,0:0:0:0:
364,275,147488,6,0,L|333:271,1,26.25,0|0,0:0|0:0,0:0:0:0:
192,277,147595,2,0,L|218:280,1,26.25,0|0,0:0|0:0,0:0:0:0:
283,323,147703,1,0,0:0:0:0:
257,14,147916,5,0,0:0:0:0:
399,237,148345,5,0,0:0:0:0:
356,97,148452,1,0,0:0:0:0:
377,230,148559,5,0,0:0:0:0:
395,137,148666,1,0,0:0:0:0:
321,187,148774,5,0,0:0:0:0:
454,152,148881,1,0,0:0:0:0:
295,158,148988,5,0,0:0:0:0:
436,183,149095,1,0,0:0:0:0:
298,235,149202,2,0,P|266:237|245:226,1,52.5,0|0,0:0|0:0,0:0:0:0:
197,256,149363,1,0,0:0:0:0:
197,256,149416,2,0,L|134:263,1,52.5,0|0,0:0|0:0,0:0:0:0:
48,221,149631,6,0,P|73:217|99:225,1,52.5,0|0,0:0|0:0,0:0:0:0:
151,210,149845,1,0,0:0:0:0:
6,320,149952,1,0,0:0:0:0:
28,145,150166,5,0,0:0:0:0:
204,189,150273,1,0,0:0:0:0:
136,342,150488,5,0,0:0:0:0:
121,108,150595,1,0,0:0:0:0:
136,342,150702,1,0,0:0:0:0:
219,174,150916,6,0,L|257:180,1,26.25,0|0,0:0|0:0,0:0:0:0:
357,213,151024,2,0,L|319:219,1,26.25,0|0,0:0|0:0,0:0:0:0:
244,255,151131,5,0,0:0:0:0:
303,181,151238,1,0,0:0:0:0:
362,268,151345,5,0,0:0:0:0:
291,158,151452,1,0,0:0:0:0:
206,289,151559,1,0,0:0:0:0:
125,103,151666,1,0,0:0:0:0:
35,312,151774,5,0,0:0:0:0:
141,256,151881,1,0,0:0:0:0:
41,257,151988,5,0,0:0:0:0:
175,312,152095,1,0,0:0:0:0:
84,292,152202,5,0,0:0:0:0:
219,257,152309,1,0,0:0:0:0:
123,241,152416,5,0,0:0:0:0:
227,321,152524,1,0,0:0:0:0:
198,197,152631,6,0,P|209:172|210:147,1,52.5,0|0,0:0|0:0,0:0:0:0:
152,310,152845,2,0,P|141:335|140:360,1,52.5,0|0,0:0|0:0,0:0:0:0:
227,321,153059,6,0,L|303:322,1,52.5,0|0,0:0|0:0,0:0:0:0:
331,295,153274,1,0,0:0:0:0:
427,357,153381,1,0,0:0:0:0:
368,148,153595,5,0,0:0:0:0:
396,289,153702,1,0,0:0:0:0:
412,172,153809,5,0,0:0:0:0:
356,244,153916,1,0,0:0:0:0:
319,161,154024,1,0,0:0:0:0:
414,230,154131,5,0,0:0:0:0:
299,214,154238,1,0,0:0:0:0:
399,155,154345,6,0,P|426:148|453:136,1,52.5,0|0,0:0|0:0,0:0:0:0:
310,142,154559,2,0,P|285:131|260:125,1,52.5,0|0,0:0|0:0,0:0:0:0:
192,75,154774,5,0,0:0:0:0:
163,131,154881,1,0,0:0:0:0:
131,80,154988,1,0,0:0:0:0:
99,119,155095,1,0,0:0:0:0:
76,76,155202,5,0,0:0:0:0:
140,354,155416,1,0,0:0:0:0:
275,15,155631,1,0,0:0:0:0:
283,354,155845,1,0,0:0:0:0:
436,33,156059,5,0,0:0:0:0:
423,187,156166,1,0,0:0:0:0:
474,68,156274,5,0,0:0:0:0:
374,168,156381,1,0,0:0:0:0:
438,294,156488,1,0,0:0:0:0:
408,97,156702,5,0,0:0:0:0:
377,152,156809,1,0,0:0:0:0:
419,36,156916,5,0,0:0:0:0:
393,212,157023,1,0,0:0:0:0:
333,108,157131,5,0,0:0:0:0:
330,193,157238,1,0,0:0:0:0:
274,90,157345,5,0,0:0:0:0:
272,217,157452,1,0,0:0:0:0:
213,105,157559,5,0,0:0:0:0:
209,220,157666,1,0,0:0:0:0:
167,147,157774,5,0,0:0:0:0:
148,206,157881,1,0,0:0:0:0:
98,165,157987,5,0,0:0:0:0:
160,267,158095,1,0,0:0:0:0:
62,114,158202,6,0,P|62:140|72:174,1,52.5,0|0,0:0|0:0,0:0:0:0:
91,225,158416,1,0,0:0:0:0:
96,233,158524,1,0,0:0:0:0:
21,211,158631,5,0,0:0:0:0:
145,189,158738,1,0,0:0:0:0:
39,182,158845,5,0,0:0:0:0:
153,220,158952,1,0,0:0:0:0:
55,264,159059,5,0,0:0:0:0:
113,150,159166,1,0,0:0:0:0:
126,275,159274,5,0,0:0:0:0:
88,131,159381,1,0,0:0:0:0:
60,278,159488,2,0,P|69:317|81:333,1,52.5,0|0,0:0|0:0,0:0:0:0:
135,338,159649,1,0,0:0:0:0:
135,338,159702,2,0,L|201:345,1,52.5,0|0,0:0|0:0,0:0:0:0:
284,280,159916,6,0,P|310:288|333:309,1,52.5,0|0,0:0|0:0,0:0:0:0:
291,351,160131,1,0,0:0:0:0:
303,232,160238,1,0,0:0:0:0:
347,327,160345,5,0,0:0:0:0:
227,290,160452,1,0,0:0:0:0:
349,273,160559,5,0,0:0:0:0:
237,345,160666,1,0,0:0:0:0:
318,213,160774,5,0,0:0:0:0:
302,369,160881,1,0,0:0:0:0:
182,138,161095,5,0,0:0:0:0:
211,229,161202,2,0,L|215:204,1,26.25,0|0,0:0|0:0,0:0:0:0:
234,99,161309,2,0,L|238:124,1,26.25,0|0,0:0|0:0,0:0:0:0:
268,231,161416,5,0,0:0:0:0:
156,190,161524,1,0,0:0:0:0:
316,184,161631,6,0,L|206:183,1,105,0|0,0:0|0:0,0:0:0:0:
42,53,162059,5,0,0:0:0:0:
94,141,162166,1,0,0:0:0:0:
182,89,162274,5,0,0:0:0:0:
14,103,162381,1,0,0:0:0:0:
152,140,162488,5,0,0:0:0:0:
61,66,162595,1,0,0:0:0:0:
76,193,162702,5,0,0:0:0:0:
121,77,162809,1,0,0:0:0:0:
157,166,162916,6,0,P|182:153|211:151,1,52.5,0|0,0:0|0:0,0:0:0:0:
260,182,163077,1,0,0:0:0:0:
260,182,163131,2,0,P|311:181|374:169,1,105,0|0,0:0|0:0,0:0:0:0:
491,114,163452,5,0,0:0:0:0:
385,100,163559,1,0,0:0:0:0:
428,202,163666,1,0,0:0:0:0:
469,47,163774,5,0,0:0:0:0:
362,113,163881,1,0,0:0:0:0:
506,92,163988,5,0,0:0:0:0:
375,41,164095,1,0,0:0:0:0:
409,157,164202,1,0,0:0:0:0:
258,229,164416,5,0,0:0:0:0:
306,83,164524,1,0,0:0:0:0:
351,214,164738,6,0,P|341:192|328:177,1,26.25,0|0,0:0|0:0,0:0:0:0:
295,72,164845,1,0,0:0:0:0:
315,301,165059,5,0,0:0:0:0:
28,179,165488,5,0,0:0:0:0:
101,217,165595,1,0,0:0:0:0:
10,181,165702,5,0,0:0:0:0:
156,163,165809,1,0,0:0:0:0:
48,263,165916,5,0,0:0:0:0:
77,119,166024,1,0,0:0:0:0:
138,252,166131,5,0,0:0:0:0:
31,234,166238,1,0,0:0:0:0:
145,168,166345,6,0,P|143:141|152:113,1,52.5,0|0,0:0|0:0,0:0:0:0:
187,217,166559,2,0,L|307:224,1,105,0|0,0:0|0:0,0:0:0:0:
388,201,166881,5,0,0:0:0:0:
287,202,166988,1,0,0:0:0:0:
344,278,167095,1,0,0:0:0:0:
369,180,167202,5,0,0:0:0:0:
324,89,167309,1,0,0:0:0:0:
340,221,167416,5,0,0:0:0:0:
396,123,167524,1,0,0:0:0:0:
280,152,167631,5,0,0:0:0:0:
409,118,167738,1,0,0:0:0:0:
398,201,167845,5,0,0:0:0:0:
380,70,167952,1,0,0:0:0:0:
348,160,168059,1,0,0:0:0:0:
511,54,168274,5,0,0:0:0:0:
281,20,168488,5,0,0:0:0:0:
243,63,168595,1,0,0:0:0:0:
172,82,168702,1,0,0:0:0:0:
87,39,168809,1,0,0:0:0:0:
101,34,168916,5,0,0:0:0:0:
66,292,169131,1,0,0:0:0:0:
246,71,169345,5,0,0:0:0:0:
282,352,169559,1,0,0:0:0:0:
300,173,169666,1,0,0:0:0:0:
324,310,169774,1,0,0:0:0:0:
345,38,169988,5,0,0:0:0:0:
363,217,170095,1,0,0:0:0:0:
387,80,170203,1,0,0:0:0:0:
412,182,170416,5,0,0:0:0:0:
351,170,170523,1,0,0:0:0:0:
418,179,170631,5,0,0:0:0:0:
353,202,170738,1,0,0:0:0:0:
312,122,170845,5,0,0:0:0:0:
321,255,170952,1,0,0:0:0:0:
313,60,171059,5,0,0:0:0:0:
331,316,171166,1,0,0:0:0:0:
354,13,171274,5,0,0:0:0:0:
378,356,171381,1,0,0:0:0:0:
414,4,171488,5,0,0:0:0:0:
439,357,171595,1,0,0:0:0:0:
416,66,171702,5,0,0:0:0:0:
433,295,171809,1,0,0:0:0:0:
393,124,171916,6,0,L|393:166,1,26.25,0|0,0:0|0:0,0:0:0:0:
402,241,172024,2,0,L|401:199,1,26.25,0|0,0:0|0:0,0:0:0:0:
343,158,172131,6,0,L|318:149,1,26.25,0|0,0:0|0:0,0:0:0:0:
347,210,172238,2,0,L|324:224,1,26.25,0|0,0:0|0:0,0:0:0:0:
284,189,172345,5,0,0:0:0:0:
381,315,172774,6,0,B|394:338|377:363|339:368|313:339|316:304|336:278|336:278|295:294|252:258|252:258|219:295|227:360|283:363|283:363|293:321|240:291|202:309|208:355|139:333|121:310,1,577.5,0|0,0:0|0:0,0:0:0:0:
75,233,174059,5,0,0:0:0:0:
77,201,174166,1,0,0:0:0:0:
103,184,174274,1,0,0:0:0:0:
134,187,174381,1,0,0:0:0:0:
154,241,174488,5,0,0:0:0:0:
156,209,174595,1,0,0:0:0:0:
182,192,174703,1,0,0:0:0:0:
213,195,174810,1,0,0:0:0:0:
233,141,174916,5,0,0:0:0:0:
235,173,175023,1,0,0:0:0:0:
261,190,175131,1,0,0:0:0:0:
292,187,175238,1,0,0:0:0:0:
312,133,175345,5,0,0:0:0:0:
314,165,175452,1,0,0:0:0:0:
340,182,175560,1,0,0:0:0:0:
371,179,175667,1,0,0:0:0:0:
391,233,175774,5,0,0:0:0:0:
393,201,175881,1,0,0:0:0:0:
371,179,175989,1,0,0:0:0:0:
340,182,176096,1,0,0:0:0:0:
312,133,176202,5,0,0:0:0:0:
314,165,176309,1,0,0:0:0:0:
292,187,176416,1,0,0:0:0:0:
261,190,176524,1,0,0:0:0:0:
233,141,176631,5,0,0:0:0:0:
213,195,176738,1,0,0:0:0:0:
156,209,176845,1,0,0:0:0:0:
103,184,176952,1,0,0:0:0:0:
75,233,177059,5,0,0:0:0:0:
77,201,177488,5,0,0:0:0:0:
103,184,177595,1,0,0:0:0:0:
112,154,177702,1,0,0:0:0:0:
129,128,177809,1,0,0:0:0:0:
168,96,177916,5,0,0:0:0:0:
136,97,178023,1,0,0:0:0:0:
112,78,178130,1,0,0:0:0:0:
83,67,178237,1,0,0:0:0:0:
75,117,178345,6,0,L|41:120,3,26.25,0|0|0|0,0:0|0:0|0:0|0:0,0:0:0:0:
112,154,178559,1,0,0:0:0:0:
129,128,178666,1,0,0:0:0:0:
136,97,178774,1,0,0:0:0:0:
168,96,178881,1,0,0:0:0:0:
192,115,178988,1,0,0:0:0:0:
216,96,179095,1,0,0:0:0:0:
262,68,179202,5,0,0:0:0:0:
248,97,179309,1,0,0:0:0:0:
261,125,179416,1,0,0:0:0:0:
287,143,179524,1,0,0:0:0:0:
329,100,179631,5,0,0:0:0:0:
315,129,179738,1,0,0:0:0:0:
328,157,179845,1,0,0:0:0:0:
325,188,179953,1,0,0:0:0:0:
302,210,180059,6,0,L|265:217,3,26.25,0|0|0|0,0:0|0:0|0:0|0:0,0:0:0:0:
325,188,180274,1,0,0:0:0:0:
328,157,180381,1,0,0:0:0:0:
315,129,180488,1,0,0:0:0:0:
329,100,180595,1,0,0:0:0:0:
360,98,180702,1,0,0:0:0:0:
379,73,180809,1,0,0:0:0:0:
413,119,180916,5,0,0:0:0:0:
443,127,181024,1,0,0:0:0:0:
456,155,181131,1,0,0:0:0:0:
442,183,181238,1,0,0:0:0:0:
384,202,181345,5,0,0:0:0:0:
403,226,181452,1,0,0:0:0:0:
430,240,181559,1,0,0:0:0:0:
409,263,181666,1,0,0:0:0:0:
358,295,181774,5,0,0:0:0:0:
381,316,181881,1,0,0:0:0:0:
407,328,181988,2,0,P|376:331|342:319,1,52.5,0|0,0:0|0:0,0:0:0:0:
301,282,182202,5,0,0:0:0:0:
317,255,182309,1,0,0:0:0:0:
311,224,182416,1,0,0:0:0:0:
283,208,182523,1,0,0:0:0:0:
239,250,182631,5,0,0:0:0:0:
221,176,182738,1,0,0:0:0:0:
249,192,182845,1,0,0:0:0:0:
255,223,182952,1,0,0:0:0:0:
250,280,183059,5,0,0:0:0:0:
268,354,183167,1,0,0:0:0:0:
240,338,183274,1,0,0:0:0:0:
234,307,183381,1,0,0:0:0:0:
255,223,183488,5,0,0:0:0:0:
250,280,183595,1,0,0:0:0:0:
240,338,183702,1,0,0:0:0:0:
301,351,183809,1,0,0:0:0:0:
362,338,183916,5,0,0:0:0:0:
329,335,184345,5,0,0:0:0:0:
301,351,184452,1,0,0:0:0:0:
268,354,184559,1,0,0:0:0:0:
240,338,184666,1,0,0:0:0:0:
190,377,184774,5,0,0:0:0:0:
178,347,184881,1,0,0:0:0:0:
187,316,184988,1,0,0:0:0:0:
163,294,185095,1,0,0:0:0:0:
132,302,185202,6,0,L|106:304,3,26.25,0|0|0|0,0:0|0:0|0:0|0:0,0:0:0:0:
62,340,185416,1,0,0:0:0:0:
50,310,185524,1,0,0:0:0:0:
57,279,185631,1,0,0:0:0:0:
81,258,185738,1,0,0:0:0:0:
62,232,185845,1,0,0:0:0:0:
76,203,185952,1,0,0:0:0:0:
116,256,186059,5,0,0:0:0:0:
81,258,186166,1,0,0:0:0:0:
62,232,186273,1,0,0:0:0:0:
30,227,186381,1,0,0:0:0:0:
37,169,186488,5,0,0:0:0:0:
72,171,186595,1,0,0:0:0:0:
91,145,186702,1,0,0:0:0:0:
123,140,186810,1,0,0:0:0:0:
125,194,186916,5,0,0:0:0:0:
155,187,187024,1,0,0:0:0:0:
162,238,187131,1,0,0:0:0:0:
213,228,187238,1,0,0:0:0:0:
261,247,187345,5,0,0:0:0:0:
325,225,187452,1,0,0:0:0:0:
322,153,187559,5,0,0:0:0:0:
386,175,187666,1,0,0:0:0:0:
383,247,187774,6,0,B|364:160|393:52|393:52|373:142|292:144|292:144|410:222|410:122|491:182|491:182|450:164|420:188,1,630,0|0,0:0|0:0,0:0:0:0:
459,239,189488,6,0,B|413:311|338:296|308:244|308:244|279:181|322:137|385:143|402:211|353:256|308:244|308:244|263:187|196:188|176:257|212:296|260:286,1,630,0|0,0:0|0:0,0:0:0:0:
261,137,191202,6,0,B|256:62|191:38|191:38|210:78|184:115|184:115|211:134|249:209|118:256|107:160|123:134|123:134|62:124|51:37|123:5|162:28|165:78|150:96|133:86,1,630,0|0,0:0|0:0,0:0:0:0:
53,168,192916,6,0,B|80:282|194:262|194:262|129:273|86:298|84:348|84:348|116:323|163:331,1,420,0|0,0:0|0:0,0:0:0:0:
155,329,194202,1,0,0:0:0:0:
374,280,194631,5,0,0:0:0:0:
251,328,194845,1,0,0:0:0:0:
127,270,195059,5,0,0:0:0:0:
250,318,195273,1,0,0:0:0:0:
372,260,195488,5,0,0:0:0:0:
249,308,195702,1,0,0:0:0:0:
125,250,195916,5,0,0:0:0:0:
248,298,196130,1,0,0:0:0:0:
374,104,196345,5,0,0:0:0:0:
251,56,196559,1,0,0:0:0:0:
127,114,196773,5,0,0:0:0:0:
250,66,196987,1,0,0:0:0:0:
372,124,197202,5,0,0:0:0:0:
249,76,197416,1,0,0:0:0:0:
125,134,197630,5,0,0:0:0:0:
248,86,197844,1,0,0:0:0:0:
370,142,198059,5,0,0:0:0:0:
351,190,198166,1,0,0:0:0:0:
311,222,198273,1,0,0:0:0:0:
259,230,198380,1,0,0:0:0:0:
211,209,198487,1,0,0:0:0:0:
163,188,198595,1,0,0:0:0:0:
111,196,198702,1,0,0:0:0:0:
71,228,198809,1,0,0:0:0:0:
64,279,198916,5,0,0:0:0:0:
73,325,199024,1,0,0:0:0:0:
119,316,199131,1,0,0:0:0:0:
110,271,199238,1,0,0:0:0:0:
64,279,199345,5,0,0:0:0:0:
73,325,199453,1,0,0:0:0:0:
119,316,199560,1,0,0:0:0:0:
110,271,199667,1,0,0:0:0:0:
71,228,199774,6,0,L|61:194,15,26.25,0|0|0|0|0|0|0|0|0|0|0|0|0|0|0|0,0:0|0:0|0:0|0:0|0:0|0:0|0:0|0:0|0:0|0:0|0:0|0:0|0:0|0:0|0:0|0:0,0:0:0:0:
105,161,200631,6,0,L|104:137,30,13.125,0|0|0|0|0|0|0|0|0|0|0|0|0|0|0|0|0|0|0|0|0|0|0|0|0|0|0|0|0|0|0,0:0|0:0|0:0|0:0|0:0|0:0|0:0|0:0|0:0|0:0|0:0|0:0|0:0|0:0|0:0|0:0|0:0|0:0|0:0|0:0|0:0|0:0|0:0|0:0|0:0|0:0|0:0|0:0|0:0|0:0|0:0,0:0:0:0:
154,117,201488,5,0,0:0:0:0:
154,117,208345,6,0,P|141:97|135:69,3,52.5,0|0|0|0,0:0|0:0|0:0|0:0,0:0:0:0:
200,69,208774,2,0,P|225:63|247:50,3,52.5,0|0|0|0,0:0|0:0|0:0|0:0,0:0:0:0:
218,132,209202,1,0,0:0:0:0:
201,4,209309,1,0,0:0:0:0:
178,162,209631,2,0,L|292:159,1,105,0|0,0:0|0:0,0:0:0:0:
427,216,210059,6,0,P|403:204|386:184,3,52.5,0|0|0|0,0:0|0:0|0:0|0:0,0:0:0:0:
391,102,210488,2,0,P|415:90|446:88,3,52.5,0|0|0|0,0:0|0:0|0:0|0:0,0:0:0:0:
437,150,210916,1,0,0:0:0:0:
339,142,211024,1,0,0:0:0:0:
308,190,211345,2,0,P|321:140|309:86,1,105,0|0,0:0|0:0,0:0:0:0:
265,62,211666,1,0,0:0:0:0:
215,43,211774,6,0,B|158:31|162:64|94:47,1,105,0|0,0:0|0:0,0:0:0:0:
14,173,212202,2,0,B|71:161|67:194|135:177,1,105,0|0,0:0|0:0,0:0:0:0:
165,218,212631,5,0,0:0:0:0:
208,188,212738,1,0,0:0:0:0:
118,192,212845,2,0,P|91:195|66:190,1,52.5,0|0,0:0|0:0,0:0:0:0:
161,151,213059,2,0,P|184:137|209:132,1,52.5,0|0,0:0|0:0,0:0:0:0:
264,212,213274,5,0,0:0:0:0:
309,254,213381,1,0,0:0:0:0:
308,172,213488,5,0,0:0:0:0:
239,272,213595,1,0,0:0:0:0:
368,157,213702,5,0,0:0:0:0:
430,252,213809,1,0,0:0:0:0:
429,171,213916,5,0,0:0:0:0:
370,269,214023,1,0,0:0:0:0:
474,208,214130,5,0,0:0:0:0:
497,265,214238,1,0,0:0:0:0:
409,295,214345,5,0,0:0:0:0:
500,319,214452,1,0,0:0:0:0:
404,302,214559,5,0,0:0:0:0:
495,326,214666,1,0,0:0:0:0:
399,309,214774,6,0,P|431:312|460:301,1,52.5,0|0,0:0|0:0,0:0:0:0:
494,353,214988,2,0,P|476:354|461:360,3,26.25,0|0|0|0,0:0|0:0|0:0|0:0,0:0:0:0:
416,363,215202,5,0,0:0:0:0:
346,326,215309,1,0,0:0:0:0:
272,353,215416,5,0,0:0:0:0:
357,345,215524,1,0,0:0:0:0:
260,333,215631,5,0,0:0:0:0:
331,271,215738,1,0,0:0:0:0:
319,380,215845,5,0,0:0:0:0:
261,283,215952,1,0,0:0:0:0:
218,361,216059,2,0,P|188:348|162:345,1,52.5,0|0,0:0|0:0,0:0:0:0:
120,365,216220,1,0,0:0:0:0:
120,365,216274,2,0,L|117:308,1,52.5,0|0,0:0|0:0,0:0:0:0:
56,204,216488,6,0,P|48:230|53:261,1,52.5,0|0,0:0|0:0,0:0:0:0:
66,306,216702,1,0,0:0:0:0:
96,171,216809,1,0,0:0:0:0:
361,136,217024,5,0,0:0:0:0:
331,271,217131,1,0,0:0:0:0:
318,96,217345,5,0,0:0:0:0:
453,126,217452,1,0,0:0:0:0:
278,139,217559,1,0,0:0:0:0:
480,46,217774,6,0,L|475:83,1,26.25,0|0,0:0|0:0,0:0:0:0:
437,206,217881,2,0,L|432:169,1,26.25,0|0,0:0|0:0,0:0:0:0:
434,115,217988,5,0,0:0:0:0:
502,223,218095,1,0,0:0:0:0:
321,179,218202,1,0,0:0:0:0:
110,298,218631,5,0,0:0:0:0:
175,195,218738,1,0,0:0:0:0:
192,281,218845,5,0,0:0:0:0:
116,162,218952,1,0,0:0:0:0:
86,232,219059,5,0,0:0:0:0:
229,209,219166,1,0,0:0:0:0:
69,213,219274,5,0,0:0:0:0:
220,232,219381,1,0,0:0:0:0:
133,282,219488,6,0,L|130:247,1,26.25,0|0,0:0|0:0,0:0:0:0:
172,144,219595,2,0,L|169:179,1,26.25,0|0,0:0|0:0,0:0:0:0:
167,219,219702,1,0,0:0:0:0:
57,105,219916,6,0,P|83:96|110:94,1,52.5,0|0,0:0|0:0,0:0:0:0:
159,93,220131,1,0,0:0:0:0:
21,66,220238,1,0,0:0:0:0:
119,161,220452,5,0,0:0:0:0:
248,89,220559,1,0,0:0:0:0:
355,183,220774,5,0,0:0:0:0:
172,144,220881,1,0,0:0:0:0:
383,118,220988,1,0,0:0:0:0:
246,311,221202,5,0,0:0:0:0:
231,192,221309,1,0,0:0:0:0:
182,283,221416,5,0,0:0:0:0:
318,235,221524,1,0,0:0:0:0:
181,224,221631,6,0,P|149:217|118:222,1,52.5,0|0,0:0|0:0,0:0:0:0:
265,321,221845,2,0,P|290:316|314:305,1,52.5,0|0,0:0|0:0,0:0:0:0:
500,350,222059,5,0,0:0:0:0:
393,283,222166,1,0,0:0:0:0:
479,287,222274,5,0,0:0:0:0:
349,345,222381,1,0,0:0:0:0:
442,377,222488,5,0,0:0:0:0:
409,223,222595,1,0,0:0:0:0:
406,334,222702,5,0,0:0:0:0:
409,211,222809,1,0,0:0:0:0:
463,281,222916,6,0,P|436:273|412:275,1,52.5,0|0,0:0|0:0,0:0:0:0:
341,327,223131,2,0,L|286:316,1,52.5,0|0,0:0|0:0,0:0:0:0:
272,179,223345,2,0,P|283:199|287:243,1,52.5,0|0,0:0|0:0,0:0:0:0:
263,272,223559,1,0,0:0:0:0:
311,142,223666,1,0,0:0:0:0:
334,253,223881,5,0,0:0:0:0:
168,213,223988,1,0,0:0:0:0:
243,258,224095,5,0,0:0:0:0:
214,158,224202,1,0,0:0:0:0:
114,187,224309,5,0,0:0:0:0:
263,197,224416,1,0,0:0:0:0:
160,108,224524,5,0,0:0:0:0:
178,270,224631,2,0,P|187:234|187:206,1,52.5,0|0,0:0|0:0,0:0:0:0:
123,297,224845,2,0,P|86:291|60:280,1,52.5,0|0,0:0|0:0,0:0:0:0:
175,330,225059,5,0,0:0:0:0:
245,365,225166,1,0,0:0:0:0:
319,336,225274,1,0,0:0:0:0:
389,371,225380,1,0,0:0:0:0:
463,342,225488,5,0,0:0:0:0:
91,343,225702,1,0,0:0:0:0:
423,203,225916,5,0,0:0:0:0:
97,173,226131,1,0,0:0:0:0:
412,94,226345,5,0,0:0:0:0:
259,77,226452,1,0,0:0:0:0:
410,43,226559,5,0,0:0:0:0:
295,123,226666,1,0,0:0:0:0:
180,43,226774,1,0,0:0:0:0:
11,237,226988,5,0,0:0:0:0:
39,127,227095,1,0,0:0:0:0:
76,243,227202,5,0,0:0:0:0:
46,189,227309,1,0,0:0:0:0:
125,283,227416,5,0,0:0:0:0:
102,155,227524,1,0,0:0:0:0:
185,301,227630,5,0,0:0:0:0:
165,148,227738,1,0,0:0:0:0:
247,296,227845,5,0,0:0:0:0:
225,166,227952,1,0,0:0:0:0:
304,263,228059,5,0,0:0:0:0:
272,205,228166,1,0,0:0:0:0:
306,324,228274,5,0,0:0:0:0:
344,216,228381,1,0,0:0:0:0:
364,304,228488,6,0,P|390:294|425:294,1,52.5,0|0,0:0|0:0,0:0:0:0:
467,269,228702,1,0,0:0:0:0:
478,257,228809,1,0,0:0:0:0:
429,350,228916,5,0,0:0:0:0:
418,229,229024,1,0,0:0:0:0:
480,324,229131,5,0,0:0:0:0:
356,282,229238,1,0,0:0:0:0:
490,337,229345,5,0,0:0:0:0:
379,332,229452,1,0,0:0:0:0:
441,209,229559,5,0,0:0:0:0:
414,292,229666,1,0,0:0:0:0:
356,221,229774,6,0,P|324:216|292:220,1,52.5,0|0,0:0|0:0,0:0:0:0:
270,260,229934,1,0,0:0:0:0:
270,260,229988,2,0,P|246:278|221:278,1,52.5,0|0,0:0|0:0,0:0:0:0:
143,260,230202,6,0,L|143:192,1,52.5,0|0,0:0|0:0,0:0:0:0:
145,156,230416,1,0,0:0:0:0:
178,304,230524,1,0,0:0:0:0:
84,181,230631,5,0,0:0:0:0:
227,221,230738,1,0,0:0:0:0:
70,264,230845,1,0,0:0:0:0:
141,37,231059,5,0,0:0:0:0:
61,192,231274,5,0,0:0:0:0:
247,152,231381,1,0,0:0:0:0:
26,108,231595,6,0,P|47:112|63:119,1,26.25,0|0,0:0|0:0,0:0:0:0:
258,162,231702,1,0,0:0:0:0:
15,252,231916,6,0,P|72:247|130:250,1,105,0|0,0:0|0:0,0:0:0:0:
321,299,232345,5,0,0:0:0:0:
197,320,232452,1,0,0:0:0:0:
290,215,232559,5,0,0:0:0:0:
276,352,232666,1,0,0:0:0:0:
180,233,232774,5,0,0:0:0:0:
282,264,232881,1,0,0:0:0:0:
251,366,232988,5,0,0:0:0:0:
234,181,233095,1,0,0:0:0:0:
189,306,233202,2,0,P|155:311|118:307,1,52.5,0|0,0:0|0:0,0:0:0:0:
88,336,233363,1,0,0:0:0:0:
88,336,233416,2,0,P|64:319|28:317,1,52.5,0|0,0:0|0:0,0:0:0:0:
14,225,233631,6,0,L|16:173,1,52.5,0|0,0:0|0:0,0:0:0:0:
145,204,233845,1,0,0:0:0:0:
53,264,233952,1,0,0:0:0:0:
125,142,234059,5,0,0:0:0:0:
134,266,234166,1,0,0:0:0:0:
65,144,234274,5,0,0:0:0:0:
191,182,234381,1,0,0:0:0:0:
92,192,234488,1,0,0:0:0:0:
9,301,234702,5,0,0:0:0:0:
275,242,234809,1,0,0:0:0:0:
323,302,235024,6,0,P|300:294|285:292,1,26.25,0|0,0:0|0:0,0:0:0:0:
53,264,235131,1,0,0:0:0:0:
61,320,235345,5,0,0:0:0:0:
412,218,235774,5,0,0:0:0:0:
296,233,235881,1,0,0:0:0:0:
370,283,235988,5,0,0:0:0:0:
378,177,236095,1,0,0:0:0:0:
322,85,236202,5,0,0:0:0:0:
360,227,236309,1,0,0:0:0:0:
426,119,236416,5,0,0:0:0:0:
276,140,236524,1,0,0:0:0:0:
394,165,236631,6,0,P|418:176|447:178,1,52.5
307,211,236845,2,0,P|260:192|205:192,1,105
128,186,237166,1,0,0:0:0:0:
197,210,237274,1,0,0:0:0:0:
155,116,237381,1,0,0:0:0:0:
165,298,237488,5,0,0:0:0:0:
202,141,237595,1,0,0:0:0:0:
116,162,237702,5,0,0:0:0:0:
137,248,237809,1,0,0:0:0:0:
223,227,237916,5,0,0:0:0:0:
76,206,238024,1,0,0:0:0:0:
232,212,238131,5,0,0:0:0:0:
90,271,238238,1,0,0:0:0:0:
200,158,238345,6,0,P|241:150|267:155,1,52.5
296,224,238559,2,0,L|352:228,1,52.5
421,315,238774,5,0,0:0:0:0:
373,292,238881,1,0,0:0:0:0:
289,304,238988,1,0,0:0:0:0:
205,375,239095,1,0,0:0:0:0:
223,383,239202,5,0,0:0:0:0:
71,182,239416,1,0,0:0:0:0:
378,351,239631,5,0,0:0:0:0:
142,31,239845,1,0,0:0:0:0:
498,196,240059,5,0,0:0:0:0:
379,88,240166,1,0,0:0:0:0:
462,240,240274,5,0,0:0:0:0:
439,76,240381,1,0,0:0:0:0:
285,14,240488,1,0,0:0:0:0:
55,187,240702,5,0,0:0:0:0:
76,245,240810,1,0,0:0:0:0:
84,132,240916,5,0,0:0:0:0:
125,282,241024,1,0,0:0:0:0:
138,101,241131,5,0,0:0:0:0:
187,287,241239,1,0,0:0:0:0:
200,105,241345,5,0,0:0:0:0:
242,257,241453,1,0,0:0:0:0:
250,142,241559,5,0,0:0:0:0:
292,259,241667,1,0,0:0:0:0:
299,147,241773,5,0,0:0:0:0:
404,300,241881,1,0,0:0:0:0:
354,117,241988,5,0,0:0:0:0:
342,296,242095,1,0,0:0:0:0:
416,122,242202,6,0,L|423:165,1,26.25
486,218,242309,2,0,L|493:174,1,26.25
465,159,242416,6,0,L|460:184,1,26.25
458,269,242524,2,0,L|453:243,1,26.25
402,207,242631,5,0,0:0:0:0:
376,224,242738,1,0,0:0:0:0:
346,211,242845,1,0,0:0:0:0:
315,217,242952,1,0,0:0:0:0:
272,204,243059,5,0,0:0:0:0:
287,232,243166,1,0,0:0:0:0:
274,261,243274,1,0,0:0:0:0:
243,268,243381,1,0,0:0:0:0:
241,194,243488,6,0,L|234:137,1,52.5
207,311,243702,2,0,L|200:368,1,52.5
137,186,243916,2,0,P|160:174|189:176,1,52.5
157,284,244131,2,0,P|134:271|118:247,1,52.5
137,133,244345,5,0,0:0:0:0:
92,105,244452,1,0,0:0:0:0:
185,112,244559,1,0,0:0:0:0:
267,48,244774,5,0,0:0:0:0:
165,26,244881,1,0,0:0:0:0:
212,56,244988,1,0,0:0:0:0:
69,64,245095,1,0,0:0:0:0:
45,125,245202,5,0,0:0:0:0:
124,63,245309,1,0,0:0:0:0:
214,125,245416,1,0,0:0:0:0:
92,105,245524,1,0,0:0:0:0:
84,154,245631,5,0,0:0:0:0:
20,78,245738,1,0,0:0:0:0:
61,197,245845,1,0,0:0:0:0:
196,169,245952,1,0,0:0:0:0:
243,164,246059,6,0,L|305:172,3,52.5
160,202,246488,2,0,L|98:210,3,52.5
233,223,246916,6,0,L|236:261,3,26.25
209,176,247131,1,0,0:0:0:0:
190,273,247238,1,0,0:0:0:0:
261,344,247345,1,0,0:0:0:0:
291,248,247452,1,0,0:0:0:0:
213,322,247559,2,0,L|175:325,3,26.25
255,293,247774,5,0,0:0:0:0:
235,249,247881,1,0,0:0:0:0:
312,296,247988,1,0,0:0:0:0:
415,251,248202,5,0,0:0:0:0:
367,234,248309,1,0,0:0:0:0:
366,303,248416,1,0,0:0:0:0:
329,199,248524,1,0,0:0:0:0:
426,300,248631,5,0,0:0:0:0:
319,248,248738,1,0,0:0:0:0:
397,341,248845,1,0,0:0:0:0:
452,218,248952,1,0,0:0:0:0:
447,346,249059,5,0,0:0:0:0:
312,296,249166,1,0,0:0:0:0:
475,306,249274,1,0,0:0:0:0:
313,368,249381,1,0,0:0:0:0:
274,343,249488,6,0,L|209:351,3,52.5
126,256,249916,2,0,L|191:264,3,52.5
91,218,250345,5,0,0:0:0:0:
171,170,250452,1,0,0:0:0:0:
258,212,250559,1,0,0:0:0:0:
211,201,250774,5,0,0:0:0:0:
241,165,250881,1,0,0:0:0:0:
235,298,250988,2,0,L|231:336,3,26.25
335,283,251202,5,0,0:0:0:0:
273,269,251309,1,0,0:0:0:0:
186,335,251416,1,0,0:0:0:0:
260,361,251524,1,0,0:0:0:0:
146,365,251631,5,0,0:0:0:0:
156,295,251738,1,0,0:0:0:0:
113,271,251845,1,0,0:0:0:0:
66,270,251952,1,0,0:0:0:0:
15,206,252059,5,0,0:0:0:0:
59,176,252274,6,0,L|114:183,1,52.5
25,81,252488,1,0,0:0:0:0:
15,130,252595,1,0,0:0:0:0:
154,153,252702,5,0,0:0:0:0:
63,124,252809,1,0,0:0:0:0:
193,120,252916,5,0,0:0:0:0:
214,209,253024,1,0,0:0:0:0:
166,270,253131,1,0,0:0:0:0:
191,317,253238,1,0,0:0:0:0:
240,146,253345,5,0,0:0:0:0:
236,93,253452,1,0,0:0:0:0:
214,258,253559,1,0,0:0:0:0:
275,182,253666,1,0,0:0:0:0:
164,195,253774,5,0,0:0:0:0:
289,133,253881,1,0,0:0:0:0:
259,231,253988,1,0,0:0:0:0:
286,273,254202,5,0,0:0:0:0:
385,292,254309,1,0,0:0:0:0:
245,300,254416,1,0,0:0:0:0:
228,166,254631,5,0,0:0:0:0:
348,198,254738,1,0,0:0:0:0:
237,216,254845,1,0,0:0:0:0:
366,149,254952,1,0,0:0:0:0:
334,262,255059,5,0,0:0:0:0:
326,120,255166,1,0,0:0:0:0:
376,291,255274,5,0,0:0:0:0:
410,207,255381,1,0,0:0:0:0:
366,149,255488,5,0,0:0:0:0:
378,242,255595,1,0,0:0:0:0:
486,182,255702,5,0,0:0:0:0:
453,284,255809,1,0,0:0:0:0:
401,82,255916,5,0,0:0:0:0:
396,195,256024,1,0,0:0:0:0:
503,56,256131,5,0,0:0:0:0:
453,146,256238,1,0,0:0:0:0:
367,44,256345,5,0,0:0:0:0:
