osu file format v14

[General]
AudioFilename: 03 Old Town_Sunshine.mp3
AudioLeadIn: 0
PreviewTime: 44508
Countdown: 0
SampleSet: Soft
StackLeniency: 0.6
Mode: 0
LetterboxInBreaks: 0
WidescreenStoryboard: 1

[Editor]
Bookmarks: 7864,135737,137704,151475,153442,165241,192782,215897,238028
DistanceSpacing: 1.3
BeatDivisor: 4
GridSize: 4
TimelineZoom: 1

[Metadata]
Title:Old Town/Sunshine
TitleUnicode:Old Town/Sunshine
Artist:nakinyko
ArtistUnicode:nakinyko
Creator:Cyllinus
Version:Hard
Source:
Tags:Gravity Mash: Gravity Rush Mashup Album Megumi Nakajima Seikan Hikou
BeatmapID:449696
BeatmapSetID:153342

[Difficulty]
HPDrainRate:6
CircleSize:4
OverallDifficulty:5
ApproachRate:7.5
SliderMultiplier:1.9
SliderTickRate:1

[Events]
//Background and Video events
0,0,"Gravity-Rush_flip.jpg",0,0
//Break Periods
2,39544,44420
2,80655,89666
2,124134,129011
2,161265,164420
2,192740,207699
//Storyboard Layer 0 (Background)
//Storyboard Layer 1 (Fail)
//Storyboard Layer 2 (Pass)
//Storyboard Layer 3 (Foreground)
//Storyboard Sound Samples

[TimingPoints]
0,491.803278688525,4,2,0,50,1,0
39344,-100,4,2,0,30,0,0
45245,-100,4,2,0,65,0,1
60000,-100,4,2,0,65,0,0
60983,-100,4,2,0,65,0,1
75737,-100,4,2,0,65,0,0
90491,-100,4,2,0,30,0,0
90983,-100,4,2,0,35,0,0
91475,-100,4,2,0,40,0,0
91967,-100,4,2,0,45,0,0
92459,-100,4,2,0,50,0,0
123934,-100,4,2,0,30,0,0
129836,-100,4,2,0,65,0,1
144590,-100,4,2,0,65,0,0
145573,-100,4,2,0,65,0,1
160327,-100,4,2,0,65,0,0
177049,-100,4,2,0,35,0,0
208524,-100,4,2,0,60,0,0
239508,-100,4,2,0,40,0,0
239754,-100,4,2,0,5,0,0
240000,-100,4,2,0,30,0,0
241967,-100,4,2,0,25,0,0
243934,-100,4,2,0,20,0,0
245901,-100,4,2,0,15,0,0
247868,-100,4,2,0,10,0,0

[Colours]
Combo1 : 80,105,105
Combo2 : 95,150,85
Combo3 : 160,150,90
Combo4 : 80,90,35
Combo5 : 130,90,75

[HitObjects]
364,144,7868,6,0,L|272:116,1,95,2|0,0:0|0:0,0:0:0:0:
204,52,8360,1,8,0:0:0:0:
204,52,8606,1,0,0:0:0:0:
204,52,8852,2,0,P|240:136|232:232,1,190,2|8,0:0|0:0,0:0:0:0:
188,316,9590,1,0,0:0:0:0:
188,316,9713,1,0,0:0:0:0:
188,316,9836,6,0,P|236:312|296:324,1,95,2|0,0:0|0:0,0:0:0:0:
376,328,10327,1,8,0:0:0:0:
460,284,10573,1,0,0:0:0:0:
452,188,10819,2,0,P|368:148|336:56,1,190,2|8,0:0|0:0,0:0:0:0:
428,92,11557,1,0,0:0:0:0:
356,156,11803,6,0,P|304:152|264:124,1,95,2|0,0:0|0:0,0:0:0:0:
192,72,12295,2,0,P|162:115|118:135,1,95,8|0,0:0|0:0,0:0:0:0:
36,172,12786,2,0,P|58:219|54:267,1,95,2|0,0:0|0:0,0:0:0:0:
45,356,13278,2,0,P|96:360|136:388,1,95,8|0,0:0|0:0,0:0:0:0:
224,360,13770,6,0,P|136:332|76:248,1,190,2|8,0:0|0:0,0:0:0:0:
36,172,14508,1,0,0:0:0:0:
132,176,14754,2,0,P|120:124|88:92,1,95,2|0,0:0|0:0,0:0:0:0:
132,176,15245,2,0,P|183:191|226:179,1,95,8|0,0:0|0:0,0:0:0:0:
248,184,15614,5,0,0:0:0:0:
248,184,15737,1,2,0:0:0:0:
332,228,15983,1,0,0:0:0:0:
408,284,16229,2,0,P|372:312|316:320,1,95,8|0,0:0|0:0,0:0:0:0:
244,268,16721,2,0,P|197:276|160:304,1,95,2|0,0:0|0:0,0:0:0:0:
80,356,17213,2,0,L|76:296,3,47.5,8|0|0|0,0:0|0:0|0:0|0:0,0:0:0:0:
44,316,17704,6,0,P|92:260|116:148,1,190,2|8,0:0|0:0,0:0:0:0:
140,56,18442,1,0,0:0:0:0:
140,56,18688,2,0,P|154:148|212:223,1,190,2|8,0:0|0:0,0:0:0:0:
300,260,19426,1,0,0:0:0:0:
392,280,19672,5,2,0:0:0:0:
392,280,19918,2,0,L|412:332,2,47.5,0|0|8,0:0|0:0|0:0,0:0:0:0:
364,188,20409,1,0,0:0:0:0:
336,96,20655,1,2,0:0:0:0:
336,96,20901,2,0,L|371:52,2,47.5,0|0|8,0:0|0:0|0:0,0:0:0:0:
272,168,21393,1,0,0:0:0:0:
256,192,21639,12,0,23114,0:0:0:0:
160,160,23606,6,0,P|174:251|255:292,2,190,2|8|2,0:0|0:0|0:0,0:0:0:0:
256,192,24836,1,0,0:0:0:0:
336,240,25081,1,8,0:0:0:0:
336,240,25204,1,0,0:0:0:0:
336,240,25327,2,0,P|348:264|352:284,2,47.5,0|0|2,0:0|0:0|0:0,0:0:0:0:
364,148,25819,1,0,0:0:0:0:
428,220,26065,6,0,P|444:268|444:320,1,95,8|0,0:0|0:0,0:0:0:0:
376,376,26557,2,0,L|280:372,1,95,2|0,0:0|0:0,0:0:0:0:
192,344,27049,1,8,0:0:0:0:
128,272,27295,1,0,0:0:0:0:
140,176,27540,6,0,P|212:136|280:40,1,190,2|8,0:0|0:0,0:0:0:0:
348,116,28278,1,0,0:0:0:0:
420,180,28524,2,0,P|348:220|280:316,2,190,2|8|2,0:0|0:0|0:0,0:0:0:0:
348,116,29754,5,0,0:0:0:0:
348,116,30000,1,8,0:0:0:0:
276,52,30245,2,0,P|264:24|248:4,2,47.5,0|0|2,0:0|0:0|0:0,0:0:0:0:
260,144,30737,1,0,0:0:0:0:
196,216,30983,2,0,P|172:220|144:216,3,47.5,8|0|0|0,0:0|0:0|0:0|0:0,0:0:0:0:
128,244,31475,6,0,P|176:264|212:292,1,95,2|0,0:0|0:0,0:0:0:0:
302,289,31967,2,0,P|340:261|384:244,1,95,8|0,0:0|0:0,0:0:0:0:
348,156,32459,2,0,P|256:176|164:156,1,190,2|8,0:0|0:0,0:0:0:0:
132,148,33073,1,0,0:0:0:0:
132,148,33196,2,0,L|92:176,2,47.5,0|0|2,0:0|0:0|0:0,0:0:0:0:
208,88,33688,5,0,0:0:0:0:
208,88,33934,2,0,P|256:97|304:89,1,95,8|0,0:0|0:0,0:0:0:0:
392,60,34426,2,0,P|404:164|444:248,1,190,2|8,0:0|0:0,0:0:0:0:
500,312,35163,1,0,0:0:0:0:
408,328,35409,6,0,P|368:320|312:332,1,95,2|0,0:0|0:0,0:0:0:0:
284,328,35778,1,0,0:0:0:0:
284,328,35901,2,0,L|172:320,1,95,8|0,0:0|0:0,0:0:0:0:
96,304,36393,2,0,P|152:292|184:264,1,95,2|0,0:0|0:0,0:0:0:0:
184,172,36885,2,0,P|221:144|268:136,1,95,8|0,0:0|0:0,0:0:0:0:
256,192,37377,12,4,39344,0:0:0:0:
332,192,45245,6,0,P|372:156|416:140,1,95,2|0,0:0|0:0,0:0:0:0:
288,120,45737,2,0,P|248:156|204:172,1,95,8|0,0:0|0:0,0:0:0:0:
92,204,46229,2,0,P|143:220|179:250,1,95,2|0,0:0|0:0,0:0:0:0:
264,332,46721,2,0,P|252:279|260:233,1,95,8|0,0:0|0:0,0:0:0:0:
288,120,47213,6,0,L|160:264,1,190,2|8,0:0|0:0,0:0:0:0:
264,332,47950,1,0,0:0:0:0:
264,332,48073,1,0,0:0:0:0:
264,332,48196,2,0,L|327:260,1,95,2|0,0:0|0:0,0:0:0:0:
404,164,48688,1,8,0:0:0:0:
288,120,48934,1,0,0:0:0:0:
404,164,49180,6,0,P|436:199|447:245,1,95,2|0,0:0|0:0,0:0:0:0:
371,341,49672,2,0,P|339:306|328:260,1,95,8|0,0:0|0:0,0:0:0:0:
344,140,50163,2,0,P|320:232|260:308,2,190,2|8|2,0:0|0:0|0:0,0:0:0:0:
384,52,51393,6,0,P|436:48|476:28,2,95,0|8|0,0:0|0:0|0:0,0:0:0:0:
288,60,52131,1,2,0:0:0:0:
192,68,52377,2,0,P|166:70|146:80,2,47.5,0|0|8,0:0|0:0|0:0,0:0:0:0:
288,60,52868,1,0,0:0:0:0:
344,140,53114,6,0,L|376:240,1,95,2|0,0:0|0:0,0:0:0:0:
308,336,53606,2,0,L|279:245,1,95,8|0,0:0|0:0,0:0:0:0:
240,128,54098,1,2,0:0:0:0:
240,128,54590,2,0,P|200:100|156:92,1,95,8|0,0:0|0:0,0:0:0:0:
32,80,55081,6,0,P|132:64|208:20,1,190,2|8,0:0|0:0,0:0:0:0:
332,40,55819,1,0,0:0:0:0:
332,40,55942,1,0,0:0:0:0:
332,40,56065,2,0,L|424:68,1,95,2|0,0:0|0:0,0:0:0:0:
472,180,56557,2,0,L|381:152,1,95,8|0,0:0|0:0,0:0:0:0:
288,128,57049,5,2,0:0:0:0:
212,32,57295,1,0,0:0:0:0:
288,128,57540,2,0,P|304:172|304:228,1,95,8|0,0:0|0:0,0:0:0:0:
264,308,58032,1,2,0:0:0:0:
385,290,58278,1,0,0:0:0:0:
264,308,58524,2,0,P|217:299|169:271,1,95,8|0,0:0|0:0,0:0:0:0:
116,168,59016,6,0,P|162:176|204:199,1,95,2|0,0:0|0:0,0:0:0:0:
168,319,59508,2,0,P|121:310|79:288,1,95,8|0,0:0|0:0,0:0:0:0:
80,288,60245,1,0,0:0:0:0:
80,288,60737,1,0,0:0:0:0:
176,276,60983,6,0,P|224:272|272:284,1,95,2|0,0:0|0:0,0:0:0:0:
380,336,61475,2,0,P|352:296|338:248,1,95,8|0,0:0|0:0,0:0:0:0:
329,129,61967,2,0,P|308:172|274:208,1,95,2|0,0:0|0:0,0:0:0:0:
176,276,62459,2,0,P|128:280|79:268,1,95,8|0,0:0|0:0,0:0:0:0:
0,176,62950,6,0,L|192:152,1,190,2|8,0:0|0:0,0:0:0:0:
312,164,63688,1,0,0:0:0:0:
312,164,63811,1,0,0:0:0:0:
312,164,63934,2,0,P|356:196|400:204,1,95,2|0,0:0|0:0,0:0:0:0:
408,80,64426,2,0,P|364:48|320:40,1,95,8|0,0:0|0:0,0:0:0:0:
212,92,64918,6,0,P|198:46|205:0,2,95,2|0|8,0:0|0:0|0:0,0:0:0:0:
312,164,65655,1,0,0:0:0:0:
312,164,65901,2,0,P|240:160|124:204,2,190,2|8|2,0:0|0:0|0:0,0:0:0:0:
404,192,67131,5,0,0:0:0:0:
404,192,67377,2,0,L|488:140,1,95,8|0,0:0|0:0,0:0:0:0:
473,46,67868,2,0,L|392:96,1,95,2|0,0:0|0:0,0:0:0:0:
360,104,68236,1,0,0:0:0:0:
360,104,68359,1,8,0:0:0:0:
268,76,68606,1,0,0:0:0:0:
172,80,68852,6,0,L|84:116,1,95,2|0,0:0|0:0,0:0:0:0:
40,232,69344,2,0,L|128:196,1,95,8|0,0:0|0:0,0:0:0:0:
247,170,69836,2,0,P|225:212|225:259,1,95,2|0,0:0|0:0,0:0:0:0:
320,236,70327,1,8,0:0:0:0:
320,236,70819,6,0,P|408:188|440:100,1,190,2|8,0:0|0:0,0:0:0:0:
344,32,71557,2,0,L|296:36,2,47.5,0|0|2,0:0|0:0|0:0,0:0:0:0:
468,24,72049,1,0,0:0:0:0:
412,136,72295,2,0,L|308:144,1,95,8|0,0:0|0:0,0:0:0:0:
224,148,72786,5,2,0:0:0:0:
224,148,73032,1,0,0:0:0:0:
276,228,73278,2,0,P|284:288|268:332,1,95,8|0,0:0|0:0,0:0:0:0:
192,364,73770,1,2,0:0:0:0:
192,364,74016,1,0,0:0:0:0:
288,360,74262,2,0,L|382:356,1,95,8|0,0:0|0:0,0:0:0:0:
432,272,74754,6,0,L|337:275,1,95,2|0,0:0|0:0,0:0:0:0:
288,192,75245,2,0,L|383:189,1,95,8|0,0:0|0:0,0:0:0:0:
204,124,75983,1,0,0:0:0:0:
204,124,76475,1,0,0:0:0:0:
256,192,90491,12,0,91967,0:0:0:0:
164,152,92459,6,0,L|353:140,2,190,2|8|2,0:0|0:0|0:0,0:0:0:0:
76,188,93688,1,0,0:0:0:0:
68,285,93934,2,0,P|115:277|152:248,1,95,8|0,0:0|0:0,0:0:0:0:
180,236,94303,1,0,0:0:0:0:
180,236,94426,6,0,L|274:230,1,95,2|0,0:0|0:0,0:0:0:0:
252,324,94918,2,0,L|346:318,1,95,8|0,0:0|0:0,0:0:0:0:
440,332,95409,2,0,P|364:292|332:192,1,190,2|8,0:0|0:0,0:0:0:0:
376,112,96147,1,0,0:0:0:0:
464,76,96393,6,0,P|464:148|440:184,1,95,2|0,0:0|0:0,0:0:0:0:
376,112,96885,2,0,P|313:148|270:145,1,95,8|0,0:0|0:0,0:0:0:0:
200,172,97377,2,0,P|164:202|146:245,1,95,2|0,0:0|0:0,0:0:0:0:
240,260,97868,2,0,P|248:306|277:343,1,95,8|0,0:0|0:0,0:0:0:0:
368,364,98360,6,0,L|172:356,1,190,2|8,0:0|0:0,0:0:0:0:
84,336,99098,1,0,0:0:0:0:
84,336,99344,2,0,P|100:276|96:244,1,95,2|0,0:0|0:0,0:0:0:0:
48,164,99836,2,0,L|8:136,2,47.5,8|0|0,0:0|0:0|0:0,0:0:0:0:
80,172,100204,1,0,0:0:0:0:
80,172,100327,6,0,P|160:156|268:160,1,190,2|8,0:0|0:0,0:0:0:0:
360,184,101065,1,0,0:0:0:0:
448,224,101311,2,0,P|368:240|260:236,1,190,2|8,0:0|0:0,0:0:0:0:
228,240,101926,1,0,0:0:0:0:
228,240,102049,2,0,L|184:256,2,47.5,0|0|2,0:0|0:0|0:0,0:0:0:0:
244,332,102540,5,0,0:0:0:0:
152,348,102786,2,0,P|112:324|88:276,1,95,8|0,0:0|0:0,0:0:0:0:
112,192,103278,2,0,L|16:176,2,95,2|0|8,0:0|0:0|0:0,0:0:0:0:
208,204,104016,1,0,0:0:0:0:
208,204,104262,5,2,0:0:0:0:
304,216,104508,1,0,0:0:0:0:
304,216,104631,1,0,0:0:0:0:
304,216,104754,2,0,P|360:216|400:196,1,95,8|0,0:0|0:0,0:0:0:0:
472,144,105245,1,2,0:0:0:0:
456,52,105491,1,0,0:0:0:0:
364,28,105737,2,0,P|320:46|273:44,1,95,8|0,0:0|0:0,0:0:0:0:
180,32,106229,6,0,P|256:80|300:168,1,190,2|8,0:0|0:0,0:0:0:0:
300,264,106967,1,0,0:0:0:0:
272,356,107213,2,0,L|168:348,1,95,2|0,0:0|0:0,0:0:0:0:
124,268,107704,2,0,L|218:275,1,95,8|0,0:0|0:0,0:0:0:0:
316,272,108196,6,0,P|408:240|452:160,2,190,2|8|2,0:0|0:0|0:0,0:0:0:0:
218,275,109426,1,0,0:0:0:0:
128,244,109672,2,0,P|104:224|72:216,3,47.5,8|0|0|0,0:0|0:0|0:0|0:0,0:0:0:0:
60,200,110163,6,0,L|152:160,1,95,2|0,0:0|0:0,0:0:0:0:
236,196,110655,2,0,L|328:156,1,95,8|0,0:0|0:0,0:0:0:0:
400,216,111147,2,0,L|226:292,1,190,2|8,0:0|0:0,0:0:0:0:
140,332,111885,1,0,0:0:0:0:
148,236,112131,6,0,P|172:192|180:136,1,95,2|0,0:0|0:0,0:0:0:0:
276,156,112622,2,0,P|274:105|253:53,1,95,8|0,0:0|0:0,0:0:0:0:
168,40,113114,2,0,P|125:66|90:110,1,95,2|0,0:0|0:0,0:0:0:0:
180,148,113606,2,0,P|155:191|147:247,1,95,8|0,0:0|0:0,0:0:0:0:
176,328,114098,6,0,P|268:316|368:312,1,190,2|8,0:0|0:0,0:0:0:0:
460,324,114836,2,0,L|472:228,1,95,0|2,0:0|0:0,0:0:0:0:
456,136,115327,1,0,0:0:0:0:
456,136,115573,2,0,P|469:108|484:92,3,47.5,8|0|0|0,0:0|0:0|0:0|0:0,0:0:0:0:
496,64,116065,6,0,P|412:104|316:100,1,190,2|8,0:0|0:0,0:0:0:0:
228,68,116803,2,0,P|180:52|132:64,1,95,0|2,0:0|0:0,0:0:0:0:
80,136,117295,1,0,0:0:0:0:
176,148,117540,2,0,P|200:160|224:164,2,47.5,8|0|0,0:0|0:0|0:0,0:0:0:0:
160,176,117909,1,0,0:0:0:0:
160,176,118032,6,0,L|152:276,1,95,2|0,0:0|0:0,0:0:0:0:
240,236,118524,2,0,L|232:336,1,95,8|0,0:0|0:0,0:0:0:0:
144,368,119016,2,0,P|220:356|332:368,1,190,2|8,0:0|0:0,0:0:0:0:
424,352,119754,1,0,0:0:0:0:
500,296,120000,6,0,P|456:276|424:240,1,95,2|0,0:0|0:0,0:0:0:0:
408,212,120368,1,0,0:0:0:0:
408,212,120491,2,0,P|376:177|333:157,1,95,8|0,0:0|0:0,0:0:0:0:
236,152,120983,1,2,0:0:0:0:
148,184,121229,1,0,0:0:0:0:
56,164,121475,1,8,0:0:0:0:
148,184,121721,1,0,0:0:0:0:
220,244,121967,6,0,P|320:236|388:176,1,190,2|8,0:0|0:0,0:0:0:0:
412,88,122704,1,0,0:0:0:0:
328,48,122950,2,0,L|232:40,1,95,2|0,0:0|0:0,0:0:0:0:
200,48,123319,1,0,0:0:0:0:
200,48,123442,1,8,0:0:0:0:
124,104,123688,1,0,0:0:0:0:
124,104,123934,1,4,0:0:0:0:
164,304,129836,6,0,P|115:311|64:308,2,95,2|0|8,0:0|0:0|0:0,0:0:0:0:
280,268,130573,1,0,0:0:0:0:
280,268,130819,2,0,P|329:261|380:264,1,95,2|0,0:0|0:0,0:0:0:0:
492,296,131311,1,8,0:0:0:0:
492,296,131803,6,0,P|408:248|360:164,1,190,2|8,0:0|0:0,0:0:0:0:
296,64,132540,1,0,0:0:0:0:
296,64,132663,1,0,0:0:0:0:
296,64,132786,2,0,P|284:112|256:152,1,95,2|0,0:0|0:0,0:0:0:0:
164,228,133278,1,8,0:0:0:0:
108,340,133524,1,0,0:0:0:0:
108,340,133770,6,0,B|8:332,1,95,2|0,0:0|0:0,0:0:0:0:
108,252,134262,2,0,B|202:259,1,95,8|0,0:0|0:0,0:0:0:0:
324,288,134754,1,2,0:0:0:0:
324,288,135000,1,0,0:0:0:0:
416,368,135245,2,0,P|444:304|424:176,1,190,8|2,0:0|0:0,0:0:0:0:
360,124,135983,5,0,0:0:0:0:
388,30,136229,2,0,P|428:55|452:96,1,95,8|0,0:0|0:0,0:0:0:0:
432,187,136721,2,0,P|393:215|347:220,1,95,2|0,0:0|0:0,0:0:0:0:
320,240,137090,1,0,0:0:0:0:
320,240,137213,1,8,0:0:0:0:
272,160,137459,1,0,0:0:0:0:
284,68,137704,6,0,P|232:76|192:112,1,95,2|0,0:0|0:0,0:0:0:0:
160,220,138196,1,8,0:0:0:0:
76,128,138442,1,0,0:0:0:0:
160,220,138688,2,0,L|252:256,1,95,2|0,0:0|0:0,0:0:0:0:
360,312,139180,1,8,0:0:0:0:
360,312,139672,6,0,P|296:264|272:160,1,190,2|8,0:0|0:0,0:0:0:0:
316,44,140409,1,0,0:0:0:0:
316,44,140532,1,0,0:0:0:0:
316,44,140655,2,0,L|408:80,1,95,2|0,0:0|0:0,0:0:0:0:
444,196,141147,2,0,L|355:161,1,95,8|0,0:0|0:0,0:0:0:0:
268,128,141639,6,0,P|232:92|220:44,2,95,2|0|8,0:0|0:0|0:0,0:0:0:0:
355,161,142377,1,0,0:0:0:0:
444,196,142622,2,0,P|424:248|388:280,1,95,2|0,0:0|0:0,0:0:0:0:
308,312,143114,1,8,0:0:0:0:
308,312,143606,5,2,0:0:0:0:
252,236,143852,1,0,0:0:0:0:
216,324,144098,2,0,P|160:332|115:317,1,95,8|0,0:0|0:0,0:0:0:0:
308,312,144836,1,0,0:0:0:0:
308,312,145327,1,0,0:0:0:0:
252,236,145573,6,0,P|273:183|308:152,1,95,2|0,0:0|0:0,0:0:0:0:
376,256,146065,2,0,P|432:247|477:263,1,95,8|0,0:0|0:0,0:0:0:0:
420,372,146557,2,0,P|364:380|319:364,1,95,2|0,0:0|0:0,0:0:0:0:
376,256,147049,2,0,P|341:211|331:165,1,95,8|0,0:0|0:0,0:0:0:0:
300,56,147540,6,0,L|284:252,1,190,2|8,0:0|0:0,0:0:0:0:
240,360,148278,1,0,0:0:0:0:
240,360,148401,1,0,0:0:0:0:
240,360,148524,2,0,P|192:356|144:336,1,95,2|0,0:0|0:0,0:0:0:0:
100,224,149016,2,0,P|147:227|191:245,1,95,8|0,0:0|0:0,0:0:0:0:
316,260,149508,5,2,0:0:0:0:
240,360,149754,1,0,0:0:0:0:
316,260,150000,2,0,P|360:242|407:238,1,95,8|0,0:0|0:0,0:0:0:0:
464,128,150491,2,0,P|419:145|372:149,1,95,2|0,0:0|0:0,0:0:0:0:
256,104,150983,2,0,B|232:184|288:228|252:304,1,190,8|2,0:0|0:0,0:0:0:0:
184,352,151721,5,0,0:0:0:0:
96,320,151967,1,8,0:0:0:0:
184,352,152213,1,0,0:0:0:0:
184,352,152336,1,0,0:0:0:0:
184,352,152459,2,0,P|236:348|284:356,1,95,2|0,0:0|0:0,0:0:0:0:
368,320,152950,2,0,P|390:272|421:235,1,95,8|0,0:0|0:0,0:0:0:0:
512,228,153442,6,0,P|408:200|336:152,1,190,2|8,0:0|0:0,0:0:0:0:
240,80,154180,1,0,0:0:0:0:
116,92,154426,2,0,L|32:136,1,95,2|0,0:0|0:0,0:0:0:0:
0,256,154918,2,0,L|84:212,1,95,8|0,0:0|0:0,0:0:0:0:
204,184,155409,5,2,0:0:0:0:
204,184,155901,2,0,P|252:208|296:212,1,95,8|0,0:0|0:0,0:0:0:0:
308,240,156270,1,0,0:0:0:0:
308,240,156393,2,0,L|408:248,1,95,2|0,0:0|0:0,0:0:0:0:
476,348,156885,2,0,L|381:340,1,95,8|0,0:0|0:0,0:0:0:0:
288,328,157377,5,2,0:0:0:0:
192,332,157622,1,0,0:0:0:0:
192,332,157868,2,0,P|144:328|96:316,1,95,8|0,0:0|0:0,0:0:0:0:
36,244,158360,1,2,0:0:0:0:
129,223,158605,1,0,0:0:0:0:
129,223,158852,2,0,P|174:206|217:182,1,95,8|0,0:0|0:0,0:0:0:0:
280,116,159344,6,0,P|288:68|289:19,2,95,2|0|8,0:0|0:0|0:0,0:0:0:0:
280,116,160573,1,0,0:0:0:0:
280,116,161065,1,0,0:0:0:0:
304,144,165245,6,0,P|357:133|396:116,2,95,0|0|8,0:0|0:0|0:0,0:0:0:0:
208,144,165983,1,0,0:0:0:0:
208,144,166106,1,0,0:0:0:0:
208,144,166229,2,0,P|154:133|116:116,2,95,0|0|8,0:0|0:0|0:0,0:0:0:0:
208,144,167213,5,0,0:0:0:0:
304,144,167459,1,0,0:0:0:0:
256,224,167704,1,8,0:0:0:0:
256,320,167950,2,0,L|256:372,2,47.5,0|0|0,0:0|0:0|0:0,0:0:0:0:
256,224,168442,1,0,0:0:0:0:
256,224,168688,1,8,0:0:0:0:
256,224,169180,6,0,L|352:216,1,95,0|0,0:0|0:0,0:0:0:0:
350,216,169672,1,8,0:0:0:0:
256,160,170163,2,0,L|160:168,1,95,0|0,0:0|0:0,0:0:0:0:
162,168,170655,1,8,0:0:0:0:
350,216,171147,5,0,0:0:0:0:
350,216,171393,1,0,0:0:0:0:
344,120,171639,1,8,0:0:0:0:
256,160,171885,1,0,0:0:0:0:
256,160,172008,1,0,0:0:0:0:
256,160,172131,2,0,L|160:168,2,95,0|0|8,0:0|0:0|0:0,0:0:0:0:
256,160,173114,5,0,0:0:0:0:
344,120,173360,1,0,0:0:0:0:
350,216,173606,1,8,0:0:0:0:
162,168,174098,1,0,0:0:0:0:
168,264,174344,1,0,0:0:0:0:
256,224,174590,1,8,0:0:0:0:
256,224,175081,5,0,0:0:0:0:
256,224,175327,1,0,0:0:0:0:
256,224,175573,2,0,L|256:120,5,95,8|0|0|0|8|0,0:0|0:0|0:0|0:0|0:0|0:0,0:0:0:0:
176,76,177049,6,0,P|256:32|336:76,1,190,0|0,0:0|0:0,0:0:0:0:
336,264,178032,2,0,P|256:308|176:264,2,190,0|0|0,0:0|0:0|0:0,0:0:0:0:
336,264,179508,5,0,0:0:0:0:
364,172,179754,1,0,0:0:0:0:
364,172,179877,1,0,0:0:0:0:
364,172,180000,2,0,P|408:200|428:236,1,95,0|0,0:0|0:0,0:0:0:0:
404,328,180491,1,0,0:0:0:0:
336,264,180737,1,0,0:0:0:0:
272,332,180983,6,0,P|220:336|172:324,1,95,0|0,0:0|0:0,0:0:0:0:
240,252,181475,2,0,P|188:256|140:244,1,95,0|0,0:0|0:0,0:0:0:0:
64,196,181967,1,0,0:0:0:0:
64,196,182213,1,0,0:0:0:0:
148,152,182459,2,0,P|224:164|336:148,1,190,0|0,0:0|0:0,0:0:0:0:
432,152,183196,5,0,0:0:0:0:
432,152,183442,2,0,L|460:56,2,95,0|0|0,0:0|0:0|0:0,0:0:0:0:
420,248,184180,2,0,L|468:232,2,47.5,0|0|0,0:0|0:0|0:0,0:0:0:0:
332,280,184672,1,0,0:0:0:0:
332,280,184918,6,0,P|280:312|260:344,2,95,0|0|0,0:0|0:0|0:0,0:0:0:0:
420,248,185655,1,0,0:0:0:0:
348,184,185901,2,0,P|294:154|256:153,1,95,0|0,0:0|0:0,0:0:0:0:
168,168,186393,2,0,P|115:200|96:232,1,95,0|0,0:0|0:0,0:0:0:0:
156,304,186885,6,0,P|220:240|316:272,1,190,0|0,0:0|0:0,0:0:0:0:
245,335,187622,1,0,0:0:0:0:
245,335,187745,1,0,0:0:0:0:
245,335,187868,1,0,0:0:0:0:
245,335,188360,2,0,L|156:304,1,95,0|0,0:0|0:0,0:0:0:0:
76,252,188852,5,0,0:0:0:0:
76,252,189098,1,0,0:0:0:0:
76,252,189344,2,0,P|164:260|244:200,1,190,0|0,0:0|0:0,0:0:0:0:
300,128,190081,1,0,0:0:0:0:
300,128,190327,2,0,P|249:200|261:299,1,190,0|0,0:0|0:0,0:0:0:0:
295,383,191065,5,0,0:0:0:0:
295,383,191311,2,0,P|257:302|165:263,1,190,0|0,0:0|0:0,0:0:0:0:
76,252,192049,1,0,0:0:0:0:
76,252,192540,1,0,0:0:0:0:
328,304,208524,6,0,P|356:336|408:352,1,95,2|0,0:0|0:0,0:0:0:0:
376,232,209016,2,0,P|331:218|285:228,1,95,8|0,0:0|0:0,0:0:0:0:
184,304,209508,2,0,P|156:336|104:352,1,95,2|0,0:0|0:0,0:0:0:0:
57,240,210000,2,0,L|104:248,3,47.5,8|0|0|0,0:0|0:0|0:0|0:0,0:0:0:0:
136,231,210491,6,0,P|180:218|226:228,1,95,2|0,0:0|0:0,0:0:0:0:
328,304,210983,2,0,L|424:296,1,95,8|0,0:0|0:0,0:0:0:0:
496,196,211475,2,0,L|401:203,1,95,2|0,0:0|0:0,0:0:0:0:
276,192,211967,1,8,0:0:0:0:
328,304,212213,1,0,0:0:0:0:
276,192,212459,6,0,P|216:128|112:108,1,190,2|8,0:0|0:0,0:0:0:0:
156,224,213196,1,0,0:0:0:0:
156,224,213442,2,0,P|216:160|320:140,1,190,2|8,0:0|0:0,0:0:0:0:
428,192,214180,1,0,0:0:0:0:
460,312,214426,6,0,L|364:320,1,95,2|0,0:0|0:0,0:0:0:0:
248,364,214918,2,0,L|152:372,1,95,8|0,0:0|0:0,0:0:0:0:
68,284,215409,2,0,L|162:276,1,95,2|0,0:0|0:0,0:0:0:0:
280,244,215901,1,8,0:0:0:0:
280,244,216024,1,0,0:0:0:0:
280,244,216147,2,0,L|332:240,2,47.5,0|0|2,0:0|0:0|0:0,0:0:0:0:
368,332,216639,5,0,0:0:0:0:
248,364,216885,1,8,0:0:0:0:
162,276,217131,1,0,0:0:0:0:
162,276,217377,2,0,P|156:216|168:180,1,95,2|0,0:0|0:0,0:0:0:0:
232,80,217868,2,0,L|196:48,2,47.5,8|0|0,0:0|0:0|0:0,0:0:0:0:
260,100,218237,1,0,0:0:0:0:
260,100,218360,6,0,P|308:100|352:116,1,95,2|0,0:0|0:0,0:0:0:0:
424,216,218852,2,0,P|376:216|332:200,1,95,8|0,0:0|0:0,0:0:0:0:
208,192,219344,2,0,P|161:200|120:224,2,95,2|0|8,0:0|0:0|0:0,0:0:0:0:
332,200,220081,1,0,0:0:0:0:
436,268,220327,6,0,P|388:340|288:344,1,190,2|8,0:0|0:0,0:0:0:0:
200,180,221311,2,0,P|253:105|345:102,1,190,2|8,0:0|0:0,0:0:0:0:
256,192,222295,12,0,223770,0:0:0:0:
344,144,224262,5,2,0:0:0:0:
308,24,224508,1,0,0:0:0:0:
344,144,224754,2,0,P|340:191|314:231,1,95,8|0,0:0|0:0,0:0:0:0:
204,284,225245,2,0,P|236:324|368:352,1,190,2|8,0:0|0:0,0:0:0:0:
365,352,226229,6,0,P|404:312|440:296,2,95,2|0|8,0:0|0:0|0:0,0:0:0:0:
244,380,226967,1,0,0:0:0:0:
244,380,227090,1,0,0:0:0:0:
244,380,227213,2,0,L|140:372,1,95,2|0,0:0|0:0,0:0:0:0:
28,344,227704,1,8,0:0:0:0:
132,276,227950,1,0,0:0:0:0:
256,284,228196,6,0,P|308:268|344:240,1,95,2|0,0:0|0:0,0:0:0:0:
400,136,228688,2,0,P|360:98|317:81,1,95,8|0,0:0|0:0,0:0:0:0:
199,85,229180,2,0,P|186:138|193:183,1,95,2|0,0:0|0:0,0:0:0:0:
256,284,229672,2,0,L|448:252,1,190,8|2,0:0|0:0,0:0:0:0:
400,136,230409,6,0,P|352:132|308:108,2,95,0|8|0,0:0|0:0|0:0,0:0:0:0:
443,252,231147,2,0,L|336:272,1,95,2|0,0:0|0:0,0:0:0:0:
228,288,231639,2,0,P|180:284|136:260,1,95,8|0,0:0|0:0,0:0:0:0:
48,176,232131,6,0,P|140:160|232:184,1,190,2|8,0:0|0:0,0:0:0:0:
336,248,232868,1,0,0:0:0:0:
336,248,233114,2,0,P|379:224|408:188,1,95,2|0,0:0|0:0,0:0:0:0:
428,68,233606,2,0,P|432:172|452:260,2,190,8|2|8,0:0|0:0|0:0,0:0:0:0:
320,128,234836,5,0,0:0:0:0:
320,128,234959,1,0,0:0:0:0:
320,128,235081,2,0,P|288:168|244:196,1,95,2|0,0:0|0:0,0:0:0:0:
156,204,235573,1,8,0:0:0:0:
156,204,235819,1,0,0:0:0:0:
216,280,236065,6,0,P|258:300|305:306,2,95,2|0|8,0:0|0:0|0:0,0:0:0:0:
156,204,236802,1,0,0:0:0:0:
96,128,237049,2,0,P|53:107|6:101,2,95,2|0|8,0:0|0:0|0:0,0:0:0:0:
156,204,237786,1,0,0:0:0:0:
252,192,238032,6,0,L|364:184,1,95,2|0,0:0|0:0,0:0:0:0:
400,264,238524,2,0,L|305:270,1,95,8|0,0:0|0:0,0:0:0:0:
212,280,239016,1,2,0:0:0:0:
212,280,239262,1,0,0:0:0:0:
252,192,239508,2,0,P|272:144|272:96,1,95,8|0,0:0|0:0,0:0:0:0:
256,192,240000,12,0,247868,0:0:0:0:
