osu file format v14

[General]
AudioFilename: audio.mp3
AudioLeadIn: 0
PreviewTime: 110552
Countdown: 0
SampleSet: Normal
StackLeniency: 0.7
Mode: 3
LetterboxInBreaks: 0
SpecialStyle: 0
WidescreenStoryboard: 0

[Editor]
DistanceSpacing: 0.8
BeatDivisor: 8
GridSize: 32
TimelineZoom: 3.299999

[Metadata]
Title:Plan C
TitleUnicode:Plan C
Artist:nakahara ryutarou
ArtistUnicode:中原龍太郎
Creator:wcs2001
Version:Plan A
Source:
Tags:Ryu tech citypop 4k dump
BeatmapID:3985249
BeatmapSetID:1928849

[Difficulty]
HPDrainRate:8
CircleSize:4
OverallDifficulty:8
ApproachRate:5
SliderMultiplier:1.4
SliderTickRate:1

[Events]
//Background and Video events
0,0,"background.png",0,0
//Break Periods
2,72196,76241
//Storyboard Layer 0 (Background)
//Storyboard Layer 1 (Fail)
//Storyboard Layer 2 (Pass)
//Storyboard Layer 3 (Foreground)
//Storyboard Layer 4 (Overlay)
//Storyboard Sound Samples

[TimingPoints]
997,444.444444444444,4,1,0,100,1,0

[HitObjects]
64,192,997,5,0,0:0:0:0:
320,192,997,5,0,0:0:0:0:
448,192,997,1,0,0:0:0:0:
192,192,1219,1,0,0:0:0:0:
192,192,1330,1,0,0:0:0:0:
448,192,1441,1,0,0:0:0:0:
320,192,1441,1,0,0:0:0:0:
64,192,1552,1,0,0:0:0:0:
448,192,1663,1,0,0:0:0:0:
320,192,1663,1,0,0:0:0:0:
192,192,1774,1,0,0:0:0:0:
64,192,1885,1,0,0:0:0:0:
448,192,1885,1,0,0:0:0:0:
320,192,1996,1,0,0:0:0:0:
64,192,2108,1,0,0:0:0:0:
448,192,2219,1,0,0:0:0:0:
64,192,2330,1,0,0:0:0:0:
320,192,2333,1,0,0:0:0:0:
448,192,2441,1,0,0:0:0:0:
192,192,2552,1,0,0:0:0:0:
64,192,2663,1,0,0:0:0:0:
320,192,2774,1,0,0:0:0:0:
448,192,2774,1,0,0:0:0:0:
192,192,2996,1,0,0:0:0:0:
192,192,3108,1,0,0:0:0:0:
64,192,3219,1,0,0:0:0:0:
448,192,3222,1,0,0:0:0:0:
192,192,3330,1,0,0:0:0:0:
448,192,3441,1,0,0:0:0:0:
64,192,3441,1,0,0:0:0:0:
320,192,3552,1,0,0:0:0:0:
64,192,3663,1,0,0:0:0:0:
192,192,3663,1,0,0:0:0:0:
448,192,3774,1,0,0:0:0:0:
64,192,3885,1,0,0:0:0:0:
192,192,3996,1,0,0:0:0:0:
320,192,4108,1,0,0:0:0:0:
448,192,4108,1,0,0:0:0:0:
64,192,4219,1,0,0:0:0:0:
320,192,4330,1,0,0:0:0:0:
192,192,4441,1,0,0:0:0:0:
64,192,4552,1,0,0:0:0:0:
320,192,4552,1,0,0:0:0:0:
448,192,4774,1,0,0:0:0:0:
448,192,4885,1,0,0:0:0:0:
320,192,4996,1,0,0:0:0:0:
64,192,4996,1,0,0:0:0:0:
192,192,5108,1,0,0:0:0:0:
448,192,5219,1,0,0:0:0:0:
64,192,5219,1,0,0:0:0:0:
320,192,5330,1,0,0:0:0:0:
448,192,5441,1,0,0:0:0:0:
192,192,5441,1,0,0:0:0:0:
320,192,5552,1,0,0:0:0:0:
448,192,5663,1,0,0:0:0:0:
192,192,5663,1,0,0:0:0:0:
64,192,5774,1,0,0:0:0:0:
448,192,5885,1,0,0:0:0:0:
192,192,5885,1,0,0:0:0:0:
320,192,5996,1,0,0:0:0:0:
192,192,6108,1,0,0:0:0:0:
64,192,6108,1,0,0:0:0:0:
448,192,6219,1,0,0:0:0:0:
192,192,6330,1,0,0:0:0:0:
64,192,6330,1,0,0:0:0:0:
320,192,6441,1,0,0:0:0:0:
448,192,6552,1,0,0:0:0:0:
448,192,6663,1,0,0:0:0:0:
64,192,6774,1,0,0:0:0:0:
320,192,6774,1,0,0:0:0:0:
192,192,6885,1,0,0:0:0:0:
320,192,6996,1,0,0:0:0:0:
64,192,7108,1,0,0:0:0:0:
448,192,7219,1,0,0:0:0:0:
192,192,7219,1,0,0:0:0:0:
64,192,7330,1,0,0:0:0:0:
448,192,7441,1,0,0:0:0:0:
192,192,7552,1,0,0:0:0:0:
448,192,7663,1,0,0:0:0:0:
320,192,7663,1,0,0:0:0:0:
64,192,7774,1,0,0:0:0:0:
320,192,7885,1,0,0:0:0:0:
192,192,7996,1,0,0:0:0:0:
320,192,8108,1,0,0:0:0:0:
64,192,8108,1,0,0:0:0:0:
192,192,8219,1,0,0:0:0:0:
448,192,8330,1,0,0:0:0:0:
448,192,8441,1,0,0:0:0:0:
192,192,8552,1,0,0:0:0:0:
320,192,8552,1,0,0:0:0:0:
64,192,8663,1,0,0:0:0:0:
320,192,8774,1,0,0:0:0:0:
448,192,8774,1,0,0:0:0:0:
192,192,8885,1,0,0:0:0:0:
448,192,8996,1,0,0:0:0:0:
64,192,9108,1,0,0:0:0:0:
192,192,9219,1,0,0:0:0:0:
320,192,9330,1,0,0:0:0:0:
192,192,9441,1,0,0:0:0:0:
448,192,9552,1,0,0:0:0:0:
320,192,9663,1,0,0:0:0:0:
64,192,9774,1,0,0:0:0:0:
192,192,9885,1,0,0:0:0:0:
320,192,9885,1,0,0:0:0:0:
448,192,9996,1,0,0:0:0:0:
192,192,10108,1,0,0:0:0:0:
320,192,10108,1,0,0:0:0:0:
192,192,10219,1,0,0:0:0:0:
448,192,10330,1,0,0:0:0:0:
320,192,10330,1,0,0:0:0:0:
64,192,10441,1,0,0:0:0:0:
320,192,10552,1,0,0:0:0:0:
192,192,10552,1,0,0:0:0:0:
448,192,10663,1,0,0:0:0:0:
64,192,10774,1,0,0:0:0:0:
192,192,10774,1,0,0:0:0:0:
448,192,10885,1,0,0:0:0:0:
64,192,10996,1,0,0:0:0:0:
192,192,10996,1,0,0:0:0:0:
320,192,11108,1,0,0:0:0:0:
448,192,11219,1,0,0:0:0:0:
192,192,11219,1,0,0:0:0:0:
64,192,11330,1,0,0:0:0:0:
320,192,11330,1,0,0:0:0:0:
448,192,11441,1,0,0:0:0:0:
320,192,11552,1,0,0:0:0:0:
448,192,11663,1,0,0:0:0:0:
64,192,11663,1,0,0:0:0:0:
320,192,11774,1,0,0:0:0:0:
192,192,11885,1,0,0:0:0:0:
320,192,11885,1,0,0:0:0:0:
192,192,11996,1,0,0:0:0:0:
320,192,12108,1,0,0:0:0:0:
64,192,12108,1,0,0:0:0:0:
448,192,12219,1,0,0:0:0:0:
320,192,12330,1,0,0:0:0:0:
192,192,12330,1,0,0:0:0:0:
64,192,12441,1,0,0:0:0:0:
448,192,12552,1,0,0:0:0:0:
192,192,12552,1,0,0:0:0:0:
320,192,12663,1,0,0:0:0:0:
64,192,12774,1,0,0:0:0:0:
192,192,12774,1,0,0:0:0:0:
448,192,12885,1,0,0:0:0:0:
192,192,12996,1,0,0:0:0:0:
320,192,12996,1,0,0:0:0:0:
64,192,13108,1,0,0:0:0:0:
192,192,13219,1,0,0:0:0:0:
448,192,13219,1,0,0:0:0:0:
320,192,13330,1,0,0:0:0:0:
64,192,13441,1,0,0:0:0:0:
192,192,13441,1,0,0:0:0:0:
448,192,13552,1,0,0:0:0:0:
448,192,13663,1,0,0:0:0:0:
320,192,13663,1,0,0:0:0:0:
320,192,13774,1,0,0:0:0:0:
192,192,13885,1,0,0:0:0:0:
448,192,13885,1,0,0:0:0:0:
64,192,13996,1,0,0:0:0:0:
320,192,14108,1,0,0:0:0:0:
448,192,14108,1,0,0:0:0:0:
64,192,14219,1,0,0:0:0:0:
192,192,14330,1,0,0:0:0:0:
320,192,14330,1,0,0:0:0:0:
64,192,14441,1,0,0:0:0:0:
448,192,14552,1,0,0:0:0:0:
192,192,14552,1,0,0:0:0:0:
320,192,14663,1,0,0:0:0:0:
64,192,14774,1,0,0:0:0:0:
448,192,14774,1,0,0:0:0:0:
320,192,14885,1,0,0:0:0:0:
64,192,14996,1,0,0:0:0:0:
192,192,14996,1,0,0:0:0:0:
320,192,15108,1,0,0:0:0:0:
320,192,15219,1,0,0:0:0:0:
448,192,15219,1,0,0:0:0:0:
64,192,15219,1,0,0:0:0:0:
192,192,15330,1,0,0:0:0:0:
192,192,15441,1,0,0:0:0:0:
448,192,15441,1,0,0:0:0:0:
64,192,15441,1,0,0:0:0:0:
320,192,15552,1,0,0:0:0:0:
448,192,15663,1,0,0:0:0:0:
320,192,15663,1,0,0:0:0:0:
64,192,15663,1,0,0:0:0:0:
192,192,15774,1,0,0:0:0:0:
448,192,15885,1,0,0:0:0:0:
64,192,15885,1,0,0:0:0:0:
192,192,15996,1,0,0:0:0:0:
320,192,16108,1,0,0:0:0:0:
64,192,16108,1,0,0:0:0:0:
448,192,16108,1,0,0:0:0:0:
192,192,16219,1,0,0:0:0:0:
64,192,16330,1,0,0:0:0:0:
448,192,16330,1,0,0:0:0:0:
320,192,16330,1,0,0:0:0:0:
320,192,16441,1,0,0:0:0:0:
448,192,16552,1,0,0:0:0:0:
192,192,16552,1,0,0:0:0:0:
64,192,16552,1,0,0:0:0:0:
320,192,16663,1,0,0:0:0:0:
192,192,16774,1,0,0:0:0:0:
448,192,16774,1,0,0:0:0:0:
448,192,16885,1,0,0:0:0:0:
320,192,16996,1,0,0:0:0:0:
192,192,16996,1,0,0:0:0:0:
64,192,16996,1,0,0:0:0:0:
64,192,17108,1,0,0:0:0:0:
192,192,17219,1,0,0:0:0:0:
320,192,17219,1,0,0:0:0:0:
320,192,17330,1,0,0:0:0:0:
448,192,17441,1,0,0:0:0:0:
192,192,17441,1,0,0:0:0:0:
64,192,17441,1,0,0:0:0:0:
192,192,17552,1,0,0:0:0:0:
64,192,17663,1,0,0:0:0:0:
448,192,17663,1,0,0:0:0:0:
320,192,17663,1,0,0:0:0:0:
448,192,17774,1,0,0:0:0:0:
320,192,17885,1,0,0:0:0:0:
192,192,17885,1,0,0:0:0:0:
64,192,17885,1,0,0:0:0:0:
448,192,17996,1,0,0:0:0:0:
192,192,18108,1,0,0:0:0:0:
320,192,18108,1,0,0:0:0:0:
320,192,18219,1,0,0:0:0:0:
448,192,18330,1,0,0:0:0:0:
192,192,18330,1,0,0:0:0:0:
64,192,18330,1,0,0:0:0:0:
320,192,18441,1,0,0:0:0:0:
64,192,18552,1,0,0:0:0:0:
448,192,18552,1,0,0:0:0:0:
320,192,18663,1,0,0:0:0:0:
192,192,18774,1,0,0:0:0:0:
64,192,18774,1,0,0:0:0:0:
448,192,18774,1,0,0:0:0:0:
64,192,18885,1,0,0:0:0:0:
320,192,18996,1,0,0:0:0:0:
192,192,18996,1,0,0:0:0:0:
192,192,19108,1,0,0:0:0:0:
320,192,19219,1,0,0:0:0:0:
448,192,19219,1,0,0:0:0:0:
64,192,19219,1,0,0:0:0:0:
192,192,19330,1,0,0:0:0:0:
320,192,19441,1,0,0:0:0:0:
448,192,19441,1,0,0:0:0:0:
448,192,19552,1,0,0:0:0:0:
320,192,19663,1,0,0:0:0:0:
192,192,19663,1,0,0:0:0:0:
64,192,19663,1,0,0:0:0:0:
448,192,19774,1,0,0:0:0:0:
320,192,19885,1,0,0:0:0:0:
192,192,19996,1,0,0:0:0:0:
320,192,20108,1,0,0:0:0:0:
448,192,20108,1,0,0:0:0:0:
192,192,20108,1,0,0:0:0:0:
64,192,20219,1,0,0:0:0:0:
448,192,20330,1,0,0:0:0:0:
192,192,20441,1,0,0:0:0:0:
192,192,20552,1,0,0:0:0:0:
64,192,20552,1,0,0:0:0:0:
320,192,20552,1,0,0:0:0:0:
448,192,20663,1,0,0:0:0:0:
64,192,20774,1,0,0:0:0:0:
320,192,20774,1,0,0:0:0:0:
320,192,20885,1,0,0:0:0:0:
64,192,20996,1,0,0:0:0:0:
448,192,20996,1,0,0:0:0:0:
192,192,20996,1,0,0:0:0:0:
320,192,21108,1,0,0:0:0:0:
448,192,21219,1,0,0:0:0:0:
192,192,21219,1,0,0:0:0:0:
64,192,21330,1,0,0:0:0:0:
448,192,21441,1,0,0:0:0:0:
192,192,21441,1,0,0:0:0:0:
320,192,21441,1,0,0:0:0:0:
320,192,21552,1,0,0:0:0:0:
64,192,21663,1,0,0:0:0:0:
448,192,21663,1,0,0:0:0:0:
320,192,21774,1,0,0:0:0:0:
64,192,21885,1,0,0:0:0:0:
192,192,21885,1,0,0:0:0:0:
448,192,21885,1,0,0:0:0:0:
320,192,21996,1,0,0:0:0:0:
448,192,22108,1,0,0:0:0:0:
64,192,22108,1,0,0:0:0:0:
192,192,22219,1,0,0:0:0:0:
320,192,22330,1,0,0:0:0:0:
448,192,22330,1,0,0:0:0:0:
64,192,22330,1,0,0:0:0:0:
192,192,22441,1,0,0:0:0:0:
320,192,22552,1,0,0:0:0:0:
448,192,22552,1,0,0:0:0:0:
64,192,22552,1,0,0:0:0:0:
192,192,22663,1,0,0:0:0:0:
448,192,22774,1,0,0:0:0:0:
192,192,22774,1,0,0:0:0:0:
64,192,22774,1,0,0:0:0:0:
320,192,22885,1,0,0:0:0:0:
192,192,22996,1,0,0:0:0:0:
64,192,22996,1,0,0:0:0:0:
448,192,23108,1,0,0:0:0:0:
320,192,23219,1,0,0:0:0:0:
64,192,23219,1,0,0:0:0:0:
448,192,23219,1,0,0:0:0:0:
192,192,23330,1,0,0:0:0:0:
64,192,23441,1,0,0:0:0:0:
448,192,23441,1,0,0:0:0:0:
320,192,23441,1,0,0:0:0:0:
192,192,23552,1,0,0:0:0:0:
448,192,23663,1,0,0:0:0:0:
320,192,23663,1,0,0:0:0:0:
64,192,23663,1,0,0:0:0:0:
64,192,23774,1,0,0:0:0:0:
192,192,23885,1,0,0:0:0:0:
448,192,23885,1,0,0:0:0:0:
320,192,23996,1,0,0:0:0:0:
448,192,24108,1,0,0:0:0:0:
192,192,24108,1,0,0:0:0:0:
64,192,24108,1,0,0:0:0:0:
448,192,24219,1,0,0:0:0:0:
64,192,24330,1,0,0:0:0:0:
320,192,24330,1,0,0:0:0:0:
192,192,24441,1,0,0:0:0:0:
448,192,24552,1,0,0:0:0:0:
320,192,24552,1,0,0:0:0:0:
64,192,24552,1,0,0:0:0:0:
192,192,24663,1,0,0:0:0:0:
64,192,24774,1,0,0:0:0:0:
448,192,24774,1,0,0:0:0:0:
192,192,24774,1,0,0:0:0:0:
320,192,24885,1,0,0:0:0:0:
448,192,24996,1,0,0:0:0:0:
192,192,24996,1,0,0:0:0:0:
64,192,24996,1,0,0:0:0:0:
320,192,25108,1,0,0:0:0:0:
192,192,25219,1,0,0:0:0:0:
448,192,25219,1,0,0:0:0:0:
64,192,25330,1,0,0:0:0:0:
448,192,25441,1,0,0:0:0:0:
192,192,25441,1,0,0:0:0:0:
320,192,25441,1,0,0:0:0:0:
320,192,25552,1,0,0:0:0:0:
192,192,25663,1,0,0:0:0:0:
448,192,25663,1,0,0:0:0:0:
64,192,25774,1,0,0:0:0:0:
192,192,25885,1,0,0:0:0:0:
64,192,25885,1,0,0:0:0:0:
448,192,25885,1,0,0:0:0:0:
448,192,25996,1,0,0:0:0:0:
320,192,26108,1,0,0:0:0:0:
192,192,26108,1,0,0:0:0:0:
448,192,26219,1,0,0:0:0:0:
192,192,26330,1,0,0:0:0:0:
448,192,26330,1,0,0:0:0:0:
64,192,26330,1,0,0:0:0:0:
320,192,26441,1,0,0:0:0:0:
192,192,26552,1,0,0:0:0:0:
448,192,26552,1,0,0:0:0:0:
320,192,26663,1,0,0:0:0:0:
320,192,26774,1,0,0:0:0:0:
192,192,26774,1,0,0:0:0:0:
64,192,26774,1,0,0:0:0:0:
64,192,26885,1,0,0:0:0:0:
320,192,26996,1,0,0:0:0:0:
64,192,27108,1,0,0:0:0:0:
320,192,27108,1,0,0:0:0:0:
320,192,27219,1,0,0:0:0:0:
448,192,27219,1,0,0:0:0:0:
192,192,27219,1,0,0:0:0:0:
448,192,27330,1,0,0:0:0:0:
192,192,27441,1,0,0:0:0:0:
448,192,27552,1,0,0:0:0:0:
192,192,27663,1,0,0:0:0:0:
64,192,27663,1,0,0:0:0:0:
320,192,27663,1,0,0:0:0:0:
448,192,27774,1,0,0:0:0:0:
64,192,27885,1,0,0:0:0:0:
320,192,27885,1,0,0:0:0:0:
192,192,27996,1,0,0:0:0:0:
64,192,28108,1,0,0:0:0:0:
448,192,28108,1,0,0:0:0:0:
320,192,28108,1,0,0:0:0:0:
192,192,28219,1,0,0:0:0:0:
64,192,28330,1,0,0:0:0:0:
448,192,28330,1,0,0:0:0:0:
448,192,28441,1,0,0:0:0:0:
64,192,28552,1,0,0:0:0:0:
192,192,28552,1,0,0:0:0:0:
320,192,28552,1,0,0:0:0:0:
448,192,28663,1,0,0:0:0:0:
64,192,28774,1,0,0:0:0:0:
448,192,28774,1,0,0:0:0:0:
192,192,28885,1,0,0:0:0:0:
64,192,28996,1,0,0:0:0:0:
320,192,28996,1,0,0:0:0:0:
448,192,28996,1,0,0:0:0:0:
192,192,29108,1,0,0:0:0:0:
448,192,29219,1,0,0:0:0:0:
320,192,29219,1,0,0:0:0:0:
64,192,29330,1,0,0:0:0:0:
448,192,29441,1,0,0:0:0:0:
320,192,29441,1,0,0:0:0:0:
192,192,29441,1,0,0:0:0:0:
64,192,29552,1,0,0:0:0:0:
320,192,29663,1,0,0:0:0:0:
320,192,29774,1,0,0:0:0:0:
448,192,29885,1,0,0:0:0:0:
320,192,29885,1,0,0:0:0:0:
64,192,29885,1,0,0:0:0:0:
64,192,29996,1,0,0:0:0:0:
320,192,30108,1,0,0:0:0:0:
192,192,30219,1,0,0:0:0:0:
448,192,30330,1,0,0:0:0:0:
64,192,30330,1,0,0:0:0:0:
192,192,30441,1,0,0:0:0:0:
64,192,30441,1,0,0:0:0:0:
448,192,30552,1,0,0:0:0:0:
448,192,30663,1,0,0:0:0:0:
448,192,30774,1,0,0:0:0:0:
192,192,30774,1,0,0:0:0:0:
320,192,30774,1,0,0:0:0:0:
64,192,30885,1,0,0:0:0:0:
192,192,30996,1,0,0:0:0:0:
320,192,30996,1,0,0:0:0:0:
448,192,31108,1,0,0:0:0:0:
64,192,31219,1,0,0:0:0:0:
320,192,31219,1,0,0:0:0:0:
192,192,31219,1,0,0:0:0:0:
448,192,31330,1,0,0:0:0:0:
192,192,31441,1,0,0:0:0:0:
320,192,31441,1,0,0:0:0:0:
320,192,31552,1,0,0:0:0:0:
64,192,31663,1,0,0:0:0:0:
320,192,31663,1,0,0:0:0:0:
192,192,31663,1,0,0:0:0:0:
64,192,31774,1,0,0:0:0:0:
448,192,31885,1,0,0:0:0:0:
192,192,31885,1,0,0:0:0:0:
320,192,31996,1,0,0:0:0:0:
64,192,32108,1,0,0:0:0:0:
448,192,32108,1,0,0:0:0:0:
192,192,32108,1,0,0:0:0:0:
320,192,32219,1,0,0:0:0:0:
64,192,32330,1,0,0:0:0:0:
448,192,32330,1,0,0:0:0:0:
192,192,32330,1,0,0:0:0:0:
320,192,32441,1,0,0:0:0:0:
192,192,32441,1,0,0:0:0:0:
64,192,32552,1,0,0:0:0:0:
448,192,32552,1,0,0:0:0:0:
192,192,32552,1,0,0:0:0:0:
320,192,32663,1,0,0:0:0:0:
320,192,32774,1,0,0:0:0:0:
64,192,32774,1,0,0:0:0:0:
448,192,32885,1,0,0:0:0:0:
448,192,32996,1,0,0:0:0:0:
320,192,32996,1,0,0:0:0:0:
64,192,32996,1,0,0:0:0:0:
64,192,33108,1,0,0:0:0:0:
448,192,33219,1,0,0:0:0:0:
192,192,33219,1,0,0:0:0:0:
192,192,33330,1,0,0:0:0:0:
320,192,33441,1,0,0:0:0:0:
64,192,33441,1,0,0:0:0:0:
192,192,33441,1,0,0:0:0:0:
448,192,33552,1,0,0:0:0:0:
320,192,33663,1,0,0:0:0:0:
64,192,33663,1,0,0:0:0:0:
320,192,33774,1,0,0:0:0:0:
448,192,33885,1,0,0:0:0:0:
64,192,33885,1,0,0:0:0:0:
192,192,33885,1,0,0:0:0:0:
320,192,33996,1,0,0:0:0:0:
192,192,34108,1,0,0:0:0:0:
448,192,34108,1,0,0:0:0:0:
448,192,34219,1,0,0:0:0:0:
320,192,34330,1,0,0:0:0:0:
64,192,34330,1,0,0:0:0:0:
448,192,34330,1,0,0:0:0:0:
192,192,34441,1,0,0:0:0:0:
448,192,34552,1,0,0:0:0:0:
320,192,34552,1,0,0:0:0:0:
192,192,34663,1,0,0:0:0:0:
320,192,34774,1,0,0:0:0:0:
64,192,34774,1,0,0:0:0:0:
448,192,34774,1,0,0:0:0:0:
320,192,34885,1,0,0:0:0:0:
64,192,34996,1,0,0:0:0:0:
448,192,34996,1,0,0:0:0:0:
448,192,35108,1,0,0:0:0:0:
64,192,35219,1,0,0:0:0:0:
192,192,35219,1,0,0:0:0:0:
448,192,35219,1,0,0:0:0:0:
320,192,35330,1,0,0:0:0:0:
64,192,35330,1,0,0:0:0:0:
192,192,35441,1,0,0:0:0:0:
448,192,35441,1,0,0:0:0:0:
64,192,35552,1,0,0:0:0:0:
192,192,35663,1,0,0:0:0:0:
320,192,35663,1,0,0:0:0:0:
448,192,35663,1,0,0:0:0:0:
320,192,35774,1,0,0:0:0:0:
192,192,35885,1,0,0:0:0:0:
64,192,35885,1,0,0:0:0:0:
448,192,35996,1,0,0:0:0:0:
192,192,35996,1,0,0:0:0:0:
64,192,36108,1,0,0:0:0:0:
320,192,36108,1,0,0:0:0:0:
192,192,36108,1,0,0:0:0:0:
320,192,36219,1,0,0:0:0:0:
192,192,36330,1,0,0:0:0:0:
448,192,36330,1,0,0:0:0:0:
320,192,36441,1,0,0:0:0:0:
64,192,36552,1,0,0:0:0:0:
192,192,36552,1,0,0:0:0:0:
448,192,36663,1,0,0:0:0:0:
320,192,36774,1,0,0:0:0:0:
64,192,36774,1,0,0:0:0:0:
320,192,36885,1,0,0:0:0:0:
320,192,36996,1,0,0:0:0:0:
448,192,36996,1,0,0:0:0:0:
192,192,36996,1,0,0:0:0:0:
64,192,37108,1,0,0:0:0:0:
64,192,37219,1,0,0:0:0:0:
192,192,37219,1,0,0:0:0:0:
448,192,37330,1,0,0:0:0:0:
320,192,37441,1,0,0:0:0:0:
192,192,37441,1,0,0:0:0:0:
64,192,37441,1,0,0:0:0:0:
64,192,37552,1,0,0:0:0:0:
448,192,37663,1,0,0:0:0:0:
320,192,37663,1,0,0:0:0:0:
320,192,37774,1,0,0:0:0:0:
320,192,37885,1,0,0:0:0:0:
64,192,37885,1,0,0:0:0:0:
192,192,37885,1,0,0:0:0:0:
448,192,37996,1,0,0:0:0:0:
320,192,38108,1,0,0:0:0:0:
64,192,38108,1,0,0:0:0:0:
448,192,38219,1,0,0:0:0:0:
320,192,38330,1,0,0:0:0:0:
192,192,38330,1,0,0:0:0:0:
64,192,38330,1,0,0:0:0:0:
448,192,38441,1,0,0:0:0:0:
320,192,38552,1,0,0:0:0:0:
192,192,38552,1,0,0:0:0:0:
64,192,38663,1,0,0:0:0:0:
192,192,38663,1,0,0:0:0:0:
192,192,38774,1,0,0:0:0:0:
320,192,38774,1,0,0:0:0:0:
448,192,38774,1,0,0:0:0:0:
64,192,38885,1,0,0:0:0:0:
320,192,38996,1,0,0:0:0:0:
448,192,38996,1,0,0:0:0:0:
192,192,39108,1,0,0:0:0:0:
448,192,39219,1,0,0:0:0:0:
64,192,39219,1,0,0:0:0:0:
320,192,39219,1,0,0:0:0:0:
192,192,39330,1,0,0:0:0:0:
448,192,39441,1,0,0:0:0:0:
320,192,39441,1,0,0:0:0:0:
64,192,39552,1,0,0:0:0:0:
448,192,39552,1,0,0:0:0:0:
192,192,39663,1,0,0:0:0:0:
320,192,39663,1,0,0:0:0:0:
448,192,39663,1,0,0:0:0:0:
192,192,39774,1,0,0:0:0:0:
64,192,39885,1,0,0:0:0:0:
448,192,39885,1,0,0:0:0:0:
320,192,39996,1,0,0:0:0:0:
192,192,40108,1,0,0:0:0:0:
448,192,40108,1,0,0:0:0:0:
320,192,40108,1,0,0:0:0:0:
64,192,40219,1,0,0:0:0:0:
448,192,40330,1,0,0:0:0:0:
192,192,40330,1,0,0:0:0:0:
448,192,40441,1,0,0:0:0:0:
192,192,40552,1,0,0:0:0:0:
64,192,40552,1,0,0:0:0:0:
448,192,40552,1,0,0:0:0:0:
320,192,40663,1,0,0:0:0:0:
64,192,40774,1,0,0:0:0:0:
448,192,40774,1,0,0:0:0:0:
192,192,40885,1,0,0:0:0:0:
64,192,40996,1,0,0:0:0:0:
448,192,40996,1,0,0:0:0:0:
320,192,40996,1,0,0:0:0:0:
320,192,41108,1,0,0:0:0:0:
64,192,41219,1,0,0:0:0:0:
192,192,41219,1,0,0:0:0:0:
192,192,41330,1,0,0:0:0:0:
320,192,41441,1,0,0:0:0:0:
448,192,41441,1,0,0:0:0:0:
192,192,41441,1,0,0:0:0:0:
64,192,41552,1,0,0:0:0:0:
448,192,41663,1,0,0:0:0:0:
192,192,41663,1,0,0:0:0:0:
320,192,41774,1,0,0:0:0:0:
192,192,41885,1,0,0:0:0:0:
448,192,41885,1,0,0:0:0:0:
320,192,41996,1,0,0:0:0:0:
64,192,42108,1,0,0:0:0:0:
448,192,42219,1,0,0:0:0:0:
192,192,42219,1,0,0:0:0:0:
320,192,42330,1,0,0:0:0:0:
64,192,42330,1,0,0:0:0:0:
192,192,42330,1,0,0:0:0:0:
192,192,42441,1,0,0:0:0:0:
320,192,42552,1,0,0:0:0:0:
64,192,42552,1,0,0:0:0:0:
448,192,42552,1,0,0:0:0:0:
448,192,42663,1,0,0:0:0:0:
448,192,42774,1,0,0:0:0:0:
320,192,42774,1,0,0:0:0:0:
192,192,42774,1,0,0:0:0:0:
64,192,42885,1,0,0:0:0:0:
320,192,42996,1,0,0:0:0:0:
64,192,42996,1,0,0:0:0:0:
448,192,43108,1,0,0:0:0:0:
320,192,43219,1,0,0:0:0:0:
192,192,43219,1,0,0:0:0:0:
64,192,43219,1,0,0:0:0:0:
64,192,43330,1,0,0:0:0:0:
448,192,43441,1,0,0:0:0:0:
192,192,43441,1,0,0:0:0:0:
320,192,43441,1,0,0:0:0:0:
320,192,43552,1,0,0:0:0:0:
448,192,43663,1,0,0:0:0:0:
320,192,43663,1,0,0:0:0:0:
64,192,43663,1,0,0:0:0:0:
192,192,43774,1,0,0:0:0:0:
448,192,43885,1,0,0:0:0:0:
448,192,43996,1,0,0:0:0:0:
448,192,44108,1,0,0:0:0:0:
64,192,44108,1,0,0:0:0:0:
192,192,44108,1,0,0:0:0:0:
320,192,44219,1,0,0:0:0:0:
448,192,44330,1,0,0:0:0:0:
64,192,44441,1,0,0:0:0:0:
448,192,44552,1,0,0:0:0:0:
320,192,44552,1,0,0:0:0:0:
64,192,44663,1,0,0:0:0:0:
320,192,44663,1,0,0:0:0:0:
192,192,44774,1,0,0:0:0:0:
192,192,44885,1,0,0:0:0:0:
448,192,44996,1,0,0:0:0:0:
192,192,44996,1,0,0:0:0:0:
320,192,44996,1,0,0:0:0:0:
64,192,45108,1,0,0:0:0:0:
192,192,45219,1,0,0:0:0:0:
448,192,45219,1,0,0:0:0:0:
320,192,45330,1,0,0:0:0:0:
64,192,45441,1,0,0:0:0:0:
192,192,45441,1,0,0:0:0:0:
448,192,45441,1,0,0:0:0:0:
320,192,45552,1,0,0:0:0:0:
192,192,45663,1,0,0:0:0:0:
448,192,45663,1,0,0:0:0:0:
192,192,45774,1,0,0:0:0:0:
64,192,45885,1,0,0:0:0:0:
320,192,45885,1,0,0:0:0:0:
192,192,45885,1,0,0:0:0:0:
64,192,45996,1,0,0:0:0:0:
448,192,46108,1,0,0:0:0:0:
192,192,46108,1,0,0:0:0:0:
320,192,46219,1,0,0:0:0:0:
64,192,46330,1,0,0:0:0:0:
448,192,46330,1,0,0:0:0:0:
192,192,46330,1,0,0:0:0:0:
320,192,46441,1,0,0:0:0:0:
64,192,46552,1,0,0:0:0:0:
192,192,46552,1,0,0:0:0:0:
64,192,46663,1,0,0:0:0:0:
448,192,46663,1,0,0:0:0:0:
64,192,46774,1,0,0:0:0:0:
192,192,46774,1,0,0:0:0:0:
448,192,46885,1,0,0:0:0:0:
320,192,46996,1,0,0:0:0:0:
64,192,46996,1,0,0:0:0:0:
448,192,47108,1,0,0:0:0:0:
448,192,47219,1,0,0:0:0:0:
320,192,47219,1,0,0:0:0:0:
64,192,47219,1,0,0:0:0:0:
64,192,47330,1,0,0:0:0:0:
448,192,47441,1,0,0:0:0:0:
320,192,47441,1,0,0:0:0:0:
320,192,47552,1,0,0:0:0:0:
320,192,47663,1,0,0:0:0:0:
64,192,47663,1,0,0:0:0:0:
448,192,47663,1,0,0:0:0:0:
192,192,47774,1,0,0:0:0:0:
64,192,47885,1,0,0:0:0:0:
448,192,47885,1,0,0:0:0:0:
448,192,47996,1,0,0:0:0:0:
64,192,48108,1,0,0:0:0:0:
192,192,48108,1,0,0:0:0:0:
320,192,48108,1,0,0:0:0:0:
320,192,48219,1,0,0:0:0:0:
448,192,48330,1,0,0:0:0:0:
64,192,48330,1,0,0:0:0:0:
448,192,48441,1,0,0:0:0:0:
320,192,48552,1,0,0:0:0:0:
64,192,48552,1,0,0:0:0:0:
448,192,48552,1,0,0:0:0:0:
192,192,48663,1,0,0:0:0:0:
448,192,48774,1,0,0:0:0:0:
64,192,48774,1,0,0:0:0:0:
192,192,48885,1,0,0:0:0:0:
320,192,48996,1,0,0:0:0:0:
64,192,48996,1,0,0:0:0:0:
448,192,48996,1,0,0:0:0:0:
192,192,49108,1,0,0:0:0:0:
64,192,49219,1,0,0:0:0:0:
320,192,49219,1,0,0:0:0:0:
320,192,49330,1,0,0:0:0:0:
64,192,49441,1,0,0:0:0:0:
192,192,49441,1,0,0:0:0:0:
320,192,49441,1,0,0:0:0:0:
64,192,49552,1,0,0:0:0:0:
448,192,49552,1,0,0:0:0:0:
192,192,49663,1,0,0:0:0:0:
448,192,49663,1,0,0:0:0:0:
64,192,49774,1,0,0:0:0:0:
192,192,49885,1,0,0:0:0:0:
320,192,49885,1,0,0:0:0:0:
448,192,49885,1,0,0:0:0:0:
320,192,49996,1,0,0:0:0:0:
64,192,50108,1,0,0:0:0:0:
448,192,50108,1,0,0:0:0:0:
192,192,50108,1,0,0:0:0:0:
192,192,50219,1,0,0:0:0:0:
64,192,50330,1,0,0:0:0:0:
320,192,50330,1,0,0:0:0:0:
192,192,50330,1,0,0:0:0:0:
64,192,50441,1,0,0:0:0:0:
448,192,50552,1,0,0:0:0:0:
320,192,50552,1,0,0:0:0:0:
320,192,50663,1,0,0:0:0:0:
64,192,50774,1,0,0:0:0:0:
192,192,50774,1,0,0:0:0:0:
448,192,50885,1,0,0:0:0:0:
320,192,50996,1,0,0:0:0:0:
64,192,50996,1,0,0:0:0:0:
320,192,51108,1,0,0:0:0:0:
320,192,51219,1,0,0:0:0:0:
448,192,51219,1,0,0:0:0:0:
192,192,51219,1,0,0:0:0:0:
64,192,51330,1,0,0:0:0:0:
448,192,51441,1,0,0:0:0:0:
320,192,51441,1,0,0:0:0:0:
64,192,51552,1,0,0:0:0:0:
320,192,51663,1,0,0:0:0:0:
192,192,51663,1,0,0:0:0:0:
64,192,51663,1,0,0:0:0:0:
192,192,51774,1,0,0:0:0:0:
320,192,51885,1,0,0:0:0:0:
64,192,51885,1,0,0:0:0:0:
320,192,51996,1,0,0:0:0:0:
320,192,52108,1,0,0:0:0:0:
64,192,52108,1,0,0:0:0:0:
192,192,52108,1,0,0:0:0:0:
448,192,52219,1,0,0:0:0:0:
320,192,52330,1,0,0:0:0:0:
64,192,52330,1,0,0:0:0:0:
192,192,52441,1,0,0:0:0:0:
192,192,52552,1,0,0:0:0:0:
64,192,52552,1,0,0:0:0:0:
448,192,52552,1,0,0:0:0:0:
320,192,52663,1,0,0:0:0:0:
192,192,52774,1,0,0:0:0:0:
448,192,52774,1,0,0:0:0:0:
192,192,52885,1,0,0:0:0:0:
192,192,52996,1,0,0:0:0:0:
320,192,52996,1,0,0:0:0:0:
448,192,52996,1,0,0:0:0:0:
64,192,53108,1,0,0:0:0:0:
192,192,53219,1,0,0:0:0:0:
64,192,53219,1,0,0:0:0:0:
320,192,53330,1,0,0:0:0:0:
448,192,53441,1,0,0:0:0:0:
64,192,53441,1,0,0:0:0:0:
192,192,53441,1,0,0:0:0:0:
320,192,53552,1,0,0:0:0:0:
320,192,53663,1,0,0:0:0:0:
64,192,53663,1,0,0:0:0:0:
64,192,53774,1,0,0:0:0:0:
192,192,53885,1,0,0:0:0:0:
448,192,53885,1,0,0:0:0:0:
64,192,53885,1,0,0:0:0:0:
320,192,53996,1,0,0:0:0:0:
64,192,54108,1,0,0:0:0:0:
320,192,54108,1,0,0:0:0:0:
192,192,54219,1,0,0:0:0:0:
192,192,54330,1,0,0:0:0:0:
448,192,54330,1,0,0:0:0:0:
320,192,54330,1,0,0:0:0:0:
64,192,54441,1,0,0:0:0:0:
192,192,54552,1,0,0:0:0:0:
320,192,54552,1,0,0:0:0:0:
320,192,54663,1,0,0:0:0:0:
192,192,54774,1,0,0:0:0:0:
64,192,54774,1,0,0:0:0:0:
320,192,54774,1,0,0:0:0:0:
448,192,54885,1,0,0:0:0:0:
64,192,54996,1,0,0:0:0:0:
320,192,54996,1,0,0:0:0:0:
192,192,55108,1,0,0:0:0:0:
64,192,55219,1,0,0:0:0:0:
448,192,55219,1,0,0:0:0:0:
320,192,55219,1,0,0:0:0:0:
448,192,55330,1,0,0:0:0:0:
64,192,55441,1,0,0:0:0:0:
192,192,55441,1,0,0:0:0:0:
192,192,55552,1,0,0:0:0:0:
320,192,55663,1,0,0:0:0:0:
448,192,55663,1,0,0:0:0:0:
192,192,55663,1,0,0:0:0:0:
448,192,55774,1,0,0:0:0:0:
320,192,55885,1,0,0:0:0:0:
64,192,55885,1,0,0:0:0:0:
192,192,55996,1,0,0:0:0:0:
320,192,56108,1,0,0:0:0:0:
64,192,56108,1,0,0:0:0:0:
448,192,56219,1,0,0:0:0:0:
64,192,56330,1,0,0:0:0:0:
448,192,56441,1,0,0:0:0:0:
320,192,56441,1,0,0:0:0:0:
320,192,56552,1,0,0:0:0:0:
64,192,56552,1,0,0:0:0:0:
192,192,56552,1,0,0:0:0:0:
320,192,56663,1,0,0:0:0:0:
64,192,56774,1,0,0:0:0:0:
192,192,56774,1,0,0:0:0:0:
448,192,56774,1,0,0:0:0:0:
192,192,56885,1,0,0:0:0:0:
448,192,56996,1,0,0:0:0:0:
64,192,56996,1,0,0:0:0:0:
192,192,57108,1,0,0:0:0:0:
320,192,57219,1,0,0:0:0:0:
64,192,57219,1,0,0:0:0:0:
448,192,57330,1,0,0:0:0:0:
320,192,57441,1,0,0:0:0:0:
64,192,57441,1,0,0:0:0:0:
320,192,57552,1,0,0:0:0:0:
448,192,57663,1,0,0:0:0:0:
192,192,57663,1,0,0:0:0:0:
320,192,57663,1,0,0:0:0:0:
192,192,57774,1,0,0:0:0:0:
64,192,57885,1,0,0:0:0:0:
448,192,57885,128,0,57996:0:0:0:0:
192,192,57996,1,0,0:0:0:0:
320,192,58108,1,0,0:0:0:0:
64,192,58108,1,0,0:0:0:0:
192,192,58219,1,0,0:0:0:0:
448,192,58330,1,0,0:0:0:0:
320,192,58330,128,0,58441:0:0:0:0:
64,192,58441,1,0,0:0:0:0:
320,192,58552,1,0,0:0:0:0:
448,192,58552,128,0,58663:0:0:0:0:
192,192,58663,1,0,0:0:0:0:
448,192,58774,1,0,0:0:0:0:
64,192,58774,1,0,0:0:0:0:
192,192,58885,1,0,0:0:0:0:
320,192,58996,1,0,0:0:0:0:
64,192,58996,1,0,0:0:0:0:
192,192,59108,1,0,0:0:0:0:
320,192,59219,1,0,0:0:0:0:
448,192,59219,1,0,0:0:0:0:
64,192,59330,1,0,0:0:0:0:
320,192,59441,1,0,0:0:0:0:
192,192,59441,128,0,59552:0:0:0:0:
448,192,59552,1,0,0:0:0:0:
192,192,59663,1,0,0:0:0:0:
320,192,59663,128,0,59774:0:0:0:0:
448,192,59774,1,0,0:0:0:0:
64,192,59885,1,0,0:0:0:0:
320,192,59885,1,0,0:0:0:0:
192,192,59996,1,0,0:0:0:0:
448,192,60108,1,0,0:0:0:0:
64,192,60108,128,0,60219:0:0:0:0:
192,192,60219,1,0,0:0:0:0:
64,192,60330,1,0,0:0:0:0:
448,192,60330,1,0,0:0:0:0:
320,192,60441,1,0,0:0:0:0:
192,192,60552,128,0,60663:0:0:0:0:
448,192,60663,1,0,0:0:0:0:
64,192,60774,1,0,0:0:0:0:
320,192,60774,1,0,0:0:0:0:
192,192,60885,1,0,0:0:0:0:
64,192,60996,1,0,0:0:0:0:
320,192,60996,128,0,61108:0:0:0:0:
192,192,61108,1,0,0:0:0:0:
64,192,61219,1,0,0:0:0:0:
320,192,61219,1,0,0:0:0:0:
448,192,61330,1,0,0:0:0:0:
64,192,61441,1,0,0:0:0:0:
320,192,61441,128,0,61552:0:0:0:0:
448,192,61552,1,0,0:0:0:0:
192,192,61663,1,0,0:0:0:0:
320,192,61663,1,0,0:0:0:0:
448,192,61774,1,0,0:0:0:0:
192,192,61885,1,0,0:0:0:0:
64,192,61885,128,0,61996:0:0:0:0:
320,192,61996,1,0,0:0:0:0:
64,192,62108,1,0,0:0:0:0:
192,192,62108,128,0,62219:0:0:0:0:
448,192,62219,1,0,0:0:0:0:
320,192,62330,1,0,0:0:0:0:
64,192,62330,1,0,0:0:0:0:
448,192,62441,1,0,0:0:0:0:
192,192,62552,1,0,0:0:0:0:
64,192,62552,1,0,0:0:0:0:
320,192,62663,1,0,0:0:0:0:
192,192,62774,1,0,0:0:0:0:
448,192,62774,1,0,0:0:0:0:
320,192,62885,1,0,0:0:0:0:
64,192,62996,1,0,0:0:0:0:
192,192,62996,128,0,63108:0:0:0:0:
448,192,63108,1,0,0:0:0:0:
192,192,63219,1,0,0:0:0:0:
320,192,63219,128,0,63330:0:0:0:0:
64,192,63330,1,0,0:0:0:0:
448,192,63441,1,0,0:0:0:0:
320,192,63441,1,0,0:0:0:0:
192,192,63552,1,0,0:0:0:0:
64,192,63663,1,0,0:0:0:0:
448,192,63663,128,0,63774:0:0:0:0:
192,192,63774,1,0,0:0:0:0:
448,192,63885,1,0,0:0:0:0:
64,192,63885,1,0,0:0:0:0:
192,192,63996,1,0,0:0:0:0:
64,192,64108,1,0,0:0:0:0:
320,192,64108,128,0,64219:0:0:0:0:
192,192,64219,1,0,0:0:0:0:
448,192,64330,1,0,0:0:0:0:
320,192,64330,1,0,0:0:0:0:
192,192,64441,1,0,0:0:0:0:
64,192,64552,1,0,0:0:0:0:
448,192,64552,128,0,64663:0:0:0:0:
320,192,64663,1,0,0:0:0:0:
448,192,64774,1,0,0:0:0:0:
192,192,64774,1,0,0:0:0:0:
64,192,64885,1,0,0:0:0:0:
320,192,64996,1,0,0:0:0:0:
192,192,64996,128,0,65108:0:0:0:0:
448,192,65108,1,0,0:0:0:0:
192,192,65219,1,0,0:0:0:0:
64,192,65219,1,0,0:0:0:0:
320,192,65330,1,0,0:0:0:0:
192,192,65441,1,0,0:0:0:0:
448,192,65441,128,0,65552:0:0:0:0:
64,192,65552,1,0,0:0:0:0:
320,192,65663,1,0,0:0:0:0:
192,192,65663,128,0,65774:0:0:0:0:
64,192,65774,1,0,0:0:0:0:
320,192,65885,1,0,0:0:0:0:
448,192,65885,1,0,0:0:0:0:
192,192,65996,1,0,0:0:0:0:
448,192,66108,1,0,0:0:0:0:
64,192,66108,1,0,0:0:0:0:
320,192,66219,1,0,0:0:0:0:
192,192,66330,1,0,0:0:0:0:
448,192,66330,1,0,0:0:0:0:
64,192,66441,1,0,0:0:0:0:
192,192,66552,1,0,0:0:0:0:
320,192,66552,128,0,66663:0:0:0:0:
64,192,66663,1,0,0:0:0:0:
448,192,66774,128,0,66885:0:0:0:0:
320,192,66885,1,0,0:0:0:0:
64,192,66996,1,0,0:0:0:0:
192,192,66996,1,0,0:0:0:0:
320,192,67108,1,0,0:0:0:0:
448,192,67219,1,0,0:0:0:0:
64,192,67219,128,0,67330:0:0:0:0:
320,192,67330,1,0,0:0:0:0:
448,192,67441,1,0,0:0:0:0:
192,192,67441,1,0,0:0:0:0:
64,192,67552,1,0,0:0:0:0:
448,192,67663,1,0,0:0:0:0:
320,192,67663,128,0,67774:0:0:0:0:
192,192,67774,1,0,0:0:0:0:
64,192,67885,1,0,0:0:0:0:
448,192,67885,1,0,0:0:0:0:
320,192,67996,1,0,0:0:0:0:
64,192,68108,1,0,0:0:0:0:
192,192,68108,128,0,68219:0:0:0:0:
320,192,68219,1,0,0:0:0:0:
448,192,68330,1,0,0:0:0:0:
64,192,68330,1,0,0:0:0:0:
192,192,68441,1,0,0:0:0:0:
320,192,68552,1,0,0:0:0:0:
64,192,68552,128,0,68663:0:0:0:0:
448,192,68663,1,0,0:0:0:0:
192,192,68774,1,0,0:0:0:0:
320,192,68774,1,0,0:0:0:0:
64,192,68885,1,0,0:0:0:0:
448,192,68996,1,0,0:0:0:0:
192,192,68996,128,0,69108:0:0:0:0:
320,192,69108,1,0,0:0:0:0:
64,192,69219,1,0,0:0:0:0:
448,192,69219,128,0,69330:0:0:0:0:
192,192,69330,1,0,0:0:0:0:
448,192,69441,1,0,0:0:0:0:
320,192,69441,1,0,0:0:0:0:
192,192,69552,1,0,0:0:0:0:
64,192,69663,1,0,0:0:0:0:
448,192,69663,1,0,0:0:0:0:
320,192,69774,1,0,0:0:0:0:
64,192,69885,1,0,0:0:0:0:
192,192,69885,1,0,0:0:0:0:
448,192,69996,128,0,70108:0:0:0:0:
192,192,70108,1,0,0:0:0:0:
320,192,70108,1,0,0:0:0:0:
64,192,70219,1,0,0:0:0:0:
320,192,70330,128,0,70441:0:0:0:0:
192,192,70441,1,0,0:0:0:0:
448,192,70552,1,0,0:0:0:0:
320,192,70552,1,0,0:0:0:0:
64,192,70663,1,0,0:0:0:0:
448,192,70774,1,0,0:0:0:0:
192,192,70774,128,0,70885:0:0:0:0:
320,192,70885,1,0,0:0:0:0:
192,192,70996,1,0,0:0:0:0:
448,192,70996,1,0,0:0:0:0:
64,192,71108,1,0,0:0:0:0:
192,192,71219,1,0,0:0:0:0:
448,192,71219,128,0,71330:0:0:0:0:
64,192,71330,1,0,0:0:0:0:
320,192,71441,1,0,0:0:0:0:
192,192,71441,1,0,0:0:0:0:
448,192,71552,1,0,0:0:0:0:
320,192,71663,1,0,0:0:0:0:
64,192,71663,128,0,71774:0:0:0:0:
448,192,71774,1,0,0:0:0:0:
64,192,71885,1,0,0:0:0:0:
320,192,71885,1,0,0:0:0:0:
192,192,71996,1,0,0:0:0:0:
448,192,77441,5,0,0:0:0:0:
64,192,77441,1,0,0:0:0:0:
320,192,77441,1,0,0:0:0:0:
192,192,77441,1,0,0:0:0:0:
448,192,79219,1,0,0:0:0:0:
64,192,79219,1,0,0:0:0:0:
320,192,79441,1,0,0:0:0:0:
192,192,79552,1,0,0:0:0:0:
448,192,79663,1,0,0:0:0:0:
320,192,79663,1,0,0:0:0:0:
320,192,79885,1,0,0:0:0:0:
448,192,79996,1,0,0:0:0:0:
192,192,80108,1,0,0:0:0:0:
320,192,80108,1,0,0:0:0:0:
64,192,80330,1,0,0:0:0:0:
320,192,80441,1,0,0:0:0:0:
192,192,80552,1,0,0:0:0:0:
64,192,80552,1,0,0:0:0:0:
64,192,80774,1,0,0:0:0:0:
192,192,80885,1,0,0:0:0:0:
448,192,80996,1,0,0:0:0:0:
320,192,80996,1,0,0:0:0:0:
64,192,81219,1,0,0:0:0:0:
192,192,81219,1,0,0:0:0:0:
192,192,81441,1,0,0:0:0:0:
320,192,81441,1,0,0:0:0:0:
320,192,81663,1,0,0:0:0:0:
448,192,81663,1,0,0:0:0:0:
448,192,81885,1,0,0:0:0:0:
64,192,81885,1,0,0:0:0:0:
64,192,82108,1,0,0:0:0:0:
320,192,82108,1,0,0:0:0:0:
192,192,82330,1,0,0:0:0:0:
448,192,82330,1,0,0:0:0:0:
320,192,82552,1,0,0:0:0:0:
448,192,82552,1,0,0:0:0:0:
448,192,82774,1,0,0:0:0:0:
192,192,82774,1,0,0:0:0:0:
64,192,82996,1,0,0:0:0:0:
192,192,83108,1,0,0:0:0:0:
320,192,83219,1,0,0:0:0:0:
448,192,83219,1,0,0:0:0:0:
448,192,83441,1,0,0:0:0:0:
64,192,83552,1,0,0:0:0:0:
192,192,83663,1,0,0:0:0:0:
320,192,83663,1,0,0:0:0:0:
64,192,83885,1,0,0:0:0:0:
320,192,83996,1,0,0:0:0:0:
448,192,84108,1,0,0:0:0:0:
192,192,84108,1,0,0:0:0:0:
320,192,84330,1,0,0:0:0:0:
64,192,84441,1,0,0:0:0:0:
192,192,84552,1,0,0:0:0:0:
448,192,84552,1,0,0:0:0:0:
64,192,84774,1,0,0:0:0:0:
320,192,84774,1,0,0:0:0:0:
192,192,84996,1,0,0:0:0:0:
448,192,84996,1,0,0:0:0:0:
320,192,85219,1,0,0:0:0:0:
448,192,85219,1,0,0:0:0:0:
448,192,85441,1,0,0:0:0:0:
192,192,85441,1,0,0:0:0:0:
64,192,85663,1,0,0:0:0:0:
320,192,85663,1,0,0:0:0:0:
320,192,85885,1,0,0:0:0:0:
192,192,85885,1,0,0:0:0:0:
448,192,86108,1,0,0:0:0:0:
320,192,86108,1,0,0:0:0:0:
320,192,86330,1,0,0:0:0:0:
64,192,86330,1,0,0:0:0:0:
64,192,86552,1,0,0:0:0:0:
448,192,86663,1,0,0:0:0:0:
192,192,86774,1,0,0:0:0:0:
320,192,86774,1,0,0:0:0:0:
320,192,86996,1,0,0:0:0:0:
64,192,87108,1,0,0:0:0:0:
448,192,87219,1,0,0:0:0:0:
192,192,87219,1,0,0:0:0:0:
64,192,87441,1,0,0:0:0:0:
192,192,87552,1,0,0:0:0:0:
320,192,87663,1,0,0:0:0:0:
448,192,87663,1,0,0:0:0:0:
320,192,87885,1,0,0:0:0:0:
64,192,87996,1,0,0:0:0:0:
320,192,88108,1,0,0:0:0:0:
448,192,88108,1,0,0:0:0:0:
64,192,88330,1,0,0:0:0:0:
192,192,88330,1,0,0:0:0:0:
192,192,88552,1,0,0:0:0:0:
448,192,88552,1,0,0:0:0:0:
320,192,88774,1,0,0:0:0:0:
448,192,88774,1,0,0:0:0:0:
448,192,88996,1,0,0:0:0:0:
192,192,88996,1,0,0:0:0:0:
64,192,89219,1,0,0:0:0:0:
320,192,89219,1,0,0:0:0:0:
192,192,89441,1,0,0:0:0:0:
64,192,89441,1,0,0:0:0:0:
448,192,89663,1,0,0:0:0:0:
64,192,89663,1,0,0:0:0:0:
320,192,89885,1,0,0:0:0:0:
192,192,89885,1,0,0:0:0:0:
64,192,90108,1,0,0:0:0:0:
192,192,90219,1,0,0:0:0:0:
448,192,90330,1,0,0:0:0:0:
320,192,90330,1,0,0:0:0:0:
192,192,90552,1,0,0:0:0:0:
64,192,90663,1,0,0:0:0:0:
320,192,90774,1,0,0:0:0:0:
448,192,90774,1,0,0:0:0:0:
64,192,90996,1,0,0:0:0:0:
448,192,91108,1,0,0:0:0:0:
192,192,91219,1,0,0:0:0:0:
320,192,91219,1,0,0:0:0:0:
64,192,91441,1,0,0:0:0:0:
192,192,91663,1,0,0:0:0:0:
448,192,91663,1,0,0:0:0:0:
320,192,91885,1,0,0:0:0:0:
64,192,91885,1,0,0:0:0:0:
64,192,92108,1,0,0:0:0:0:
192,192,92108,1,0,0:0:0:0:
192,192,92330,1,0,0:0:0:0:
448,192,92330,1,0,0:0:0:0:
448,192,92552,1,0,0:0:0:0:
320,192,92552,1,0,0:0:0:0:
320,192,92774,1,0,0:0:0:0:
64,192,92774,1,0,0:0:0:0:
192,192,92996,1,0,0:0:0:0:
448,192,92996,1,0,0:0:0:0:
64,192,93219,1,0,0:0:0:0:
192,192,93219,1,0,0:0:0:0:
448,192,93441,1,0,0:0:0:0:
320,192,93441,1,0,0:0:0:0:
64,192,93441,1,0,0:0:0:0:
192,192,93663,1,0,0:0:0:0:
320,192,93885,1,0,0:0:0:0:
192,192,93885,1,0,0:0:0:0:
64,192,93885,1,0,0:0:0:0:
320,192,94108,1,0,0:0:0:0:
448,192,94330,1,0,0:0:0:0:
320,192,94330,1,0,0:0:0:0:
192,192,94330,1,0,0:0:0:0:
448,192,94552,1,0,0:0:0:0:
64,192,94774,1,0,0:0:0:0:
192,192,94774,1,0,0:0:0:0:
448,192,94774,1,0,0:0:0:0:
192,192,94996,1,0,0:0:0:0:
448,192,95219,1,0,0:0:0:0:
64,192,95219,1,0,0:0:0:0:
192,192,95219,1,0,0:0:0:0:
192,192,95441,1,0,0:0:0:0:
320,192,95441,1,0,0:0:0:0:
64,192,95663,1,0,0:0:0:0:
320,192,95663,1,0,0:0:0:0:
448,192,95663,1,0,0:0:0:0:
448,192,95885,1,0,0:0:0:0:
64,192,95885,1,0,0:0:0:0:
192,192,96108,1,0,0:0:0:0:
64,192,96108,1,0,0:0:0:0:
448,192,96108,1,0,0:0:0:0:
320,192,96330,1,0,0:0:0:0:
64,192,96330,1,0,0:0:0:0:
64,192,96552,1,0,0:0:0:0:
320,192,96552,1,0,0:0:0:0:
448,192,96552,1,0,0:0:0:0:
448,192,96774,1,0,0:0:0:0:
192,192,96774,1,0,0:0:0:0:
448,192,96996,1,0,0:0:0:0:
192,192,96996,1,0,0:0:0:0:
64,192,96996,1,0,0:0:0:0:
320,192,97219,1,0,0:0:0:0:
320,192,97441,1,0,0:0:0:0:
192,192,97441,1,0,0:0:0:0:
448,192,97441,1,0,0:0:0:0:
192,192,97663,1,0,0:0:0:0:
320,192,97885,1,0,0:0:0:0:
192,192,97885,1,0,0:0:0:0:
64,192,97885,1,0,0:0:0:0:
320,192,98108,1,0,0:0:0:0:
64,192,98330,1,0,0:0:0:0:
320,192,98330,1,0,0:0:0:0:
448,192,98330,1,0,0:0:0:0:
320,192,98552,1,0,0:0:0:0:
448,192,98774,1,0,0:0:0:0:
64,192,98774,1,0,0:0:0:0:
320,192,98774,1,0,0:0:0:0:
192,192,98996,1,0,0:0:0:0:
320,192,98996,1,0,0:0:0:0:
64,192,99219,1,0,0:0:0:0:
192,192,99219,1,0,0:0:0:0:
448,192,99219,1,0,0:0:0:0:
320,192,99441,1,0,0:0:0:0:
192,192,99441,1,0,0:0:0:0:
320,192,99663,1,0,0:0:0:0:
64,192,99663,1,0,0:0:0:0:
448,192,99663,1,0,0:0:0:0:
448,192,99885,1,0,0:0:0:0:
64,192,99885,1,0,0:0:0:0:
64,192,100108,1,0,0:0:0:0:
192,192,100108,1,0,0:0:0:0:
448,192,100108,1,0,0:0:0:0:
320,192,100330,1,0,0:0:0:0:
64,192,100330,1,0,0:0:0:0:
448,192,100330,1,0,0:0:0:0:
64,192,100552,1,0,0:0:0:0:
192,192,100552,1,0,0:0:0:0:
320,192,100552,1,0,0:0:0:0:
448,192,100552,1,0,0:0:0:0:
448,192,100774,1,0,0:0:0:0:
320,192,100774,1,0,0:0:0:0:
192,192,100774,1,0,0:0:0:0:
64,192,100774,1,0,0:0:0:0:
64,192,100996,1,0,0:0:0:0:
192,192,100996,1,0,0:0:0:0:
320,192,100996,1,0,0:0:0:0:
448,192,100996,1,0,0:0:0:0:
448,192,101219,1,0,0:0:0:0:
320,192,101219,1,0,0:0:0:0:
192,192,101219,1,0,0:0:0:0:
64,192,101219,1,0,0:0:0:0:
192,192,101441,1,0,0:0:0:0:
448,192,101441,1,0,0:0:0:0:
64,192,101441,1,0,0:0:0:0:
320,192,101441,1,0,0:0:0:0:
448,192,101663,1,0,0:0:0:0:
64,192,101663,1,0,0:0:0:0:
320,192,101663,1,0,0:0:0:0:
192,192,101663,1,0,0:0:0:0:
448,192,101885,1,0,0:0:0:0:
192,192,101885,1,0,0:0:0:0:
320,192,101885,1,0,0:0:0:0:
64,192,101885,1,0,0:0:0:0:
192,192,102108,1,0,0:0:0:0:
448,192,102108,1,0,0:0:0:0:
64,192,102108,1,0,0:0:0:0:
320,192,102108,1,0,0:0:0:0:
64,192,102330,1,0,0:0:0:0:
320,192,102330,1,0,0:0:0:0:
192,192,102330,1,0,0:0:0:0:
448,192,102330,1,0,0:0:0:0:
320,192,102552,1,0,0:0:0:0:
192,192,102552,1,0,0:0:0:0:
448,192,102552,1,0,0:0:0:0:
64,192,102552,1,0,0:0:0:0:
320,192,102774,1,0,0:0:0:0:
64,192,102774,1,0,0:0:0:0:
448,192,102774,1,0,0:0:0:0:
192,192,102774,1,0,0:0:0:0:
64,192,102996,1,0,0:0:0:0:
320,192,102996,1,0,0:0:0:0:
192,192,102996,1,0,0:0:0:0:
448,192,102996,1,0,0:0:0:0:
192,192,103219,1,0,0:0:0:0:
448,192,103219,1,0,0:0:0:0:
64,192,103219,1,0,0:0:0:0:
320,192,103219,1,0,0:0:0:0:
448,192,103441,1,0,0:0:0:0:
64,192,103441,1,0,0:0:0:0:
320,192,103441,1,0,0:0:0:0:
192,192,103441,1,0,0:0:0:0:
448,192,103663,1,0,0:0:0:0:
192,192,103663,1,0,0:0:0:0:
320,192,103663,1,0,0:0:0:0:
64,192,103663,1,0,0:0:0:0:
192,192,103885,1,0,0:0:0:0:
448,192,103885,1,0,0:0:0:0:
64,192,103885,1,0,0:0:0:0:
320,192,103885,1,0,0:0:0:0:
64,192,104108,1,0,0:0:0:0:
448,192,104108,1,0,0:0:0:0:
192,192,104163,1,0,0:0:0:0:
320,192,104219,1,0,0:0:0:0:
448,192,104274,1,0,0:0:0:0:
64,192,104330,1,0,0:0:0:0:
192,192,104385,1,0,0:0:0:0:
448,192,104441,1,0,0:0:0:0:
64,192,104496,1,0,0:0:0:0:
320,192,104552,1,0,0:0:0:0:
192,192,104552,1,0,0:0:0:0:
448,192,104608,1,0,0:0:0:0:
64,192,104663,1,0,0:0:0:0:
320,192,104719,1,0,0:0:0:0:
192,192,104774,1,0,0:0:0:0:
448,192,104830,1,0,0:0:0:0:
64,192,104885,1,0,0:0:0:0:
192,192,104941,1,0,0:0:0:0:
448,192,104996,1,0,0:0:0:0:
320,192,104996,1,0,0:0:0:0:
64,192,105052,1,0,0:0:0:0:
320,192,105108,1,0,0:0:0:0:
192,192,105163,1,0,0:0:0:0:
448,192,105219,1,0,0:0:0:0:
320,192,105274,1,0,0:0:0:0:
192,192,105330,1,0,0:0:0:0:
64,192,105385,1,0,0:0:0:0:
448,192,105441,1,0,0:0:0:0:
320,192,105441,1,0,0:0:0:0:
192,192,105496,1,0,0:0:0:0:
64,192,105552,1,0,0:0:0:0:
320,192,105608,1,0,0:0:0:0:
192,192,105663,1,0,0:0:0:0:
64,192,105719,1,0,0:0:0:0:
448,192,105774,1,0,0:0:0:0:
192,192,105830,1,0,0:0:0:0:
320,192,105885,1,0,0:0:0:0:
64,192,105941,1,0,0:0:0:0:
448,192,105996,1,0,0:0:0:0:
320,192,106052,1,0,0:0:0:0:
192,192,106108,1,0,0:0:0:0:
448,192,106163,1,0,0:0:0:0:
320,192,106219,1,0,0:0:0:0:
192,192,106274,1,0,0:0:0:0:
64,192,106330,1,0,0:0:0:0:
320,192,106385,1,0,0:0:0:0:
192,192,106441,1,0,0:0:0:0:
64,192,106496,1,0,0:0:0:0:
448,192,106552,1,0,0:0:0:0:
320,192,106608,1,0,0:0:0:0:
192,192,106663,1,0,0:0:0:0:
448,192,106719,1,0,0:0:0:0:
64,192,106774,1,0,0:0:0:0:
320,192,106774,1,0,0:0:0:0:
192,192,106830,1,0,0:0:0:0:
448,192,106885,1,0,0:0:0:0:
320,192,106941,1,0,0:0:0:0:
192,192,106996,1,0,0:0:0:0:
64,192,106996,1,0,0:0:0:0:
448,192,107052,1,0,0:0:0:0:
64,192,107108,1,0,0:0:0:0:
192,192,107163,1,0,0:0:0:0:
320,192,107219,1,0,0:0:0:0:
448,192,107219,1,0,0:0:0:0:
64,192,107274,1,0,0:0:0:0:
192,192,107330,1,0,0:0:0:0:
320,192,107385,1,0,0:0:0:0:
64,192,107441,1,0,0:0:0:0:
448,192,107441,1,0,0:0:0:0:
192,192,107496,1,0,0:0:0:0:
448,192,107552,1,0,0:0:0:0:
448,192,110774,1,0,0:0:0:0:
192,192,110774,1,0,0:0:0:0:
64,192,110774,1,0,0:0:0:0:
320,192,110774,1,0,0:0:0:0:
64,192,111219,1,0,0:0:0:0:
192,192,111219,1,0,0:0:0:0:
448,192,111274,1,0,0:0:0:0:
64,192,111346,1,0,0:0:0:0:
320,192,111385,1,0,0:0:0:0:
448,192,111441,1,0,0:0:0:0:
64,192,111496,1,0,0:0:0:0:
320,192,111552,1,0,0:0:0:0:
64,192,111608,1,0,0:0:0:0:
448,192,111663,1,0,0:0:0:0:
320,192,111663,1,0,0:0:0:0:
192,192,111719,1,0,0:0:0:0:
320,192,111774,1,0,0:0:0:0:
448,192,111830,1,0,0:0:0:0:
64,192,111885,1,0,0:0:0:0:
192,192,111941,1,0,0:0:0:0:
448,192,111996,1,0,0:0:0:0:
192,192,112052,1,0,0:0:0:0:
320,192,112108,1,0,0:0:0:0:
64,192,112108,1,0,0:0:0:0:
192,192,112163,1,0,0:0:0:0:
320,192,112219,1,0,0:0:0:0:
448,192,112274,1,0,0:0:0:0:
64,192,112330,1,0,0:0:0:0:
192,192,112385,1,0,0:0:0:0:
320,192,112441,1,0,0:0:0:0:
64,192,112496,1,0,0:0:0:0:
448,192,112552,1,0,0:0:0:0:
320,192,112552,1,0,0:0:0:0:
192,192,112608,1,0,0:0:0:0:
448,192,112663,1,0,0:0:0:0:
64,192,112719,1,0,0:0:0:0:
192,192,112774,1,0,0:0:0:0:
448,192,112830,1,0,0:0:0:0:
320,192,112885,1,0,0:0:0:0:
192,192,112941,1,0,0:0:0:0:
64,192,112996,1,0,0:0:0:0:
320,192,112996,1,0,0:0:0:0:
192,192,113052,1,0,0:0:0:0:
448,192,113108,1,0,0:0:0:0:
320,192,113108,1,0,0:0:0:0:
64,192,113163,1,0,0:0:0:0:
192,192,113219,1,0,0:0:0:0:
448,192,113219,1,0,0:0:0:0:
320,192,113274,1,0,0:0:0:0:
192,192,113330,1,0,0:0:0:0:
64,192,113385,1,0,0:0:0:0:
320,192,113441,1,0,0:0:0:0:
448,192,113441,1,0,0:0:0:0:
192,192,113496,1,0,0:0:0:0:
64,192,113552,1,0,0:0:0:0:
448,192,113552,1,0,0:0:0:0:
320,192,113608,1,0,0:0:0:0:
448,192,113663,1,0,0:0:0:0:
64,192,113663,1,0,0:0:0:0:
192,192,113719,1,0,0:0:0:0:
320,192,113774,1,0,0:0:0:0:
448,192,113830,1,0,0:0:0:0:
320,192,113885,1,0,0:0:0:0:
192,192,113885,1,0,0:0:0:0:
448,192,113941,1,0,0:0:0:0:
192,192,113996,1,0,0:0:0:0:
64,192,114052,1,0,0:0:0:0:
448,192,114108,1,0,0:0:0:0:
192,192,114108,1,0,0:0:0:0:
64,192,114163,1,0,0:0:0:0:
448,192,114219,1,0,0:0:0:0:
192,192,114274,1,0,0:0:0:0:
320,192,114330,1,0,0:0:0:0:
448,192,114330,1,0,0:0:0:0:
64,192,114385,1,0,0:0:0:0:
192,192,114441,1,0,0:0:0:0:
448,192,114441,1,0,0:0:0:0:
320,192,114496,1,0,0:0:0:0:
192,192,114552,1,0,0:0:0:0:
448,192,114552,1,0,0:0:0:0:
320,192,114608,1,0,0:0:0:0:
64,192,114663,1,0,0:0:0:0:
192,192,114719,1,0,0:0:0:0:
64,192,114774,1,0,0:0:0:0:
320,192,114774,1,0,0:0:0:0:
448,192,114830,1,0,0:0:0:0:
192,192,114885,1,0,0:0:0:0:
64,192,114941,1,0,0:0:0:0:
320,192,114996,1,0,0:0:0:0:
448,192,115052,1,0,0:0:0:0:
320,192,115108,1,0,0:0:0:0:
448,192,115163,1,0,0:0:0:0:
192,192,115219,1,0,0:0:0:0:
64,192,115219,1,0,0:0:0:0:
320,192,115274,1,0,0:0:0:0:
192,192,115330,1,0,0:0:0:0:
64,192,115385,1,0,0:0:0:0:
320,192,115441,1,0,0:0:0:0:
192,192,115496,1,0,0:0:0:0:
448,192,115552,1,0,0:0:0:0:
320,192,115608,1,0,0:0:0:0:
448,192,115663,1,0,0:0:0:0:
64,192,115663,1,0,0:0:0:0:
320,192,115719,1,0,0:0:0:0:
192,192,115774,1,0,0:0:0:0:
448,192,115830,1,0,0:0:0:0:
320,192,115885,1,0,0:0:0:0:
192,192,115941,1,0,0:0:0:0:
64,192,115996,1,0,0:0:0:0:
192,192,116052,1,0,0:0:0:0:
448,192,116108,1,0,0:0:0:0:
320,192,116108,1,0,0:0:0:0:
64,192,116163,1,0,0:0:0:0:
192,192,116219,1,0,0:0:0:0:
448,192,116274,1,0,0:0:0:0:
320,192,116330,1,0,0:0:0:0:
192,192,116385,1,0,0:0:0:0:
64,192,116441,1,0,0:0:0:0:
448,192,116496,1,0,0:0:0:0:
64,192,116552,1,0,0:0:0:0:
320,192,116552,1,0,0:0:0:0:
192,192,116663,1,0,0:0:0:0:
320,192,116663,1,0,0:0:0:0:
64,192,116719,1,0,0:0:0:0:
192,192,116774,1,0,0:0:0:0:
320,192,116774,1,0,0:0:0:0:
448,192,116830,1,0,0:0:0:0:
192,192,116885,1,0,0:0:0:0:
320,192,116941,1,0,0:0:0:0:
448,192,116996,1,0,0:0:0:0:
192,192,116996,1,0,0:0:0:0:
64,192,117052,1,0,0:0:0:0:
448,192,117108,1,0,0:0:0:0:
320,192,117108,1,0,0:0:0:0:
64,192,117163,1,0,0:0:0:0:
192,192,117219,1,0,0:0:0:0:
448,192,117219,1,0,0:0:0:0:
320,192,117274,1,0,0:0:0:0:
192,192,117330,1,0,0:0:0:0:
320,192,117385,1,0,0:0:0:0:
64,192,117441,1,0,0:0:0:0:
448,192,117441,1,0,0:0:0:0:
320,192,117552,1,0,0:0:0:0:
448,192,117552,1,0,0:0:0:0:
64,192,117608,1,0,0:0:0:0:
320,192,117663,1,0,0:0:0:0:
192,192,117663,1,0,0:0:0:0:
448,192,117719,1,0,0:0:0:0:
192,192,117774,1,0,0:0:0:0:
320,192,117830,1,0,0:0:0:0:
448,192,117885,1,0,0:0:0:0:
64,192,117885,1,0,0:0:0:0:
192,192,117941,1,0,0:0:0:0:
448,192,117996,1,0,0:0:0:0:
320,192,118052,1,0,0:0:0:0:
448,192,118108,1,0,0:0:0:0:
192,192,118108,1,0,0:0:0:0:
64,192,118163,1,0,0:0:0:0:
448,192,118219,1,0,0:0:0:0:
192,192,118274,1,0,0:0:0:0:
64,192,118330,1,0,0:0:0:0:
320,192,118330,1,0,0:0:0:0:
192,192,118385,1,0,0:0:0:0:
320,192,118441,1,0,0:0:0:0:
64,192,118496,1,0,0:0:0:0:
320,192,118552,1,0,0:0:0:0:
448,192,118608,1,0,0:0:0:0:
192,192,118663,1,0,0:0:0:0:
64,192,118719,1,0,0:0:0:0:
448,192,118774,1,0,0:0:0:0:
320,192,118774,1,0,0:0:0:0:
64,192,118830,1,0,0:0:0:0:
192,192,118885,1,0,0:0:0:0:
320,192,118941,1,0,0:0:0:0:
64,192,118996,1,0,0:0:0:0:
320,192,119052,1,0,0:0:0:0:
448,192,119108,1,0,0:0:0:0:
192,192,119163,1,0,0:0:0:0:
448,192,119219,1,0,0:0:0:0:
320,192,119219,1,0,0:0:0:0:
192,192,119274,1,0,0:0:0:0:
64,192,119330,1,0,0:0:0:0:
320,192,119385,1,0,0:0:0:0:
64,192,119441,1,0,0:0:0:0:
192,192,119496,1,0,0:0:0:0:
448,192,119552,1,0,0:0:0:0:
64,192,119608,1,0,0:0:0:0:
448,192,119663,1,0,0:0:0:0:
320,192,119663,1,0,0:0:0:0:
192,192,119719,1,0,0:0:0:0:
448,192,119774,1,0,0:0:0:0:
64,192,119830,1,0,0:0:0:0:
192,192,119885,1,0,0:0:0:0:
448,192,119941,1,0,0:0:0:0:
320,192,119996,1,0,0:0:0:0:
192,192,120052,1,0,0:0:0:0:
64,192,120108,1,0,0:0:0:0:
448,192,120108,1,0,0:0:0:0:
320,192,120219,1,0,0:0:0:0:
448,192,120219,1,0,0:0:0:0:
64,192,120274,1,0,0:0:0:0:
192,192,120330,1,0,0:0:0:0:
448,192,120330,1,0,0:0:0:0:
320,192,120385,1,0,0:0:0:0:
192,192,120441,1,0,0:0:0:0:
448,192,120496,1,0,0:0:0:0:
320,192,120552,1,0,0:0:0:0:
64,192,120552,1,0,0:0:0:0:
192,192,120608,1,0,0:0:0:0:
448,192,120663,1,0,0:0:0:0:
64,192,120663,1,0,0:0:0:0:
320,192,120719,1,0,0:0:0:0:
448,192,120774,1,0,0:0:0:0:
64,192,120774,1,0,0:0:0:0:
192,192,120830,1,0,0:0:0:0:
320,192,120885,1,0,0:0:0:0:
448,192,120941,1,0,0:0:0:0:
64,192,120996,1,0,0:0:0:0:
192,192,120996,1,0,0:0:0:0:
448,192,121052,1,0,0:0:0:0:
320,192,121108,1,0,0:0:0:0:
64,192,121108,1,0,0:0:0:0:
192,192,121163,1,0,0:0:0:0:
448,192,121219,1,0,0:0:0:0:
320,192,121219,1,0,0:0:0:0:
64,192,121274,1,0,0:0:0:0:
448,192,121330,1,0,0:0:0:0:
192,192,121385,1,0,0:0:0:0:
320,192,121441,1,0,0:0:0:0:
448,192,121441,1,0,0:0:0:0:
64,192,121496,1,0,0:0:0:0:
192,192,121552,1,0,0:0:0:0:
448,192,121552,1,0,0:0:0:0:
320,192,121608,1,0,0:0:0:0:
64,192,121663,1,0,0:0:0:0:
448,192,121663,1,0,0:0:0:0:
320,192,121719,1,0,0:0:0:0:
192,192,121774,1,0,0:0:0:0:
448,192,121830,1,0,0:0:0:0:
64,192,121885,1,0,0:0:0:0:
320,192,121885,1,0,0:0:0:0:
448,192,121941,1,0,0:0:0:0:
320,192,121996,1,0,0:0:0:0:
192,192,122052,1,0,0:0:0:0:
320,192,122108,1,0,0:0:0:0:
64,192,122163,1,0,0:0:0:0:
192,192,122219,1,0,0:0:0:0:
64,192,122274,1,0,0:0:0:0:
320,192,122330,1,0,0:0:0:0:
448,192,122330,1,0,0:0:0:0:
192,192,122385,1,0,0:0:0:0:
320,192,122441,1,0,0:0:0:0:
64,192,122496,1,0,0:0:0:0:
320,192,122552,1,0,0:0:0:0:
192,192,122608,1,0,0:0:0:0:
448,192,122663,1,0,0:0:0:0:
320,192,122719,1,0,0:0:0:0:
448,192,122774,1,0,0:0:0:0:
64,192,122774,1,0,0:0:0:0:
320,192,122830,1,0,0:0:0:0:
192,192,122885,1,0,0:0:0:0:
64,192,122941,1,0,0:0:0:0:
448,192,122996,1,0,0:0:0:0:
320,192,122996,1,0,0:0:0:0:
192,192,123052,1,0,0:0:0:0:
320,192,123108,1,0,0:0:0:0:
448,192,123163,1,0,0:0:0:0:
64,192,123219,1,0,0:0:0:0:
320,192,123219,1,0,0:0:0:0:
192,192,123274,1,0,0:0:0:0:
64,192,123330,1,0,0:0:0:0:
448,192,123385,1,0,0:0:0:0:
320,192,123441,1,0,0:0:0:0:
192,192,123496,1,0,0:0:0:0:
64,192,123552,1,0,0:0:0:0:
448,192,123608,1,0,0:0:0:0:
64,192,123663,1,0,0:0:0:0:
192,192,123663,1,0,0:0:0:0:
320,192,123719,1,0,0:0:0:0:
448,192,123774,1,0,0:0:0:0:
192,192,123774,1,0,0:0:0:0:
64,192,123830,1,0,0:0:0:0:
192,192,123885,1,0,0:0:0:0:
448,192,123885,1,0,0:0:0:0:
320,192,123941,1,0,0:0:0:0:
192,192,123996,1,0,0:0:0:0:
448,192,123996,1,0,0:0:0:0:
320,192,124052,1,0,0:0:0:0:
448,192,124108,1,0,0:0:0:0:
64,192,124108,1,0,0:0:0:0:
320,192,124219,1,0,0:0:0:0:
64,192,124219,1,0,0:0:0:0:
192,192,124274,1,0,0:0:0:0:
64,192,124330,1,0,0:0:0:0:
448,192,124330,1,0,0:0:0:0:
192,192,124385,1,0,0:0:0:0:
320,192,124441,1,0,0:0:0:0:
448,192,124496,1,0,0:0:0:0:
64,192,124552,1,0,0:0:0:0:
320,192,124552,1,0,0:0:0:0:
448,192,124608,1,0,0:0:0:0:
192,192,124663,1,0,0:0:0:0:
64,192,124719,1,0,0:0:0:0:
448,192,124774,1,0,0:0:0:0:
320,192,124774,1,0,0:0:0:0:
192,192,124830,1,0,0:0:0:0:
64,192,124885,1,0,0:0:0:0:
448,192,124885,1,0,0:0:0:0:
320,192,124941,1,0,0:0:0:0:
448,192,124996,1,0,0:0:0:0:
64,192,124996,1,0,0:0:0:0:
192,192,125052,1,0,0:0:0:0:
448,192,125108,1,0,0:0:0:0:
320,192,125163,1,0,0:0:0:0:
448,192,125219,1,0,0:0:0:0:
192,192,125219,1,0,0:0:0:0:
64,192,125274,1,0,0:0:0:0:
448,192,125330,1,0,0:0:0:0:
192,192,125330,1,0,0:0:0:0:
320,192,125385,1,0,0:0:0:0:
64,192,125441,1,0,0:0:0:0:
192,192,125441,1,0,0:0:0:0:
448,192,125496,1,0,0:0:0:0:
192,192,125552,1,0,0:0:0:0:
320,192,125608,1,0,0:0:0:0:
448,192,125663,1,0,0:0:0:0:
64,192,125719,1,0,0:0:0:0:
320,192,125774,1,0,0:0:0:0:
64,192,125830,1,0,0:0:0:0:
448,192,125885,1,0,0:0:0:0:
320,192,125885,1,0,0:0:0:0:
192,192,125941,1,0,0:0:0:0:
320,192,125996,1,0,0:0:0:0:
448,192,126052,1,0,0:0:0:0:
64,192,126108,1,0,0:0:0:0:
192,192,126163,1,0,0:0:0:0:
448,192,126219,1,0,0:0:0:0:
192,192,126274,1,0,0:0:0:0:
320,192,126330,1,0,0:0:0:0:
64,192,126330,1,0,0:0:0:0:
192,192,126385,1,0,0:0:0:0:
448,192,126441,1,0,0:0:0:0:
320,192,126496,1,0,0:0:0:0:
448,192,126552,1,0,0:0:0:0:
64,192,126552,1,0,0:0:0:0:
192,192,126608,1,0,0:0:0:0:
320,192,126663,1,0,0:0:0:0:
64,192,126719,1,0,0:0:0:0:
448,192,126774,1,0,0:0:0:0:
320,192,126774,1,0,0:0:0:0:
192,192,126830,1,0,0:0:0:0:
448,192,126885,1,0,0:0:0:0:
64,192,126941,1,0,0:0:0:0:
192,192,126996,1,0,0:0:0:0:
448,192,127052,1,0,0:0:0:0:
320,192,127108,1,0,0:0:0:0:
192,192,127163,1,0,0:0:0:0:
64,192,127219,1,0,0:0:0:0:
320,192,127219,1,0,0:0:0:0:
192,192,127274,1,0,0:0:0:0:
448,192,127330,1,0,0:0:0:0:
320,192,127330,1,0,0:0:0:0:
64,192,127385,1,0,0:0:0:0:
192,192,127441,1,0,0:0:0:0:
448,192,127441,1,0,0:0:0:0:
320,192,127496,1,0,0:0:0:0:
192,192,127552,1,0,0:0:0:0:
64,192,127608,1,0,0:0:0:0:
320,192,127663,1,0,0:0:0:0:
448,192,127663,1,0,0:0:0:0:
192,192,127719,1,0,0:0:0:0:
64,192,127774,1,0,0:0:0:0:
448,192,127774,1,0,0:0:0:0:
320,192,127830,1,0,0:0:0:0:
448,192,127885,1,0,0:0:0:0:
64,192,127885,1,0,0:0:0:0:
192,192,127941,1,0,0:0:0:0:
320,192,127996,1,0,0:0:0:0:
448,192,128052,1,0,0:0:0:0:
192,192,128108,1,0,0:0:0:0:
320,192,128108,1,0,0:0:0:0:
448,192,128163,1,0,0:0:0:0:
64,192,128163,1,0,0:0:0:0:
320,192,128219,1,0,0:0:0:0:
64,192,128274,1,0,0:0:0:0:
448,192,128330,1,0,0:0:0:0:
192,192,128330,1,0,0:0:0:0:
64,192,128385,1,0,0:0:0:0:
448,192,128441,1,0,0:0:0:0:
192,192,128496,1,0,0:0:0:0:
320,192,128552,1,0,0:0:0:0:
448,192,128552,1,0,0:0:0:0:
64,192,128608,1,0,0:0:0:0:
192,192,128663,1,0,0:0:0:0:
448,192,128663,1,0,0:0:0:0:
320,192,128719,1,0,0:0:0:0:
192,192,128774,1,0,0:0:0:0:
448,192,128774,1,0,0:0:0:0:
320,192,128830,1,0,0:0:0:0:
64,192,128885,1,0,0:0:0:0:
192,192,128941,1,0,0:0:0:0:
64,192,128996,1,0,0:0:0:0:
320,192,128996,1,0,0:0:0:0:
448,192,129052,1,0,0:0:0:0:
192,192,129108,1,0,0:0:0:0:
64,192,129163,1,0,0:0:0:0:
320,192,129219,1,0,0:0:0:0:
448,192,129274,1,0,0:0:0:0:
320,192,129330,1,0,0:0:0:0:
448,192,129385,1,0,0:0:0:0:
192,192,129441,1,0,0:0:0:0:
64,192,129441,1,0,0:0:0:0:
320,192,129496,1,0,0:0:0:0:
192,192,129552,1,0,0:0:0:0:
64,192,129608,1,0,0:0:0:0:
320,192,129663,1,0,0:0:0:0:
192,192,129719,1,0,0:0:0:0:
448,192,129774,1,0,0:0:0:0:
320,192,129830,1,0,0:0:0:0:
448,192,129885,1,0,0:0:0:0:
64,192,129885,1,0,0:0:0:0:
320,192,129941,1,0,0:0:0:0:
192,192,129996,1,0,0:0:0:0:
448,192,130052,1,0,0:0:0:0:
320,192,130108,1,0,0:0:0:0:
192,192,130163,1,0,0:0:0:0:
64,192,130219,1,0,0:0:0:0:
192,192,130274,1,0,0:0:0:0:
448,192,130330,1,0,0:0:0:0:
320,192,130330,1,0,0:0:0:0:
64,192,130385,1,0,0:0:0:0:
192,192,130441,1,0,0:0:0:0:
448,192,130496,1,0,0:0:0:0:
192,192,130552,1,0,0:0:0:0:
320,192,130608,1,0,0:0:0:0:
64,192,130663,1,0,0:0:0:0:
448,192,130719,1,0,0:0:0:0:
64,192,130774,1,0,0:0:0:0:
320,192,130774,1,0,0:0:0:0:
448,192,130830,1,0,0:0:0:0:
192,192,130885,1,0,0:0:0:0:
320,192,130885,1,0,0:0:0:0:
64,192,130941,1,0,0:0:0:0:
192,192,130996,1,0,0:0:0:0:
320,192,130996,1,0,0:0:0:0:
448,192,131052,1,0,0:0:0:0:
192,192,131108,1,0,0:0:0:0:
320,192,131163,1,0,0:0:0:0:
448,192,131219,1,0,0:0:0:0:
192,192,131219,1,0,0:0:0:0:
320,192,131274,1,0,0:0:0:0:
448,192,131330,1,0,0:0:0:0:
64,192,131385,1,0,0:0:0:0:
192,192,131441,1,0,0:0:0:0:
448,192,131441,1,0,0:0:0:0:
320,192,131496,1,0,0:0:0:0:
192,192,131552,1,0,0:0:0:0:
320,192,131608,1,0,0:0:0:0:
64,192,131663,1,0,0:0:0:0:
448,192,131663,1,0,0:0:0:0:
192,192,131719,1,0,0:0:0:0:
320,192,131774,1,0,0:0:0:0:
64,192,131830,1,0,0:0:0:0:
320,192,131885,1,0,0:0:0:0:
192,192,131885,1,0,0:0:0:0:
448,192,131941,1,0,0:0:0:0:
192,192,131996,1,0,0:0:0:0:
320,192,132052,1,0,0:0:0:0:
448,192,132108,1,0,0:0:0:0:
64,192,132108,1,0,0:0:0:0:
192,192,132163,1,0,0:0:0:0:
448,192,132219,1,0,0:0:0:0:
320,192,132274,1,0,0:0:0:0:
448,192,132330,1,0,0:0:0:0:
192,192,132330,1,0,0:0:0:0:
64,192,132385,1,0,0:0:0:0:
320,192,132441,1,0,0:0:0:0:
192,192,132496,1,0,0:0:0:0:
64,192,132552,1,0,0:0:0:0:
448,192,132552,1,0,0:0:0:0:
320,192,132608,1,0,0:0:0:0:
448,192,132663,1,0,0:0:0:0:
192,192,132719,1,0,0:0:0:0:
320,192,132774,1,0,0:0:0:0:
448,192,132830,1,0,0:0:0:0:
192,192,132885,1,0,0:0:0:0:
64,192,132941,1,0,0:0:0:0:
448,192,132996,1,0,0:0:0:0:
320,192,132996,1,0,0:0:0:0:
64,192,133052,1,0,0:0:0:0:
192,192,133108,1,0,0:0:0:0:
320,192,133163,1,0,0:0:0:0:
64,192,133219,1,0,0:0:0:0:
320,192,133274,1,0,0:0:0:0:
448,192,133330,1,0,0:0:0:0:
192,192,133385,1,0,0:0:0:0:
448,192,133441,1,0,0:0:0:0:
320,192,133441,1,0,0:0:0:0:
192,192,133496,1,0,0:0:0:0:
64,192,133552,1,0,0:0:0:0:
320,192,133608,1,0,0:0:0:0:
64,192,133663,1,0,0:0:0:0:
192,192,133719,1,0,0:0:0:0:
448,192,133774,1,0,0:0:0:0:
64,192,133830,1,0,0:0:0:0:
448,192,133885,1,0,0:0:0:0:
320,192,133885,1,0,0:0:0:0:
192,192,133941,1,0,0:0:0:0:
448,192,133996,1,0,0:0:0:0:
64,192,134052,1,0,0:0:0:0:
192,192,134108,1,0,0:0:0:0:
448,192,134163,1,0,0:0:0:0:
320,192,134219,1,0,0:0:0:0:
192,192,134274,1,0,0:0:0:0:
64,192,134330,1,0,0:0:0:0:
448,192,134330,1,0,0:0:0:0:
192,192,134385,1,0,0:0:0:0:
320,192,134441,1,0,0:0:0:0:
64,192,134496,1,0,0:0:0:0:
192,192,134552,1,0,0:0:0:0:
448,192,134552,1,0,0:0:0:0:
320,192,134608,1,0,0:0:0:0:
192,192,134663,1,0,0:0:0:0:
448,192,134719,1,0,0:0:0:0:
320,192,134774,1,0,0:0:0:0:
64,192,134774,1,0,0:0:0:0:
192,192,134830,1,0,0:0:0:0:
448,192,134885,1,0,0:0:0:0:
64,192,134885,1,0,0:0:0:0:
320,192,134941,1,0,0:0:0:0:
448,192,134996,1,0,0:0:0:0:
64,192,134996,1,0,0:0:0:0:
192,192,135052,1,0,0:0:0:0:
320,192,135108,1,0,0:0:0:0:
448,192,135163,1,0,0:0:0:0:
64,192,135219,1,0,0:0:0:0:
192,192,135219,1,0,0:0:0:0:
448,192,135274,1,0,0:0:0:0:
320,192,135274,1,0,0:0:0:0:
64,192,135330,1,0,0:0:0:0:
192,192,135385,1,0,0:0:0:0:
448,192,135441,1,0,0:0:0:0:
320,192,135441,1,0,0:0:0:0:
64,192,135496,1,0,0:0:0:0:
320,192,135552,1,0,0:0:0:0:
192,192,135608,1,0,0:0:0:0:
320,192,135663,1,0,0:0:0:0:
448,192,135663,1,0,0:0:0:0:
64,192,135719,1,0,0:0:0:0:
192,192,135774,1,0,0:0:0:0:
448,192,135774,1,0,0:0:0:0:
320,192,135830,1,0,0:0:0:0:
64,192,135885,1,0,0:0:0:0:
448,192,135885,1,0,0:0:0:0:
320,192,135941,1,0,0:0:0:0:
192,192,135996,1,0,0:0:0:0:
448,192,136052,1,0,0:0:0:0:
64,192,136108,1,0,0:0:0:0:
320,192,136108,1,0,0:0:0:0:
448,192,136163,1,0,0:0:0:0:
320,192,136219,1,0,0:0:0:0:
192,192,136274,1,0,0:0:0:0:
320,192,136330,1,0,0:0:0:0:
64,192,136385,1,0,0:0:0:0:
448,192,136441,1,0,0:0:0:0:
64,192,136496,1,0,0:0:0:0:
320,192,136552,1,0,0:0:0:0:
448,192,136552,1,0,0:0:0:0:
192,192,136608,1,0,0:0:0:0:
320,192,136663,1,0,0:0:0:0:
64,192,136719,1,0,0:0:0:0:
320,192,136774,1,0,0:0:0:0:
192,192,136830,1,0,0:0:0:0:
448,192,136885,1,0,0:0:0:0:
320,192,136941,1,0,0:0:0:0:
448,192,136996,1,0,0:0:0:0:
64,192,136996,1,0,0:0:0:0:
320,192,137052,1,0,0:0:0:0:
192,192,137108,1,0,0:0:0:0:
64,192,137163,1,0,0:0:0:0:
448,192,137219,1,0,0:0:0:0:
192,192,137219,1,0,0:0:0:0:
320,192,137274,1,0,0:0:0:0:
64,192,137330,1,0,0:0:0:0:
448,192,137385,1,0,0:0:0:0:
320,192,137441,1,0,0:0:0:0:
192,192,137441,1,0,0:0:0:0:
64,192,137496,1,0,0:0:0:0:
448,192,137552,1,0,0:0:0:0:
320,192,137608,1,0,0:0:0:0:
64,192,137663,1,0,0:0:0:0:
192,192,137663,1,0,0:0:0:0:
320,192,137719,1,0,0:0:0:0:
192,192,137774,1,0,0:0:0:0:
448,192,137830,1,0,0:0:0:0:
64,192,137885,1,0,0:0:0:0:
192,192,137885,1,0,0:0:0:0:
320,192,137941,1,0,0:0:0:0:
448,192,137996,1,0,0:0:0:0:
192,192,137996,1,0,0:0:0:0:
64,192,138052,1,0,0:0:0:0:
448,192,138108,1,0,0:0:0:0:
320,192,138108,1,0,0:0:0:0:
64,192,138163,1,0,0:0:0:0:
192,192,138219,1,0,0:0:0:0:
320,192,138219,1,0,0:0:0:0:
448,192,138274,1,0,0:0:0:0:
64,192,138330,1,0,0:0:0:0:
320,192,138330,1,0,0:0:0:0:
192,192,138385,1,0,0:0:0:0:
64,192,138441,1,0,0:0:0:0:
448,192,138441,1,0,0:0:0:0:
320,192,138496,1,0,0:0:0:0:
448,192,138552,1,0,0:0:0:0:
192,192,138552,1,0,0:0:0:0:
320,192,138608,1,0,0:0:0:0:
64,192,138608,1,0,0:0:0:0:
192,192,138663,1,0,0:0:0:0:
448,192,138719,1,0,0:0:0:0:
64,192,138774,1,0,0:0:0:0:
320,192,138774,1,0,0:0:0:0:
192,192,138774,1,0,0:0:0:0:
448,192,138830,1,0,0:0:0:0:
192,192,138885,1,0,0:0:0:0:
320,192,138885,1,0,0:0:0:0:
64,192,138941,1,0,0:0:0:0:
448,192,138996,1,0,0:0:0:0:
320,192,138996,1,0,0:0:0:0:
192,192,139052,1,0,0:0:0:0:
64,192,139108,1,0,0:0:0:0:
448,192,139108,1,0,0:0:0:0:
320,192,139108,1,0,0:0:0:0:
192,192,139163,1,0,0:0:0:0:
448,192,139219,1,0,0:0:0:0:
64,192,139219,1,0,0:0:0:0:
192,192,139274,1,0,0:0:0:0:
448,192,139330,1,0,0:0:0:0:
320,192,139385,1,0,0:0:0:0:
448,192,139441,1,0,0:0:0:0:
192,192,139441,1,0,0:0:0:0:
64,192,139441,1,0,0:0:0:0:
320,192,139496,1,0,0:0:0:0:
448,192,139552,1,0,0:0:0:0:
192,192,139608,1,0,0:0:0:0:
64,192,139663,1,0,0:0:0:0:
320,192,139663,1,0,0:0:0:0:
64,192,139885,1,0,0:0:0:0:
192,192,139885,1,0,0:0:0:0:
192,192,139996,1,0,0:0:0:0:
64,192,140108,1,0,0:0:0:0:
448,192,140108,1,0,0:0:0:0:
320,192,140108,1,0,0:0:0:0:
320,192,140219,1,0,0:0:0:0:
64,192,140330,1,0,0:0:0:0:
192,192,140330,1,0,0:0:0:0:
320,192,140441,1,0,0:0:0:0:
64,192,140552,1,0,0:0:0:0:
448,192,140552,1,0,0:0:0:0:
192,192,140663,1,0,0:0:0:0:
64,192,140774,1,0,0:0:0:0:
320,192,140774,1,0,0:0:0:0:
192,192,140885,1,0,0:0:0:0:
64,192,140996,1,0,0:0:0:0:
448,192,140996,1,0,0:0:0:0:
320,192,140996,1,0,0:0:0:0:
320,192,141108,1,0,0:0:0:0:
64,192,141219,1,0,0:0:0:0:
192,192,141219,1,0,0:0:0:0:
320,192,141330,1,0,0:0:0:0:
64,192,141441,1,0,0:0:0:0:
192,192,141441,1,0,0:0:0:0:
192,192,141552,1,0,0:0:0:0:
64,192,141663,1,0,0:0:0:0:
320,192,141663,1,0,0:0:0:0:
192,192,141774,1,0,0:0:0:0:
64,192,141885,1,0,0:0:0:0:
448,192,141885,1,0,0:0:0:0:
192,192,141885,1,0,0:0:0:0:
320,192,141996,1,0,0:0:0:0:
64,192,142108,1,0,0:0:0:0:
192,192,142108,1,0,0:0:0:0:
320,192,142219,1,0,0:0:0:0:
64,192,142330,1,0,0:0:0:0:
320,192,142330,1,0,0:0:0:0:
192,192,142441,1,0,0:0:0:0:
64,192,142552,1,0,0:0:0:0:
320,192,142552,1,0,0:0:0:0:
192,192,142663,1,0,0:0:0:0:
64,192,142774,1,0,0:0:0:0:
448,192,142774,1,0,0:0:0:0:
192,192,142774,1,0,0:0:0:0:
320,192,142885,1,0,0:0:0:0:
64,192,142996,1,0,0:0:0:0:
192,192,142996,1,0,0:0:0:0:
320,192,143108,1,0,0:0:0:0:
448,192,143219,1,0,0:0:0:0:
192,192,143219,1,0,0:0:0:0:
64,192,143330,1,0,0:0:0:0:
448,192,143441,1,0,0:0:0:0:
192,192,143441,1,0,0:0:0:0:
64,192,143552,1,0,0:0:0:0:
448,192,143663,1,0,0:0:0:0:
64,192,143663,1,0,0:0:0:0:
192,192,143663,1,0,0:0:0:0:
320,192,143774,1,0,0:0:0:0:
448,192,143885,1,0,0:0:0:0:
64,192,143885,1,0,0:0:0:0:
192,192,143996,1,0,0:0:0:0:
448,192,144108,1,0,0:0:0:0:
320,192,144108,1,0,0:0:0:0:
64,192,144219,1,0,0:0:0:0:
448,192,144330,1,0,0:0:0:0:
192,192,144330,1,0,0:0:0:0:
64,192,144441,1,0,0:0:0:0:
448,192,144552,1,0,0:0:0:0:
192,192,144552,1,0,0:0:0:0:
320,192,144552,1,0,0:0:0:0:
64,192,144663,1,0,0:0:0:0:
448,192,144774,1,0,0:0:0:0:
192,192,144774,1,0,0:0:0:0:
320,192,144885,1,0,0:0:0:0:
448,192,144996,1,0,0:0:0:0:
64,192,144996,1,0,0:0:0:0:
320,192,145108,1,0,0:0:0:0:
448,192,145219,1,0,0:0:0:0:
192,192,145219,1,0,0:0:0:0:
320,192,145330,1,0,0:0:0:0:
448,192,145441,1,0,0:0:0:0:
64,192,145441,1,0,0:0:0:0:
192,192,145441,1,0,0:0:0:0:
320,192,145552,1,0,0:0:0:0:
448,192,145663,1,0,0:0:0:0:
64,192,145663,1,0,0:0:0:0:
192,192,145774,1,0,0:0:0:0:
448,192,145885,1,0,0:0:0:0:
320,192,145885,1,0,0:0:0:0:
64,192,145996,1,0,0:0:0:0:
448,192,146108,1,0,0:0:0:0:
192,192,146108,1,0,0:0:0:0:
64,192,146219,1,0,0:0:0:0:
448,192,146330,1,0,0:0:0:0:
192,192,146330,1,0,0:0:0:0:
320,192,146330,1,0,0:0:0:0:
64,192,146441,1,0,0:0:0:0:
448,192,146552,1,0,0:0:0:0:
320,192,146552,1,0,0:0:0:0:
192,192,146663,1,0,0:0:0:0:
320,192,146774,1,0,0:0:0:0:
64,192,146774,1,0,0:0:0:0:
192,192,146885,1,0,0:0:0:0:
320,192,146996,1,0,0:0:0:0:
64,192,147108,1,0,0:0:0:0:
320,192,147219,1,0,0:0:0:0:
192,192,147219,1,0,0:0:0:0:
448,192,147219,1,0,0:0:0:0:
448,192,147330,1,0,0:0:0:0:
320,192,147441,1,0,0:0:0:0:
64,192,147441,1,0,0:0:0:0:
192,192,147552,1,0,0:0:0:0:
320,192,147663,1,0,0:0:0:0:
448,192,147663,1,0,0:0:0:0:
64,192,147774,1,0,0:0:0:0:
320,192,147885,1,0,0:0:0:0:
192,192,147885,1,0,0:0:0:0:
448,192,147996,1,0,0:0:0:0:
320,192,148108,1,0,0:0:0:0:
448,192,148108,1,0,0:0:0:0:
64,192,148108,1,0,0:0:0:0:
64,192,148219,1,0,0:0:0:0:
320,192,148330,1,0,0:0:0:0:
192,192,148330,1,0,0:0:0:0:
448,192,148441,1,0,0:0:0:0:
320,192,148552,1,0,0:0:0:0:
64,192,148552,1,0,0:0:0:0:
320,192,148774,1,0,0:0:0:0:
192,192,148774,1,0,0:0:0:0:
448,192,148885,1,0,0:0:0:0:
320,192,148996,1,0,0:0:0:0:
64,192,148996,1,0,0:0:0:0:
192,192,148996,1,0,0:0:0:0:
448,192,149108,1,0,0:0:0:0:
320,192,149219,1,0,0:0:0:0:
64,192,149219,1,0,0:0:0:0:
192,192,149330,1,0,0:0:0:0:
320,192,149441,1,0,0:0:0:0:
64,192,149441,1,0,0:0:0:0:
64,192,149552,1,0,0:0:0:0:
320,192,149663,1,0,0:0:0:0:
192,192,149663,1,0,0:0:0:0:
448,192,149774,1,0,0:0:0:0:
320,192,149885,1,0,0:0:0:0:
64,192,149885,1,0,0:0:0:0:
192,192,149885,1,0,0:0:0:0:
320,192,150108,1,0,0:0:0:0:
448,192,150108,1,0,0:0:0:0:
64,192,150219,1,0,0:0:0:0:
192,192,150330,1,0,0:0:0:0:
448,192,150330,1,0,0:0:0:0:
64,192,150441,1,0,0:0:0:0:
192,192,150552,1,0,0:0:0:0:
320,192,150552,1,0,0:0:0:0:
64,192,150663,1,0,0:0:0:0:
192,192,150774,1,0,0:0:0:0:
320,192,150774,1,0,0:0:0:0:
448,192,150885,1,0,0:0:0:0:
192,192,150996,1,0,0:0:0:0:
64,192,150996,1,0,0:0:0:0:
320,192,151108,1,0,0:0:0:0:
192,192,151219,1,0,0:0:0:0:
448,192,151219,1,0,0:0:0:0:
64,192,151330,1,0,0:0:0:0:
192,192,151441,1,0,0:0:0:0:
320,192,151441,1,0,0:0:0:0:
64,192,151552,1,0,0:0:0:0:
192,192,151663,1,0,0:0:0:0:
320,192,151663,1,0,0:0:0:0:
64,192,151774,1,0,0:0:0:0:
192,192,151885,1,0,0:0:0:0:
448,192,151885,1,0,0:0:0:0:
320,192,151996,1,0,0:0:0:0:
192,192,152108,1,0,0:0:0:0:
64,192,152219,1,0,0:0:0:0:
192,192,152330,1,0,0:0:0:0:
320,192,152330,1,0,0:0:0:0:
64,192,152441,1,0,0:0:0:0:
192,192,152552,1,0,0:0:0:0:
448,192,152663,1,0,0:0:0:0:
192,192,152774,1,0,0:0:0:0:
64,192,152774,1,0,0:0:0:0:
320,192,152885,1,0,0:0:0:0:
192,192,152996,1,0,0:0:0:0:
64,192,153108,1,0,0:0:0:0:
192,192,153219,1,0,0:0:0:0:
320,192,153219,1,0,0:0:0:0:
64,192,153330,1,0,0:0:0:0:
192,192,153441,1,0,0:0:0:0:
448,192,153552,1,0,0:0:0:0:
192,192,153663,1,0,0:0:0:0:
64,192,153663,1,0,0:0:0:0:
320,192,153774,1,0,0:0:0:0:
448,192,153885,1,0,0:0:0:0:
320,192,153885,1,0,0:0:0:0:
192,192,153885,1,0,0:0:0:0:
64,192,153996,1,0,0:0:0:0:
192,192,154108,1,0,0:0:0:0:
192,192,154219,1,0,0:0:0:0:
448,192,154330,1,0,0:0:0:0:
192,192,154330,1,0,0:0:0:0:
64,192,154330,1,0,0:0:0:0:
320,192,154441,1,0,0:0:0:0:
448,192,154552,1,0,0:0:0:0:
192,192,154663,1,0,0:0:0:0:
448,192,154774,1,0,0:0:0:0:
64,192,154774,1,0,0:0:0:0:
192,192,154885,1,0,0:0:0:0:
64,192,154885,1,0,0:0:0:0:
320,192,154996,1,0,0:0:0:0:
320,192,155108,1,0,0:0:0:0:
448,192,155219,1,0,0:0:0:0:
192,192,155219,1,0,0:0:0:0:
320,192,155219,1,0,0:0:0:0:
64,192,155330,1,0,0:0:0:0:
192,192,155441,1,0,0:0:0:0:
320,192,155441,1,0,0:0:0:0:
448,192,155552,1,0,0:0:0:0:
64,192,155663,1,0,0:0:0:0:
448,192,155663,1,0,0:0:0:0:
320,192,155663,1,0,0:0:0:0:
448,192,155774,1,0,0:0:0:0:
64,192,155885,1,0,0:0:0:0:
320,192,155885,1,0,0:0:0:0:
64,192,155996,1,0,0:0:0:0:
64,192,156108,1,0,0:0:0:0:
320,192,156108,1,0,0:0:0:0:
192,192,156108,1,0,0:0:0:0:
320,192,156219,1,0,0:0:0:0:
448,192,156330,1,0,0:0:0:0:
64,192,156330,1,0,0:0:0:0:
320,192,156441,1,0,0:0:0:0:
64,192,156552,1,0,0:0:0:0:
448,192,156552,1,0,0:0:0:0:
192,192,156552,1,0,0:0:0:0:
192,192,156663,1,0,0:0:0:0:
64,192,156774,1,0,0:0:0:0:
448,192,156774,1,0,0:0:0:0:
320,192,156774,1,0,0:0:0:0:
448,192,156885,1,0,0:0:0:0:
192,192,156885,1,0,0:0:0:0:
64,192,156996,1,0,0:0:0:0:
448,192,156996,1,0,0:0:0:0:
192,192,156996,1,0,0:0:0:0:
320,192,157108,1,0,0:0:0:0:
320,192,157219,1,0,0:0:0:0:
64,192,157219,1,0,0:0:0:0:
448,192,157330,1,0,0:0:0:0:
448,192,157441,1,0,0:0:0:0:
320,192,157441,1,0,0:0:0:0:
64,192,157441,1,0,0:0:0:0:
64,192,157552,1,0,0:0:0:0:
448,192,157663,1,0,0:0:0:0:
320,192,157663,1,0,0:0:0:0:
192,192,157663,1,0,0:0:0:0:
320,192,157774,1,0,0:0:0:0:
320,192,157885,1,0,0:0:0:0:
64,192,157885,1,0,0:0:0:0:
192,192,157885,1,0,0:0:0:0:
448,192,157996,1,0,0:0:0:0:
320,192,158108,1,0,0:0:0:0:
64,192,158108,1,0,0:0:0:0:
448,192,158219,1,0,0:0:0:0:
320,192,158330,1,0,0:0:0:0:
64,192,158330,1,0,0:0:0:0:
192,192,158330,1,0,0:0:0:0:
320,192,158441,1,0,0:0:0:0:
448,192,158552,1,0,0:0:0:0:
64,192,158552,1,0,0:0:0:0:
64,192,158663,1,0,0:0:0:0:
320,192,158774,1,0,0:0:0:0:
64,192,158774,1,0,0:0:0:0:
448,192,158774,1,0,0:0:0:0:
192,192,158885,1,0,0:0:0:0:
448,192,158996,1,0,0:0:0:0:
64,192,158996,1,0,0:0:0:0:
320,192,159108,1,0,0:0:0:0:
320,192,159219,1,0,0:0:0:0:
64,192,159219,1,0,0:0:0:0:
448,192,159219,1,0,0:0:0:0:
192,192,159330,1,0,0:0:0:0:
64,192,159441,1,0,0:0:0:0:
448,192,159441,1,0,0:0:0:0:
448,192,159552,1,0,0:0:0:0:
64,192,159663,1,0,0:0:0:0:
192,192,159663,1,0,0:0:0:0:
448,192,159663,1,0,0:0:0:0:
320,192,159774,1,0,0:0:0:0:
64,192,159774,1,0,0:0:0:0:
192,192,159885,1,0,0:0:0:0:
448,192,159885,1,0,0:0:0:0:
64,192,159996,1,0,0:0:0:0:
192,192,160108,1,0,0:0:0:0:
320,192,160108,1,0,0:0:0:0:
448,192,160108,1,0,0:0:0:0:
192,192,160219,1,0,0:0:0:0:
320,192,160330,1,0,0:0:0:0:
64,192,160330,1,0,0:0:0:0:
64,192,160441,1,0,0:0:0:0:
320,192,160441,1,0,0:0:0:0:
64,192,160552,1,0,0:0:0:0:
320,192,160552,1,0,0:0:0:0:
192,192,160552,1,0,0:0:0:0:
320,192,160663,1,0,0:0:0:0:
192,192,160774,1,0,0:0:0:0:
448,192,160774,1,0,0:0:0:0:
320,192,160885,1,0,0:0:0:0:
448,192,160996,1,0,0:0:0:0:
320,192,160996,1,0,0:0:0:0:
64,192,160996,1,0,0:0:0:0:
192,192,161108,1,0,0:0:0:0:
64,192,161219,1,0,0:0:0:0:
448,192,161219,1,0,0:0:0:0:
64,192,161330,1,0,0:0:0:0:
64,192,161441,1,0,0:0:0:0:
192,192,161441,1,0,0:0:0:0:
320,192,161441,1,0,0:0:0:0:
320,192,161552,1,0,0:0:0:0:
448,192,161663,1,0,0:0:0:0:
64,192,161774,1,0,0:0:0:0:
448,192,161885,1,0,0:0:0:0:
192,192,161885,1,0,0:0:0:0:
64,192,161996,1,0,0:0:0:0:
320,192,161996,1,0,0:0:0:0:
448,192,162108,1,0,0:0:0:0:
192,192,162108,1,0,0:0:0:0:
448,192,162219,1,0,0:0:0:0:
448,192,162330,1,0,0:0:0:0:
192,192,162330,1,0,0:0:0:0:
320,192,162330,1,0,0:0:0:0:
64,192,162441,1,0,0:0:0:0:
192,192,162552,1,0,0:0:0:0:
448,192,162552,1,0,0:0:0:0:
320,192,162663,1,0,0:0:0:0:
64,192,162774,1,0,0:0:0:0:
192,192,162774,1,0,0:0:0:0:
448,192,162774,1,0,0:0:0:0:
320,192,162885,1,0,0:0:0:0:
192,192,162996,1,0,0:0:0:0:
448,192,162996,1,0,0:0:0:0:
192,192,163108,1,0,0:0:0:0:
64,192,163219,1,0,0:0:0:0:
320,192,163219,1,0,0:0:0:0:
192,192,163219,1,0,0:0:0:0:
320,192,163330,1,0,0:0:0:0:
448,192,163441,1,0,0:0:0:0:
192,192,163441,1,0,0:0:0:0:
320,192,163552,1,0,0:0:0:0:
64,192,163663,1,0,0:0:0:0:
448,192,163663,1,0,0:0:0:0:
192,192,163663,1,0,0:0:0:0:
320,192,163774,1,0,0:0:0:0:
192,192,163885,1,0,0:0:0:0:
448,192,163885,1,0,0:0:0:0:
448,192,163996,1,0,0:0:0:0:
192,192,163996,1,0,0:0:0:0:
64,192,164108,1,0,0:0:0:0:
192,192,164108,1,0,0:0:0:0:
448,192,164219,1,0,0:0:0:0:
320,192,164330,1,0,0:0:0:0:
64,192,164330,1,0,0:0:0:0:
448,192,164441,1,0,0:0:0:0:
448,192,164552,1,0,0:0:0:0:
320,192,164552,1,0,0:0:0:0:
64,192,164552,1,0,0:0:0:0:
64,192,164663,1,0,0:0:0:0:
448,192,164774,1,0,0:0:0:0:
192,192,164774,1,0,0:0:0:0:
192,192,164885,1,0,0:0:0:0:
320,192,164996,1,0,0:0:0:0:
448,192,164996,1,0,0:0:0:0:
192,192,164996,1,0,0:0:0:0:
192,192,165108,1,0,0:0:0:0:
64,192,165219,1,0,0:0:0:0:
448,192,165219,1,0,0:0:0:0:
448,192,165330,1,0,0:0:0:0:
64,192,165441,1,0,0:0:0:0:
192,192,165441,1,0,0:0:0:0:
320,192,165441,1,0,0:0:0:0:
320,192,165552,1,0,0:0:0:0:
448,192,165663,1,0,0:0:0:0:
64,192,165663,1,0,0:0:0:0:
448,192,165774,1,0,0:0:0:0:
320,192,165885,1,0,0:0:0:0:
64,192,165885,1,0,0:0:0:0:
448,192,165885,1,0,0:0:0:0:
192,192,165996,1,0,0:0:0:0:
448,192,166108,1,0,0:0:0:0:
64,192,166108,1,0,0:0:0:0:
192,192,166219,1,0,0:0:0:0:
320,192,166330,1,0,0:0:0:0:
64,192,166330,1,0,0:0:0:0:
448,192,166330,128,0,166774:0:0:0:0:
192,192,166441,1,0,0:0:0:0:
64,192,166552,1,0,0:0:0:0:
320,192,166552,1,0,0:0:0:0:
320,192,166663,1,0,0:0:0:0:
64,192,166774,1,0,0:0:0:0:
192,192,166774,1,0,0:0:0:0:
320,192,166885,1,0,0:0:0:0:
448,192,166996,1,0,0:0:0:0:
192,192,166996,1,0,0:0:0:0:
448,192,167108,1,0,0:0:0:0:
192,192,167108,1,0,0:0:0:0:
320,192,167219,1,0,0:0:0:0:
64,192,167219,1,0,0:0:0:0:
320,192,167330,1,0,0:0:0:0:
448,192,167441,1,0,0:0:0:0:
192,192,167441,1,0,0:0:0:0:
192,192,167552,1,0,0:0:0:0:
448,192,167552,1,0,0:0:0:0:
64,192,167663,1,0,0:0:0:0:
320,192,167663,1,0,0:0:0:0:
192,192,167774,1,0,0:0:0:0:
320,192,167885,1,0,0:0:0:0:
64,192,167885,1,0,0:0:0:0:
320,192,167996,1,0,0:0:0:0:
64,192,167996,1,0,0:0:0:0:
448,192,168108,1,0,0:0:0:0:
192,192,168108,1,0,0:0:0:0:
64,192,168108,128,0,168552:0:0:0:0:
320,192,168330,1,0,0:0:0:0:
192,192,168441,1,0,0:0:0:0:
448,192,168552,1,0,0:0:0:0:
320,192,168552,1,0,0:0:0:0:
320,192,168774,1,0,0:0:0:0:
448,192,168885,1,0,0:0:0:0:
192,192,168996,1,0,0:0:0:0:
320,192,168996,1,0,0:0:0:0:
64,192,168996,1,0,0:0:0:0:
64,192,169219,1,0,0:0:0:0:
320,192,169330,1,0,0:0:0:0:
192,192,169441,1,0,0:0:0:0:
64,192,169441,1,0,0:0:0:0:
448,192,169441,1,0,0:0:0:0:
64,192,169663,1,0,0:0:0:0:
192,192,169774,1,0,0:0:0:0:
448,192,169885,1,0,0:0:0:0:
320,192,169885,1,0,0:0:0:0:
64,192,169885,1,0,0:0:0:0:
64,192,170108,1,0,0:0:0:0:
192,192,170108,1,0,0:0:0:0:
192,192,170330,1,0,0:0:0:0:
320,192,170330,1,0,0:0:0:0:
448,192,170330,1,0,0:0:0:0:
320,192,170552,1,0,0:0:0:0:
448,192,170552,1,0,0:0:0:0:
448,192,170774,1,0,0:0:0:0:
64,192,170774,1,0,0:0:0:0:
192,192,170774,1,0,0:0:0:0:
64,192,170996,1,0,0:0:0:0:
320,192,170996,1,0,0:0:0:0:
192,192,171219,1,0,0:0:0:0:
448,192,171219,1,0,0:0:0:0:
320,192,171219,1,0,0:0:0:0:
320,192,171441,1,0,0:0:0:0:
448,192,171441,1,0,0:0:0:0:
448,192,171663,1,0,0:0:0:0:
192,192,171663,1,0,0:0:0:0:
64,192,171663,1,0,0:0:0:0:
64,192,171885,1,0,0:0:0:0:
192,192,171996,1,0,0:0:0:0:
320,192,172108,1,0,0:0:0:0:
448,192,172108,1,0,0:0:0:0:
64,192,172108,1,0,0:0:0:0:
448,192,172330,1,0,0:0:0:0:
64,192,172441,1,0,0:0:0:0:
192,192,172552,1,0,0:0:0:0:
320,192,172552,1,0,0:0:0:0:
448,192,172552,1,0,0:0:0:0:
64,192,172774,1,0,0:0:0:0:
320,192,172885,1,0,0:0:0:0:
448,192,172996,1,0,0:0:0:0:
192,192,172996,1,0,0:0:0:0:
64,192,172996,1,0,0:0:0:0:
320,192,173219,1,0,0:0:0:0:
64,192,173330,1,0,0:0:0:0:
192,192,173441,1,0,0:0:0:0:
448,192,173441,1,0,0:0:0:0:
320,192,173441,1,0,0:0:0:0:
64,192,173663,1,0,0:0:0:0:
320,192,173663,1,0,0:0:0:0:
192,192,173885,1,0,0:0:0:0:
448,192,173885,1,0,0:0:0:0:
64,192,173885,1,0,0:0:0:0:
320,192,174108,1,0,0:0:0:0:
448,192,174108,1,0,0:0:0:0:
448,192,174330,1,0,0:0:0:0:
192,192,174330,1,0,0:0:0:0:
320,192,174330,1,0,0:0:0:0:
64,192,174552,1,0,0:0:0:0:
320,192,174552,1,0,0:0:0:0:
320,192,174774,1,0,0:0:0:0:
192,192,174774,1,0,0:0:0:0:
64,192,174774,1,0,0:0:0:0:
448,192,174996,1,0,0:0:0:0:
320,192,174996,1,0,0:0:0:0:
320,192,175219,1,0,0:0:0:0:
64,192,175219,1,0,0:0:0:0:
448,192,175219,1,0,0:0:0:0:
64,192,175441,1,0,0:0:0:0:
448,192,175552,1,0,0:0:0:0:
192,192,175663,1,0,0:0:0:0:
320,192,175663,1,0,0:0:0:0:
64,192,175663,1,0,0:0:0:0:
320,192,175885,1,0,0:0:0:0:
64,192,175996,1,0,0:0:0:0:
448,192,176108,1,0,0:0:0:0:
192,192,176108,1,0,0:0:0:0:
320,192,176108,1,0,0:0:0:0:
64,192,176330,1,0,0:0:0:0:
192,192,176441,1,0,0:0:0:0:
320,192,176552,1,0,0:0:0:0:
448,192,176552,1,0,0:0:0:0:
192,192,176552,1,0,0:0:0:0:
320,192,176774,1,0,0:0:0:0:
64,192,176885,1,0,0:0:0:0:
320,192,176996,1,0,0:0:0:0:
448,192,176996,1,0,0:0:0:0:
192,192,176996,1,0,0:0:0:0:
64,192,177219,1,0,0:0:0:0:
192,192,177219,1,0,0:0:0:0:
192,192,177441,1,0,0:0:0:0:
448,192,177441,1,0,0:0:0:0:
320,192,177441,1,0,0:0:0:0:
320,192,177663,1,0,0:0:0:0:
448,192,177663,1,0,0:0:0:0:
448,192,177885,1,0,0:0:0:0:
192,192,177885,1,0,0:0:0:0:
64,192,177885,1,0,0:0:0:0:
64,192,178108,1,0,0:0:0:0:
320,192,178108,1,0,0:0:0:0:
192,192,178330,1,0,0:0:0:0:
64,192,178330,1,0,0:0:0:0:
448,192,178330,1,0,0:0:0:0:
448,192,178552,1,0,0:0:0:0:
64,192,178552,1,0,0:0:0:0:
320,192,178774,1,0,0:0:0:0:
192,192,178774,1,0,0:0:0:0:
448,192,178774,1,0,0:0:0:0:
320,192,178996,1,0,0:0:0:0:
192,192,179108,1,0,0:0:0:0:
448,192,179219,1,0,0:0:0:0:
320,192,179219,1,0,0:0:0:0:
64,192,179219,1,0,0:0:0:0:
448,192,179441,1,0,0:0:0:0:
192,192,179552,1,0,0:0:0:0:
320,192,179663,1,0,0:0:0:0:
448,192,179663,1,0,0:0:0:0:
64,192,179663,1,0,0:0:0:0:
64,192,179885,1,0,0:0:0:0:
448,192,179996,1,0,0:0:0:0:
192,192,180108,1,0,0:0:0:0:
320,192,180108,1,0,0:0:0:0:
448,192,180108,1,0,0:0:0:0:
64,192,180330,1,0,0:0:0:0:
320,192,180441,1,0,0:0:0:0:
192,192,180552,1,0,0:0:0:0:
448,192,180552,1,0,0:0:0:0:
320,192,180552,1,0,0:0:0:0:
320,192,180774,1,0,0:0:0:0:
64,192,180774,1,0,0:0:0:0:
64,192,180996,1,0,0:0:0:0:
192,192,180996,1,0,0:0:0:0:
448,192,180996,1,0,0:0:0:0:
192,192,181219,1,0,0:0:0:0:
448,192,181219,1,0,0:0:0:0:
448,192,181441,1,0,0:0:0:0:
320,192,181441,1,0,0:0:0:0:
192,192,181441,1,0,0:0:0:0:
320,192,181663,1,0,0:0:0:0:
64,192,181663,1,0,0:0:0:0:
192,192,181885,1,0,0:0:0:0:
448,192,181885,1,0,0:0:0:0:
64,192,181885,1,0,0:0:0:0:
64,192,182108,1,0,0:0:0:0:
192,192,182108,1,0,0:0:0:0:
448,192,182330,1,0,0:0:0:0:
320,192,182330,1,0,0:0:0:0:
192,192,182330,1,0,0:0:0:0:
64,192,182330,1,0,0:0:0:0:
320,192,182552,1,0,0:0:0:0:
448,192,182774,1,0,0:0:0:0:
320,192,182774,1,0,0:0:0:0:
192,192,182774,1,0,0:0:0:0:
64,192,182774,1,0,0:0:0:0:
192,192,182996,1,0,0:0:0:0:
64,192,183219,1,0,0:0:0:0:
192,192,183219,1,0,0:0:0:0:
448,192,183219,1,0,0:0:0:0:
320,192,183219,1,0,0:0:0:0:
320,192,183441,1,0,0:0:0:0:
448,192,183663,1,0,0:0:0:0:
320,192,183663,1,0,0:0:0:0:
192,192,183663,1,0,0:0:0:0:
64,192,183663,1,0,0:0:0:0:
192,192,183885,1,0,0:0:0:0:
448,192,184108,1,0,0:0:0:0:
320,192,184108,1,0,0:0:0:0:
64,192,184108,1,0,0:0:0:0:
192,192,184108,1,0,0:0:0:0:
448,192,184330,1,0,0:0:0:0:
320,192,184330,1,0,0:0:0:0:
192,192,184330,1,0,0:0:0:0:
64,192,184330,1,0,0:0:0:0:
64,192,184552,1,0,0:0:0:0:
192,192,184552,1,0,0:0:0:0:
320,192,184552,1,0,0:0:0:0:
448,192,184552,1,0,0:0:0:0:
192,192,184774,1,0,0:0:0:0:
64,192,184774,1,0,0:0:0:0:
320,192,184774,1,0,0:0:0:0:
448,192,184774,1,0,0:0:0:0:
448,192,184996,1,0,0:0:0:0:
320,192,184996,1,0,0:0:0:0:
192,192,184996,1,0,0:0:0:0:
64,192,184996,1,0,0:0:0:0:
448,192,185219,1,0,0:0:0:0:
320,192,185219,1,0,0:0:0:0:
192,192,185219,1,0,0:0:0:0:
64,192,185219,1,0,0:0:0:0:
448,192,185441,1,0,0:0:0:0:
320,192,185441,1,0,0:0:0:0:
192,192,185441,1,0,0:0:0:0:
64,192,185441,1,0,0:0:0:0:
64,192,185663,1,0,0:0:0:0:
192,192,185663,1,0,0:0:0:0:
320,192,185663,1,0,0:0:0:0:
448,192,185663,1,0,0:0:0:0:
448,192,185885,1,0,0:0:0:0:
192,192,185885,1,0,0:0:0:0:
64,192,185885,1,0,0:0:0:0:
320,192,185996,1,0,0:0:0:0:
448,192,185996,1,0,0:0:0:0:
192,192,186108,1,0,0:0:0:0:
320,192,186219,1,0,0:0:0:0:
64,192,186330,1,0,0:0:0:0:
320,192,186330,1,0,0:0:0:0:
448,192,186330,1,0,0:0:0:0:
64,192,186441,1,0,0:0:0:0:
192,192,186441,1,0,0:0:0:0:
320,192,186552,1,0,0:0:0:0:
192,192,186663,1,0,0:0:0:0:
64,192,186774,1,0,0:0:0:0:
192,192,186774,1,0,0:0:0:0:
448,192,186774,1,0,0:0:0:0:
192,192,186885,1,0,0:0:0:0:
320,192,186885,1,0,0:0:0:0:
448,192,186996,1,0,0:0:0:0:
320,192,187108,1,0,0:0:0:0:
448,192,187219,1,0,0:0:0:0:
320,192,187219,1,0,0:0:0:0:
64,192,187219,1,0,0:0:0:0:
320,192,187330,1,0,0:0:0:0:
192,192,187330,1,0,0:0:0:0:
64,192,187441,1,0,0:0:0:0:
192,192,187552,1,0,0:0:0:0:
320,192,187663,1,0,0:0:0:0:
64,192,187663,1,0,0:0:0:0:
448,192,187663,128,0,188108:0:0:0:0:
448,192,189663,128,0,190719:0:0:0:0:
320,192,189885,128,0,190719:0:0:0:0:
192,192,190219,128,0,190719:0:0:0:0:
64,192,190552,128,0,190719:0:0:0:0:
448,192,190774,1,0,0:0:0:0:
320,192,190774,1,0,0:0:0:0:
192,192,190774,1,0,0:0:0:0:
64,192,190774,1,0,0:0:0:0:
448,192,191219,1,0,0:0:0:0:
192,192,191219,1,0,0:0:0:0:
64,192,191219,1,0,0:0:0:0:
320,192,191330,1,0,0:0:0:0:
448,192,191330,1,0,0:0:0:0:
192,192,191385,1,0,0:0:0:0:
320,192,191441,1,0,0:0:0:0:
64,192,191441,1,0,0:0:0:0:
448,192,191496,1,0,0:0:0:0:
192,192,191552,1,0,0:0:0:0:
64,192,191608,1,0,0:0:0:0:
320,192,191663,1,0,0:0:0:0:
448,192,191663,1,0,0:0:0:0:
448,192,191774,1,0,0:0:0:0:
192,192,191774,1,0,0:0:0:0:
64,192,191830,1,0,0:0:0:0:
192,192,191885,1,0,0:0:0:0:
448,192,191885,1,0,0:0:0:0:
320,192,191941,1,0,0:0:0:0:
448,192,191996,1,0,0:0:0:0:
64,192,192052,1,0,0:0:0:0:
192,192,192108,1,0,0:0:0:0:
448,192,192108,1,0,0:0:0:0:
64,192,192163,1,0,0:0:0:0:
320,192,192219,1,0,0:0:0:0:
192,192,192219,1,0,0:0:0:0:
64,192,192274,1,0,0:0:0:0:
192,192,192330,1,0,0:0:0:0:
448,192,192385,1,0,0:0:0:0:
192,192,192441,1,0,0:0:0:0:
448,192,192496,1,0,0:0:0:0:
64,192,192552,1,0,0:0:0:0:
320,192,192552,1,0,0:0:0:0:
448,192,192608,1,0,0:0:0:0:
192,192,192608,1,0,0:0:0:0:
320,192,192663,1,0,0:0:0:0:
64,192,192663,1,0,0:0:0:0:
448,192,192719,1,0,0:0:0:0:
320,192,192774,1,0,0:0:0:0:
192,192,192830,1,0,0:0:0:0:
320,192,192885,1,0,0:0:0:0:
64,192,192941,1,0,0:0:0:0:
448,192,192996,1,0,0:0:0:0:
320,192,192996,1,0,0:0:0:0:
192,192,193052,1,0,0:0:0:0:
64,192,193108,1,0,0:0:0:0:
448,192,193163,1,0,0:0:0:0:
320,192,193219,1,0,0:0:0:0:
64,192,193219,1,0,0:0:0:0:
192,192,193274,1,0,0:0:0:0:
448,192,193330,1,0,0:0:0:0:
64,192,193385,1,0,0:0:0:0:
192,192,193441,1,0,0:0:0:0:
320,192,193441,1,0,0:0:0:0:
448,192,193496,1,0,0:0:0:0:
64,192,193552,1,0,0:0:0:0:
320,192,193608,1,0,0:0:0:0:
448,192,193663,1,0,0:0:0:0:
192,192,193663,1,0,0:0:0:0:
64,192,193719,1,0,0:0:0:0:
320,192,193774,1,0,0:0:0:0:
448,192,193830,1,0,0:0:0:0:
64,192,193885,1,0,0:0:0:0:
192,192,193885,1,0,0:0:0:0:
320,192,193941,1,0,0:0:0:0:
192,192,193996,1,0,0:0:0:0:
64,192,194052,1,0,0:0:0:0:
192,192,194108,1,0,0:0:0:0:
448,192,194108,1,0,0:0:0:0:
320,192,194163,1,0,0:0:0:0:
64,192,194219,1,0,0:0:0:0:
192,192,194274,1,0,0:0:0:0:
320,192,194330,1,0,0:0:0:0:
448,192,194330,1,0,0:0:0:0:
64,192,194385,1,0,0:0:0:0:
192,192,194441,1,0,0:0:0:0:
448,192,194496,1,0,0:0:0:0:
320,192,194552,1,0,0:0:0:0:
64,192,194552,1,0,0:0:0:0:
192,192,194608,1,0,0:0:0:0:
448,192,194663,1,0,0:0:0:0:
320,192,194719,1,0,0:0:0:0:
64,192,194774,1,0,0:0:0:0:
192,192,194774,1,0,0:0:0:0:
320,192,194830,1,0,0:0:0:0:
448,192,194885,1,0,0:0:0:0:
64,192,194885,1,0,0:0:0:0:
192,192,194941,1,0,0:0:0:0:
320,192,194996,1,0,0:0:0:0:
64,192,194996,1,0,0:0:0:0:
448,192,195052,1,0,0:0:0:0:
64,192,195108,1,0,0:0:0:0:
192,192,195163,1,0,0:0:0:0:
448,192,195219,1,0,0:0:0:0:
320,192,195219,1,0,0:0:0:0:
192,192,195274,1,0,0:0:0:0:
64,192,195330,1,0,0:0:0:0:
448,192,195330,1,0,0:0:0:0:
320,192,195385,1,0,0:0:0:0:
64,192,195441,1,0,0:0:0:0:
448,192,195441,1,0,0:0:0:0:
192,192,195496,1,0,0:0:0:0:
320,192,195552,1,0,0:0:0:0:
64,192,195608,1,0,0:0:0:0:
320,192,195663,1,0,0:0:0:0:
192,192,195663,128,0,195719:0:0:0:0:
448,192,195774,1,0,0:0:0:0:
320,192,195774,1,0,0:0:0:0:
64,192,195830,1,0,0:0:0:0:
448,192,195885,1,0,0:0:0:0:
192,192,195885,1,0,0:0:0:0:
320,192,195941,1,0,0:0:0:0:
448,192,195996,128,0,196052:0:0:0:0:
320,192,196052,1,0,0:0:0:0:
64,192,196108,1,0,0:0:0:0:
192,192,196108,1,0,0:0:0:0:
448,192,196108,1,0,0:0:0:0:
320,192,196163,1,0,0:0:0:0:
192,192,196219,1,0,0:0:0:0:
64,192,196219,1,0,0:0:0:0:
448,192,196274,1,0,0:0:0:0:
64,192,196330,1,0,0:0:0:0:
320,192,196330,1,0,0:0:0:0:
192,192,196385,1,0,0:0:0:0:
320,192,196441,1,0,0:0:0:0:
64,192,196496,1,0,0:0:0:0:
448,192,196552,1,0,0:0:0:0:
320,192,196552,1,0,0:0:0:0:
64,192,196608,1,0,0:0:0:0:
192,192,196663,1,0,0:0:0:0:
448,192,196719,1,0,0:0:0:0:
320,192,196774,1,0,0:0:0:0:
64,192,196774,1,0,0:0:0:0:
192,192,196774,1,0,0:0:0:0:
448,192,196830,1,0,0:0:0:0:
64,192,196885,1,0,0:0:0:0:
448,192,196941,1,0,0:0:0:0:
320,192,196996,1,0,0:0:0:0:
192,192,196996,1,0,0:0:0:0:
448,192,197052,1,0,0:0:0:0:
192,192,197108,1,0,0:0:0:0:
64,192,197163,1,0,0:0:0:0:
448,192,197219,1,0,0:0:0:0:
192,192,197219,1,0,0:0:0:0:
320,192,197274,1,0,0:0:0:0:
64,192,197330,1,0,0:0:0:0:
192,192,197385,1,0,0:0:0:0:
448,192,197441,1,0,0:0:0:0:
320,192,197441,1,0,0:0:0:0:
64,192,197496,1,0,0:0:0:0:
320,192,197552,1,0,0:0:0:0:
192,192,197608,1,0,0:0:0:0:
448,192,197663,1,0,0:0:0:0:
64,192,197663,1,0,0:0:0:0:
320,192,197663,1,0,0:0:0:0:
192,192,197719,1,0,0:0:0:0:
64,192,197774,1,0,0:0:0:0:
448,192,197830,1,0,0:0:0:0:
64,192,197885,1,0,0:0:0:0:
192,192,197885,1,0,0:0:0:0:
320,192,197941,1,0,0:0:0:0:
64,192,197996,1,0,0:0:0:0:
320,192,198052,1,0,0:0:0:0:
448,192,198108,1,0,0:0:0:0:
192,192,198108,1,0,0:0:0:0:
320,192,198163,1,0,0:0:0:0:
64,192,198219,1,0,0:0:0:0:
320,192,198274,1,0,0:0:0:0:
192,192,198330,1,0,0:0:0:0:
64,192,198330,1,0,0:0:0:0:
320,192,198385,1,0,0:0:0:0:
448,192,198441,1,0,0:0:0:0:
192,192,198496,1,0,0:0:0:0:
64,192,198552,1,0,0:0:0:0:
320,192,198552,1,0,0:0:0:0:
192,192,198608,1,0,0:0:0:0:
448,192,198663,1,0,0:0:0:0:
64,192,198719,1,0,0:0:0:0:
448,192,198774,1,0,0:0:0:0:
320,192,198774,1,0,0:0:0:0:
192,192,198830,1,0,0:0:0:0:
64,192,198885,1,0,0:0:0:0:
448,192,198941,1,0,0:0:0:0:
320,192,198996,1,0,0:0:0:0:
64,192,198996,1,0,0:0:0:0:
448,192,199052,1,0,0:0:0:0:
64,192,199108,1,0,0:0:0:0:
448,192,199163,1,0,0:0:0:0:
192,192,199219,1,0,0:0:0:0:
64,192,199219,1,0,0:0:0:0:
320,192,199274,1,0,0:0:0:0:
192,192,199330,1,0,0:0:0:0:
320,192,199385,1,0,0:0:0:0:
448,192,199441,1,0,0:0:0:0:
64,192,199441,1,0,0:0:0:0:
192,192,199496,1,0,0:0:0:0:
448,192,199552,1,0,0:0:0:0:
64,192,199608,1,0,0:0:0:0:
192,192,199663,1,0,0:0:0:0:
320,192,199663,1,0,0:0:0:0:
448,192,199719,1,0,0:0:0:0:
320,192,199774,1,0,0:0:0:0:
64,192,199830,1,0,0:0:0:0:
448,192,199885,1,0,0:0:0:0:
192,192,199885,1,0,0:0:0:0:
320,192,199941,1,0,0:0:0:0:
64,192,199996,1,0,0:0:0:0:
192,192,200052,1,0,0:0:0:0:
320,192,200108,1,0,0:0:0:0:
448,192,200108,1,0,0:0:0:0:
192,192,200163,1,0,0:0:0:0:
448,192,200219,1,0,0:0:0:0:
64,192,200274,1,0,0:0:0:0:
448,192,200330,1,0,0:0:0:0:
320,192,200330,1,0,0:0:0:0:
64,192,200385,1,0,0:0:0:0:
192,192,200441,1,0,0:0:0:0:
64,192,200496,1,0,0:0:0:0:
320,192,200552,1,0,0:0:0:0:
192,192,200552,1,0,0:0:0:0:
448,192,200608,1,0,0:0:0:0:
64,192,200663,1,0,0:0:0:0:
320,192,200719,1,0,0:0:0:0:
192,192,200774,1,0,0:0:0:0:
448,192,200774,1,0,0:0:0:0:
320,192,200830,1,0,0:0:0:0:
64,192,200885,1,0,0:0:0:0:
192,192,200941,1,0,0:0:0:0:
448,192,200996,1,0,0:0:0:0:
320,192,200996,1,0,0:0:0:0:
192,192,201052,1,0,0:0:0:0:
320,192,201108,1,0,0:0:0:0:
192,192,201163,1,0,0:0:0:0:
448,192,201219,1,0,0:0:0:0:
64,192,201219,1,0,0:0:0:0:
320,192,201274,1,0,0:0:0:0:
64,192,201330,1,0,0:0:0:0:
448,192,201385,1,0,0:0:0:0:
320,192,201441,1,0,0:0:0:0:
192,192,201441,1,0,0:0:0:0:
64,192,201496,1,0,0:0:0:0:
320,192,201552,1,0,0:0:0:0:
64,192,201608,1,0,0:0:0:0:
448,192,201663,1,0,0:0:0:0:
192,192,201663,1,0,0:0:0:0:
320,192,201719,1,0,0:0:0:0:
64,192,201774,1,0,0:0:0:0:
448,192,201830,1,0,0:0:0:0:
320,192,201885,1,0,0:0:0:0:
192,192,201885,1,0,0:0:0:0:
448,192,201941,1,0,0:0:0:0:
320,192,201996,1,0,0:0:0:0:
64,192,202052,1,0,0:0:0:0:
448,192,202108,1,0,0:0:0:0:
320,192,202108,1,0,0:0:0:0:
64,192,202163,1,0,0:0:0:0:
320,192,202219,1,0,0:0:0:0:
192,192,202274,1,0,0:0:0:0:
320,192,202330,1,0,0:0:0:0:
448,192,202330,1,0,0:0:0:0:
64,192,202385,1,0,0:0:0:0:
448,192,202441,1,0,0:0:0:0:
192,192,202496,1,0,0:0:0:0:
320,192,202552,1,0,0:0:0:0:
64,192,202552,1,0,0:0:0:0:
448,192,202608,1,0,0:0:0:0:
192,192,202663,1,0,0:0:0:0:
320,192,202719,1,0,0:0:0:0:
192,192,202774,1,0,0:0:0:0:
64,192,202774,1,0,0:0:0:0:
448,192,202830,1,0,0:0:0:0:
320,192,202885,1,0,0:0:0:0:
64,192,202941,1,0,0:0:0:0:
192,192,202996,1,0,0:0:0:0:
448,192,202996,1,0,0:0:0:0:
320,192,203052,1,0,0:0:0:0:
64,192,203108,1,0,0:0:0:0:
192,192,203163,1,0,0:0:0:0:
448,192,203219,1,0,0:0:0:0:
320,192,203219,1,0,0:0:0:0:
192,192,203274,1,0,0:0:0:0:
320,192,203330,1,0,0:0:0:0:
192,192,203385,1,0,0:0:0:0:
448,192,203441,1,0,0:0:0:0:
64,192,203441,1,0,0:0:0:0:
320,192,203496,1,0,0:0:0:0:
64,192,203552,1,0,0:0:0:0:
448,192,203608,1,0,0:0:0:0:
320,192,203663,1,0,0:0:0:0:
192,192,203663,1,0,0:0:0:0:
448,192,203719,1,0,0:0:0:0:
64,192,203774,1,0,0:0:0:0:
448,192,203830,1,0,0:0:0:0:
192,192,203885,1,0,0:0:0:0:
64,192,203885,1,0,0:0:0:0:
320,192,203941,1,0,0:0:0:0:
64,192,203996,1,0,0:0:0:0:
192,192,204052,1,0,0:0:0:0:
320,192,204108,1,0,0:0:0:0:
448,192,204108,1,0,0:0:0:0:
192,192,204163,1,0,0:0:0:0:
448,192,204219,1,0,0:0:0:0:
192,192,204274,1,0,0:0:0:0:
320,192,204330,1,0,0:0:0:0:
64,192,204330,1,0,0:0:0:0:
448,192,204385,1,0,0:0:0:0:
320,192,204441,1,0,0:0:0:0:
448,192,204496,1,0,0:0:0:0:
192,192,204552,1,0,0:0:0:0:
64,192,204552,1,0,0:0:0:0:
320,192,204608,1,0,0:0:0:0:
192,192,204663,1,0,0:0:0:0:
320,192,204719,1,0,0:0:0:0:
64,192,204774,1,0,0:0:0:0:
448,192,204774,1,0,0:0:0:0:
192,192,204830,1,0,0:0:0:0:
448,192,204885,1,0,0:0:0:0:
64,192,204941,1,0,0:0:0:0:
320,192,204996,1,0,0:0:0:0:
192,192,204996,1,0,0:0:0:0:
64,192,205052,1,0,0:0:0:0:
448,192,205108,1,0,0:0:0:0:
320,192,205163,1,0,0:0:0:0:
448,192,205219,1,0,0:0:0:0:
192,192,205219,1,0,0:0:0:0:
320,192,205274,1,0,0:0:0:0:
64,192,205330,1,0,0:0:0:0:
192,192,205385,1,0,0:0:0:0:
448,192,205441,1,0,0:0:0:0:
320,192,205441,1,0,0:0:0:0:
64,192,205441,1,0,0:0:0:0:
192,192,205496,1,0,0:0:0:0:
448,192,205552,1,0,0:0:0:0:
192,192,205608,1,0,0:0:0:0:
320,192,205663,1,0,0:0:0:0:
64,192,205663,1,0,0:0:0:0:
448,192,205719,1,0,0:0:0:0:
320,192,205774,1,0,0:0:0:0:
64,192,205830,1,0,0:0:0:0:
192,192,205885,1,0,0:0:0:0:
448,192,205885,1,0,0:0:0:0:
64,192,205941,1,0,0:0:0:0:
448,192,205996,1,0,0:0:0:0:
192,192,205996,1,0,0:0:0:0:
320,192,206052,1,0,0:0:0:0:
448,192,206108,1,0,0:0:0:0:
64,192,206108,1,0,0:0:0:0:
320,192,206163,1,0,0:0:0:0:
192,192,206219,1,0,0:0:0:0:
448,192,206274,1,0,0:0:0:0:
320,192,206330,1,0,0:0:0:0:
64,192,206330,1,0,0:0:0:0:
448,192,206385,1,0,0:0:0:0:
192,192,206441,1,0,0:0:0:0:
320,192,206441,1,0,0:0:0:0:
64,192,206496,1,0,0:0:0:0:
192,192,206552,1,0,0:0:0:0:
320,192,206552,1,0,0:0:0:0:
448,192,206608,1,0,0:0:0:0:
192,192,206663,1,0,0:0:0:0:
320,192,206719,1,0,0:0:0:0:
448,192,206774,1,0,0:0:0:0:
192,192,206774,1,0,0:0:0:0:
64,192,206774,1,0,0:0:0:0:
320,192,206830,1,0,0:0:0:0:
64,192,206885,1,0,0:0:0:0:
448,192,206885,1,0,0:0:0:0:
320,192,206941,1,0,0:0:0:0:
192,192,206996,1,0,0:0:0:0:
448,192,206996,1,0,0:0:0:0:
64,192,207052,1,0,0:0:0:0:
448,192,207108,1,0,0:0:0:0:
320,192,207163,1,0,0:0:0:0:
448,192,207219,1,0,0:0:0:0:
64,192,207219,1,0,0:0:0:0:
192,192,207219,1,0,0:0:0:0:
320,192,207330,1,0,0:0:0:0:
448,192,207330,1,0,0:0:0:0:
192,192,207385,1,0,0:0:0:0:
320,192,207441,1,0,0:0:0:0:
64,192,207441,1,0,0:0:0:0:
448,192,207496,1,0,0:0:0:0:
192,192,207552,1,0,0:0:0:0:
64,192,207608,1,0,0:0:0:0:
448,192,207663,1,0,0:0:0:0:
192,192,207663,1,0,0:0:0:0:
320,192,207719,1,0,0:0:0:0:
192,192,207774,1,0,0:0:0:0:
448,192,207774,1,0,0:0:0:0:
64,192,207830,1,0,0:0:0:0:
192,192,207885,1,0,0:0:0:0:
448,192,207885,1,0,0:0:0:0:
320,192,207941,1,0,0:0:0:0:
64,192,207996,1,0,0:0:0:0:
448,192,208052,1,0,0:0:0:0:
320,192,208108,1,0,0:0:0:0:
64,192,208108,1,0,0:0:0:0:
448,192,208163,1,0,0:0:0:0:
192,192,208219,1,0,0:0:0:0:
64,192,208219,1,0,0:0:0:0:
320,192,208274,1,0,0:0:0:0:
448,192,208330,1,0,0:0:0:0:
64,192,208330,1,0,0:0:0:0:
320,192,208385,1,0,0:0:0:0:
64,192,208441,1,0,0:0:0:0:
320,192,208496,1,0,0:0:0:0:
448,192,208552,1,0,0:0:0:0:
192,192,208552,1,0,0:0:0:0:
64,192,208552,1,0,0:0:0:0:
320,192,208608,1,0,0:0:0:0:
192,192,208663,1,0,0:0:0:0:
448,192,208663,1,0,0:0:0:0:
320,192,208719,1,0,0:0:0:0:
192,192,208774,1,0,0:0:0:0:
64,192,208774,1,0,0:0:0:0:
448,192,208830,1,0,0:0:0:0:
320,192,208885,1,0,0:0:0:0:
192,192,208941,1,0,0:0:0:0:
64,192,208996,1,0,0:0:0:0:
448,192,208996,1,0,0:0:0:0:
320,192,208996,1,0,0:0:0:0:
192,192,209052,1,0,0:0:0:0:
448,192,209108,1,0,0:0:0:0:
64,192,209108,1,0,0:0:0:0:
320,192,209163,1,0,0:0:0:0:
448,192,209219,1,0,0:0:0:0:
64,192,209219,1,0,0:0:0:0:
192,192,209274,1,0,0:0:0:0:
64,192,209330,1,0,0:0:0:0:
448,192,209385,1,0,0:0:0:0:
192,192,209441,1,0,0:0:0:0:
64,192,209441,1,0,0:0:0:0:
320,192,209441,1,0,0:0:0:0:
448,192,209496,1,0,0:0:0:0:
320,192,209552,1,0,0:0:0:0:
64,192,209552,1,0,0:0:0:0:
192,192,209608,1,0,0:0:0:0:
448,192,209663,1,0,0:0:0:0:
320,192,209663,1,0,0:0:0:0:
64,192,209719,1,0,0:0:0:0:
320,192,209774,1,0,0:0:0:0:
64,192,209830,1,0,0:0:0:0:
320,192,209885,1,0,0:0:0:0:
448,192,209885,1,0,0:0:0:0:
192,192,209885,1,0,0:0:0:0:
64,192,209941,1,0,0:0:0:0:
448,192,209996,1,0,0:0:0:0:
192,192,209996,1,0,0:0:0:0:
320,192,210052,1,0,0:0:0:0:
64,192,210108,1,0,0:0:0:0:
448,192,210108,1,0,0:0:0:0:
320,192,210163,1,0,0:0:0:0:
192,192,210219,1,0,0:0:0:0:
448,192,210274,1,0,0:0:0:0:
192,192,210330,1,0,0:0:0:0:
64,192,210330,1,0,0:0:0:0:
320,192,210330,1,0,0:0:0:0:
448,192,210385,1,0,0:0:0:0:
320,192,210441,1,0,0:0:0:0:
64,192,210441,1,0,0:0:0:0:
192,192,210496,1,0,0:0:0:0:
320,192,210552,1,0,0:0:0:0:
448,192,210552,1,0,0:0:0:0:
64,192,210608,1,0,0:0:0:0:
192,192,210663,1,0,0:0:0:0:
320,192,210719,1,0,0:0:0:0:
64,192,210774,1,0,0:0:0:0:
448,192,210774,1,0,0:0:0:0:
192,192,210774,1,0,0:0:0:0:
320,192,210830,1,0,0:0:0:0:
448,192,210885,1,0,0:0:0:0:
64,192,210885,1,0,0:0:0:0:
320,192,210941,1,0,0:0:0:0:
192,192,210996,1,0,0:0:0:0:
64,192,210996,1,0,0:0:0:0:
320,192,211052,1,0,0:0:0:0:
64,192,211108,1,0,0:0:0:0:
192,192,211163,1,0,0:0:0:0:
448,192,211219,1,0,0:0:0:0:
320,192,211219,1,0,0:0:0:0:
192,192,211274,1,0,0:0:0:0:
448,192,211330,1,0,0:0:0:0:
320,192,211385,1,0,0:0:0:0:
192,192,211441,1,0,0:0:0:0:
448,192,211441,1,0,0:0:0:0:
320,192,211496,1,0,0:0:0:0:
64,192,211552,1,0,0:0:0:0:
320,192,211608,1,0,0:0:0:0:
192,192,211663,1,0,0:0:0:0:
448,192,211663,1,0,0:0:0:0:
64,192,211663,1,0,0:0:0:0:
320,192,211719,1,0,0:0:0:0:
64,192,211774,1,0,0:0:0:0:
192,192,211774,1,0,0:0:0:0:
448,192,211830,1,0,0:0:0:0:
64,192,211885,1,0,0:0:0:0:
320,192,211885,1,0,0:0:0:0:
192,192,211941,1,0,0:0:0:0:
448,192,211996,1,0,0:0:0:0:
192,192,212052,1,0,0:0:0:0:
448,192,212108,1,0,0:0:0:0:
64,192,212108,1,0,0:0:0:0:
320,192,212108,1,0,0:0:0:0:
192,192,212163,1,0,0:0:0:0:
448,192,212219,1,0,0:0:0:0:
320,192,212219,1,0,0:0:0:0:
64,192,212274,1,0,0:0:0:0:
320,192,212330,1,0,0:0:0:0:
192,192,212330,1,0,0:0:0:0:
448,192,212385,1,0,0:0:0:0:
64,192,212441,1,0,0:0:0:0:
192,192,212496,1,0,0:0:0:0:
448,192,212552,1,0,0:0:0:0:
320,192,212552,1,0,0:0:0:0:
64,192,212552,1,0,0:0:0:0:
192,192,212608,1,0,0:0:0:0:
448,192,212663,1,0,0:0:0:0:
64,192,212663,1,0,0:0:0:0:
320,192,212719,1,0,0:0:0:0:
448,192,212774,1,0,0:0:0:0:
192,192,212774,1,0,0:0:0:0:
64,192,212830,1,0,0:0:0:0:
192,192,212885,1,0,0:0:0:0:
64,192,212941,1,0,0:0:0:0:
448,192,212996,1,0,0:0:0:0:
320,192,212996,1,0,0:0:0:0:
192,192,212996,1,0,0:0:0:0:
64,192,213052,1,0,0:0:0:0:
192,192,213108,1,0,0:0:0:0:
320,192,213163,1,0,0:0:0:0:
448,192,213219,1,0,0:0:0:0:
192,192,213219,1,0,0:0:0:0:
64,192,213274,1,0,0:0:0:0:
448,192,213330,1,0,0:0:0:0:
320,192,213385,1,0,0:0:0:0:
448,192,213441,1,0,0:0:0:0:
192,192,213441,1,0,0:0:0:0:
64,192,213441,1,0,0:0:0:0:
320,192,213496,1,0,0:0:0:0:
448,192,213552,1,0,0:0:0:0:
192,192,213608,1,0,0:0:0:0:
448,192,213663,1,0,0:0:0:0:
320,192,213663,1,0,0:0:0:0:
64,192,213719,1,0,0:0:0:0:
320,192,213774,1,0,0:0:0:0:
448,192,213830,1,0,0:0:0:0:
320,192,213885,1,0,0:0:0:0:
192,192,213885,1,0,0:0:0:0:
64,192,213885,1,0,0:0:0:0:
448,192,213941,1,0,0:0:0:0:
192,192,213996,1,0,0:0:0:0:
320,192,214052,1,0,0:0:0:0:
448,192,214108,1,0,0:0:0:0:
192,192,214108,1,0,0:0:0:0:
64,192,214163,1,0,0:0:0:0:
448,192,214219,1,0,0:0:0:0:
192,192,214274,1,0,0:0:0:0:
448,192,214330,1,0,0:0:0:0:
320,192,214330,1,0,0:0:0:0:
64,192,214330,1,0,0:0:0:0:
192,192,214385,1,0,0:0:0:0:
64,192,214441,1,0,0:0:0:0:
320,192,214496,1,0,0:0:0:0:
448,192,214552,1,0,0:0:0:0:
192,192,214552,1,0,0:0:0:0:
64,192,214608,1,0,0:0:0:0:
192,192,214663,1,0,0:0:0:0:
448,192,214719,1,0,0:0:0:0:
320,192,214774,1,0,0:0:0:0:
192,192,214774,1,0,0:0:0:0:
64,192,214774,1,0,0:0:0:0:
448,192,214830,1,0,0:0:0:0:
192,192,214885,1,0,0:0:0:0:
320,192,214941,1,0,0:0:0:0:
448,192,214996,1,0,0:0:0:0:
192,192,214996,1,0,0:0:0:0:
64,192,215052,1,0,0:0:0:0:
448,192,215108,1,0,0:0:0:0:
320,192,215163,1,0,0:0:0:0:
192,192,215219,1,0,0:0:0:0:
64,192,215219,1,0,0:0:0:0:
448,192,215219,1,0,0:0:0:0:
320,192,215274,1,0,0:0:0:0:
64,192,215330,1,0,0:0:0:0:
320,192,215385,1,0,0:0:0:0:
448,192,215441,1,0,0:0:0:0:
192,192,215441,1,0,0:0:0:0:
64,192,215496,1,0,0:0:0:0:
192,192,215552,1,0,0:0:0:0:
448,192,215608,1,0,0:0:0:0:
320,192,215663,1,0,0:0:0:0:
192,192,215663,1,0,0:0:0:0:
64,192,215663,1,0,0:0:0:0:
448,192,215719,1,0,0:0:0:0:
320,192,215774,1,0,0:0:0:0:
192,192,215774,1,0,0:0:0:0:
64,192,215830,1,0,0:0:0:0:
320,192,215885,1,0,0:0:0:0:
448,192,215885,1,0,0:0:0:0:
64,192,215941,1,0,0:0:0:0:
320,192,215996,1,0,0:0:0:0:
448,192,216108,1,0,0:0:0:0:
320,192,216108,1,0,0:0:0:0:
192,192,216108,1,0,0:0:0:0:
64,192,216108,1,0,0:0:0:0:
192,192,216219,1,0,0:0:0:0:
448,192,216330,1,0,0:0:0:0:
64,192,216330,1,0,0:0:0:0:
192,192,216330,1,0,0:0:0:0:
320,192,216330,1,0,0:0:0:0:
320,192,216441,1,0,0:0:0:0:
448,192,216552,1,0,0:0:0:0:
192,192,216552,1,0,0:0:0:0:
320,192,216552,1,0,0:0:0:0:
64,192,216552,1,0,0:0:0:0:
192,192,216663,1,0,0:0:0:0:
64,192,216774,1,0,0:0:0:0:
192,192,216774,1,0,0:0:0:0:
320,192,216774,1,0,0:0:0:0:
448,192,216774,1,0,0:0:0:0:
320,192,216885,1,0,0:0:0:0:
448,192,216996,1,0,0:0:0:0:
320,192,216996,1,0,0:0:0:0:
192,192,216996,1,0,0:0:0:0:
64,192,216996,1,0,0:0:0:0:
64,192,217108,1,0,0:0:0:0:
64,192,217219,1,0,0:0:0:0:
192,192,217219,1,0,0:0:0:0:
320,192,217219,1,0,0:0:0:0:
448,192,217219,1,0,0:0:0:0:
448,192,217330,1,0,0:0:0:0:
448,192,217441,1,0,0:0:0:0:
320,192,217441,1,0,0:0:0:0:
192,192,217441,1,0,0:0:0:0:
64,192,217441,1,0,0:0:0:0:
64,192,217552,1,0,0:0:0:0:
64,192,217663,1,0,0:0:0:0:
192,192,217663,1,0,0:0:0:0:
320,192,217663,1,0,0:0:0:0:
448,192,217663,1,0,0:0:0:0:
448,192,217774,1,0,0:0:0:0:
448,192,217885,1,0,0:0:0:0:
320,192,217885,1,0,0:0:0:0:
192,192,217885,1,0,0:0:0:0:
64,192,217885,1,0,0:0:0:0:
448,192,217996,1,0,0:0:0:0:
192,192,217996,1,0,0:0:0:0:
64,192,218052,1,0,0:0:0:0:
320,192,218108,1,0,0:0:0:0:
192,192,218108,1,0,0:0:0:0:
448,192,218163,1,0,0:0:0:0:
320,192,218219,1,0,0:0:0:0:
64,192,218219,1,0,0:0:0:0:
448,192,218330,1,0,0:0:0:0:
320,192,218330,1,0,0:0:0:0:
192,192,218330,1,0,0:0:0:0:
64,192,218330,1,0,0:0:0:0:
448,192,218441,1,0,0:0:0:0:
64,192,218441,1,0,0:0:0:0:
320,192,218496,1,0,0:0:0:0:
192,192,218552,1,0,0:0:0:0:
448,192,218552,1,0,0:0:0:0:
64,192,218608,1,0,0:0:0:0:
448,192,218663,1,0,0:0:0:0:
320,192,218663,1,0,0:0:0:0:
64,192,218774,1,0,0:0:0:0:
192,192,218774,1,0,0:0:0:0:
320,192,218774,1,0,0:0:0:0:
448,192,218774,1,0,0:0:0:0:
64,192,218885,1,0,0:0:0:0:
320,192,218885,1,0,0:0:0:0:
448,192,218941,1,0,0:0:0:0:
192,192,218996,1,0,0:0:0:0:
320,192,218996,1,0,0:0:0:0:
64,192,219052,1,0,0:0:0:0:
448,192,219108,1,0,0:0:0:0:
320,192,219108,1,0,0:0:0:0:
448,192,219219,1,0,0:0:0:0:
320,192,219219,1,0,0:0:0:0:
192,192,219219,1,0,0:0:0:0:
64,192,219219,1,0,0:0:0:0:
448,192,219330,1,0,0:0:0:0:
192,192,219330,1,0,0:0:0:0:
320,192,219385,1,0,0:0:0:0:
64,192,219441,1,0,0:0:0:0:
448,192,219441,1,0,0:0:0:0:
64,192,219552,1,0,0:0:0:0:
192,192,219552,1,0,0:0:0:0:
64,192,219663,1,0,0:0:0:0:
320,192,219663,1,0,0:0:0:0:
448,192,219663,1,0,0:0:0:0:
192,192,219719,1,0,0:0:0:0:
64,192,219774,1,0,0:0:0:0:
320,192,219774,1,0,0:0:0:0:
192,192,219830,1,0,0:0:0:0:
320,192,219885,1,0,0:0:0:0:
64,192,219885,1,0,0:0:0:0:
448,192,219941,1,0,0:0:0:0:
320,192,219996,1,0,0:0:0:0:
64,192,220052,1,0,0:0:0:0:
192,192,220108,1,0,0:0:0:0:
448,192,220108,1,0,0:0:0:0:
64,192,220163,1,0,0:0:0:0:
320,192,220219,1,0,0:0:0:0:
64,192,220274,1,0,0:0:0:0:
320,192,220330,1,0,0:0:0:0:
192,192,220330,1,0,0:0:0:0:
64,192,220385,1,0,0:0:0:0:
320,192,220441,1,0,0:0:0:0:
448,192,220496,1,0,0:0:0:0:
320,192,220552,1,0,0:0:0:0:
64,192,220552,1,0,0:0:0:0:
448,192,220608,1,0,0:0:0:0:
192,192,220663,1,0,0:0:0:0:
448,192,220719,1,0,0:0:0:0:
64,192,220774,1,0,0:0:0:0:
320,192,220830,1,0,0:0:0:0:
192,192,220885,1,0,0:0:0:0:
320,192,220941,1,0,0:0:0:0:
64,192,220996,1,0,0:0:0:0:
448,192,220996,1,0,0:0:0:0:
192,192,221052,1,0,0:0:0:0:
320,192,221052,1,0,0:0:0:0:
64,192,221108,1,0,0:0:0:0:
448,192,221163,1,0,0:0:0:0:
64,192,221219,1,0,0:0:0:0:
192,192,221219,1,0,0:0:0:0:
320,192,221274,1,0,0:0:0:0:
64,192,221330,1,0,0:0:0:0:
192,192,221385,1,0,0:0:0:0:
320,192,221441,1,0,0:0:0:0:
64,192,221441,1,0,0:0:0:0:
448,192,221496,1,0,0:0:0:0:
192,192,221552,1,0,0:0:0:0:
320,192,221608,1,0,0:0:0:0:
448,192,221663,1,0,0:0:0:0:
64,192,221663,1,0,0:0:0:0:
192,192,221719,1,0,0:0:0:0:
448,192,221774,1,0,0:0:0:0:
320,192,221830,1,0,0:0:0:0:
192,192,221885,1,0,0:0:0:0:
448,192,221885,1,0,0:0:0:0:
64,192,221941,1,0,0:0:0:0:
320,192,221996,1,0,0:0:0:0:
448,192,222052,1,0,0:0:0:0:
192,192,222108,1,0,0:0:0:0:
320,192,222108,1,0,0:0:0:0:
64,192,222163,1,0,0:0:0:0:
448,192,222219,1,0,0:0:0:0:
192,192,222274,1,0,0:0:0:0:
64,192,222330,1,0,0:0:0:0:
448,192,222330,1,0,0:0:0:0:
192,192,222385,1,0,0:0:0:0:
320,192,222441,1,0,0:0:0:0:
64,192,222496,1,0,0:0:0:0:
192,192,222552,1,0,0:0:0:0:
320,192,222552,1,0,0:0:0:0:
448,192,222608,1,0,0:0:0:0:
192,192,222663,1,0,0:0:0:0:
448,192,222719,1,0,0:0:0:0:
64,192,222774,1,0,0:0:0:0:
192,192,222774,1,0,0:0:0:0:
320,192,222830,1,0,0:0:0:0:
448,192,222885,1,0,0:0:0:0:
64,192,222941,1,0,0:0:0:0:
320,192,222996,1,0,0:0:0:0:
448,192,222996,1,0,0:0:0:0:
64,192,223052,1,0,0:0:0:0:
192,192,223108,1,0,0:0:0:0:
448,192,223163,1,0,0:0:0:0:
320,192,223219,1,0,0:0:0:0:
64,192,223219,1,0,0:0:0:0:
192,192,223274,1,0,0:0:0:0:
448,192,223330,1,0,0:0:0:0:
320,192,223385,1,0,0:0:0:0:
192,192,223441,1,0,0:0:0:0:
64,192,223441,1,0,0:0:0:0:
448,192,223496,1,0,0:0:0:0:
320,192,223552,1,0,0:0:0:0:
64,192,223608,1,0,0:0:0:0:
320,192,223663,1,0,0:0:0:0:
192,192,223663,1,0,0:0:0:0:
64,192,223719,1,0,0:0:0:0:
448,192,223774,1,0,0:0:0:0:
320,192,223830,1,0,0:0:0:0:
64,192,223885,1,0,0:0:0:0:
192,192,223885,1,0,0:0:0:0:
448,192,223941,1,0,0:0:0:0:
64,192,223996,1,0,0:0:0:0:
192,192,224052,1,0,0:0:0:0:
448,192,224108,1,0,0:0:0:0:
64,192,224108,1,0,0:0:0:0:
192,192,224163,1,0,0:0:0:0:
320,192,224219,1,0,0:0:0:0:
64,192,224274,1,0,0:0:0:0:
448,192,224330,1,0,0:0:0:0:
320,192,224330,1,0,0:0:0:0:
64,192,224385,1,0,0:0:0:0:
320,192,224441,1,0,0:0:0:0:
192,192,224496,1,0,0:0:0:0:
64,192,224552,1,0,0:0:0:0:
448,192,224552,1,0,0:0:0:0:
320,192,224608,1,0,0:0:0:0:
64,192,224663,1,0,0:0:0:0:
192,192,224719,1,0,0:0:0:0:
64,192,224774,1,0,0:0:0:0:
320,192,224774,1,0,0:0:0:0:
448,192,224830,1,0,0:0:0:0:
320,192,224885,1,0,0:0:0:0:
64,192,224941,1,0,0:0:0:0:
192,192,224996,1,0,0:0:0:0:
320,192,224996,1,0,0:0:0:0:
448,192,225052,1,0,0:0:0:0:
64,192,225108,1,0,0:0:0:0:
320,192,225163,1,0,0:0:0:0:
64,192,225219,1,0,0:0:0:0:
192,192,225219,1,0,0:0:0:0:
320,192,225274,1,0,0:0:0:0:
448,192,225330,1,0,0:0:0:0:
64,192,225385,1,0,0:0:0:0:
448,192,225441,1,0,0:0:0:0:
192,192,225441,1,0,0:0:0:0:
320,192,225496,1,0,0:0:0:0:
448,192,225552,1,0,0:0:0:0:
192,192,225608,1,0,0:0:0:0:
64,192,225663,1,0,0:0:0:0:
320,192,225663,1,0,0:0:0:0:
448,192,225719,1,0,0:0:0:0:
64,192,225774,1,0,0:0:0:0:
192,192,225830,1,0,0:0:0:0:
64,192,225885,1,0,0:0:0:0:
448,192,225885,1,0,0:0:0:0:
320,192,225941,1,0,0:0:0:0:
64,192,225996,1,0,0:0:0:0:
192,192,226052,1,0,0:0:0:0:
320,192,226108,1,0,0:0:0:0:
448,192,226108,1,0,0:0:0:0:
64,192,226163,1,0,0:0:0:0:
320,192,226219,1,0,0:0:0:0:
64,192,226274,1,0,0:0:0:0:
320,192,226330,1,0,0:0:0:0:
192,192,226330,1,0,0:0:0:0:
64,192,226385,1,0,0:0:0:0:
448,192,226441,1,0,0:0:0:0:
192,192,226496,1,0,0:0:0:0:
320,192,226552,1,0,0:0:0:0:
64,192,226552,1,0,0:0:0:0:
192,192,226608,1,0,0:0:0:0:
448,192,226663,1,0,0:0:0:0:
320,192,226719,1,0,0:0:0:0:
192,192,226774,1,0,0:0:0:0:
448,192,226774,1,0,0:0:0:0:
64,192,226830,1,0,0:0:0:0:
320,192,226885,1,0,0:0:0:0:
64,192,226941,1,0,0:0:0:0:
448,192,226996,1,0,0:0:0:0:
64,192,227052,1,0,0:0:0:0:
192,192,227108,1,0,0:0:0:0:
320,192,227163,1,0,0:0:0:0:
64,192,227219,1,0,0:0:0:0:
192,192,227219,1,0,0:0:0:0:
320,192,227274,1,0,0:0:0:0:
448,192,227330,1,0,0:0:0:0:
64,192,227385,1,0,0:0:0:0:
192,192,227441,1,0,0:0:0:0:
320,192,227441,1,0,0:0:0:0:
448,192,227496,1,0,0:0:0:0:
320,192,227552,1,0,0:0:0:0:
192,192,227608,1,0,0:0:0:0:
64,192,227663,1,0,0:0:0:0:
320,192,227663,1,0,0:0:0:0:
192,192,227719,1,0,0:0:0:0:
448,192,227774,1,0,0:0:0:0:
192,192,227830,1,0,0:0:0:0:
320,192,227885,1,0,0:0:0:0:
448,192,227885,1,0,0:0:0:0:
64,192,227941,1,0,0:0:0:0:
320,192,227996,1,0,0:0:0:0:
64,192,228052,1,0,0:0:0:0:
320,192,228108,1,0,0:0:0:0:
192,192,228108,1,0,0:0:0:0:
448,192,228163,1,0,0:0:0:0:
64,192,228219,1,0,0:0:0:0:
320,192,228274,1,0,0:0:0:0:
64,192,228330,1,0,0:0:0:0:
192,192,228330,1,0,0:0:0:0:
320,192,228385,1,0,0:0:0:0:
448,192,228441,1,0,0:0:0:0:
64,192,228496,1,0,0:0:0:0:
448,192,228552,1,0,0:0:0:0:
320,192,228552,1,0,0:0:0:0:
192,192,228608,1,0,0:0:0:0:
448,192,228663,1,0,0:0:0:0:
64,192,228719,1,0,0:0:0:0:
192,192,228774,1,0,0:0:0:0:
320,192,228774,1,0,0:0:0:0:
448,192,228830,1,0,0:0:0:0:
64,192,228885,1,0,0:0:0:0:
448,192,228941,1,0,0:0:0:0:
192,192,228996,1,0,0:0:0:0:
64,192,228996,1,0,0:0:0:0:
448,192,229052,1,0,0:0:0:0:
192,192,229108,1,0,0:0:0:0:
64,192,229163,1,0,0:0:0:0:
448,192,229219,1,0,0:0:0:0:
320,192,229219,1,0,0:0:0:0:
192,192,229274,1,0,0:0:0:0:
448,192,229330,1,0,0:0:0:0:
192,192,229385,1,0,0:0:0:0:
64,192,229441,1,0,0:0:0:0:
448,192,229441,1,0,0:0:0:0:
192,192,229496,1,0,0:0:0:0:
320,192,229552,1,0,0:0:0:0:
64,192,229608,1,0,0:0:0:0:
448,192,229663,1,0,0:0:0:0:
320,192,229663,1,0,0:0:0:0:
192,192,229719,1,0,0:0:0:0:
448,192,229774,1,0,0:0:0:0:
192,192,229830,1,0,0:0:0:0:
448,192,229885,1,0,0:0:0:0:
64,192,229885,1,0,0:0:0:0:
320,192,229941,1,0,0:0:0:0:
448,192,229996,1,0,0:0:0:0:
320,192,230052,1,0,0:0:0:0:
192,192,230108,1,0,0:0:0:0:
64,192,230108,1,0,0:0:0:0:
448,192,230163,1,0,0:0:0:0:
320,192,230219,1,0,0:0:0:0:
64,192,230274,1,0,0:0:0:0:
320,192,230330,1,0,0:0:0:0:
448,192,230330,1,0,0:0:0:0:
64,192,230385,1,0,0:0:0:0:
448,192,230441,1,0,0:0:0:0:
192,192,230496,1,0,0:0:0:0:
64,192,230552,1,0,0:0:0:0:
320,192,230552,1,0,0:0:0:0:
448,192,230608,1,0,0:0:0:0:
64,192,230663,1,0,0:0:0:0:
320,192,230719,1,0,0:0:0:0:
192,192,230774,1,0,0:0:0:0:
64,192,230774,1,0,0:0:0:0:
320,192,230830,1,0,0:0:0:0:
64,192,230885,1,0,0:0:0:0:
192,192,230941,1,0,0:0:0:0:
64,192,230996,1,0,0:0:0:0:
320,192,230996,1,0,0:0:0:0:
192,192,231052,1,0,0:0:0:0:
320,192,231108,1,0,0:0:0:0:
448,192,231163,1,0,0:0:0:0:
64,192,231219,1,0,0:0:0:0:
192,192,231219,1,0,0:0:0:0:
448,192,231274,1,0,0:0:0:0:
64,192,231330,1,0,0:0:0:0:
448,192,231385,1,0,0:0:0:0:
320,192,231441,1,0,0:0:0:0:
192,192,231441,1,0,0:0:0:0:
64,192,231496,1,0,0:0:0:0:
448,192,231552,1,0,0:0:0:0:
192,192,231608,1,0,0:0:0:0:
64,192,231663,1,0,0:0:0:0:
448,192,231663,1,0,0:0:0:0:
192,192,231719,1,0,0:0:0:0:
320,192,231774,1,0,0:0:0:0:
64,192,231830,1,0,0:0:0:0:
192,192,231885,1,0,0:0:0:0:
448,192,231885,1,0,0:0:0:0:
320,192,231941,1,0,0:0:0:0:
64,192,231996,1,0,0:0:0:0:
448,192,232052,1,0,0:0:0:0:
64,192,232108,1,0,0:0:0:0:
320,192,232108,128,0,232163:0:0:0:0:
320,192,232330,128,0,232385:0:0:0:0:
192,192,232330,1,0,0:0:0:0:
320,192,232552,128,0,232608:0:0:0:0:
448,192,232552,1,0,0:0:0:0:
320,192,232774,128,0,232830:0:0:0:0:
192,192,232774,1,0,0:0:0:0:
448,192,232830,1,0,0:0:0:0:
64,192,232885,1,0,0:0:0:0:
64,192,232996,128,0,233052:0:0:0:0:
192,192,232996,1,0,0:0:0:0:
448,192,232996,1,0,0:0:0:0:
64,192,233219,128,0,233274:0:0:0:0:
192,192,233330,1,0,0:0:0:0:
320,192,233330,1,0,0:0:0:0:
448,192,233330,1,0,0:0:0:0:
320,192,233441,128,0,233885:0:0:0:0:
64,192,233441,128,0,233496:0:0:0:0:
64,192,233663,128,0,233719:0:0:0:0:
448,192,233663,1,0,0:0:0:0:
192,192,233663,1,0,0:0:0:0:
192,192,233885,1,0,0:0:0:0:
64,192,233885,1,0,0:0:0:0:
448,192,233941,1,0,0:0:0:0:
320,192,233941,1,0,0:0:0:0:
192,192,233996,1,0,0:0:0:0:
448,192,234052,1,0,0:0:0:0:
320,192,234108,1,0,0:0:0:0:
64,192,234108,1,0,0:0:0:0:
192,192,234163,1,0,0:0:0:0:
448,192,234219,1,0,0:0:0:0:
192,192,234274,1,0,0:0:0:0:
64,192,234330,1,0,0:0:0:0:
320,192,234330,1,0,0:0:0:0:
448,192,234385,1,0,0:0:0:0:
64,192,234441,1,0,0:0:0:0:
320,192,234496,1,0,0:0:0:0:
64,192,234552,1,0,0:0:0:0:
192,192,234552,1,0,0:0:0:0:
448,192,234608,1,0,0:0:0:0:
320,192,234663,1,0,0:0:0:0:
448,192,234719,1,0,0:0:0:0:
192,192,234774,1,0,0:0:0:0:
320,192,234774,128,0,234885:0:0:0:0:
64,192,234774,1,0,0:0:0:0:
448,192,234830,1,0,0:0:0:0:
192,192,234885,1,0,0:0:0:0:
448,192,234941,1,0,0:0:0:0:
320,192,234996,128,0,235108:0:0:0:0:
64,192,234996,1,0,0:0:0:0:
448,192,235052,1,0,0:0:0:0:
64,192,235108,1,0,0:0:0:0:
192,192,235163,1,0,0:0:0:0:
448,192,235219,1,0,0:0:0:0:
64,192,235219,1,0,0:0:0:0:
320,192,235274,1,0,0:0:0:0:
448,192,235330,1,0,0:0:0:0:
64,192,235385,1,0,0:0:0:0:
320,192,235441,1,0,0:0:0:0:
192,192,235441,1,0,0:0:0:0:
448,192,235496,1,0,0:0:0:0:
64,192,235552,1,0,0:0:0:0:
448,192,235608,1,0,0:0:0:0:
320,192,235663,1,0,0:0:0:0:
64,192,235663,1,0,0:0:0:0:
448,192,235719,1,0,0:0:0:0:
320,192,235774,1,0,0:0:0:0:
64,192,235830,1,0,0:0:0:0:
320,192,235885,1,0,0:0:0:0:
448,192,235885,1,0,0:0:0:0:
64,192,235941,1,0,0:0:0:0:
192,192,235996,1,0,0:0:0:0:
320,192,236052,1,0,0:0:0:0:
448,192,236108,1,0,0:0:0:0:
64,192,236108,1,0,0:0:0:0:
192,192,236163,1,0,0:0:0:0:
448,192,236219,1,0,0:0:0:0:
192,192,236274,1,0,0:0:0:0:
320,192,236330,1,0,0:0:0:0:
448,192,236330,1,0,0:0:0:0:
64,192,236385,1,0,0:0:0:0:
320,192,236441,1,0,0:0:0:0:
192,192,236496,1,0,0:0:0:0:
320,192,236552,1,0,0:0:0:0:
448,192,236552,1,0,0:0:0:0:
192,192,236608,1,0,0:0:0:0:
64,192,236663,1,0,0:0:0:0:
320,192,236719,1,0,0:0:0:0:
448,192,236774,1,0,0:0:0:0:
192,192,236774,1,0,0:0:0:0:
320,192,236830,1,0,0:0:0:0:
64,192,236885,1,0,0:0:0:0:
320,192,236941,1,0,0:0:0:0:
192,192,236996,1,0,0:0:0:0:
64,192,236996,1,0,0:0:0:0:
320,192,237052,1,0,0:0:0:0:
64,192,237108,1,0,0:0:0:0:
192,192,237163,1,0,0:0:0:0:
448,192,237219,1,0,0:0:0:0:
320,192,237219,1,0,0:0:0:0:
64,192,237274,1,0,0:0:0:0:
192,192,237330,1,0,0:0:0:0:
448,192,237385,1,0,0:0:0:0:
64,192,237441,1,0,0:0:0:0:
192,192,237441,1,0,0:0:0:0:
320,192,237496,1,0,0:0:0:0:
448,192,237552,1,0,0:0:0:0:
64,192,237608,1,0,0:0:0:0:
320,192,237663,1,0,0:0:0:0:
192,192,237663,1,0,0:0:0:0:
448,192,237719,1,0,0:0:0:0:
192,192,237774,1,0,0:0:0:0:
64,192,237830,1,0,0:0:0:0:
320,192,237885,1,0,0:0:0:0:
448,192,237885,1,0,0:0:0:0:
64,192,237941,1,0,0:0:0:0:
320,192,237996,1,0,0:0:0:0:
448,192,238052,1,0,0:0:0:0:
64,192,238108,1,0,0:0:0:0:
192,192,238108,1,0,0:0:0:0:
448,192,238163,1,0,0:0:0:0:
64,192,238219,1,0,0:0:0:0:
320,192,238274,1,0,0:0:0:0:
448,192,238330,1,0,0:0:0:0:
192,192,238330,1,0,0:0:0:0:
64,192,238385,1,0,0:0:0:0:
448,192,238441,1,0,0:0:0:0:
192,192,238496,1,0,0:0:0:0:
64,192,238552,1,0,0:0:0:0:
320,192,238552,1,0,0:0:0:0:
448,192,238608,1,0,0:0:0:0:
192,192,238663,1,0,0:0:0:0:
64,192,238719,1,0,0:0:0:0:
448,192,238774,1,0,0:0:0:0:
320,192,238774,1,0,0:0:0:0:
192,192,238830,1,0,0:0:0:0:
320,192,238885,1,0,0:0:0:0:
64,192,238941,1,0,0:0:0:0:
192,192,238996,1,0,0:0:0:0:
448,192,238996,1,0,0:0:0:0:
320,192,239052,1,0,0:0:0:0:
64,192,239108,1,0,0:0:0:0:
320,192,239163,1,0,0:0:0:0:
192,192,239219,1,0,0:0:0:0:
64,192,239219,1,0,0:0:0:0:
320,192,239274,1,0,0:0:0:0:
448,192,239330,1,0,0:0:0:0:
192,192,239385,1,0,0:0:0:0:
320,192,239441,1,0,0:0:0:0:
448,192,239441,1,0,0:0:0:0:
64,192,239496,1,0,0:0:0:0:
192,192,239552,1,0,0:0:0:0:
448,192,239608,1,0,0:0:0:0:
320,192,239663,1,0,0:0:0:0:
192,192,239663,1,0,0:0:0:0:
448,192,239719,1,0,0:0:0:0:
64,192,239774,1,0,0:0:0:0:
192,192,239830,1,0,0:0:0:0:
64,192,239885,1,0,0:0:0:0:
448,192,239885,1,0,0:0:0:0:
320,192,239941,1,0,0:0:0:0:
192,192,239996,1,0,0:0:0:0:
448,192,240052,1,0,0:0:0:0:
64,192,240108,1,0,0:0:0:0:
320,192,240108,1,0,0:0:0:0:
448,192,240163,1,0,0:0:0:0:
320,192,240219,1,0,0:0:0:0:
64,192,240274,1,0,0:0:0:0:
448,192,240330,1,0,0:0:0:0:
320,192,240330,1,0,0:0:0:0:
192,192,240385,1,0,0:0:0:0:
64,192,240441,1,0,0:0:0:0:
320,192,240496,1,0,0:0:0:0:
64,192,240552,1,0,0:0:0:0:
192,192,240552,1,0,0:0:0:0:
448,192,240608,1,0,0:0:0:0:
192,192,240663,1,0,0:0:0:0:
64,192,240719,1,0,0:0:0:0:
192,192,240774,1,0,0:0:0:0:
448,192,240774,1,0,0:0:0:0:
320,192,240830,1,0,0:0:0:0:
64,192,240885,1,0,0:0:0:0:
448,192,240941,1,0,0:0:0:0:
192,192,240996,1,0,0:0:0:0:
64,192,240996,1,0,0:0:0:0:
448,192,241052,1,0,0:0:0:0:
192,192,241108,1,0,0:0:0:0:
320,192,241163,1,0,0:0:0:0:
64,192,241219,1,0,0:0:0:0:
192,192,241274,1,0,0:0:0:0:
448,192,241330,1,0,0:0:0:0:
320,192,241385,1,0,0:0:0:0:
192,192,241441,1,0,0:0:0:0:
64,192,241441,1,0,0:0:0:0:
320,192,241496,1,0,0:0:0:0:
448,192,241552,1,0,0:0:0:0:
192,192,241608,1,0,0:0:0:0:
64,192,241663,1,0,0:0:0:0:
320,192,241719,1,0,0:0:0:0:
192,192,241774,1,0,0:0:0:0:
448,192,241830,1,0,0:0:0:0:
192,192,241885,1,0,0:0:0:0:
64,192,241885,1,0,0:0:0:0:
320,192,241941,1,0,0:0:0:0:
192,192,241996,1,0,0:0:0:0:
448,192,242052,1,0,0:0:0:0:
64,192,242108,1,0,0:0:0:0:
448,192,242163,1,0,0:0:0:0:
192,192,242219,1,0,0:0:0:0:
320,192,242274,1,0,0:0:0:0:
192,192,242330,1,0,0:0:0:0:
64,192,242330,1,0,0:0:0:0:
448,192,242385,1,0,0:0:0:0:
192,192,242441,1,0,0:0:0:0:
320,192,242496,1,0,0:0:0:0:
64,192,242552,1,0,0:0:0:0:
320,192,242608,1,0,0:0:0:0:
448,192,242663,1,0,0:0:0:0:
192,192,242719,1,0,0:0:0:0:
448,192,242774,1,0,0:0:0:0:
320,192,242774,1,0,0:0:0:0:
64,192,242830,1,0,0:0:0:0:
320,192,242885,1,0,0:0:0:0:
192,192,242941,1,0,0:0:0:0:
448,192,242996,1,0,0:0:0:0:
64,192,243052,1,0,0:0:0:0:
320,192,243108,1,0,0:0:0:0:
192,192,243163,1,0,0:0:0:0:
448,192,243219,1,0,0:0:0:0:
320,192,243219,1,0,0:0:0:0:
192,192,243274,1,0,0:0:0:0:
320,192,243330,1,0,0:0:0:0:
64,192,243385,1,0,0:0:0:0:
448,192,243441,1,0,0:0:0:0:
192,192,243496,1,0,0:0:0:0:
320,192,243552,1,0,0:0:0:0:
64,192,243608,1,0,0:0:0:0:
448,192,243663,1,0,0:0:0:0:
320,192,243663,1,0,0:0:0:0:
64,192,243719,1,0,0:0:0:0:
320,192,243774,1,0,0:0:0:0:
192,192,243830,1,0,0:0:0:0:
448,192,243885,1,0,0:0:0:0:
64,192,243941,1,0,0:0:0:0:
192,192,243996,1,0,0:0:0:0:
64,192,244052,1,0,0:0:0:0:
448,192,244108,1,0,0:0:0:0:
320,192,244108,1,0,0:0:0:0:
192,192,244163,1,0,0:0:0:0:
320,192,244219,1,0,0:0:0:0:
64,192,244274,1,0,0:0:0:0:
320,192,244330,1,0,0:0:0:0:
448,192,244385,1,0,0:0:0:0:
192,192,244441,1,0,0:0:0:0:
448,192,244496,1,0,0:0:0:0:
64,192,244552,1,0,0:0:0:0:
320,192,244552,1,0,0:0:0:0:
192,192,244552,1,0,0:0:0:0:
320,192,244663,1,0,0:0:0:0:
192,192,244774,1,0,0:0:0:0:
448,192,244774,1,0,0:0:0:0:
64,192,244774,1,0,0:0:0:0:
448,192,244885,1,0,0:0:0:0:
448,192,244996,1,0,0:0:0:0:
192,192,244996,1,0,0:0:0:0:
320,192,244996,1,0,0:0:0:0:
320,192,245108,1,0,0:0:0:0:
192,192,245219,1,0,0:0:0:0:
448,192,245219,1,0,0:0:0:0:
64,192,245219,1,0,0:0:0:0:
448,192,245330,1,0,0:0:0:0:
448,192,245441,1,0,0:0:0:0:
64,192,245441,1,0,0:0:0:0:
320,192,245441,1,0,0:0:0:0:
64,192,245552,1,0,0:0:0:0:
64,192,245663,1,0,0:0:0:0:
448,192,245663,1,0,0:0:0:0:
192,192,245663,1,0,0:0:0:0:
192,192,245774,1,0,0:0:0:0:
192,192,245885,1,0,0:0:0:0:
64,192,245885,1,0,0:0:0:0:
320,192,245885,1,0,0:0:0:0:
448,192,245996,1,0,0:0:0:0:
192,192,246108,1,0,0:0:0:0:
64,192,246108,1,0,0:0:0:0:
448,192,246108,1,0,0:0:0:0:
64,192,246219,1,0,0:0:0:0:
320,192,246330,128,0,246774:0:0:0:0:
192,192,246330,1,0,0:0:0:0:
64,192,246330,1,0,0:0:0:0:
192,192,246441,1,0,0:0:0:0:
448,192,246441,1,0,0:0:0:0:
448,192,246552,1,0,0:0:0:0:
64,192,246552,1,0,0:0:0:0:
192,192,246552,1,0,0:0:0:0:
448,192,246663,1,0,0:0:0:0:
64,192,246663,1,0,0:0:0:0:
448,192,246774,1,0,0:0:0:0:
192,192,246774,1,0,0:0:0:0:
64,192,246774,1,0,0:0:0:0:
320,192,246885,1,0,0:0:0:0:
448,192,246885,1,0,0:0:0:0:
64,192,246885,1,0,0:0:0:0:
448,192,246996,1,0,0:0:0:0:
192,192,246996,1,0,0:0:0:0:
64,192,246996,1,0,0:0:0:0:
192,192,247108,1,0,0:0:0:0:
320,192,247108,1,0,0:0:0:0:
448,192,247108,1,0,0:0:0:0:
192,192,247219,128,0,247663:0:0:0:0:
320,192,247219,1,0,0:0:0:0:
448,192,247219,1,0,0:0:0:0:
64,192,247219,1,0,0:0:0:0:
320,192,247330,1,0,0:0:0:0:
448,192,247441,1,0,0:0:0:0:
64,192,247441,1,0,0:0:0:0:
320,192,247441,1,0,0:0:0:0:
448,192,247552,1,0,0:0:0:0:
320,192,247552,1,0,0:0:0:0:
320,192,247663,1,0,0:0:0:0:
64,192,247663,1,0,0:0:0:0:
448,192,247663,1,0,0:0:0:0:
64,192,247774,1,0,0:0:0:0:
192,192,247774,1,0,0:0:0:0:
448,192,247774,1,0,0:0:0:0:
448,192,247885,1,0,0:0:0:0:
320,192,247885,1,0,0:0:0:0:
192,192,247885,1,0,0:0:0:0:
192,192,247996,1,0,0:0:0:0:
64,192,247996,1,0,0:0:0:0:
448,192,247996,1,0,0:0:0:0:
64,192,248108,128,0,251663:0:0:0:0:
320,192,248108,128,0,251663:0:0:0:0:
448,192,248108,128,0,251663:0:0:0:0:
