osu file format v14

[General]
AudioFilename: audio.mp3
AudioLeadIn: 0
PreviewTime: 103173
Countdown: 0
SampleSet: Soft
StackLeniency: 0.7
Mode: 0
LetterboxInBreaks: 0
WidescreenStoryboard: 1

[Editor]
Bookmarks: 16128,161583,168855,234310
DistanceSpacing: 1
BeatDivisor: 8
GridSize: 4
TimelineZoom: 1.4

[Metadata]
Title:bellow
TitleUnicode:bellow
Artist:nachi
ArtistUnicode:nachi
Creator:TicClick
Version:satellite's normal
Source:東方地霊殿 ~ Subterranean Animism.
Tags:Varjharta Snowy Dream Satellite Touhou Project chireiden th11 C.Experiment ALADDIN Syrufit Studio Syrup Comfiture 坂上 なち Sakaue Nachi twinkle*twinkle ラストリモート last remote extra stage ZUN koishi komeiji 古明地こいし
BeatmapID:1120016
BeatmapSetID:504315

[Difficulty]
HPDrainRate:4
CircleSize:3.8
OverallDifficulty:4
ApproachRate:5
SliderMultiplier:1.2
SliderTickRate:1

[Events]
//Background and Video events
0,0,"soft-hitfinish.jpg",0,0
//Break Periods
2,161783,167655
//Storyboard Layer 0 (Background)
Sprite,Background,Centre,"names\sl.png",320,240 L,103401,65 S,13,0,454,0.525,0.5 L,103401,64 C,0,0,454,235,157,95,220,95,120 L,190673,65 S,13,0,454,0.525,0.5 L,190673,64 C,0,0,454,235,157,95,220,95,120 S,0,0,,0.5 C,0,0,,255,255,255 M,0,16128,16355,448,66,448,106 F,0,16128,16355,0,1 C,0,132492,132719,220,95,120,255,255,255 M,0,161583,161810,448,106,408,106 F,0,161583,161810,1,0 C,0,168855,,255,255,255 M,0,168855,169082,488,106,448,106 F,0,168855,169082,0,1 C,0,219764,219992,220,95,120,255,255,255 M,0,234310,234537,448,106,448,66 F,0,234310,234537,1,0
//Storyboard Layer 1 (Fail)
//Storyboard Layer 2 (Pass)
//Storyboard Layer 3 (Foreground)
//Storyboard Sound Samples
Sample,37037,2,"soft-hitwhistle.wav",34
Sample,51128,2,"soft-hitclap.wav",42

[TimingPoints]
1583,454.545454545455,4,1,0,34,1,0
16128,-100,4,2,1,42,0,0
19480,-100,4,2,0,42,0,0
19594,-100,4,2,1,42,0,0
26753,-100,4,2,0,42,0,0
26867,-100,4,2,1,42,0,0
29651,-100,4,2,0,30,0,0
30560,-100,4,2,1,42,0,0
30787,-100,4,2,1,34,0,0
38571,-100,4,2,0,20,0,0
38685,-100,4,2,1,34,0,0
39480,-100,4,2,0,20,0,0
39594,-100,4,2,1,34,0,0
42208,-100,4,2,0,20,0,0
42321,-100,4,2,1,34,0,0
44821,-100,4,2,0,34,0,0
45162,-100,4,2,1,42,0,0
55333,-100,4,2,0,34,0,0
55560,-100,4,2,1,42,0,0
62889,-100,4,2,0,20,0,0
63003,-100,4,2,1,42,0,0
65844,-100,4,2,0,34,0,0
65958,-100,4,2,1,42,0,0
66526,-100,4,2,0,34,0,0
66639,-100,4,2,1,42,0,0
67662,-100,4,2,0,34,0,0
67776,-100,4,2,1,42,0,0
68571,-100,4,2,0,34,0,0
68685,-100,4,2,1,42,0,0
69480,-100,4,2,0,34,0,0
69594,-100,4,2,1,42,0,0
71298,-100,4,2,0,34,0,0
71412,-100,4,2,1,42,0,0
72208,-100,4,2,0,34,0,0
72321,-100,4,2,1,42,0,0
73117,-100,4,2,0,34,0,0
73344,-100,4,1,0,34,0,0
74139,-100,4,2,1,42,0,0
87889,-100,4,1,1,34,0,0
88685,-100,4,2,1,42,0,0
103401,-100,4,2,1,63,0,1
132492,-100,4,2,1,42,0,0
134026,-100,4,2,0,42,0,0
134139,-100,4,2,1,42,0,0
134935,-100,4,2,0,42,0,0
135048,-100,4,2,1,42,0,0
135844,-100,4,2,0,42,0,0
135958,-100,4,2,1,42,0,0
137662,-100,4,2,0,42,0,0
137776,-100,4,2,1,42,0,0
139480,-100,4,2,0,42,0,0
139594,-100,4,2,1,42,0,0
141298,-100,4,2,0,42,0,0
141411,-100,4,2,1,42,0,0
142208,-100,4,2,0,42,0,0
142321,-100,4,2,1,42,0,0
143116,-100,4,2,0,42,0,0
143230,-100,4,2,1,42,0,0
144934,-100,4,2,0,42,0,0
145048,-100,4,2,1,42,0,0
146526,-100,4,2,0,34,0,0
146980,-100,4,2,1,42,0,0
160616,-100,4,1,0,34,0,0
161071,-100,4,2,1,42,0,0
169480,-100,4,2,0,34,0,0
169821,-100,4,2,1,42,0,0
170389,-100,4,2,0,34,0,0
170730,-100,4,2,1,42,0,0
171526,-100,4,2,0,34,0,0
171639,-100,4,2,1,42,0,0
172435,-100,4,2,0,34,0,0
172548,-100,4,2,1,42,0,0
173117,-100,4,2,0,34,0,0
173458,-100,4,2,1,42,0,0
174026,-100,4,2,0,34,0,0
174367,-100,4,2,1,42,0,0
174935,-100,4,2,0,34,0,0
175162,-100,4,2,0,34,0,0
176128,-100,4,2,1,42,0,0
190673,-100,4,2,1,63,0,1
219764,-100,4,2,1,42,0,0
220389,-100,4,2,0,42,0,0
220503,-100,4,2,1,42,0,0
221298,-100,4,2,0,42,0,0
221411,-100,4,2,1,42,0,0
222208,-100,4,2,0,42,0,0
222321,-100,4,2,1,42,0,0
223116,-100,4,2,0,42,0,0
223230,-100,4,2,1,42,0,0
224934,-100,4,2,0,42,0,0
225048,-100,4,2,1,42,0,0
226752,-100,4,2,0,42,0,0
226866,-100,4,2,1,42,0,0
227662,-100,4,2,0,42,0,0
227776,-100,4,2,1,42,0,0
228570,-100,4,2,0,42,0,0
228683,-100,4,2,1,42,0,0
229480,-100,4,2,0,42,0,0
229594,-100,4,2,1,42,0,0
230388,-100,4,2,0,42,0,0
230502,-100,4,2,1,42,0,0
234253,-100,4,2,1,54,0,0

[Colours]
Combo1 : 220,95,120
Combo2 : 121,166,240
Combo3 : 235,157,95
Combo4 : 121,206,172

[HitObjects]
119,173,16128,6,0,P|88:215|82:291,1,120,4|2,1:0|0:0,0:0:0:0:
160,369,17037,2,0,P|190:326|196:250,1,120,2|2,0:0|0:0,0:0:0:0:
119,173,17946,1,2,0:0:0:0:
233,138,18401,1,2,0:0:0:0:
144,56,18855,1,2,0:0:0:0:
119,173,19310,2,0,L|203:149,1,60,2|2,0:0|0:0,0:0:0:0:
233,138,19764,6,0,B|301:138|280:171|345:170,1,120,2|2,0:0|0:0,0:0:0:0:
451,114,20673,2,0,B|383:114|404:81|338:81,1,120,2|2,0:0|0:0,0:0:0:0:
233,138,21583,1,2,0:0:0:0:
287,244,22037,1,2,0:0:0:0:
393,188,22492,1,2,0:0:0:0:
338,81,22946,1,2,0:0:0:0:
233,138,23401,6,0,B|185:141|185:141|164:128|164:128|117:130,1,120,4|8,1:0|0:0,0:0:0:0:
56,140,24083,1,0,0:0:0:0:
56,140,24310,2,0,P|41:197|57:254,1,120,2|8,0:0|0:0,0:0:0:0:
139,343,25219,6,0,B|203:350|191:322|256:327,1,120,2|8,0:0|0:0,0:0:0:0:
369,368,26128,2,0,P|375:340|374:309,1,60,2|0,0:0|0:0,0:0:0:0:
415,264,26583,2,0,P|399:239|376:218,1,60,8|2,0:0|0:0,0:0:0:0:
374,158,27038,6,0,P|346:152|251:157,1,120,2|8,0:0|0:0,0:0:0:0:
203,186,27719,1,0,0:0:0:0:
203,186,27946,2,0,L|195:63,1,120,2|8,0:0|0:0,0:0:0:0:
83,21,28855,5,2,0:0:0:0:
99,139,29310,1,8,0:0:0:0:
195,66,29764,2,0,L|274:57,1,60,2|0,1:2|0:0,0:0:0:0:
302,23,30219,2,0,L|381:31,1,60,0|2,0:0|1:2,0:0:0:0:
421,37,30673,6,0,P|431:88|423:165,1,120,4|2,1:0|0:0,0:0:0:0:
401,210,31355,1,0,0:0:0:0:
401,210,31583,2,0,L|277:206,1,120,2|2,0:0|0:0,0:0:0:0:
221,206,32264,1,0,0:0:0:0:
221,206,32492,2,0,P|211:257|219:334,1,120,2|2,0:0|0:0,0:0:0:0:
324,377,33401,2,0,L|386:372,1,60,2|0,0:0|0:0,0:0:0:0:
442,359,33855,1,2,0:0:0:0:
451,239,34310,6,0,L|309:248,1,120,2|2,0:0|0:0,0:0:0:0:
271,250,34992,1,0,0:0:0:0:
271,250,35220,2,0,P|261:199|269:122,1,120,2|2,0:0|0:0,0:0:0:0:
288,75,35901,1,0,0:0:0:0:
288,75,36128,2,0,B|359:66|359:66|400:93,1,120,2|2,0:0|0:0,0:0:0:0:
443,133,36810,2,0,P|428:172|345:177,1,120,0|0,0:0|0:0,0:0:0:0:
300,165,37492,6,0,B|263:162|263:162|247:170|247:170|213:166,1,90,0|0,0:0|0:0,0:0:0:0:
189,146,37946,6,0,P|183:205|193:264,1,120,2|2,0:0|0:0,0:0:0:0:
222,316,38628,1,2,0:0:0:0:
222,316,38855,2,0,L|351:320,1,120,2|2,0:0|0:0,0:0:0:0:
401,323,39537,1,2,0:0:0:0:
401,323,39764,2,0,P|407:264|397:205,1,120,2|2,0:0|0:0,0:0:0:0:
314,116,40673,2,0,L|320:52,2,60,2|0|2,0:0|0:0|0:0,0:0:0:0:
213,182,41583,6,0,B|145:186|160:156|96:159,1,120,2|2,0:0|0:0,0:0:0:0:
41,183,42264,1,2,0:0:0:0:
41,183,42492,2,0,P|33:244|29:307,2,120,2|2|2,0:0|0:0|0:0,0:0:0:0:
122,94,43855,2,0,L|115:34,2,60,2|0|2,0:0|0:0|0:0,0:0:0:0:
223,158,44764,6,0,B|260:155|260:155|276:163|276:163|310:159,1,90,0|2,0:0|0:0,0:0:0:0:
335,141,45219,6,0,P|350:190|332:256,1,120,2|8,0:0|0:0,0:0:0:0:
291,298,45901,1,0,0:0:0:0:
291,298,46128,2,0,B|222:311|239:275|173:283,1,120,2|8,0:0|0:0,0:0:0:0:
119,308,46810,1,0,0:0:0:0:
119,308,47037,2,0,P|101:251|116:194,1,120,2|8,0:0|0:0,0:0:0:0:
187,96,47946,2,0,L|265:98,1,60,2|0,0:0|0:0,0:0:0:0:
297,64,48401,2,0,L|350:120,1,60,8|0,0:0|0:0,0:0:0:0:
397,118,48855,6,0,B|395:166|395:166|377:182|377:182|374:229,1,120,2|8,0:0|0:0,0:0:0:0:
310,331,49764,2,0,B|307:284|307:284|289:268|289:268|287:220,1,120,2|8,0:0|0:0,0:0:0:0:
285,159,50446,1,0,0:0:0:0:
285,159,50673,2,0,B|216:136|233:171|164:151|164:151|152:184|125:209,1,180,2|0,0:0|0:0,0:0:0:0:
92,241,51583,2,0,P|61:240|31:235,2,60,2|0|8,0:0|0:0|0:0,0:0:0:0:
175,327,52492,6,0,P|229:310|288:327,1,120,2|8,0:0|0:0,0:0:0:0:
336,362,53173,1,0,0:0:0:0:
336,362,53401,2,0,L|345:239,1,120,2|8,0:0|0:0,0:0:0:0:
347,182,54083,1,0,0:0:0:0:
347,182,54310,2,0,P|403:199|460:182,1,120,2|8,0:0|0:0,0:0:0:0:
501,69,55219,2,0,L|436:57,1,60,2|2,0:0|0:2,0:0:0:0:
403,12,55673,2,0,L|338:24,1,60,8|0,0:0|0:0,0:0:0:0:
285,35,56128,5,2,0:0:0:0:
226,139,56583,2,0,L|152:133,1,60,8|0,0:0|0:0,0:0:0:0:
118,98,57037,1,2,0:0:0:0:
29,178,57492,2,0,L|19:246,1,60,8|0,0:0|0:0,0:0:0:0:
10,296,57946,5,2,0:0:0:0:
108,364,58401,1,8,0:0:0:0:
199,286,58855,2,0,B|210:227|210:227|190:168|190:168|204:109,1,180,0|0,1:0|1:0,0:0:0:0:
224,55,59764,6,0,P|344:59|468:46,1,240,4|2,1:0|0:0,0:0:0:0:
364,265,61583,2,0,P|356:321|461:267,1,240,2|2,0:0|0:0,0:0:0:0:
438,169,62946,1,2,0:0:0:0:
336,104,63401,6,0,B|313:149|320:192|320:192|272:186|235:211,1,180,2|0,0:0|0:0,0:0:0:0:
199,259,64310,2,0,P|147:225|88:217,1,120,2|2,0:0|0:0,0:0:0:0:
34,239,64992,1,0,0:0:0:0:
34,239,65219,2,0,L|26:118,1,120,2|2,0:0|0:0,0:0:0:0:
21,59,65901,1,2,0:0:0:0:
21,59,66128,2,0,L|158:46,1,120,2|2,0:0|0:0,0:0:0:0:
257,21,67037,6,0,B|271:92|232:75|248:139,1,120,2|2,0:0|0:0,0:0:0:0:
274,191,67719,1,2,0:0:0:0:
322,226,67946,2,0,P|369:226|409:166,1,120,2|2,0:0|0:0,0:0:0:0:
394,112,68628,1,2,0:0:0:0:
334,117,68855,2,0,L|147:126,1,180,2|2,0:0|0:0,0:0:0:0:
99,99,69764,2,0,L|88:37,2,60,2|0|2,0:0|0:0|0:0,0:0:0:0:
25,194,70673,6,0,P|15:241|73:295,1,120,2|2,0:0|0:0,0:0:0:0:
117,306,71355,1,2,0:0:0:0:
170,279,71583,2,0,B|241:264|224:303|288:287,1,120,2|2,0:0|0:0,0:0:0:0:
342,310,72264,1,2,0:0:0:0:
385,269,72492,2,0,P|390:189|304:175,1,180,2|2,0:0|0:0,0:0:0:0:
254,203,73401,2,0,L|246:129,1,60,0|0,0:0|0:0,0:0:0:0:
239,83,73855,1,0,0:0:0:0:
140,14,74310,6,0,P|116:98|161:174,1,180,4|0,1:0|0:0,0:0:0:0:
212,205,75219,2,0,B|316:232|293:167|385:194,1,180,2|0,0:0|0:0,0:0:0:0:
440,220,76128,2,0,B|450:171|450:171|439:125,2,90,2|0|0,0:0|0:0|0:0,0:0:0:0:
424,278,77037,2,0,L|358:284,1,60,2|0,0:0|0:0,0:0:0:0:
307,262,77492,2,0,L|302:326,1,60,8|0,0:0|0:0,0:0:0:0:
261,365,77946,6,0,B|203:371|203:371|151:343|151:343|88:347,1,180,2|0,0:0|0:0,0:0:0:0:
28,346,78855,2,0,P|0:261|22:175,1,180,2|0,0:0|0:0,0:0:0:0:
61,130,79764,2,0,B|182:140|182:140|224:182,1,180,2|0,0:0|0:0,0:0:0:0:
259,229,80673,2,0,L|334:218,1,60,2|0,0:0|0:0,0:0:0:0:
376,206,81128,1,8,0:0:0:0:
466,283,81583,6,0,P|491:230|488:170,1,120,4|8,1:0|0:0,0:0:0:0:
459,118,82264,1,0,0:0:0:0:
404,92,82492,2,0,B|332:77|349:116|285:100,1,120,2|8,0:0|0:0,0:0:0:0:
233,73,83173,1,0,0:0:0:0:
194,26,83401,2,0,P|175:55|180:140,1,120,2|8,0:0|0:0,0:0:0:0:
222,178,84083,1,0,0:0:0:0:
279,193,84310,2,0,L|274:271,1,60,2|0,0:0|0:0,0:0:0:0:
267,312,84764,1,8,0:0:0:0:
159,366,85219,6,0,P|103:373|57:315,1,120,2|8,0:0|0:0,0:0:0:0:
50,271,85901,1,0,0:0:0:0:
84,221,86128,2,0,B|146:205|129:244|200:229,1,120,2|8,0:0|0:0,0:0:0:0:
251,196,86810,1,0,0:0:0:0:
291,150,87037,2,0,P|298:95|262:43,1,120,2|8,0:0|0:0,0:0:0:0:
206,27,87719,1,2,0:0:0:0:
148,42,87946,2,0,L|128:105,1,60,0|0,0:0|0:0,0:0:0:0:
109,155,88401,1,8,0:2:0:0:
75,270,88855,6,0,B|137:286|120:247|191:262,1,120,4|2,1:0|0:0,0:0:0:0:
239,299,89537,1,0,0:0:0:0:
274,347,89764,2,0,B|336:363|319:324|390:339,1,120,2|2,0:0|0:0,0:0:0:0:
446,362,90446,1,0,0:0:0:0:
504,350,90673,2,0,P|521:295|505:233,1,120,2|2,0:0|0:0,0:0:0:0:
460,197,91355,1,0,0:0:0:0:
400,203,91583,2,0,L|410:123,1,60,2|0,0:0|0:0,0:0:0:0:
415,84,92037,1,2,0:0:0:0:
315,16,92492,6,0,L|299:158,1,120,2|2,0:0|0:0,0:0:0:0:
295,194,93173,1,0,0:0:0:0:
285,253,93401,2,0,P|232:269|164:236,1,120,2|2,0:0|0:0,0:0:0:0:
140,196,94083,1,0,0:0:0:0:
111,143,94310,2,0,P|72:176|52:257,1,120,2|2,0:0|0:0,0:0:0:0:
50,300,94992,1,0,0:0:0:0:
76,353,95219,2,0,L|147:358,1,60,2|0,0:0|0:0,0:0:0:0:
195,363,95673,1,2,0:0:0:0:
281,279,96128,6,0,L|146:272,1,120,2|2,0:0|0:0,0:0:0:0:
101,270,96810,1,0,0:0:0:0:
41,264,97037,2,0,P|25:213|35:127,1,120,2|2,0:0|0:0,0:0:0:0:
59,95,97719,1,0,0:0:0:0:
98,50,97946,2,0,L|233:43,1,120,2|2,0:0|0:0,0:0:0:0:
277,41,98628,1,0,0:0:0:0:
336,37,98855,2,0,P|337:68|335:97,1,60,2|0,0:0|0:0,0:0:0:0:
319,154,99310,1,2,0:0:0:0:
263,260,99764,6,0,P|217:281|160:234,1,120,2|2,0:0|0:0,0:0:0:0:
141,189,100446,1,0,0:0:0:0:
162,132,100673,2,0,L|301:122,1,120,2|2,0:0|0:0,0:0:0:0:
341,123,101355,1,0,0:0:0:0:
385,82,101583,5,2,0:0:0:0:
431,119,101810,2,0,B|442:179|442:179|425:239,1,120,0|2,0:0|0:0,0:0:0:0:
369,256,102492,2,0,L|373:326,1,60,0|0,1:0|1:0,0:0:0:0:
376,375,102946,1,0,1:0:0:0:
278,304,103401,6,0,L|135:296,1,120,4|2,1:0|0:0,0:0:0:0:
242,211,104310,2,0,L|99:203,1,120,2|2,0:0|0:0,0:0:0:0:
65,223,104992,1,0,0:0:0:0:
10,198,105219,2,0,P|4:144|8:70,1,120,2|2,0:0|0:0,0:0:0:0:
105,9,106128,2,0,P|109:43|114:70,1,60,2|0,0:0|0:0,0:0:0:0:
149,116,106583,1,2,0:0:0:0:
251,177,107037,6,0,P|267:135|264:90,2,90,2|0|2,0:0|0:0|0:0,0:0:0:0:
207,219,107946,2,0,P|162:225|125:250,2,90,2|0|2,0:0|0:0|0:0,0:0:0:0:
265,236,108855,2,0,P|292:270|332:291,2,90,2|0|2,0:0|0:0|0:0,0:0:0:0:
251,177,109764,2,0,L|257:115,1,60,2|0,0:0|0:0,0:0:0:0:
260,57,110219,1,2,0:0:0:0:
372,15,110673,6,0,P|424:29|428:103,1,120,2|2,0:0|0:0,0:0:0:0:
356,177,111583,2,0,P|382:223|333:278,1,120,2|2,0:0|0:0,0:0:0:0:
292,290,112264,1,0,0:0:0:0:
239,260,112492,2,0,P|159:250|123:275,1,120,2|2,0:0|0:0,0:0:0:0:
43,353,113401,2,0,P|36:312|35:287,1,60,2|0,0:0|0:0,0:0:0:0:
41,235,113855,1,2,0:0:0:0:
139,166,114310,6,0,P|106:152|71:107,2,90,2|0|2,0:0|0:0|0:0,0:0:0:0:
188,132,115219,2,0,P|174:98|181:42,2,90,2|0|2,0:0|0:0|0:0,0:0:0:0:
246,142,116128,2,0,P|260:108|305:73,2,90,2|0|2,0:0|0:0|0:0,0:0:0:0:
259,200,117037,1,2,0:0:0:0:
299,313,117492,2,0,P|344:322|376:310,1,60,2|2,0:0|0:0,0:0:0:0:
405,283,117946,6,0,B|400:221|432:226|423:167,1,120,2|2,0:0|0:0,0:0:0:0:
353,68,118855,2,0,B|357:129|325:124|334:183,1,120,2|2,0:0|0:0,0:0:0:0:
249,269,119764,2,0,L|132:276,2,90,2|2|2,0:0|0:0|0:0,0:0:0:0:
307,253,120673,2,0,L|304:322,1,60,2|0,0:0|0:0,0:0:0:0:
301,373,121128,1,2,0:0:0:0:
181,340,121583,6,0,P|148:326|113:281,2,90,2|0|2,0:0|0:0|0:0,0:0:0:0:
231,306,122492,2,0,P|217:271|224:215,2,90,2|0|2,0:0|0:0|0:0,0:0:0:0:
289,315,123401,2,0,P|303:281|348:245,2,90,2|0|2,0:0|0:0|0:0,0:0:0:0:
301,373,124310,1,2,0:0:0:0:
418,349,124764,2,0,P|423:318|421:290,1,60,2|2,0:0|0:0,0:0:0:0:
389,238,125219,6,0,P|330:249|272:235,1,120,2|2,0:0|0:0,0:0:0:0:
207,134,126128,2,0,P|148:120|90:131,1,120,2|2,0:0|0:0,0:0:0:0:
43,169,126810,1,0,0:0:0:0:
15,222,127037,2,0,B|11:276|11:276|26:311,2,90,2|2|2,0:0|0:0|0:0,0:0:0:0:
43,169,127946,2,0,L|34:97,1,60,2|0,0:0|0:0,0:0:0:0:
25,50,128401,1,2,0:0:0:0:
137,92,128855,6,0,L|129:187,2,90,2|0|2,0:0|0:0|0:0,0:0:0:0:
188,61,129764,2,0,L|283:53,2,90,2|0|2,0:0|0:0|0:0,0:0:0:0:
129,45,130673,2,0,L|34:37,2,90,2|0|2,0:0|0:0|0:0,0:0:0:0:
188,61,131583,1,2,0:0:0:0:
258,157,132037,2,0,L|324:148,1,60,2|2,0:0|0:0,0:0:0:0:
376,139,132492,5,4,1:0:0:0:
434,152,132719,2,0,P|449:94|439:35,2,120,0|0|0,0:0|0:0|0:0,0:0:0:0:
379,258,134083,2,0,P|363:315|373:374,2,120,2|0|2,0:0|0:0|0:0,0:0:0:0:
307,161,135446,2,0,B|236:156|254:188|192:186,1,120,0|2,0:0|0:0,0:0:0:0:
131,189,136128,5,2,0:0:0:0:
85,149,136355,2,0,B|72:87|72:87|85:28,2,120,0|0|0,0:0|0:0|0:0,0:0:0:0:
125,261,137719,2,0,B|138:323|138:323|125:382,2,120,2|0|0,0:0|0:0|0:0,0:0:0:0:
204,170,139083,2,0,B|249:174|249:174|272:193|272:193|316:197,1,120,0|2,0:0|0:0,0:0:0:0:
365,231,139764,5,2,0:0:0:0:
421,211,139992,2,0,P|424:182|424:145,1,60,0|2,0:0|0:0,0:0:0:0:
473,116,140446,2,0,P|455:94|428:67,1,60,0|2,0:0|0:0,0:0:0:0:
414,14,140901,2,0,B|343:9|361:41|299:39,1,120,0|2,0:0|0:0,0:0:0:0:
241,21,141583,5,2,0:0:0:0:
184,41,141810,2,0,L|163:117,1,60,0|2,0:0|0:0,0:0:0:0:
112,121,142264,2,0,L|150:189,1,60,2|2,0:0|0:0,0:0:0:0:
107,223,142719,2,0,B|152:227|152:227|175:246|175:246|219:250,1,120,0|2,0:0|0:0,0:0:0:0:
274,275,143401,5,2,0:0:0:0:
332,263,143628,2,0,L|339:196,1,60,0|2,0:0|0:0,0:0:0:0:
360,147,144083,2,0,L|228:154,1,120,0|0,0:0|0:0,0:0:0:0:
181,162,144764,2,0,L|188:95,1,60,2|2,0:0|0:0,0:0:0:0:
194,42,145219,5,2,0:0:0:0:
252,27,145446,2,0,P|303:43|325:102,1,120,0|0,0:0|0:0,0:0:0:0:
300,155,146128,2,0,P|248:168|175:161,1,120,2|0,0:0|1:0,0:0:0:0:
96,248,147037,6,0,P|156:248|216:272,1,120,4|8,1:0|0:0,0:0:0:0:
213,332,147719,1,0,0:0:0:0:
213,332,147946,2,0,L|342:336,1,120,2|8,0:0|0:0,0:0:0:0:
392,339,148628,1,0,0:0:0:0:
392,339,148855,2,0,P|398:280|388:221,1,120,2|8,0:0|0:0,0:0:0:0:
305,132,149764,2,0,L|311:68,2,60,2|0|8,0:0|0:0|0:0,0:0:0:0:
204,198,150674,6,0,B|136:202|151:172|87:175,1,120,2|8,0:0|0:0,0:0:0:0:
32,199,151355,1,0,0:0:0:0:
32,199,151583,2,0,P|24:260|20:323,2,120,2|8|2,0:0|0:0|0:0,0:0:0:0:
109,106,152946,1,8,0:0:0:0:
109,106,153173,2,0,P|168:100|228:101,1,120,0|0,0:0|0:0,0:0:0:0:
285,120,153855,1,8,0:0:0:0:
392,67,154310,6,0,P|407:116|389:182,1,120,2|8,0:0|0:0,0:0:0:0:
342,217,154992,1,0,0:0:0:0:
342,217,155219,2,0,B|271:216|294:248|228:252,1,120,2|8,0:0|0:0,0:0:0:0:
171,237,155901,1,0,0:0:0:0:
171,237,156128,2,0,P|163:296|187:349,1,120,2|8,0:0|0:0,0:0:0:0:
304,379,157037,2,0,P|337:370|373:371,1,60,2|0,0:0|0:0,0:0:0:0:
423,375,157492,1,8,0:0:0:0:
441,256,157946,6,0,P|387:239|328:256,1,120,2|8,0:0|0:0,0:0:0:0:
280,291,158627,1,0,0:0:0:0:
280,291,158855,2,0,L|271:168,1,120,2|8,0:0|0:0,0:0:0:0:
269,111,159537,1,0,0:0:0:0:
269,111,159764,2,0,P|213:128|156:111,1,120,2|8,0:0|0:0,0:0:0:0:
59,39,160673,2,0,L|48:98,1,60,0|0,1:0|1:0,0:0:0:0:
0,133,161128,2,0,L|10:192,1,60,8|0,0:0|1:0,0:0:0:0:
25,250,161583,5,4,1:0:0:0:
25,250,168855,6,0,B|143:260|143:260|186:307,1,180,4|2,1:0|0:0,0:0:0:0:
225,350,169764,2,0,P|281:285|365:302,1,180,2|2,0:0|0:0,0:0:0:0:
406,346,170673,2,0,B|386:252|441:264|425:169,1,180,2|0,0:0|0:0,0:0:0:0:
392,120,171583,2,0,P|351:118|328:121,1,60,2|0,0:0|0:0,0:0:0:0:
281,152,172037,1,0,0:0:0:0:
281,152,172492,6,0,P|239:77|153:71,1,180,2|2,0:0|0:0,0:0:0:0:
114,25,173401,2,0,B|129:119|74:107|94:201,1,180,2|2,0:0|0:0,0:0:0:0:
119,254,174310,2,0,P|84:321|160:322,1,180,2|2,0:0|0:0,0:0:0:0:
201,279,175219,2,0,L|198:213,1,60,0|0,1:0|0:0,0:0:0:0:
240,176,175673,2,0,L|237:110,1,60,0|0,0:0|0:0,0:0:0:0:
210,62,176128,5,4,1:0:0:0:
322,19,176583,2,0,L|383:23,1,60,2|0,0:0|0:0,0:0:0:0:
430,58,177037,1,2,0:0:0:0:
390,171,177492,2,0,L|329:167,1,60,2|0,0:0|0:0,0:0:0:0:
282,132,177946,1,2,0:0:0:0:
186,204,178401,6,0,L|190:265,1,60,2|0,0:0|0:0,0:0:0:0:
225,312,178855,1,2,0:0:0:0:
284,317,179083,1,0,0:0:0:0:
343,323,179310,1,2,0:0:0:0:
296,212,179764,5,2,0:0:0:0:
225,312,180219,2,0,L|163:306,1,60,2|0,0:0|0:0,0:0:0:0:
111,332,180673,1,2,0:0:0:0:
58,223,181128,2,0,L|120:229,1,60,2|0,0:0|0:0,0:0:0:0:
172,203,181582,5,2,0:0:0:0:
263,125,182037,2,0,L|269:187,1,60,2|0,0:0|0:0,0:0:0:0:
303,233,182491,1,2,0:0:0:0:
294,292,182719,1,0,0:0:0:0:
285,351,182946,1,2,0:0:0:0:
193,273,183401,5,2,0:0:0:0:
303,233,183855,2,0,L|370:228,1,60,2|0,0:0|0:0,0:0:0:0:
412,263,184310,1,2,0:0:0:0:
433,145,184764,2,0,L|366:150,1,60,2|0,0:0|0:0,0:0:0:0:
324,115,185219,5,2,0:0:0:0:
226,45,185673,2,0,L|221:112,1,60,2|0,0:0|0:0,0:0:0:0:
192,157,186128,1,2,0:0:0:0:
132,150,186355,1,0,0:0:0:0:
72,142,186583,1,2,0:0:0:0:
144,46,187037,5,2,0:0:0:0:
192,157,187492,2,0,L|199:220,1,60,2|0,0:0|0:0,0:0:0:0:
174,271,187946,1,2,0:0:0:0:
293,254,188401,2,0,L|286:191,1,60,2|0,0:0|0:0,0:0:0:0:
311,140,188855,6,0,P|390:135|377:56,1,180,2|2,0:0|0:0,0:0:0:0:
327,22,189764,2,0,L|257:27,2,60,0|0|0,1:0|1:0|1:0,0:0:0:0:
444,47,190673,6,0,P|456:104|440:162,1,120,4|2,1:0|0:0,0:0:0:0:
321,140,191583,2,0,P|309:197|325:255,1,120,2|2,0:0|0:0,0:0:0:0:
367,297,192264,1,0,0:0:0:0:
423,317,192492,2,0,B|479:310|479:310|505:287,2,90,2|2|2,0:0|0:0|0:0,0:0:0:0:
367,297,193401,2,0,L|352:365,1,60,2|0,0:0|0:0,0:0:0:0:
300,381,193855,1,2,0:0:0:0:
239,276,194310,6,0,L|144:273,2,90,2|0|2,0:0|0:0|0:0,0:0:0:0:
267,222,195219,2,0,L|362:219,2,90,2|0|2,0:0|0:0|0:0,0:0:0:0:
235,170,196128,2,0,L|140:167,2,90,2|0|2,0:0|0:0|0:0,0:0:0:0:
265,117,197037,2,0,L|343:113,1,60,2|0,0:0|0:0,0:0:0:0:
364,68,197492,1,2,0:0:0:0:
250,29,197946,6,0,P|197:55|175:110,1,120,2|2,0:0|0:0,0:0:0:0:
248,205,198855,2,0,B|311:216|302:184|365:196,1,120,2|2,0:0|0:0,0:0:0:0:
414,230,199537,1,0,0:0:0:0:
447,279,199764,2,0,B|442:335|442:335|422:365,2,90,2|2|2,0:0|0:0|0:0,0:0:0:0:
414,230,200673,2,0,L|421:162,1,60,2|0,0:0|0:0,0:0:0:0:
399,113,201128,1,2,0:0:0:0:
277,113,201583,6,0,P|283:157|304:196,2,90,2|0|2,0:0|0:0|0:0,0:0:0:0:
219,99,202492,2,0,P|191:134|178:177,2,90,2|0|2,0:0|0:0|0:0,0:0:0:0:
187,47,203401,2,0,P|142:52|103:73,2,90,2|0|2,0:0|0:0|0:0,0:0:0:0:
247,51,204310,2,0,L|308:57,1,60,2|0,0:0|0:0,0:0:0:0:
356,23,204764,2,0,L|362:84,1,60,2|2,0:0|0:0,0:0:0:0:
413,114,205219,6,0,B|408:160|408:160|420:186|420:186|416:233,1,120,2|2,0:0|0:0,0:0:0:0:
300,263,206128,2,0,B|296:218|296:218|308:192|308:192|303:146,1,120,2|2,0:0|0:0,0:0:0:0:
262,101,206810,1,0,0:0:0:0:
208,73,207037,2,0,B|156:78|156:78|125:102,2,90,2|2|2,0:0|0:0|0:0,0:0:0:0:
262,101,207946,2,0,L|326:95,1,60,2|0,0:0|0:0,0:0:0:0:
367,56,208401,1,2,0:0:0:0:
448,143,208855,6,0,P|474:107|484:62,2,90,2|0|2,0:0|0:0|0:0,0:0:0:0:
445,203,209764,2,0,P|463:245|495:275,2,90,2|0|2,0:0|0:0|0:0,0:0:0:0:
394,171,210673,2,0,P|350:165|308:178,2,90,2|0|2,0:0|0:0|0:0,0:0:0:0:
445,203,211583,2,0,L|442:262,1,60,2|0,0:0|0:0,0:0:0:0:
412,314,212037,1,2,0:0:0:0:
302,264,212492,6,0,P|209:256|182:260,1,120,2|2,0:0|0:0,0:0:0:0:
79,320,213401,2,0,P|87:227|83:200,1,120,2|2,0:0|0:0,0:0:0:0:
35,164,214083,1,0,0:0:0:0:
7,110,214310,2,0,B|3:60|3:60|18:21,2,90,2|2|2,0:0|0:0|0:0,0:0:0:0:
35,164,215219,2,0,L|25:232,1,60,2|0,0:0|0:0,0:0:0:0:
17,282,215673,1,2,0:0:0:0:
137,285,216128,6,0,P|131:241|110:202,2,90,2|0|2,0:0|0:0|0:0,0:0:0:0:
195,299,217037,2,0,P|223:264|236:221,2,90,2|0|2,0:0|0:0|0:0,0:0:0:0:
227,351,217946,2,0,P|272:346|311:325,2,90,2|0|2,0:0|0:0|0:0,0:0:0:0:
167,347,218855,2,0,L|106:341,1,60,2|0,0:0|0:0,0:0:0:0:
49,356,219310,2,0,L|43:295,1,60,2|2,0:0|0:0,0:0:0:0:
36,236,219764,5,2,0:0:0:0:
92,214,219992,2,0,P|150:221|194:261,1,120,0|2,0:0|0:0,0:0:0:0:
317,261,220901,2,0,P|361:221|420:214,1,120,0|2,0:0|0:0,0:0:0:0:
476,236,221583,6,0,L|468:175,1,60,2|0,0:0|0:0,0:0:0:0:
433,127,222037,1,2,0:0:0:0:
436,67,222264,2,0,P|391:27|333:19,2,120,2|0|2,0:0|0:0|0:0,0:0:0:0:
433,127,223401,5,2,0:0:0:0:
315,152,223855,1,2,0:0:0:0:
275,38,224310,1,2,0:0:0:0:
333,19,224537,2,0,P|391:27|436:67,1,120,0|2,0:0|0:0,0:0:0:0:
433,127,225219,5,2,0:0:0:0:
461,179,225446,2,0,P|456:237|419:284,1,120,0|0,0:0|0:0,0:0:0:0:
365,311,226128,2,0,L|296:304,1,60,2|0,0:0|0:0,0:0:0:0:
256,270,226583,2,0,L|192:277,1,60,2|2,0:0|0:0,0:0:0:0:
147,311,227037,5,2,0:0:0:0:
92,284,227264,2,0,P|55:237|51:179,1,120,0|2,0:0|0:0,0:0:0:0:
163,137,228173,2,0,P|199:183|204:242,1,120,0|2,0:0|0:0,0:0:0:0:
256,270,228855,5,2,0:0:0:0:
307,242,229083,2,0,P|312:183|349:137,1,120,0|2,0:0|0:0,0:0:0:0:
461,179,229992,2,0,P|456:237|419:284,1,120,0|2,0:0|0:0,0:0:0:0:
365,311,230673,6,0,L|296:304,1,60,2|0,0:0|0:0,0:0:0:0:
256,270,231128,2,0,L|192:277,1,60,2|0,0:0|0:0,0:0:0:0:
147,311,231583,1,2,0:0:0:0:
254,363,232037,1,2,0:0:0:0:
365,311,232492,6,0,L|368:248,1,60,2|0,0:0|0:0,0:0:0:0:
331,203,232946,2,0,L|334:140,1,60,2|0,0:0|0:0,0:0:0:0:
374,98,233401,6,0,B|312:93|252:95|252:95|232:80|232:80|212:95|212:95|196:87|176:95|176:95|156:87|156:87|133:89,1,240,2|4,0:0|1:0,0:0:0:0:
