osu file format v14

[General]
AudioFilename: audio.mp3
AudioLeadIn: 0
PreviewTime: 103173
Countdown: 0
SampleSet: Soft
StackLeniency: 0.7
Mode: 0
LetterboxInBreaks: 0
WidescreenStoryboard: 1

[Editor]
DistanceSpacing: 1
BeatDivisor: 8
GridSize: 4
TimelineZoom: 1.4

[Metadata]
Title:bellow
TitleUnicode:bellow
Artist:nachi
ArtistUnicode:nachi
Creator:TicClick
Version:lunatic collab
Source:東方地霊殿 ~ Subterranean Animism.
Tags:Varjharta Snowy Dream Satellite Touhou Project chireiden th11 C.Experiment ALADDIN Syrufit Studio Syrup Comfiture 坂上 なち Sakaue Nachi twinkle*twinkle ラストリモート last remote extra stage ZUN koishi komeiji 古明地こいし
BeatmapID:1073026
BeatmapSetID:504315

[Difficulty]
HPDrainRate:7
CircleSize:4.5
OverallDifficulty:7.5
ApproachRate:8
SliderMultiplier:1.6
SliderTickRate:1

[Events]
//Background and Video events
0,0,"soft-hitfinish.jpg",0,0
//Break Periods
2,161783,168105
//Storyboard Layer 0 (Background)
Sprite,Background,Centre,"names\tic.png",320,240 L,103401,16 S,13,0,454,0.525,0.5 C,0,0,454,235,157,95,220,95,120 L,117946,16 S,13,0,454,0.525,0.5 C,0,0,454,235,157,95,220,95,120 L,197946,16 S,13,0,454,0.525,0.5 C,0,0,454,235,157,95,220,95,120 L,212492,16 S,13,0,454,0.525,0.5 C,0,0,454,235,157,95,220,95,120 S,0,0,,0.5 C,0,0,,255,255,255 C,0,16128,,255,255,255 M,0,16128,16355,448,66,448,106 F,0,16128,16355,0,1 M,0,23401,23628,448,106,448,66 F,0,23401,23628,1,0 C,0,30673,,255,255,255 M,0,30673,30900,448,146,448,106 F,0,30673,30900,0,1 M,0,37946,38173,448,106,448,66 F,0,37946,38173,1,0 C,0,45219,,255,255,255 M,0,45219,45446,448,66,448,106 F,0,45219,45446,0,1 M,0,52492,52719,448,106,488,106 F,0,52492,52719,1,0 C,0,59764,,255,255,255 M,0,59764,59991,408,106,448,106 F,0,59764,59991,0,1 M,0,67037,67264,448,106,448,146 F,0,67037,67264,1,0 C,0,74310,,255,255,255 M,0,74310,74537,488,106,448,106 F,0,74310,74537,0,1 M,0,81583,81810,448,106,488,106 F,0,81583,81810,1,0 C,0,88855,,255,255,255 M,0,88855,89082,448,66,448,106 F,0,88855,89082,0,1 M,0,96128,96355,448,106,448,146 F,0,96128,96355,1,0 M,0,103401,103628,448,66,448,106 F,0,103401,103628,0,1 M,0,110673,110900,448,106,448,66 F,0,110673,110900,1,0 M,0,117946,118173,448,66,448,106 F,0,117946,118173,0,1 M,0,125219,125446,448,106,448,66 F,0,125219,125446,1,0 C,0,132492,,255,255,255 M,0,132492,132719,408,106,448,106 F,0,132492,132719,0,1 M,0,139764,139991,448,106,408,106 F,0,139764,139991,1,0 C,0,147037,,255,255,255 M,0,147037,147264,448,66,448,106 F,0,147037,147264,0,1 M,0,154310,154537,448,106,448,146 F,0,154310,154537,1,0 C,0,168855,,255,255,255 M,0,168855,169082,488,106,448,106 F,0,168855,169082,0,1 M,0,176128,176355,448,106,408,106 F,0,176128,176355,1,0 C,0,183401,,255,255,255 M,0,183401,183628,448,66,448,106 F,0,183401,183628,0,1 M,0,190673,190900,448,106,448,146 F,0,190673,190900,1,0 M,0,197946,198173,408,106,448,106 F,0,197946,198173,0,1 M,0,205219,205446,448,106,488,106 F,0,205219,205446,1,0 M,0,212492,212719,448,146,448,106 F,0,212492,212719,0,1 M,0,219764,219991,448,106,408,106 F,0,219764,219991,1,0 C,0,227037,,255,255,255 M,0,227037,227264,448,66,448,106 F,0,227037,227264,0,1 M,0,234310,234537,448,106,448,66 F,0,234310,234537,1,0
Sprite,Background,Centre,"names\vjh.png",320,240 L,110673,16 S,13,0,454,0.525,0.5 C,0,0,454,121,206,172,121,166,240 L,125219,16 S,13,0,454,0.525,0.5 C,0,0,454,121,206,172,121,166,240 L,190673,16 S,13,0,454,0.525,0.5 C,0,0,454,121,206,172,121,166,240 L,205219,16 S,13,0,454,0.525,0.5 C,0,0,454,121,206,172,121,166,240 S,0,0,,0.5 C,0,0,,255,255,255 C,0,23401,,255,255,255 M,0,23401,23628,448,146,448,106 F,0,23401,23628,0,1 M,0,30673,30900,448,106,448,66 F,0,30673,30900,1,0 C,0,37946,,255,255,255 M,0,37946,38173,448,146,448,106 F,0,37946,38173,0,1 M,0,45219,45446,448,106,448,146 F,0,45219,45446,1,0 C,0,52492,,255,255,255 M,0,52492,52719,408,106,448,106 F,0,52492,52719,0,1 M,0,59764,59991,448,106,488,106 F,0,59764,59991,1,0 C,0,67037,,255,255,255 M,0,67037,67264,448,66,448,106 F,0,67037,67264,0,1 M,0,74310,74537,448,106,408,106 F,0,74310,74537,1,0 C,0,81583,,255,255,255 M,0,81583,81810,408,106,448,106 F,0,81583,81810,0,1 M,0,88855,89082,448,106,448,146 F,0,88855,89082,1,0 C,0,96128,,255,255,255 M,0,96128,96355,448,66,448,106 F,0,96128,96355,0,1 M,0,103401,103628,448,106,448,146 F,0,103401,103628,1,0 M,0,110673,110900,448,146,448,106 F,0,110673,110900,0,1 M,0,117946,118173,448,106,448,146 F,0,117946,118173,1,0 M,0,125219,125446,448,146,448,106 F,0,125219,125446,0,1 M,0,132492,132719,448,106,488,106 F,0,132492,132719,1,0 C,0,139764,,255,255,255 M,0,139764,139991,488,106,448,106 F,0,139764,139991,0,1 M,0,147037,147264,448,106,448,146 F,0,147037,147264,1,0 C,0,154310,,255,255,255 M,0,154310,154537,448,66,448,106 F,0,154310,154537,0,1 M,0,161583,161810,448,106,408,106 F,0,161583,161810,1,0 C,0,176128,,255,255,255 M,0,176128,176355,488,106,448,106 F,0,176128,176355,0,1 M,0,183401,183628,448,106,448,146 F,0,183401,183628,1,0 M,0,190673,190900,448,66,448,106 F,0,190673,190900,0,1 M,0,197946,198173,448,106,488,106 F,0,197946,198173,1,0 M,0,205219,205446,408,106,448,106 F,0,205219,205446,0,1 M,0,212492,212719,448,106,448,66 F,0,212492,212719,1,0 C,0,219764,,255,255,255 M,0,219764,219991,488,106,448,106 F,0,219764,219991,0,1 M,0,227037,227264,448,106,448,146 F,0,227037,227264,1,0
//Storyboard Layer 1 (Fail)
//Storyboard Layer 2 (Pass)
//Storyboard Layer 3 (Foreground)
//Storyboard Sound Samples
Sample,36583,2,"soft-hitwhistle.wav",34
Sample,51133,2,"soft-hitclap.wav",42
Sample,62037,2,"soft-hitwhistle.wav",42
Sample,152946,2,"soft-hitclap.wav",42

[TimingPoints]
1583,454.545454545455,4,1,0,34,1,0
16128,-100,4,2,1,42,0,0
19480,-100,4,2,0,42,0,0
19594,-100,4,2,1,42,0,0
23117,-100,4,2,0,20,0,0
23230,-100,4,2,1,42,0,0
26753,-100,4,2,0,42,0,0
26867,-100,4,2,1,42,0,0
29651,-100,4,2,0,30,0,0
30560,-100,4,2,1,42,0,0
30787,-100,4,2,1,34,0,0
36298,-100,4,2,1,10,0,0
36412,-100,4,2,1,34,0,0
36639,-100,4,2,1,10,0,0
36753,-100,4,2,1,34,0,0
38117,-100,4,2,0,20,0,0
38230,-100,4,2,1,34,0,0
38571,-100,4,2,0,20,0,0
38685,-100,4,2,1,34,0,0
39026,-100,4,2,0,20,0,0
39139,-100,4,2,1,34,0,0
39480,-100,4,2,0,20,0,0
39594,-100,4,2,1,34,0,0
40389,-100,4,2,0,20,0,0
40503,-100,4,2,1,34,0,0
40958,-100,4,2,1,10,0,0
41071,-100,4,2,1,34,0,0
41298,-100,4,2,0,20,0,0
41412,-100,4,2,1,34,0,0
41753,-100,4,2,0,20,0,0
41867,-100,4,2,1,34,0,0
42208,-100,4,2,0,20,0,0
42321,-100,4,2,1,34,0,0
42662,-100,4,2,0,20,0,0
42776,-100,4,2,1,34,0,0
43117,-100,4,2,0,20,0,0
43230,-100,4,2,1,34,0,0
44480,-100,4,2,0,20,0,0
44594,-100,4,2,1,42,0,0
44821,-100,4,2,0,34,0,0
45162,-100,4,2,1,42,0,0
52094,-100,4,2,0,42,0,0
52208,-100,4,2,1,42,0,0
55048,-100,4,2,0,20,0,0
55162,-100,4,2,1,42,0,0
58798,-100,4,1,0,34,0,0
59253,-100,4,2,1,42,0,0
59764,-125,4,2,1,42,0,0
62889,-125,4,2,0,20,0,0
63003,-125,4,2,1,42,0,0
65844,-125,4,2,0,34,0,0
65958,-125,4,2,1,42,0,0
66526,-125,4,2,0,34,0,0
66639,-125,4,2,1,42,0,0
67662,-125,4,2,0,34,0,0
67776,-125,4,2,1,42,0,0
68571,-125,4,2,0,34,0,0
68685,-125,4,2,1,42,0,0
69480,-125,4,2,0,34,0,0
69594,-125,4,2,1,42,0,0
71298,-125,4,2,0,34,0,0
71412,-125,4,2,1,42,0,0
72208,-125,4,2,0,34,0,0
72321,-125,4,2,1,42,0,0
73117,-125,4,2,0,34,0,0
73344,-125,4,1,0,34,0,0
74139,-125,4,2,1,42,0,0
74310,-100,4,2,1,42,0,0
87889,-100,4,1,1,34,0,0
88685,-100,4,2,1,42,0,0
88855,-125,4,2,1,42,0,0
103401,-83.3333333333333,4,2,1,63,0,1
103742,-100,4,2,1,63,0,1
110503,-100,4,2,0,42,0,1
110617,-100,4,2,1,63,0,1
110673,-83.3333333333333,4,2,1,63,0,1
111014,-100,4,2,1,63,0,1
117776,-100,4,2,0,42,0,1
117889,-100,4,2,1,63,0,1
117946,-83.3333333333333,4,2,1,63,0,1
118287,-100,4,2,1,63,0,1
125048,-100,4,2,0,42,0,1
125162,-100,4,2,1,63,0,1
125219,-83.3333333333333,4,2,1,63,0,1
125560,-100,4,2,1,63,0,1
132321,-100,4,2,0,42,0,1
132435,-100,4,2,1,63,0,1
132492,-100,4,2,1,42,0,0
134026,-100,4,2,0,42,0,0
134139,-100,4,2,1,42,0,0
134935,-100,4,2,0,42,0,0
135048,-100,4,2,1,42,0,0
135844,-100,4,2,0,42,0,0
135958,-100,4,2,1,42,0,0
137662,-100,4,2,0,42,0,0
137776,-100,4,2,1,42,0,0
139480,-100,4,2,0,42,0,0
139594,-100,4,2,1,42,0,0
139764,-100,4,2,1,42,0,0
141298,-100,4,2,0,42,0,0
141411,-100,4,2,1,42,0,0
142208,-100,4,2,0,42,0,0
142321,-100,4,2,1,42,0,0
143116,-100,4,2,0,42,0,0
143230,-100,4,2,1,42,0,0
144934,-100,4,2,0,42,0,0
145048,-100,4,2,1,42,0,0
146526,-100,4,2,0,34,0,0
146980,-100,4,2,1,42,0,0
156866,-100,4,2,0,20,0,0
156980,-100,4,2,1,42,0,0
160616,-100,4,1,0,34,0,0
161071,-100,4,2,1,42,0,0
169480,-100,4,2,0,34,0,0
169821,-100,4,2,1,42,0,0
170389,-100,4,2,0,34,0,0
170730,-100,4,2,1,42,0,0
171526,-100,4,2,0,34,0,0
171639,-100,4,2,1,42,0,0
172435,-100,4,2,0,34,0,0
172548,-100,4,2,1,42,0,0
173117,-100,4,2,0,34,0,0
173458,-100,4,2,1,42,0,0
174026,-100,4,2,0,34,0,0
174367,-100,4,2,1,42,0,0
174935,-100,4,2,0,34,0,0
175048,-100,4,2,1,42,0,0
175162,-100,4,2,0,34,0,0
176128,-100,4,2,1,42,0,0
190673,-83.3333333333333,4,2,1,63,0,1
191014,-100,4,2,1,63,0,1
197775,-100,4,2,0,42,0,1
197889,-100,4,2,1,63,0,1
197945,-83.3333333333333,4,2,1,63,0,1
198286,-100,4,2,1,63,0,1
205048,-100,4,2,0,42,0,1
205161,-100,4,2,1,63,0,1
205218,-83.3333333333333,4,2,1,63,0,1
205559,-100,4,2,1,63,0,1
212320,-100,4,2,0,42,0,1
212434,-100,4,2,1,63,0,1
212491,-83.3333333333333,4,2,1,63,0,1
212832,-100,4,2,1,63,0,1
219593,-100,4,2,0,42,0,1
219707,-100,4,2,1,63,0,1
219764,-100,4,2,1,42,0,0
220389,-100,4,2,0,42,0,0
220503,-100,4,2,1,42,0,0
221298,-100,4,2,0,42,0,0
221411,-100,4,2,1,42,0,0
222208,-100,4,2,0,42,0,0
222321,-100,4,2,1,42,0,0
223116,-100,4,2,0,42,0,0
223230,-100,4,2,1,42,0,0
224934,-100,4,2,0,42,0,0
225048,-100,4,2,1,42,0,0
226752,-100,4,2,0,42,0,0
226866,-100,4,2,1,42,0,0
227662,-100,4,2,0,42,0,0
227776,-100,4,2,1,42,0,0
228570,-100,4,2,0,42,0,0
228683,-100,4,2,1,42,0,0
229480,-100,4,2,0,42,0,0
229594,-100,4,2,1,42,0,0
230388,-100,4,2,0,42,0,0
230502,-100,4,2,1,42,0,0
232206,-100,4,2,0,42,0,0
232320,-100,4,2,1,42,0,0
233798,-100,4,2,1,34,0,0
234024,-100,4,2,0,42,0,0
234138,-100,4,2,1,42,0,0
234253,-100,4,2,1,54,0,0

[Colours]
Combo1 : 220,95,120
Combo2 : 121,166,240
Combo3 : 235,157,95
Combo4 : 121,206,172

[HitObjects]
60,176,15219,5,2,0:2:0:0:
60,176,15333,1,0,0:0:0:0:
160,228,15560,1,2,0:2:0:0:
0,252,15787,1,0,0:0:0:0:
0,252,15901,1,2,0:2:0:0:
144,328,16128,5,4,1:0:0:0:
232,268,16355,2,2,L|236:184,1,80,0|2,0:0|0:0,0:0:0:0:
320,300,16810,2,2,L|324:200,1,80,0|2,0:0|0:0,0:0:0:0:
408,264,17264,2,2,L|412:168,1,80,0|2,0:0|0:0,0:0:0:0:
496,292,17719,2,2,L|500:196,1,80,0|2,0:0|0:0,0:0:0:0:
443,107,18173,6,2,P|435:68|442:28,1,80,0|2,0:0|0:0,0:0:0:0:
360,136,18628,2,2,P|337:103|328:64,1,80,0|2,0:0|0:0,0:0:0:0:
276,180,19083,2,2,P|244:155|225:120,1,80,0|2,0:0|0:0,0:0:0:0:
227,253,19537,2,0,P|208:246|188:243,2,40,2|0|2,0:0|0:0|0:0,0:0:0:0:
324,268,19992,6,2,P|363:263|400:248,1,80,0|2,0:0|0:0,0:0:0:0:
295,344,20446,2,2,P|255:340|215:344,1,80,0|2,0:0|0:0,0:0:0:0:
131,323,20901,2,2,P|121:284|120:244,1,80,0|2,0:0|0:0,0:0:0:0:
56,160,21355,2,2,P|48:199|29:233,1,80,0|2,0:0|0:0,0:0:0:0:
144,160,21810,6,2,P|181:146|220:139,1,80,0|2,0:0|0:0,0:0:0:0:
308,80,22264,2,2,P|269:71|233:52,1,80,0|2,0:0|0:0,0:0:0:0:
400,64,22719,2,2,P|423:95|437:133,1,80,0|2,0:0|0:0,0:0:0:0:
480,28,23173,1,2,1:2:0:0:
416,224,23401,5,4,1:0:0:0:
512,168,23628,1,0,0:0:0:0:
512,280,23855,1,8,0:0:0:0:
416,224,24083,1,0,0:0:0:0:
356,312,24310,1,2,0:0:0:0:
275,204,24537,2,2,P|232:203|191:228,1,80,0|8,0:0|0:0,0:0:0:0:
156,332,24992,2,2,P|116:346|57:332,1,80,2|2,0:1|0:0,0:0:0:0:
32,215,25446,6,2,L|37:114,1,80,0|8,0:0|0:0,0:0:0:0:
211,85,25901,2,2,L|207:164,1,80,0|2,0:0|0:0,0:0:0:0:
77,149,26355,2,2,L|82:48,1,80,0|8,0:0|0:0,0:0:0:0:
145,203,26810,2,0,L|141:271,2,40,2|0|2,0:0|0:0|0:0,0:0:0:0:
163,50,27264,6,2,P|204:37|255:41,1,80,0|8,0:0|0:0,0:0:0:0:
323,108,27719,2,2,P|366:121|411:114,1,80,0|2,0:0|0:0,0:0:0:0:
505,179,28173,2,2,L|497:293,1,80,0|8,0:0|0:0,0:0:0:0:
404,229,28628,2,2,L|396:343,1,80,2|2,0:1|0:0,0:0:0:0:
272,352,29083,6,2,L|266:272,1,80,0|8,0:0|0:0,0:0:0:0:
168,312,29537,1,0,0:0:0:0:
156,148,29764,1,2,1:2:0:0:
156,148,29878,1,0,1:0:0:0:
24,200,30105,2,0,L|32:300,1,80,2|0,1:2|1:0,0:0:0:0:
30,279,30446,1,2,1:2:0:0:
208,236,30673,5,4,1:0:0:0:
224,312,30901,1,0,0:0:0:0:
284,220,31128,1,2,0:0:0:0:
300,296,31355,1,0,0:0:0:0:
336,159,31583,2,0,P|374:149|414:151,1,80,2|0,0:0|0:0,0:0:0:0:
363,64,32037,2,0,P|324:61|285:52,1,80,2|0,0:0|0:0,0:0:0:0:
251,155,32492,2,0,P|172:152|94:175,1,160,2|2,0:0|0:0,0:0:0:0:
124,280,33173,1,0,0:0:0:0:
124,280,33401,2,0,P|165:284|208:280,1,80,2|0,0:0|0:0,0:0:0:0:
264,335,33855,2,0,P|297:313|334:299,1,80,2|0,0:0|0:0,0:0:0:0:
416,328,34310,5,2,0:0:0:0:
432,240,34537,1,0,0:0:0:0:
372,168,34764,1,2,0:0:0:0:
392,84,34992,1,0,0:0:0:0:
318,36,35219,2,0,P|279:39|239:33,1,80,2|0,0:0|0:0,0:0:0:0:
184,104,35673,2,0,P|149:84|116:48,1,80,2|0,0:0|0:0,0:0:0:0:
104,168,36128,2,0,P|126:200|138:238,1,80,2|0,0:0|0:0,0:0:0:0:
176,232,36469,2,0,P|168:271|167:311,1,80,0|0,0:0|0:0,0:0:0:0:
167,347,36810,2,0,P|131:332|91:328,1,80,0|2,0:0|0:0,0:0:0:0:
0,368,37264,1,0,0:0:0:0:
16,272,37492,1,0,0:0:0:0:
16,272,37605,2,0,P|17:229|12:180,1,80,2|0,0:0|0:0,0:0:0:0:
27,164,37946,5,2,0:0:0:0:
107,215,38173,1,2,0:0:0:0:
120,80,38401,1,2,0:0:0:0:
207,190,38628,1,2,0:0:0:0:
230,95,38855,2,0,P|272:87|337:103,1,80,2|2,0:0|0:0,0:0:0:0:
408,108,39310,2,0,P|403:167|409:212,1,80,2|2,0:0|0:0,0:0:0:0:
373,211,39651,1,2,0:0:0:0:
373,211,39764,2,0,P|376:288|352:368,1,160,2|2,0:0|0:0,0:0:0:0:
216,244,40446,1,2,0:0:0:0:
216,244,40560,1,0,0:0:0:0:
215,243,40673,2,0,P|211:207|223:124,1,120,2|0,0:0|0:0,0:0:0:0:
187,107,41128,2,0,P|183:68|187:28,1,80,2|2,0:0|0:0,0:0:0:0:
22,185,41583,5,2,0:0:0:0:
89,245,41810,1,2,0:0:0:0:
128,164,42037,1,2,0:0:0:0:
172,334,42264,1,2,0:0:0:0:
77,284,42492,2,0,P|39:297|0:297,1,80,2|2,0:0|0:0,0:0:0:0:
172,334,42946,2,0,P|219:332|266:352,1,80,2|2,0:0|0:0,0:0:0:0:
367,372,43401,2,0,P|346:303|354:196,1,160,2|2,0:0|0:0,0:0:0:0:
348,215,44083,1,0,0:0:0:0:
448,258,44310,2,0,P|460:216|460:169,1,80,2|2,0:0|0:0,0:0:0:0:
436,67,44764,1,0,0:0:0:0:
436,67,44878,1,2,0:0:0:0:
300,160,45105,1,2,0:0:0:0:
299,160,45219,6,0,P|260:152|223:134,1,80,2|0,0:0|0:0,0:0:0:0:
320,40,45673,2,0,P|359:39|399:46,1,80,8|0,0:0|0:0,0:0:0:0:
223,56,46128,2,0,P|184:56|144:49,1,80,2|0,0:0|0:0,0:0:0:0:
256,152,46583,2,0,L|248:200,2,40,8|0|0,0:0|0:0|0:0,0:0:0:0:
380,196,47037,5,2,0:0:0:0:
324,356,47264,1,0,0:0:0:0:
432,296,47492,1,8,0:0:0:0:
296,268,47719,2,0,P|300:246|300:216,1,40,0|0,0:0|0:0,0:0:0:0:
239,303,47946,2,0,P|172:296|136:256,1,120,2|0,0:0|0:0,0:0:0:0:
76,236,48401,2,0,P|49:264|29:299,1,80,8|0,0:0|0:0,0:0:0:0:
164,80,48855,5,2,0:0:0:0:
56,136,49083,1,0,0:0:0:0:
200,180,49310,1,8,0:0:0:0:
212,16,49537,1,0,0:0:0:0:
284,188,49764,2,0,P|288:227|280:266,1,80,2|0,0:0|0:0,0:0:0:0:
384,144,50219,2,0,L|396:96,2,40,8|0|0,0:0|0:0|0:0,0:0:0:0:
272,72,50673,6,0,P|232:71|192:64,1,80,2|0,0:0|0:0,0:0:0:0:
187,104,51014,2,0,P|148:107|108:100,1,80,0|0,0:0|0:0,0:0:0:0:
80,128,51355,1,0,0:0:0:0:
196,208,51583,1,2,0:0:0:0:
20,288,51810,1,0,0:0:0:0:
176,336,52037,1,8,0:0:0:0:
176,336,52151,2,0,P|215:337|254:328,1,80,2|0,0:0|0:0,0:0:0:0:
280,351,52492,6,0,P|319:345|359:346,1,80,2|0,0:0|0:0,0:0:0:0:
500,354,52946,2,0,P|461:333|432:298,1,80,8|0,0:0|0:0,0:0:0:0:
509,214,53401,1,2,0:0:0:0:
402,172,53628,1,0,0:0:0:0:
467,91,53855,2,0,P|470:66|471:38,2,40,8|0|0,0:0|0:0|0:0,0:0:0:0:
317,181,54310,6,0,P|317:223|319:260,1,80,2|0,0:0|0:0,0:0:0:0:
236,112,54764,2,0,P|239:153|238:191,1,80,8|0,0:0|0:0,0:0:0:0:
242,235,55105,1,2,1:2:0:0:
242,235,55219,2,0,P|182:228|125:244,1,120,2|0,0:0|0:0,0:0:0:0:
80,224,55673,2,0,P|40:229|1:223,1,80,8|0,0:0|0:0,0:0:0:0:
190,155,56128,5,2,0:0:0:0:
0,152,56355,1,0,0:0:0:0:
69,69,56583,1,8,0:0:0:0:
121,238,56810,1,0,0:0:0:0:
190,155,57037,2,0,P|235:153|282:166,1,80,2|0,0:0|0:0,0:0:0:0:
330,47,57492,2,0,P|344:83|343:123,1,80,8|0,0:0|0:0,0:0:0:0:
254,247,57946,6,0,P|251:287|265:325,1,80,2|0,0:0|0:0,0:0:0:0:
217,165,58401,1,8,0:0:0:0:
343,227,58628,1,0,0:0:0:0:
337,87,58855,1,0,1:0:0:0:
360,84,58969,1,0,1:0:0:0:
384,81,59083,1,0,1:0:0:0:
407,80,59196,1,0,1:0:0:0:
431,77,59310,2,0,L|474:73,2,40,8|0|0,0:0|1:0|1:0,0:0:0:0:
224,160,59764,6,0,P|236:224|219:285,1,128,4|2,1:0|0:0,0:0:0:0:
219,283,60446,1,0,0:0:0:0:
140,320,60673,2,0,P|108:312|36:236,1,128,2|2,0:0|0:0,0:0:0:0:
40,248,61355,1,0,0:0:0:0:
96,56,61583,2,0,P|112:108|116:152,2,96,2|0|0,0:0|0:0|0:0,0:0:0:0:
212,84,62492,2,0,P|252:108|268:132,1,64,2|0,0:0|0:0,0:0:0:0:
368,112,62946,2,0,P|371:81|364:44,1,64,2|0,0:0|0:0,0:0:0:0:
392,196,63401,6,0,P|405:257|446:306,1,128,2|2,0:0|0:0,0:0:0:0:
446,306,64083,1,0,0:0:0:0:
308,272,64310,2,0,P|248:256|164:256,1,128,2|2,0:0|0:0,0:0:0:0:
182,253,64992,1,0,0:0:0:0:
60,342,65219,2,0,P|92:346|124:344,1,64,2|0,0:0|0:0,0:0:0:0:
216,356,65673,1,2,0:0:0:0:
240,272,65901,1,2,0:0:0:0:
240,272,66128,2,0,P|234:238|240:204,1,64,2|0,0:0|0:0,0:0:0:0:
152,228,66583,1,2,0:0:0:0:
197,85,67037,6,0,P|237:93|289:90,1,64,2|0,0:0|0:0,0:0:0:0:
260,93,67378,1,2,0:0:0:0:
325,22,67605,1,0,0:0:0:0:
325,22,67719,1,2,0:0:0:0:
346,181,67946,2,0,P|384:176|424:180,1,64,2|0,0:0|0:0,0:0:0:0:
409,177,68287,1,2,0:0:0:0:
453,261,68514,1,0,0:0:0:0:
453,261,68628,1,2,0:0:0:0:
279,335,68855,6,0,P|277:290|284:248,1,64,2|0,0:0|0:0,0:0:0:0:
281,229,69196,2,0,P|236:237|174:221,1,96,2|2,0:0|0:0,0:0:0:0:
176,94,69764,1,2,0:0:0:0:
99,188,69992,1,0,0:0:0:0:
0,119,70219,2,0,P|36:116|69:124,1,64,2|0,0:0|0:0,0:0:0:0:
270,210,70673,6,0,P|304:217|358:215,1,64,2|0,0:0|0:0,0:0:0:0:
333,217,71014,1,2,0:0:0:0:
392,141,71242,1,0,0:0:0:0:
392,141,71355,1,2,0:0:0:0:
247,32,71583,2,0,P|250:71|246:116,1,64,2|0,0:0|0:0,0:0:0:0:
249,96,71923,1,2,0:0:0:0:
179,162,72151,1,0,0:0:0:0:
179,162,72264,1,2,0:0:0:0:
53,227,72492,6,0,P|83:230|117:244,1,64,2|0,0:0|0:0,0:0:0:0:
152,244,72833,2,0,P|139:293|153:357,1,96,2|2,0:0|0:0,0:0:0:0:
296,228,73401,2,0,L|338:239,2,32
355,162,73742,1,0,0:0:0:0:
355,162,73855,2,0,L|403:149,2,32
184,112,74310,6,0,P|145:112|104:122,1,80,4|0,1:0|0:0,0:0:0:0:
64,216,74764,1,8,0:0:0:0:
24,96,74992,1,0,0:0:0:0:
148,208,75219,2,0,P|156:247|152:286,1,80,2|0,0:0|0:0,0:0:0:0:
240,152,75673,2,0,P|279:159|313:178,1,80,8|0,0:0|0:0,0:0:0:0:
400,284,76128,6,0,P|356:276|316:284,1,80,2|0,0:0|0:0,0:0:0:0:
296,312,76469,1,0,0:0:0:0:
296,312,76583,2,0,P|254:315|204:308,1,80,8|0,0:0|0:0,0:0:0:0:
108,336,77037,1,2,0:0:0:0:
80,228,77264,1,0,0:0:0:0:
244,148,77492,2,0,P|221:182|188:203,1,80,8|0,0:0|0:0,0:0:0:0:
340,132,77946,6,0,P|352:208|320:287,1,160,2|8,0:0|0:0,0:0:0:0:
340,132,78628,1,0,0:0:0:0:
464,200,78855,2,0,P|476:242|480:280,1,80,2|0,0:0|0:0,0:0:0:0:
416,120,79310,1,8,0:0:0:0:
384,204,79537,1,0,0:0:0:0:
335,76,79764,6,0,P|256:64|177:71,1,160,2|8,0:0|0:0,0:0:0:0:
72,28,80446,1,0,0:0:0:0:
159,152,80673,2,0,P|134:205|88:243,1,120,2|0,0:0|0:0,0:0:0:0:
104,288,81128,2,0,P|161:305|220:298,1,120,8|0,0:0|0:0,0:0:0:0:
252,256,81583,5,4,1:0:0:0:
333,335,81810,1,0,0:0:0:0:
333,335,81923,1,0,0:0:0:0:
464,232,82151,1,0,0:0:0:0:
464,232,82264,1,2,0:0:0:0:
382,156,82492,2,0,P|348:153|300:157,1,80,2|0,0:0|0:0,0:0:0:0:
301,200,82833,2,0,P|276:236|264:287,1,80
282,314,83173,1,2,0:0:0:0:
497,199,83401,6,0,P|453:195|413:202,1,80,2|0,0:0|0:0,0:0:0:0:
390,159,83742,2,0,P|335:166|241:145,1,120,0|2,0:0|0:0,0:0:0:0:
188,228,84310,1,2,0:0:0:0:
60,136,84537,1,0,0:0:0:0:
120,48,84764,2,0,L|225:50,1,80,8|0,0:0|0:0,0:0:0:0:
258,273,85219,5,2,0:0:0:0:
318,195,85446,1,0,0:0:0:0:
318,195,85560,1,0,0:0:0:0:
368,284,85787,1,0,0:0:0:0:
368,284,85901,1,2,0:0:0:0:
512,142,86128,2,0,P|472:140|420:119,1,80,2|0,0:0|0:0,0:0:0:0:
386,61,86469,2,0,P|398:104|391:168,1,80
388,168,86810,1,2,0:0:0:0:
265,157,87037,6,0,P|261:198|277:253,1,80,2|0,0:0|0:0,0:0:0:0:
304,264,87378,2,0,P|240:268|184:300,1,120,0|2,0:0|0:0,0:0:0:0:
99,237,87946,2,0,L|63:220,2,40
112,168,88287,1,0,0:0:0:0:
112,168,88401,2,0,L|93:127,2,40,8|0|0,0:2|0:0|0:0,0:0:0:0:
304,180,88855,6,0,P|308:211|304:243,1,64,4|0,1:0|0:0,0:0:0:0:
335,271,89196,2,0,P|363:259|387:236,1,64,0|0,0:0|0:0,0:0:0:0:
435,247,89537,1,2,0:0:0:0:
500,352,89764,1,2,0:0:0:0:
512,244,89992,1,0,0:0:0:0:
512,244,90105,1,0,0:0:0:0:
372,320,90333,1,0,0:0:0:0:
372,320,90446,1,2,0:0:0:0:
344,216,90673,6,0,P|312:216|280:212,1,64,2|0,0:0|0:0,0:0:0:0:
244,192,91014,2,0,P|201:171|153:164,1,96,0|2,0:0|0:0,0:0:0:0:
108,69,91583,2,0,P|139:63|171:63,1,64,2|0,0:0|0:0,0:0:0:0:
264,100,92037,2,0,P|297:99|327:92,1,64,2|0,0:0|0:0,0:0:0:0:
308,200,92492,6,0,P|332:220|361:232,1,64,2|0,0:0|0:0,0:0:0:0:
361,232,92833,1,0,0:0:0:0:
444,180,93060,1,0,0:0:0:0:
444,180,93173,1,2,0:0:0:0:
428,336,93401,2,0,P|396:334|364:335,1,64,2|0,0:0|0:0,0:0:0:0:
364,335,93742,1,0,0:0:0:0:
264,368,93969,1,0,0:0:0:0:
264,368,94083,1,2,0:0:0:0:
140,299,94310,6,0,P|158:273|182:252,1,64,2|0,0:0|0:0,0:0:0:0:
212,259,94651,2,0,P|208:212|212:164,1,96,0|2,0:0|0:0,0:0:0:0:
336,68,95219,1,2,0:0:0:0:
240,72,95446,1,0,0:0:0:0:
344,184,95673,2,0,P|351:215|351:246,1,64,2|0,0:0|0:0,0:0:0:0:
265,342,96128,6,0,P|231:340|185:339,1,64,2|0,0:0|0:0,0:0:0:0:
180,301,96469,2,0,P|146:302|103:297,1,64,0|0,0:0|0:0,0:0:0:0:
89,276,96810,1,2,0:0:0:0:
265,235,97037,6,0,P|299:232|348:235,1,64,2|0,0:0|0:0,0:0:0:0:
342,196,97378,2,0,P|377:198|429:195,1,64,0|0,0:0|0:0,0:0:0:0:
432,175,97719,1,2,0:0:0:0:
252,119,97946,6,0,P|217:117|189:120,1,64,2|0,0:0|0:0,0:0:0:0:
194,71,98287,2,0,P|145:76|87:67,1,96,0|2,0:0|0:0,0:0:0:0:
17,169,98855,1,2,0:0:0:0:
121,248,99083,1,0,0:0:0:0:
0,329,99310,2,0,P|28:324|66:332,1,64,2|0,0:0|0:0,0:0:0:0:
236,262,99764,5,2,0:0:0:0:
328,312,99992,1,0,0:0:0:0:
328,312,100105,1,0,0:0:0:0:
324,132,100333,1,0,0:0:0:0:
324,132,100446,1,2,0:0:0:0:
394,191,100673,2,0,P|393:222|394:254,1,64,2|0,0:0|0:0,0:0:0:0:
353,279,101014,2,0,B|355:316|353:370,1,64,0|0,0:0|0:0,0:0:0:0:
393,369,101355,1,2,0:0:0:0:
231,335,101583,6,0,P|200:333|142:338,1,64,2|0,0:0|0:0,0:0:0:0:
120,357,101923,2,0,P|127:310|121:255,1,96,0|2,0:0|0:0,0:0:0:0:
145,119,102492,2,0,L|141:71,1,32,0|2,1:0|0:0,0:0:0:0:
212,83,102719,2,0,L|214:44,1,32,0|2,1:0|0:0,0:0:0:0:
212,156,102946,2,0,P|209:204|214:245,1,64,0|0,1:0|1:0,0:0:0:0:
260,276,103287,1,0,1:0:0:0:
260,276,103401,6,0,P|307:271|355:276,1,95.9999970703126,4|0,1:0|0:0,0:0:0:0:
191,343,103855,2,0,P|152:336|112:336,1,80,2|0,0:0|0:0,0:0:0:0:
228,207,104310,2,0,P|249:153|299:121,1,120,2|0,0:0|0:0,0:0:0:0:
368,128,104764,2,0,P|403:146|427:179,1,80,2|0,0:0|0:0,0:0:0:0:
383,323,105219,6,0,P|344:316|304:317,1,80,2|0,0:0|0:0,0:0:0:0:
228,348,105560,2,0,P|188:349|148:344,1,80,2|0,0:0|0:0,0:0:0:0:
72,368,105901,2,0,L|64:320,1,40,2|0,0:0|0:0,0:0:0:0:
120,268,106128,1,2,0:0:0:0:
188,96,106355,1,0,0:0:0:0:
28,104,106583,2,0,L|36:183,1,80,2|0,0:0|0:0,0:0:0:0:
104,40,107037,5,2,0:0:0:0:
276,48,107264,1,0,0:0:0:0:
276,48,107378,1,0,0:0:0:0:
184,96,107605,1,0,0:0:0:0:
184,96,107719,1,2,0:0:0:0:
376,52,107946,5,2,0:0:0:0:
328,140,108173,1,0,0:0:0:0:
328,140,108287,1,0,0:0:0:0:
236,188,108514,1,0,0:0:0:0:
236,188,108628,1,2,0:0:0:0:
428,152,108855,5,2,0:0:0:0:
368,252,109083,1,0,0:0:0:0:
368,252,109196,2,0,P|360:292|356:336,1,80
384,356,109537,1,2,0:0:0:0:
252,296,109764,5,2,0:0:0:0:
152,340,109992,1,0,0:0:0:0:
104,248,110219,1,2,0:0:0:0:
200,136,110446,2,0,L|197:96,1,40,2|2,0:0|0:0,0:0:0:0:
272,144,110673,6,0,P|270:116|278:35,1,95.9999970703126,2|0,0:0|0:0,0:0:0:0:
459,107,111128,2,0,P|462:150|456:215,1,80,2|0,0:0|0:0,0:0:0:0:
440,311,111583,2,0,P|381:297|318:317,1,120,2|0,0:0|0:0,0:0:0:0:
247,347,112037,2,0,P|251:310|247:259,1,80,2|0,0:0|0:0,0:0:0:0:
175,109,112492,6,0,P|173:149|175:189,1,80,2|0,0:0|0:0,0:0:0:0:
100,238,112833,2,0,P|101:199|99:159,1,80,2|0,0:0|0:0,0:0:0:0:
27,266,113173,2,0,P|27:247|27:227,1,40,2|0,0:0|0:0,0:0:0:0:
36,344,113401,2,0,P|93:341|152:353,1,80,2|0,0:0|0:0,0:0:0:0:
260,288,113855,2,0,P|209:292|149:285,1,80,2|0,0:0|0:0,0:0:0:0:
406,235,114310,6,0,P|368:231|308:239,1,80,2|0,0:0|0:0,0:0:0:0:
326,234,114651,1,0,0:0:0:0:
310,341,114878,1,0,0:0:0:0:
310,341,114992,1,2,0:0:0:0:
160,216,115219,6,0,P|198:228|240:220,1,80,2|0,0:0|0:0,0:0:0:0:
264,204,115560,2,0,P|274:173|267:127,1,80
254,112,115901,1,2,0:0:0:0:
20,147,116128,6,0,P|12:175|25:237,1,80,2|0,0:0|0:0,0:0:0:0:
31,254,116469,2,0,P|77:245|129:267,1,80
127,268,116810,1,2,0:0:0:0:
183,138,117037,5,2,0:0:0:0:
340,162,117264,1,0,0:0:0:0:
239,281,117492,1,2,0:0:0:0:
183,138,117719,2,0,L|144:143,1,40,2|2,0:0|0:0,0:0:0:0:
242,181,117946,6,0,P|291:185|335:172,1,95.9999970703126,2|0,0:0|0:0,0:0:0:0:
360,284,118401,2,0,P|397:300|436:304,1,80,2|0,0:0|0:0,0:0:0:0:
170,350,118855,2,0,P|228:343|274:305,1,120,2|0,0:0|0:0,0:0:0:0:
224,248,119310,2,0,P|216:210|224:144,1,80,2|0,0:0|0:0,0:0:0:0:
40,220,119764,6,0,P|32:180|16:143,1,80,2|0,0:0|0:0,0:0:0:0:
72,96,120105,2,0,P|111:96|151:89,1,80,2|0,0:0|0:0,0:0:0:0:
224,112,120446,2,0,L|228:64,1,40,2|0,0:0|0:0,0:0:0:0:
184,12,120673,1,2,0:0:0:0:
324,128,120901,1,0,0:0:0:0:
472,96,121128,2,0,L|479:16,1,80,2|0,0:0|0:0,0:0:0:0:
400,184,121583,5,2,0:0:0:0:
300,192,121810,1,0,0:0:0:0:
300,192,121923,1,0,0:0:0:0:
196,200,122151,1,0,0:0:0:0:
196,200,122264,1,2,0:0:0:0:
148,40,122492,5,2,0:0:0:0:
96,132,122719,1,0,0:0:0:0:
96,132,122832,1,0,0:0:0:0:
132,236,123060,1,0,0:0:0:0:
132,236,123173,1,2,0:0:0:0:
0,292,123401,5,2,0:0:0:0:
132,352,123628,1,0,0:0:0:0:
132,352,123742,2,0,P|171:344|211:346,1,80,0|0,0:0|0:0,0:0:0:0:
240,360,124083,1,2,0:0:0:0:
255,161,124310,5,2,0:0:0:0:
356,331,124537,1,0,0:0:0:0:
367,211,124765,1,2,0:0:0:0:
175,252,124992,2,0,L|135:243,1,40,2|2,0:0|0:0,0:0:0:0:
176,172,125219,6,0,P|146:137|125:85,1,95.9999970703126,2|0,0:0|0:0,0:0:0:0:
227,115,125673,2,0,P|211:73|214:21,1,80,2|0,0:0|0:0,0:0:0:0:
430,154,126128,2,0,P|478:209|485:272,1,120,2|0,0:0|0:0,0:0:0:0:
415,260,126583,2,0,P|401:323|367:356,1,80,2|0,0:0|0:0,0:0:0:0:
271,187,127037,6,0,P|274:147|292:111,1,80,2|0,0:0|0:0,0:0:0:0:
253,45,127378,2,0,L|152:37,1,80,2|0,0:0|0:0,0:0:0:0:
132,97,127719,2,0,L|73:107,1,40,2|0,0:0|0:0,0:0:0:0:
23,132,127946,2,0,P|65:133|121:175,1,80,2|0,0:0|0:0,0:0:0:0:
75,278,128401,2,0,P|35:278|0:261,1,80,2|0,0:0|0:0,0:0:0:0:
256,288,128855,5,2,0:0:0:0:
297,142,129083,1,0,0:0:0:0:
297,142,129196,1,0,0:0:0:0:
196,94,129423,1,0,0:0:0:0:
196,94,129537,1,2,0:0:0:0:
383,37,129764,6,0,P|414:81|465:103,1,80,2|0,0:0|0:0,0:0:0:0:
457,104,130105,1,0,0:0:0:0:
402,229,130333,1,0,0:0:0:0:
402,229,130446,1,2,0:0:0:0:
338,129,130673,6,0,P|297:148|271:183,1,80,2|0,0:0|0:0,0:0:0:0:
266,196,131015,1,0,0:0:0:0:
286,334,131242,1,0,0:0:0:0:
286,334,131355,1,2,0:0:0:0:
54,293,131583,6,0,P|53:253|38:176,1,80,2|0,0:0|0:0,0:0:0:0:
120,350,132037,1,2,0:0:0:0:
184,208,132264,2,0,P|183:189|184:169,1,40,2|2,0:0|0:0,0:0:0:0:
112,157,132492,6,0,P|114:120|113:76,1,80,4|0,1:0|0:0,0:0:0:0:
256,104,132946,2,0,P|255:143|258:183,1,80,2|0,0:0|0:0,0:0:0:0:
332,252,133401,2,0,P|370:242|405:223,1,80,2|0,0:0|0:0,0:0:0:0:
432,120,133855,2,0,P|427:101|424:72,2,40,2|0|2,0:0|0:0|0:0,0:0:0:0:
484,264,134310,6,0,P|476:304|460:340,1,80,2|0,0:0|0:0,0:0:0:0:
344,348,134764,2,0,L|264:324,1,80,2|2,0:0|0:0,0:0:0:0:
160,360,135219,2,0,L|72:372,1,80,2|0,0:0|0:0,0:0:0:0:
9,277,135673,2,0,L|24:240,2,40,2|0|2,0:0|0:0|0:0,0:0:0:0:
164,244,136128,6,0,P|160:204|148:156,1,80,2|0,0:0|0:0,0:0:0:0:
239,187,136583,2,0,P|239:148|246:108,1,80,2|0,0:0|0:0,0:0:0:0:
127,191,137037,2,0,P|113:154|91:121,1,80,2|0,0:0|0:0,0:0:0:0:
212,28,137492,1,2,0:0:0:0:
212,28,137719,1,2,0:0:0:0:
308,132,137946,6,0,P|350:124|396:108,1,80,2|0,0:0|0:0,0:0:0:0:
312,236,138401,2,0,P|352:240|412:236,1,80,2|0,0:0|0:0,0:0:0:0:
284,332,138855,2,0,P|320:347|365:356,1,80,2|0,0:0|0:0,0:0:0:0:
148,352,139310,1,2,0:0:0:0:
148,328,139423,1,0,0:0:0:0:
152,304,139537,1,2,0:0:0:0:
152,280,139651,1,0,0:0:0:0:
122,259,139764,6,0,P|119:223|120:146,1,80,2|0,0:0|0:0,0:0:0:0:
207,215,140219,2,0,P|224:177|259:131,1,80,2|0,0:0|0:0,0:0:0:0:
318,46,140673,2,0,P|268:67|211:64,1,80,2|0,0:0|0:0,0:0:0:0:
137,23,141128,2,0,P|120:23|72:36,2,40,2|0|2,0:0|0:0|0:0,0:0:0:0:
228,176,141583,6,0,P|276:184|324:180,1,80,2|0,0:0|0:0,0:0:0:0:
426,67,142037,2,0,P|465:95|500:152,1,80,2|2,0:0|0:0,0:0:0:0:
394,162,142492,2,0,P|401:203|387:266,1,80,2|0,0:0|0:0,0:0:0:0:
262,261,142946,2,0,P|260:284|264:306,2,40,2|0|2,0:0|0:0|0:0,0:0:0:0:
135,277,143401,6,0,P|98:263|59:259,1,80,2|0,0:0|0:0,0:0:0:0:
96,184,143855,2,0,P|89:145|88:105,1,80,2|0,0:0|0:0,0:0:0:0:
165,141,144310,2,0,P|198:121|237:113,1,80,2|0,0:0|0:0,0:0:0:0:
290,190,144764,1,2,0:0:0:0:
363,53,144992,1,2,0:0:0:0:
425,201,145219,6,0,P|452:231|511:253,1,80,2|0,0:0|0:0,0:0:0:0:
378,267,145673,2,0,P|340:295|314:340,1,80,2|0,0:0|0:0,0:0:0:0:
102,280,146128,1,2,0:0:0:0:
115,313,146242,2,0,P|153:315|213:286,1,80,0|2,1:0|0:0,0:0:0:0:
242,244,146583,2,0,L|237:176,3,40,0|0|2|0,1:0|1:0|1:2|1:0,0:0:0:0:
311,196,147037,6,0,P|312:157|320:117,1,80,4|0,1:0|0:0,0:0:0:0:
384,328,147492,1,8,0:0:0:0:
412,228,147719,1,0,0:0:0:0:
283,300,147946,2,0,P|244:301|205:293,1,80,2|0,0:0|0:0,0:0:0:0:
68,352,148401,2,0,L|36:376,2,40,8|0|0,0:0|0:0|0:0,0:0:0:0:
140,260,148855,6,0,P|128:184|88:104,1,160,2|8,0:0|0:0,0:0:0:0:
196,32,149537,1,0,0:0:0:0:
268,104,149764,2,0,L|256:204,1,80,2|0,0:0|0:0,0:0:0:0:
357,111,150219,2,0,L|348:32,1,80,8|0,0:0|0:0,0:0:0:0:
480,152,150673,5,2,0:0:0:0:
456,16,150901,1,0,0:0:0:0:
396,184,151128,2,0,P|418:216|452:236,1,80,8|0,0:0|0:0,0:0:0:0:
304,196,151583,2,0,P|264:192|226:203,1,80,2|0,0:0|0:0,0:0:0:0:
244,340,152037,2,0,P|283:343|321:332,1,80,8|0,0:0|0:0,0:0:0:0:
468,343,152492,6,0,P|481:306|481:266,1,80,2|0,0:0|0:0,0:0:0:0:
512,251,152833,2,0,P|504:212|483:179,1,80,0|0,0:0|0:0,0:0:0:0:
496,144,153173,2,0,P|461:124|422:118,1,80,0|2,0:0|0:0,0:0:0:0:
344,188,153628,1,0,0:0:0:0:
368,40,153855,1,8,0:0:0:0:
367,39,153969,2,0,P|328:40|289:51,1,80,0|0,0:0|0:0,0:0:0:0:
249,112,154310,6,0,P|256:154|258:222,1,80,2|0,0:0|0:0,0:0:0:0:
322,306,154764,2,0,P|320:271|323:227,1,80,8|0,0:0|0:0,0:0:0:0:
256,357,155219,2,0,P|208:361|153:352,1,80,2|0,0:0|0:0,0:0:0:0:
33,316,155673,1,8,0:0:0:0:
139,249,155901,1,0,0:0:0:0:
68,183,156128,6,0,P|67:148|63:94,1,80,2|0,0:0|0:0,0:0:0:0:
139,249,156583,2,0,P|142:206|152:146,1,80,8|0,0:0|0:0,0:0:0:0:
207,129,156923,1,2,1:2:0:0:
207,129,157037,2,0,P|262:134|335:105,1,120,2|0,0:0|0:0,0:0:0:0:
353,141,157492,2,0,P|381:126|434:115,1,80,8|0,0:0|0:0,0:0:0:0:
418,212,157946,6,0,P|456:219|495:249,1,80,2|0,0:0|0:0,0:0:0:0:
335,261,158401,1,8,0:0:0:0:
417,346,158628,1,0,0:0:0:0:
242,333,158855,2,0,P|206:345|157:335,1,80,2|0,0:0|0:0,0:0:0:0:
16,262,159310,1,8,0:0:0:0:
159,184,159537,1,0,0:0:0:0:
159,184,159764,6,0,L|163:264,1,80,2|0,0:0|0:0,0:0:0:0:
239,178,160219,2,0,L|239:95,1,80,8|0,0:0|0:0,0:0:0:0:
29,61,160673,5,0,1:0:0:0:
61,77,160787,1,0,1:0:0:0:
96,83,160901,1,0,1:0:0:0:
131,79,161014,1,0,1:0:0:0:
166,70,161128,2,0,L|171:15,1,40,8|0,0:0|1:0,0:0:0:0:
239,98,161355,2,0,L|237:137,1,40,0|0,1:0|0:0,0:0:0:0:
232,210,161583,5,4,1:0:0:0:
208,216,168855,5,4,1:0:0:0:
200,340,169083,1,0,0:0:0:0:
200,340,169196,2,0,L|121:326,1,80,0|0,0:0|0:0,0:0:0:0:
121,326,169537,1,2,0:0:0:0:
296,276,169764,1,2,0:0:0:0:
372,140,169992,1,0,0:0:0:0:
372,140,170105,2,0,L|294:153,1,80,0|0,0:0|0:0,0:0:0:0:
294,153,170446,1,2,0:0:0:0:
456,188,170673,6,0,P|475:245|474:305,2,120,2|0|0,0:0|0:0|0:0,0:0:0:0:
452,88,171583,2,0,P|448:48|458:9,1,80,2|0,0:0|0:0,0:0:0:0:
320,88,172037,1,0,0:0:0:0:
320,88,172492,5,2,0:0:0:0:
288,168,172719,1,0,0:0:0:0:
288,168,172833,1,0,0:0:0:0:
240,52,173060,1,0,0:0:0:0:
240,52,173173,1,2,0:0:0:0:
208,132,173401,2,0,P|204:176|220:224,1,80,2|0,0:0|0:0,0:0:0:0:
212,210,173742,2,0,P|223:247|218:287,1,80,0|0,0:0|0:0,0:0:0:0:
218,287,174083,1,2,0:0:0:0:
343,136,174310,6,0,P|332:174|335:213,1,80,2|0,0:0|0:0,0:0:0:0:
335,213,174651,2,0,P|379:251|438:257,1,120,0|2,0:0|0:0,0:0:0:0:
496,296,175105,1,0,0:0:0:0:
496,296,175219,2,0,P|494:315|494:335,1,40,0|2,1:0|1:2,0:0:0:0:
368,344,175560,1,2,1:2:0:0:
232,312,175787,1,2,1:2:0:0:
232,312,175901,1,0,0:0:0:0:
72,197,176128,6,0,P|72:247|82:313,1,80,4|0,1:0|0:0,0:0:0:0:
64,320,176469,2,0,P|99:307|139:314,1,80
164,344,176810,1,2,0:0:0:0:
236,252,177037,2,0,P|237:214|229:168,1,80,2|0,0:0|0:0,0:0:0:0:
189,154,177378,2,0,P|146:155|109:139,1,80
100,116,177719,1,2,0:0:0:0:
242,31,177946,6,0,P|280:28|347:39,1,80,2|0,0:0|0:0,0:0:0:0:
326,70,178287,2,0,P|383:71|474:89,1,120,0|2,0:0|0:0,0:0:0:0:
245,158,178855,2,0,P|242:203|255:249,1,80,2|0,0:0|0:0,0:0:0:0:
364,289,179310,2,0,P|368:318|363:342,2,40,2|0|0,0:0|0:0|0:0,0:0:0:0:
500,207,179764,6,0,P|465:202|399:215,1,80,2|0,0:0|0:0,0:0:0:0:
398,215,180105,1,0,0:0:0:0:
288,352,180333,1,0,0:0:0:0:
288,352,180446,1,2,0:0:0:0:
165,258,180673,2,0,P|129:264|79:264,1,80,2|0,0:0|0:0,0:0:0:0:
58,262,181014,1,0,0:0:0:0:
204,195,181242,1,0,0:0:0:0:
204,195,181355,1,2,0:0:0:0:
66,109,181583,6,0,P|106:108|164:115,1,80,2|0,0:0|0:0,0:0:0:0:
132,64,181923,2,0,P|191:69|259:61,1,120,0|2,0:0|0:0,0:0:0:0:
326,154,182492,2,0,P|367:141|436:155,1,80,2|0,0:0|0:0,0:0:0:0:
511,283,182946,2,0,P|470:296|401:282,1,80,2|0,0:0|0:0,0:0:0:0:
311,351,183401,6,0,P|273:343|232:344,1,80,2|0,0:0|0:0,0:0:0:0:
208,360,183742,1,0,0:0:0:0:
96,328,183969,1,0,0:0:0:0:
96,328,184083,1,2,0:0:0:0:
244,224,184310,2,0,P|248:192|244:144,1,80,2|0,0:0|0:0,0:0:0:0:
272,131,184651,2,0,P|279:92|276:53,1,80,0|0,0:0|0:0,0:0:0:0:
308,32,184992,1,2,0:0:0:0:
155,71,185219,6,0,P|116:70|76:63,1,80,2|0,0:0|0:0,0:0:0:0:
44,104,185560,2,0,P|44:164|40:228,1,120,0|2,0:0|0:0,0:0:0:0:
184,272,186128,1,2,0:0:0:0:
84,288,186355,1,0,0:0:0:0:
228,188,186583,2,0,P|256:215|271:252,1,80,2|0,0:0|0:0,0:0:0:0:
400,240,187037,5,2,0:0:0:0:
476,160,187264,1,0,0:0:0:0:
476,160,187378,1,0,0:0:0:0:
432,56,187605,1,0,0:0:0:0:
432,56,187719,1,2,0:0:0:0:
300,192,187946,1,2,0:0:0:0:
316,84,188173,1,0,0:0:0:0:
315,84,188287,2,0,P|276:81|236:73,1,80,0|0,0:0|0:0,0:0:0:0:
236,73,188628,1,2,0:0:0:0:
60,208,188855,6,0,P|99:210|139:206,1,80,2|0,0:0|0:0,0:0:0:0:
184,224,189196,2,0,P|186:296|184:364,1,120,0|2,0:0|0:0,0:0:0:0:
332,220,189764,2,0,L|329:259,1,40,0|2,1:0|0:0,0:0:0:0:
404,240,189992,2,0,L|400:279,1,40,0|2,1:0|0:0,0:0:0:0:
388,167,190219,2,0,P|400:130|399:90,1,80,0|0,1:0|1:0,0:0:0:0:
337,37,190560,1,0,1:0:0:0:
329,59,190673,6,0,P|282:67|235:61,1,95.9999970703126,4|0,1:0|0:0,0:0:0:0:
75,34,191128,2,0,P|118:25|156:31,1,80,2|0,0:0|0:0,0:0:0:0:
179,208,191583,2,0,P|143:222|49:203,1,120,2|0,0:0|0:0,0:0:0:0:
17,160,192037,2,0,P|35:211|22:273,1,80,2|0,0:0|0:0,0:0:0:0:
6,351,192492,6,0,P|47:346|116:348,1,80,2|0,0:0|0:0,0:0:0:0:
120,288,192833,2,0,P|158:299|198:303,1,80,2|0,0:0|0:0,0:0:0:0:
252,358,193173,2,0,L|293:354,1,40,2|0,0:0|0:0,0:0:0:0:
350,278,193401,2,0,L|270:286,1,80,2|0,0:0|0:0,0:0:0:0:
427,342,193855,2,0,P|454:314|460:275,1,80,2|0,0:0|0:0,0:0:0:0:
354,67,194310,6,0,P|324:107|328:162,1,80,2|0,0:0|0:0,0:0:0:0:
332,164,194651,1,0,0:0:0:0:
458,146,194878,1,0,0:0:0:0:
458,146,194992,1,2,0:0:0:0:
345,308,195219,6,0,L|348:382,2,40,2|0|0,0:0|0:0|0:0,0:0:0:0:
293,254,195560,2,0,P|248:255|189:287,1,80
199,292,195901,1,2,0:0:0:0:
25,242,196128,6,0,P|57:246|111:226,1,80,2|0,0:0|0:0,0:0:0:0:
71,162,196469,2,0,P|94:127|100:79,1,80
128,67,196810,1,2,0:0:0:0:
279,156,197037,5,2,0:0:0:0:
309,25,197264,1,0,0:0:0:0:
478,79,197492,1,2,0:0:0:0:
380,188,197719,2,0,P|378:226|383:256,1,40,2|2,0:0|0:0,0:0:0:0:
448,244,197946,6,0,P|448:291|454:339,1,95.9999970703126,2|0,0:0|0:0,0:0:0:0:
260,256,198401,2,0,P|260:216|252:176,1,80,2|0,0:0|0:0,0:0:0:0:
144,352,198855,2,0,P|85:339|38:299,1,120,2|0,0:0|0:0,0:0:0:0:
16,232,199310,2,0,P|21:192|36:155,1,80,2|0,0:0|0:0,0:0:0:0:
168,56,199764,6,0,P|207:56|246:46,1,80,2|0,0:0|0:0,0:0:0:0:
308,96,200105,2,0,L|304:188,1,80,2|0,0:0|0:0,0:0:0:0:
380,156,200446,2,0,L|382:115,1,40,2|0,0:0|0:0,0:0:0:0:
456,184,200673,1,2,0:0:0:0:
512,40,200901,1,0,0:0:0:0:
512,244,201128,2,0,L|508:348,1,80,2|0,0:0|0:0,0:0:0:0:
360,344,201583,5,2,0:0:0:0:
256,268,201810,1,0,0:0:0:0:
256,268,201923,1,0,0:0:0:0:
288,144,202151,1,0,0:0:0:0:
288,144,202264,1,2,0:0:0:0:
360,240,202492,5,2,0:0:0:0:
200,200,202719,1,0,0:0:0:0:
200,200,202833,1,0,0:0:0:0:
136,332,203060,1,0,0:0:0:0:
136,332,203173,1,2,0:0:0:0:
48,200,203401,5,2,0:0:0:0:
92,60,203628,1,0,0:0:0:0:
92,60,203742,2,0,P|130:59|180:52,1,80,0|0,0:0|0:0,0:0:0:0:
200,24,204083,1,2,0:0:0:0:
316,156,204310,5,2,0:0:0:0:
324,28,204537,1,0,0:0:0:0:
192,144,204764,1,2,0:0:0:0:
200,168,204878,1,0,0:0:0:0:
204,196,204992,2,0,L|196:256,1,40,2|2,0:0|0:0,0:0:0:0:
276,256,205219,6,0,P|281:303|290:350,1,95.9999970703126,2|0,0:0|0:0,0:0:0:0:
360,224,205673,2,0,P|361:184|368:144,1,80,2|0,0:0|0:0,0:0:0:0:
482,227,206128,2,0,P|488:168|501:109,1,120,2|0,0:0|0:0,0:0:0:0:
476,43,206583,2,0,P|421:53|372:48,1,80,2|0,0:0|0:0,0:0:0:0:
243,23,207037,6,0,P|203:23|157:33,1,80,2|0,0:0|0:0,0:0:0:0:
225,100,207378,2,0,P|209:138|222:204,1,80,2|0,0:0|0:0,0:0:0:0:
261,229,207719,2,0,P|287:243|335:250,1,40,2|0,0:0|0:0,0:0:0:0:
219,292,207946,2,0,P|201:310|144:320,1,80,2|0,0:0|0:0,0:0:0:0:
19,239,208401,2,0,P|55:214|93:210,1,80,2|0,0:0|0:0,0:0:0:0:
301,266,208855,6,0,P|340:277|406:265,1,80,2|0,0:0|0:0,0:0:0:0:
379,274,209196,1,0,0:0:0:0:
452,147,209423,1,0,0:0:0:0:
452,147,209537,1,2,0:0:0:0:
485,317,209764,5,2,0:0:0:0:
333,201,209992,1,0,0:0:0:0:
333,201,210105,1,0,0:0:0:0:
446,68,210333,1,0,0:0:0:0:
446,68,210446,1,2,0:0:0:0:
249,112,210673,6,0,P|210:92|166:44,1,80,2|0,0:0|0:0,0:0:0:0:
162,118,211014,2,0,P|128:124|70:160,1,80,0|0,0:0|0:0,0:0:0:0:
40,156,211355,1,2,0:0:0:0:
139,355,211583,1,2,0:0:0:0:
15,268,211810,1,0,0:0:0:0:
157,210,212037,1,2,0:0:0:0:
324,318,212264,6,0,P|320:299|321:265,1,40,2|2,0:0|0:0,0:0:0:0:
240,304,212492,2,0,P|241:256|229:209,1,95.9999970703126,2|0,0:0|0:0,0:0:0:0:
320,116,212946,2,0,P|345:85|381:67,1,80,2|0,0:0|0:0,0:0:0:0:
188,88,213401,2,0,P|132:56|60:52,1,120,2|0,0:0|0:0,0:0:0:0:
16,88,213855,2,0,P|18:127|16:167,1,80,2|0,0:0|0:0,0:0:0:0:
116,300,214310,6,0,P|154:287|204:284,1,80,2|0,0:0|0:0,0:0:0:0:
268,292,214651,2,0,P|280:256|280:212,1,80,2|0,0:0|0:0,0:0:0:0:
351,216,214992,2,0,P|352:235|356:255,1,40,2|0,0:0|0:0,0:0:0:0:
352,148,215219,1,2,0:0:0:0:
476,188,215446,1,0,0:0:0:0:
283,103,215673,2,0,P|279:64|283:24,1,80,2|0,0:0|0:0,0:0:0:0:
120,128,216128,5,2,0:0:0:0:
156,20,216355,1,0,0:0:0:0:
156,20,216469,1,0,0:0:0:0:
224,192,216696,1,0,0:0:0:0:
224,192,216810,1,2,0:0:0:0:
352,120,217037,5,2,0:0:0:0:
172,92,217264,1,0,0:0:0:0:
172,92,217378,2,0,L|92:101,1,80,0|0,0:0|0:0,0:0:0:0:
92,101,217719,1,2,0:0:0:0:
76,236,217946,5,2,0:0:0:0:
264,160,218173,1,0,0:0:0:0:
264,160,218287,2,0,L|343:169,1,80,0|0,0:0|0:0,0:0:0:0:
344,169,218628,1,2,0:0:0:0:
205,265,218855,2,0,P|214:304|231:339,1,80,2|0,0:0|0:0,0:0:0:0:
328,344,219310,1,2,0:0:0:0:
120,304,219537,2,0,P|119:285|121:264,1,40,2|2,0:0|0:0,0:0:0:0:
77,208,219764,6,0,P|74:161|63:119,1,80,2|0,0:0|0:0,0:0:0:0:
126,76,220219,2,0,L|124:25,2,40,2|0|2,0:0|0:0|0:0,0:0:0:0:
200,157,220673,2,0,P|206:114|216:76,1,80,2|0,0:0|0:0,0:0:0:0:
292,210,221127,2,0,P|318:211|345:205,2,40,2|0|2,0:0|0:0|0:0,0:0:0:0:
326,302,221583,6,0,P|287:319|253:355,1,80,2|0,0:0|0:0,0:0:0:0:
125,302,222037,2,0,P|87:276|62:230,1,80,2|2,0:0|0:0,0:0:0:0:
186,170,222492,2,0,P|215:138|232:92,1,80,2|0,0:0|0:0,0:0:0:0:
105,72,222946,2,0,P|85:54|68:19,2,40,2|0|2,0:0|0:0|0:0,0:0:0:0:
77,184,223401,6,0,P|34:181|-9:196,1,80,2|0,0:0|0:0,0:0:0:0:
107,256,223855,2,0,P|150:260|192:245,1,80,2|0,0:0|0:0,0:0:0:0:
314,292,224310,2,0,P|278:290|230:307,1,80,2|0,0:0|0:0,0:0:0:0:
379,345,224764,1,2,0:0:0:0:
448,218,224992,1,2,0:0:0:0:
304,218,225219,6,0,P|296:178|298:136,1,80,2|0,0:0|0:0,0:0:0:0:
423,40,225673,2,0,P|430:79|429:122,1,80,2|0,0:0|0:0,0:0:0:0:
298,17,226128,2,0,P|253:13|193:24,1,80,2|0,0:0|0:0,0:0:0:0:
96,76,226583,1,2,0:0:0:0:
98,96,226696,1,0,0:0:0:0:
101,116,226810,1,2,0:0:0:0:
104,136,226923,1,0,0:0:0:0:
128,156,227037,6,0,P|144:200|144:236,1,80,2|0,0:0|0:0,0:0:0:0:
256,248,227492,2,0,L|296:228,2,40,2|0|2,0:0|0:0|0:0,0:0:0:0:
236,112,227946,2,0,P|233:72|236:32,1,80,2|0,0:0|0:0,0:0:0:0:
344,16,228401,2,0,L|392:8,2,40,2|0|2,0:0|0:0|0:0,0:0:0:0:
452,64,228855,6,0,P|457:103|456:143,1,80,2|0,0:0|0:0,0:0:0:0:
504,256,229310,1,2,0:0:0:0:
368,208,229537,2,0,P|296:198|227:258,1,160,2|0,0:0|0:0,0:0:0:0:
284,356,230219,2,0,P|303:358|323:358,2,40,2|0|2,0:0|0:0|0:0,0:0:0:0:
147,331,230673,6,0,P|108:332|68:340,1,80,2|0,0:0|0:0,0:0:0:0:
24,216,231128,2,0,P|63:216|104:224,1,80,2|0,0:0|0:0,0:0:0:0:
164,92,231583,2,0,P|124:95|84:104,1,80,2|0,0:0|0:0,0:0:0:0:
236,160,232037,1,2,0:0:0:0:
236,160,232264,1,2,0:0:0:0:
356,148,232492,6,0,L|348:60,1,80,2|0,0:0|0:0,0:0:0:0:
436,224,232946,2,0,L|440:136,1,80,2|0,0:0|0:0,0:0:0:0:
347,279,233401,2,0,P|304:240|245:234,1,120,2|0,0:0|0:0,0:0:0:0:
208,244,233855,1,2,1:2:0:0:
200,208,233969,1,0,1:2:0:0:
192,172,234083,1,2,1:2:0:0:
184,136,234196,1,0,1:2:0:0:
176,100,234310,5,4,1:0:0:0:
