osu file format v14

[General]
AudioFilename: demo.mp3
AudioLeadIn: 0
PreviewTime: 82314
Countdown: 0
SampleSet: Soft
StackLeniency: 0.7
Mode: 0
LetterboxInBreaks: 0
WidescreenStoryboard: 1

[Editor]
Bookmarks: 13514,26314,39114,51914,64714,82314,95114,107914,120714
DistanceSpacing: 1.1
BeatDivisor: 4
GridSize: 4
TimelineZoom: 1.2

[Metadata]
Title:Tobidase! Bankikki(Casual Killer remix)
TitleUnicode:とびだせ!バンキッキ(Casual Killer remix)
Artist:nachi
ArtistUnicode:nachi
Creator:TicClick
Version:Easy Collab
Source:東方輝針城 ~ Double Dealing Character.
Tags:onomatopoeia Kyubey 坂上なち Sakaue Nachi Shibayan ShibayanRecords sekibanki 赤蛮奇 せきばんき Dullahan Under the Willows stage 2 RETRO FUTURE GIRLS c85 Kishinjou Touhou Project 東方Project th14 fuwa-fuwa fuwari collaboration
BeatmapID:1014478
BeatmapSetID:474862

[Difficulty]
HPDrainRate:2
CircleSize:3
OverallDifficulty:2
ApproachRate:3
SliderMultiplier:0.6
SliderTickRate:2

[Events]
//Background and Video events
0,0,"ads.jpg",0,0
//Break Periods
//Storyboard Layer 0 (Background)
//Storyboard Layer 1 (Fail)
//Storyboard Layer 2 (Pass)
//Storyboard Layer 3 (Foreground)
//Storyboard Sound Samples

[TimingPoints]
714,400,4,2,1,40,1,0
13514,-100,4,2,1,20,0,0
26314,-100,4,2,1,25,0,0
51914,-100,4,2,1,30,0,0
64714,-100,4,1,1,30,0,0
71114,-100,4,1,1,35,0,0
74314,-100,4,1,1,52,0,0
74414,-100,4,1,1,53,0,0
74514,-100,4,1,1,54,0,0
74614,-100,4,1,1,55,0,0
74714,-100,4,1,1,56,0,0
74814,-100,4,1,1,57,0,0
74914,-100,4,1,1,58,0,0
75014,-100,4,1,1,59,0,0
75114,-100,4,1,1,60,0,0
75214,-100,4,1,1,61,0,0
75314,-100,4,1,1,62,0,0
75414,-100,4,1,1,63,0,0
75514,-100,4,1,1,64,0,0
75614,-100,4,1,1,65,0,0
75714,-100,4,1,1,66,0,0
75814,-100,4,1,1,67,0,0
75914,-100,4,1,1,68,0,0
76014,-100,4,1,1,69,0,0
76114,-100,4,1,1,70,0,0
76214,-100,4,1,1,71,0,0
76314,-100,4,1,1,72,0,0
76414,-100,4,1,1,73,0,0
76514,-100,4,1,1,74,0,0
76614,-100,4,1,1,75,0,0
76714,-100,4,2,1,40,0,0
77514,400,3,2,1,40,1,0
82314,400,4,1,1,40,1,0
107914,-100,4,1,1,30,0,0
114314,-100,4,1,1,30,0,0
117514,-100,4,1,1,52,0,0
117614,-100,4,1,1,53,0,0
117714,-100,4,1,1,54,0,0
117814,-100,4,1,1,55,0,0
117914,-100,4,1,1,56,0,0
118014,-100,4,1,1,57,0,0
118114,-100,4,1,1,58,0,0
118214,-100,4,1,1,59,0,0
118314,-100,4,1,1,60,0,0
118414,-100,4,1,1,61,0,0
118514,-100,4,1,1,62,0,0
118614,-100,4,1,1,63,0,0
118714,-100,4,1,1,64,0,0
118814,-100,4,1,1,65,0,0
118914,-100,4,1,1,66,0,0
119014,-100,4,1,1,67,0,0
119114,-100,4,1,1,68,0,0
119214,-100,4,1,1,69,0,0
119314,-100,4,1,1,70,0,0
119414,-100,4,1,1,71,0,0
119514,-100,4,1,1,72,0,0
119614,-100,4,1,1,73,0,0
119714,-100,4,1,1,74,0,0
119814,-100,4,1,1,75,0,0
119914,-100,3,2,1,40,0,0
120714,400,3,2,1,40,1,0

[Colours]
Combo1 : 101,119,243
Combo2 : 72,191,168
Combo3 : 83,158,234
Combo4 : 207,71,112

[HitObjects]
48,320,13514,6,0,P|107:328|163:307,1,120,2|2,0:0|0:0,0:0:0:0:
328,336,15114,2,0,P|308:279|316:220,1,120,2|2,0:0|0:0,0:0:0:0:
308,52,16714,6,0,P|248:43|192:64,1,120,2|2,0:0|0:0,0:0:0:0:
24,60,18314,2,0,P|43:116|35:175,1,120,2|2,0:0|0:0,0:0:0:0:
200,216,19914,6,0,P|260:212|312:183,1,120,2|2,0:0|0:0,0:0:0:0:
480,180,21514,2,0,P|467:238|478:296,1,120,2|2,0:0|0:0,0:0:0:0:
312,324,23114,6,0,P|128:276|268:120,1,480,2|2,0:0|0:0,0:0:0:0:
432,88,27114,5,0,0:0:0:0:
376,248,27914,2,0,P|330:245|284:248,1,90,2|2,0:0|0:0,0:0:0:0:
172,300,29114,1,2,0:0:0:0:
116,240,29514,6,0,P|104:180|128:116,1,120,2|2,0:0|0:0,0:0:0:0:
288,104,31114,2,0,P|325:107|384:100,2,90,2|2|0,0:0|0:0|0:0,0:0:0:0:
208,72,32714,6,0,P|148:60|84:76,1,120,2|2,0:0|0:0,0:0:0:0:
48,236,34314,2,0,L|56:336,1,90,2|2,0:0|0:0,0:0:0:0:
176,360,35514,1,2,0:0:0:0:
248,316,35914,6,0,P|305:308|380:320,1,120,2|2,0:0|0:0,0:0:0:0:
492,204,37514,2,0,P|500:164|488:104,1,90,2|2,0:0|0:0,0:0:0:0:
400,28,38714,1,2,0:0:0:0:
332,76,39114,6,0,P|275:78|205:58,1,120,0|2,0:0|0:0,0:0:0:0:
272,220,40714,2,0,P|316:209|364:212,1,90,2|2,0:0|0:0,0:0:0:0:
424,320,41914,1,2,0:0:0:0:
360,376,42314,6,0,P|299:377|241:361,1,120,2|2,0:0|0:0,0:0:0:0:
88,312,43914,2,0,P|44:313|1:328,2,90,2|2|2,0:0|0:0|0:0,0:0:0:0:
156,260,45514,6,0,P|160:204|152:140,1,120,2|2,0:0|0:0,0:0:0:0:
304,68,47114,2,0,P|300:112|303:157,1,90,2|2,0:0|0:0,0:0:0:0:
288,284,48314,1,2,0:0:0:0:
220,332,48714,6,0,P|163:324|96:328,1,120,2|2,0:0|0:0,0:0:0:0:
32,280,49914,1,2,0:0:0:0:
104,236,50314,2,0,P|107:198|100:140,2,90,2|2|2,0:0|0:0|0:0,0:0:0:0:
144,312,51914,6,0,P|204:320|268:308,1,120,8|10,0:0|0:0,0:0:0:0:
320,252,53114,1,10,0:0:0:0:
404,268,53514,2,0,P|412:208|400:144,1,120,10|10,0:0|0:0,0:0:0:0:
330,105,54714,1,10,0:0:0:0:
248,124,55114,5,10,0:0:0:0:
100,48,55914,1,10,0:0:0:0:
32,200,56714,2,0,P|40:260|36:324,1,120,10|10,0:0|0:0,0:0:0:0:
204,344,58314,6,0,P|263:331|328:336,1,120,10|10,0:0|0:0,0:0:0:0:
364,264,59514,1,10,0:0:0:0:
300,212,59914,2,0,P|288:152|304:88,1,120,10|10,0:0|0:0,0:0:0:0:
384,104,61114,1,10,0:2:0:0:
456,56,61514,5,8,0:0:0:0:
292,20,62314,1,10,0:0:0:0:
132,68,63114,2,0,L|116:128,1,60,10|10,0:0|0:0,0:0:0:0:
148,204,63914,2,0,L|132:264,1,60,10|10,0:0|0:0,0:0:0:0:
164,340,64714,6,0,P|221:321|285:319,1,120,10|8,3:2|3:2,0:0:0:0:
356,360,65914,1,10,3:2:0:0:
428,316,66314,2,0,P|436:284|437:253,1,60,10|8,3:2|3:2,0:0:0:0:
372,200,67114,2,0,P|372:172|384:139,1,60,10|8,3:2|3:2,0:0:0:0:
420,68,67914,6,0,P|466:69|515:61,2,90,10|10|10,3:2|3:2|3:2,0:0:0:0:
344,36,69514,2,0,P|313:33|278:37,1,60,8|10,3:2|3:2,0:0:0:0:
200,28,70314,1,10,3:2:0:0:
192,112,70714,1,10,3:2:0:0:
276,120,71114,6,0,P|301:172|285:230,1,120,10|10,3:2|3:2,0:0:0:0:
220,180,72314,1,10,3:2:0:0:
164,240,72714,2,0,P|138:187|155:130,1,120,10|8,3:2|3:2,0:0:0:0:
212,72,73914,1,10,3:2:0:0:
256,192,74314,12,2,76714,0:2:0:0:
52,72,78714,6,0,B|108:20|180:56|184:120|184:120|212:60|256:76|300:60|328:120|328:120|332:56|404:20|460:72,1,540,2|0,0:0|3:2,0:0:0:0:
484,152,82714,5,8,0:2:0:0:
464,232,83114,2,0,P|426:230|392:236,1,60,2|8,0:2|0:2,0:0:0:0:
368,308,83914,2,0,P|312:324|248:304,1,120,0|2,3:2|0:2,0:0:0:0:
208,236,85114,1,8,0:2:0:0:
132,268,85514,6,0,L|64:252,1,60,0|8,3:2|0:2,0:0:0:0:
36,180,86314,2,0,L|49:121,1,60,2|8,0:2|0:2,0:0:0:0:
120,76,87114,2,0,B|167:86|167:86|187:80|187:80|247:92,1,120,0|2,3:2|0:2,0:0:0:0:
308,132,88314,1,8,0:2:0:0:
384,96,88714,6,0,P|391:128|382:165,1,60,0|8,3:2|0:2,0:0:0:0:
328,212,89514,2,0,P|321:244|330:281,1,60,2|8,0:2|0:2,0:0:0:0:
384,328,90314,2,0,P|324:320|264:328,1,120,0|2,3:2|0:2,0:0:0:0:
184,348,91514,1,8,0:2:0:0:
108,312,91914,6,0,P|112:280|108:252,1,60,0|8,3:2|0:2,0:0:0:0:
88,172,92714,2,0,P|79:140|64:116,1,60,2|8,0:2|0:2,0:0:0:0:
12,52,93514,2,0,P|76:64|132:44,1,120,0|2,3:2|0:2,0:0:0:0:
208,24,94714,1,8,0:2:0:0:
272,80,95114,5,0,3:2:0:0:
260,164,95514,1,10,0:2:0:0:
248,248,95914,2,0,P|218:248|184:244,1,60,0|10,0:2|0:2,0:0:0:0:
128,304,96714,2,0,P|161:352|216:372,1,120,0|2,3:2|0:2,0:0:0:0:
292,336,97914,1,10,0:2:0:0:
376,348,98314,6,0,P|377:289|386:229,1,120,0|2,3:2|0:2,0:0:0:0:
468,204,99514,1,8,0:2:0:0:
440,124,99914,2,0,P|447:96|448:52,2,60,0|10|2,3:2|0:2|0:2,0:0:0:0:
361,152,101114,1,8,0:2:0:0:
275,143,101514,6,0,P|262:85|263:25,1,120,0|2,3:2|0:2,0:0:0:0:
180,24,102714,1,8,0:2:0:0:
175,108,103114,2,0,P|157:164|121:212,1,120,2|0,3:2|0:2,0:0:0:0:
40,240,104314,1,10,0:2:0:0:
100,300,104714,6,0,P|178:341|266:332,1,180,0|8,3:2|0:2,0:0:0:0:
328,276,106314,2,0,P|368:204|464:168,1,180,0|8,3:2|0:2,0:0:0:0:
484,92,107914,6,0,L|472:20,1,60,8|8,3:2|3:2,0:0:0:0:
396,68,108714,2,0,L|384:-4,1,60,8|8,3:2|3:2,0:0:0:0:
312,44,109514,2,0,P|252:52|192:40,1,120,8|10,3:2|3:2,0:0:0:0:
112,20,110714,1,10,3:2:0:0:
132,104,111114,6,0,P|136:136|132:176,1,60,10|8,3:2|3:2,0:0:0:0:
80,228,111914,2,0,P|76:260|80:300,1,60,10|8,3:2|3:2,0:0:0:0:
144,340,112714,2,0,P|200:320|256:336,1,120,8|10,3:2|3:2,0:0:0:0:
328,292,113914,1,8,3:2:0:0:
320,208,114314,6,0,P|339:152|320:96,1,120,10|10,3:2|3:2,0:0:0:0:
254,151,115514,1,8,3:2:0:0:
188,96,115914,2,0,P|168:151|191:210,1,120,10|8,3:2|3:2,0:0:0:0:
254,260,117114,1,10,3:2:0:0:
256,192,117514,12,2,119914,0:0:0:0:
