osu file format v14

[General]
AudioFilename: audio.mp3
AudioLeadIn: 0
PreviewTime: 9635
Countdown: 0
SampleSet: Soft
StackLeniency: 0.7
Mode: 3
LetterboxInBreaks: 0
SpecialStyle: 0
WidescreenStoryboard: 1

[Editor]
DistanceSpacing: 0.5
BeatDivisor: 4
GridSize: 4
TimelineZoom: 1

[Metadata]
Title:Tobidase! Bankikki(Casual Killer remix)
TitleUnicode:とびだせ!バンキッキ(Casual Killer remix)
Artist:nachi
ArtistUnicode:nachi
Creator:- myRumble -
Version:HD 4K
Source:東方輝針城 ~ Double Dealing Character.
Tags:
BeatmapID:1310973
BeatmapSetID:621749

[Difficulty]
HPDrainRate:8
CircleSize:4
OverallDifficulty:8
ApproachRate:5
SliderMultiplier:1.4
SliderTickRate:1

[Events]
//Background and Video events
0,0,"Sekibanki.full.1508105_waifu2x_art_noise3_scale_tta_1.png",0,0
//Break Periods
//Storyboard Layer 0 (Background)
//Storyboard Layer 1 (Fail)
//Storyboard Layer 2 (Pass)
//Storyboard Layer 3 (Foreground)
//Storyboard Sound Samples

[TimingPoints]
35,400,3,2,0,30,1,0
9635,400,4,2,0,30,1,0
9635,-100,4,2,0,30,0,1
47435,-100,4,2,0,30,0,0

[Colours]
Combo1 : 255,192,0
Combo2 : 0,202,0
Combo3 : 18,124,255
Combo4 : 242,24,57

[HitObjects]
320,192,35,5,0,0:0:0:0:
36,192,35,1,0,3:0:0:0:
329,192,335,1,0,0:0:0:0:
64,192,635,1,0,0:0:0:0:
320,192,835,1,0,0:0:0:0:
64,192,1035,1,0,0:0:0:0:
320,192,1235,128,0,1535:0:0:0:0:
64,192,1835,1,0,0:0:0:0:
192,192,2035,1,0,0:0:0:0:
320,192,2235,1,0,0:0:0:0:
448,192,2435,1,0,0:0:0:0:
182,192,2735,1,0,0:0:0:0:
329,192,3035,1,0,0:0:0:0:
182,192,3235,1,0,0:0:0:0:
329,192,3435,1,0,0:0:0:0:
182,192,3635,1,0,0:0:0:0:
182,192,3935,1,0,0:0:0:0:
182,192,4235,1,0,0:0:0:0:
329,192,4435,1,0,0:0:0:0:
36,192,4635,1,0,0:0:0:0:
182,192,4835,1,0,0:0:0:0:
64,192,5135,1,0,0:0:0:0:
320,192,5335,128,0,9635:2:0:0:0:
448,192,5435,1,0,0:0:0:0:
64,192,5635,1,0,0:0:0:0:
448,192,5835,1,0,0:0:0:0:
182,192,6035,1,0,0:0:0:0:
64,192,6335,1,0,0:0:0:0:
448,192,6635,1,0,0:0:0:0:
182,192,6835,1,0,0:0:0:0:
64,192,7035,1,0,0:0:0:0:
182,192,7235,1,0,0:0:0:0:
64,192,7535,1,0,0:0:0:0:
448,192,7835,1,0,0:0:0:0:
192,192,8035,1,0,0:0:0:0:
448,192,8235,1,0,0:0:0:0:
64,192,8435,1,0,0:0:0:0:
182,192,8735,1,0,0:0:0:0:
448,192,9035,1,0,0:0:0:0:
182,192,9235,1,0,0:0:0:0:
36,192,9435,1,0,0:0:0:0:
64,192,9635,128,0,11235:0:0:0:0:
192,192,9635,1,0,0:3:0:0:
475,192,9635,1,0,0:3:0:0:
320,192,10035,1,0,0:0:0:0:
192,192,10035,1,0,0:0:0:0:
475,192,10335,1,0,0:3:0:0:
329,192,10435,1,0,0:3:0:0:
475,192,10535,1,0,0:3:0:0:
329,192,10635,1,0,0:3:0:0:
320,192,10835,1,0,0:0:0:0:
192,192,10835,1,0,0:0:0:0:
448,192,11235,1,0,0:3:0:0:
320,192,11235,1,0,0:3:0:0:
192,192,11235,128,0,12835:0:0:0:0:
475,192,11635,1,0,0:0:0:0:
329,192,11635,1,0,0:0:0:0:
36,192,11935,1,0,0:3:0:0:
448,192,12035,1,0,0:3:0:0:
36,192,12135,1,0,0:3:0:0:
320,192,12235,1,0,0:3:0:0:
475,192,12435,1,0,0:0:0:0:
64,192,12435,1,0,0:0:0:0:
329,192,12835,1,0,0:3:0:0:
64,192,12835,1,0,0:3:0:0:
448,192,12835,128,0,16035:0:0:0:0:
320,192,13235,1,0,0:0:0:0:
109,192,13235,1,0,0:0:0:0:
329,192,13535,1,0,0:3:0:0:
192,192,13635,1,0,0:3:0:0:
329,192,13735,1,0,0:3:0:0:
192,192,13835,1,0,0:3:0:0:
109,192,14035,1,0,0:0:0:0:
320,192,14035,1,0,0:0:0:0:
109,192,14435,1,0,0:3:0:0:
320,192,14435,1,0,0:3:0:0:
192,192,14835,1,0,0:0:0:0:
256,192,14835,1,0,0:0:0:0:
64,192,15135,1,0,0:3:0:0:
320,192,15235,1,0,0:3:0:0:
36,192,15335,1,0,0:3:0:0:
320,192,15435,1,0,0:3:0:0:
64,192,15635,1,0,0:0:0:0:
320,192,15635,1,0,0:0:0:0:
320,192,16035,1,0,0:3:0:0:
192,192,16035,1,0,0:3:0:0:
109,192,16035,128,0,17635:0:0:0:0:
329,192,16435,1,0,0:0:0:0:
192,192,16435,1,0,0:0:0:0:
475,192,16735,1,0,0:3:0:0:
192,192,16835,1,0,0:3:0:0:
475,192,16935,1,0,0:3:0:0:
192,192,17035,1,0,0:3:0:0:
192,192,17235,1,0,0:0:0:0:
320,192,17235,1,0,0:0:0:0:
192,192,17635,1,0,0:3:0:0:
475,192,17635,1,0,0:3:0:0:
320,192,17635,128,0,19235:0:0:0:0:
192,192,18035,1,0,0:0:0:0:
64,192,18035,1,0,0:0:0:0:
36,192,18335,1,0,0:3:0:0:
448,192,18435,1,0,0:3:0:0:
192,192,18535,1,0,0:3:0:0:
448,192,18635,1,0,0:3:0:0:
192,192,18835,1,0,0:0:0:0:
64,192,18835,1,0,0:0:0:0:
182,192,19235,1,0,0:3:0:0:
448,192,19235,128,0,22435:0:0:0:0:
320,192,19635,1,0,0:0:0:0:
109,192,19635,1,0,0:0:0:0:
329,192,19935,1,0,0:3:0:0:
182,192,20035,1,0,0:3:0:0:
329,192,20135,1,0,0:3:0:0:
182,192,20235,1,0,0:3:0:0:
192,192,20435,1,0,0:0:0:0:
36,192,20435,1,0,0:0:0:0:
64,192,20835,1,0,0:3:0:0:
256,192,20835,1,0,0:3:0:0:
320,192,21235,1,0,0:0:0:0:
64,192,21235,1,0,0:0:0:0:
192,192,21535,1,0,0:3:0:0:
320,192,21635,1,0,0:3:0:0:
36,192,21735,1,0,0:3:0:0:
192,192,21835,1,0,0:3:0:0:
64,192,22035,1,0,0:0:0:0:
320,192,22035,1,0,0:0:0:0:
109,192,22435,1,0,3:3:0:0:
182,192,22435,1,0,0:0:0:0:
256,192,22635,1,0,3:3:0:0:
320,192,22835,128,0,23035:0:0:0:0:
475,192,22835,1,0,3:3:0:0:
182,192,22835,1,0,0:0:0:0:
64,192,23035,1,0,3:3:0:0:
192,192,23135,1,0,3:3:0:0:
109,192,23235,1,0,3:3:0:0:
475,192,23235,1,0,0:0:0:0:
182,192,23335,1,0,3:3:0:0:
320,192,23435,128,0,23635:0:0:0:0:
64,192,23435,1,0,3:3:0:0:
182,192,23535,1,0,3:3:0:0:
36,192,23635,1,0,3:3:0:0:
448,192,23635,1,0,0:0:0:0:
475,192,23835,1,0,3:3:0:0:
448,192,24035,1,0,0:3:0:0:
64,192,24035,128,0,24235:0:0:0:0:
192,192,24235,1,0,3:3:0:0:
448,192,24235,1,0,3:3:0:0:
320,192,24435,1,0,3:3:0:0:
36,192,24435,1,0,0:0:0:0:
192,192,24635,128,0,24835:0:0:0:0:
109,192,24635,1,0,3:3:0:0:
448,192,24735,1,0,3:3:0:0:
256,192,24835,1,0,0:0:0:0:
64,192,24935,1,0,3:0:0:0:
192,192,25035,1,0,3:0:0:0:
320,192,25135,1,0,3:0:0:0:
192,192,25235,128,0,25435:0:0:0:0:
64,192,25235,1,0,3:0:0:0:
402,192,25235,1,0,0:0:0:0:
320,192,25435,1,0,3:0:0:0:
182,192,25635,1,0,3:0:0:0:
36,192,25635,1,0,0:0:0:0:
192,192,25835,128,0,26035:0:0:0:0:
256,192,25835,1,0,3:0:0:0:
475,192,26035,1,0,0:0:0:0:
182,192,26235,1,0,3:0:0:0:
109,192,26335,1,0,3:0:0:0:
320,192,26435,128,0,26635:0:0:0:0:
192,192,26435,1,0,3:0:0:0:
402,192,26535,1,0,3:0:0:0:
36,192,26635,1,0,0:0:0:0:
320,192,26735,1,0,3:0:0:0:
192,192,26835,1,0,3:0:0:0:
475,192,26835,1,0,0:0:0:0:
402,192,27035,128,0,27235:0:0:0:0:
329,192,27035,1,0,3:0:0:0:
36,192,27235,1,0,0:0:0:0:
329,192,27435,1,0,3:0:0:0:
64,192,27635,128,0,27835:0:0:0:0:
402,192,27635,1,0,0:0:0:0:
182,192,27635,1,0,3:0:0:0:
329,192,27835,1,0,3:0:0:0:
448,192,27935,1,0,3:0:0:0:
109,192,28035,1,0,0:0:0:0:
182,192,28135,1,0,3:0:0:0:
36,192,28235,128,0,28435:0:0:0:0:
320,192,28235,1,0,3:0:0:0:
448,192,28335,1,0,3:0:0:0:
320,192,28435,1,0,3:0:0:0:
182,192,28435,1,0,0:0:0:0:
329,192,28635,1,0,3:0:0:0:
36,192,28835,1,0,3:0:0:0:
448,192,28835,1,0,0:0:0:0:
109,192,29035,1,0,3:0:0:0:
448,192,29235,1,0,3:0:0:0:
192,192,29235,128,0,29435:0:0:0:0:
64,192,29235,1,0,0:0:0:0:
402,192,29435,1,0,3:0:0:0:
329,192,29535,1,0,3:0:0:0:
192,192,29635,1,0,0:0:0:0:
109,192,29735,1,0,3:0:0:0:
192,192,29835,128,0,30035:0:0:0:0:
320,192,29835,1,0,3:0:0:0:
448,192,29935,1,0,3:0:0:0:
109,192,30035,1,0,0:0:0:0:
182,192,30235,1,0,3:0:0:0:
192,192,30435,128,0,30635:0:0:0:0:
402,192,30435,1,0,0:0:0:0:
109,192,30635,1,0,3:0:0:0:
402,192,30835,1,0,3:0:0:0:
182,192,30835,1,0,0:0:0:0:
320,192,31035,128,0,31235:0:0:0:0:
448,192,31035,1,0,3:0:0:0:
64,192,31135,1,0,3:0:0:0:
192,192,31235,1,0,0:0:0:0:
64,192,31335,1,0,3:0:0:0:
402,192,31435,1,0,3:0:0:0:
329,192,31535,1,0,3:0:0:0:
182,192,31635,128,0,31835:0:0:0:0:
448,192,31635,1,0,3:0:0:0:
36,192,31635,1,0,0:0:0:0:
402,192,31835,1,0,3:0:0:0:
36,192,32035,1,0,3:0:0:0:
329,192,32035,1,0,0:0:0:0:
256,192,32235,128,0,32435:0:0:0:0:
475,192,32235,1,0,3:0:0:0:
402,192,32435,1,0,3:0:0:0:
109,192,32435,1,0,0:0:0:0:
448,192,32635,1,0,3:0:0:0:
256,192,32735,1,0,3:0:0:0:
182,192,32835,128,0,33035:0:0:0:0:
36,192,32835,1,0,0:0:0:0:
320,192,32935,1,0,3:0:0:0:
402,192,33035,1,0,3:0:0:0:
320,192,33135,1,0,3:0:0:0:
36,192,33235,1,0,3:0:0:0:
475,192,33235,1,0,0:0:0:0:
109,192,33435,128,0,33635:0:0:0:0:
256,192,33435,1,0,3:0:0:0:
402,192,33635,1,0,3:0:0:0:
182,192,33635,1,0,0:3:0:0:
329,192,33835,1,0,3:0:0:0:
36,192,34035,128,0,34235:0:0:0:0:
256,192,34035,1,0,0:0:0:0:
182,192,34235,1,0,3:0:0:0:
256,192,34335,1,0,3:0:0:0:
192,192,34435,1,0,0:0:0:0:
475,192,34535,1,0,3:0:0:0:
64,192,34635,128,0,34835:0:0:0:0:
192,192,34635,1,0,3:0:0:0:
320,192,34735,1,0,3:0:0:0:
192,192,34835,1,0,0:0:0:0:
182,192,35035,1,0,3:0:0:0:
402,192,35235,1,0,0:0:0:40:
64,192,35235,1,0,0:0:0:0:
182,192,35435,1,0,0:0:0:0:
320,192,35635,1,0,0:0:0:40:
64,192,35635,1,0,0:0:0:0:
36,192,35835,1,0,0:0:0:0:
192,192,35935,1,0,0:3:0:0:
320,192,36035,1,0,0:3:0:0:
192,192,36135,1,0,0:3:0:0:
36,192,36235,1,0,0:0:0:0:
182,192,36335,1,0,0:0:0:0:
475,192,36435,1,0,0:0:0:40:
64,192,36435,1,0,0:0:0:0:
256,192,36635,1,0,0:0:0:0:
402,192,36835,1,0,0:0:0:40:
64,192,36835,1,0,0:0:0:0:
192,192,37035,1,0,0:0:0:0:
475,192,37235,1,0,0:0:0:40:
64,192,37235,1,0,0:0:0:0:
64,192,37435,1,0,0:0:0:0:
320,192,37535,1,0,0:0:0:0:
192,192,37535,1,0,0:3:0:0:
64,192,37635,1,0,0:0:0:40:
448,192,37635,1,0,0:0:0:0:
192,192,37735,1,0,0:3:0:0:
320,192,37735,1,0,0:3:0:0:
448,192,37835,1,0,0:0:0:0:
36,192,37935,1,0,0:0:0:0:
192,192,38035,1,0,0:0:0:40:
448,192,38035,1,0,0:0:0:0:
256,192,38235,1,0,0:0:0:0:
109,192,38435,1,0,0:0:0:40:
329,192,38435,1,0,0:0:0:0:
402,192,38635,1,0,0:0:0:0:
36,192,38835,1,0,0:0:0:40:
329,192,38835,1,0,0:0:0:0:
475,192,39035,1,0,0:0:0:0:
320,192,39135,1,0,0:3:0:0:
64,192,39235,1,0,0:0:0:0:
402,192,39335,1,0,0:3:0:0:
192,192,39335,1,0,0:3:0:0:
320,192,39435,1,0,0:0:0:0:
192,192,39535,1,0,0:0:0:0:
36,192,39635,1,0,0:0:0:40:
448,192,39635,1,0,0:0:0:0:
256,192,39835,1,0,0:0:0:0:
64,192,40035,1,0,0:0:0:40:
448,192,40035,1,0,0:0:0:0:
402,192,40235,1,0,0:0:0:0:
109,192,40435,1,0,0:0:0:40:
329,192,40435,1,0,0:0:0:0:
320,192,40635,1,0,0:0:0:0:
192,192,40735,1,0,0:0:0:0:
402,192,40735,1,0,0:3:0:0:
36,192,40835,5,0,0:0:0:40:
256,192,40835,1,0,0:3:0:0:
402,192,40935,1,0,0:3:0:0:
192,192,40935,1,0,0:3:0:0:
320,192,41035,1,0,0:0:0:0:
192,192,41135,1,0,0:0:0:0:
109,192,41235,1,0,0:0:0:40:
448,192,41235,1,0,0:0:0:0:
256,192,41435,1,0,0:0:0:0:
36,192,41635,1,0,0:0:0:0:
182,192,41735,1,0,0:3:0:0:
256,192,41835,1,0,0:0:0:0:
402,192,41935,1,0,0:3:0:0:
182,192,42035,1,0,0:3:0:0:
109,192,42035,1,0,0:0:0:0:
256,192,42135,1,0,0:3:0:0:
64,192,42235,1,0,0:0:0:0:
402,192,42235,1,0,0:3:0:0:
320,192,42335,1,0,0:3:0:0:
109,192,42435,1,0,0:3:0:0:
182,192,42535,1,0,0:3:0:0:
329,192,42635,1,0,0:3:0:0:
402,192,42735,1,0,0:3:0:0:
320,192,42835,1,0,0:3:0:0:
109,192,42835,1,0,0:0:0:0:
192,192,42935,1,0,0:3:0:0:
64,192,43035,1,0,0:0:0:0:
402,192,43035,1,0,0:3:0:0:
320,192,43135,1,0,0:3:0:0:
192,192,43235,1,0,0:0:0:0:
402,192,43235,1,0,0:3:0:0:
256,192,43335,1,0,0:3:0:0:
448,192,43435,1,0,0:3:0:0:
109,192,43435,1,0,0:0:0:0:
36,192,43535,1,0,0:3:0:0:
475,192,43635,1,0,0:0:0:0:
329,192,43735,1,0,0:3:0:0:
448,192,43835,1,0,0:0:0:0:
182,192,43835,1,0,0:3:0:0:
109,192,43935,1,0,0:3:0:0:
402,192,44035,1,0,0:0:0:0:
192,192,44035,1,0,0:3:0:0:
256,192,44135,1,0,0:3:0:0:
448,192,44235,1,0,0:0:0:0:
109,192,44235,1,0,0:3:0:0:
36,192,44335,1,0,0:3:0:0:
475,192,44435,1,0,0:0:0:0:
329,192,44535,1,0,0:3:0:0:
448,192,44635,1,0,0:0:0:0:
182,192,44635,1,0,0:3:0:0:
109,192,44735,1,0,0:3:0:0:
192,192,44835,1,0,0:3:0:0:
448,192,44835,1,0,0:0:0:0:
320,192,44935,1,0,0:0:0:0:
448,192,45035,1,0,0:0:0:0:
64,192,45035,1,0,0:3:0:0:
192,192,45135,1,0,0:0:0:0:
475,192,45235,1,0,0:0:0:0:
320,192,45235,1,0,0:3:0:0:
192,192,45335,1,0,0:0:0:0:
448,192,45435,1,0,0:0:0:0:
109,192,45435,1,0,0:3:0:0:
256,192,45535,1,0,0:0:0:0:
182,192,45635,1,0,0:0:0:0:
402,192,45635,1,0,0:3:0:0:
109,192,45735,1,0,0:0:0:0:
192,192,45835,1,0,0:0:0:0:
448,192,45835,1,0,0:3:0:0:
109,192,45935,1,0,0:0:0:0:
182,192,46035,1,0,0:0:0:0:
402,192,46035,1,0,0:3:0:0:
256,192,46135,1,0,0:0:0:0:
109,192,46235,1,0,0:3:0:0:
192,192,46235,1,0,0:0:0:0:
402,192,46335,1,0,0:0:0:0:
320,192,46435,1,0,0:0:0:0:
182,192,46435,1,0,0:3:0:0:
402,192,46535,1,0,0:0:0:0:
329,192,46635,1,0,0:0:0:0:
109,192,46635,1,0,0:3:0:0:
192,192,46735,1,0,0:0:0:0:
320,192,46835,1,0,0:0:0:0:
402,192,46835,1,0,0:3:0:0:
109,192,46935,1,0,0:0:0:0:
192,192,47035,1,0,0:0:0:0:
320,192,47035,1,0,0:3:0:0:
109,192,47135,1,0,0:0:0:0:
182,192,47235,1,0,0:0:0:0:
475,192,47235,1,0,0:0:0:0:
36,192,47435,1,0,0:0:0:0:
329,192,47435,1,0,0:0:0:0:
109,192,47635,1,0,0:0:0:20:
182,192,47635,1,0,0:0:0:20:
329,192,47835,1,0,0:0:0:20:
402,192,47835,1,0,0:0:0:20:
