osu file format v14

[General]
AudioFilename: audio.mp3
AudioLeadIn: 0
PreviewTime: 9635
Countdown: 0
SampleSet: Soft
StackLeniency: 0.7
Mode: 3
LetterboxInBreaks: 0
SpecialStyle: 0
WidescreenStoryboard: 1

[Editor]
Bookmarks: 9635,22435,32035,35235,41635,44835,47235,47635,47835
DistanceSpacing: 0.5
BeatDivisor: 4
GridSize: 4
TimelineZoom: 1.4

[Metadata]
Title:Tobidase! Bankikki (Casual Killer remix)
TitleUnicode:とびだせ!バンキッキ (Casual Killer remix)
Artist:nachi
ArtistUnicode:nachi
Creator:Leniane
Version:Easy
Source:東方輝針城 ~ Double Dealing Character.
Tags:tailsdk 坂上なち sakaue Shibayan ShibayanRecords touhou project RETRO FUTURE GIRLS C85 short ver sekibanki 赤蛮奇 せきばんき dullahan under the willows stage 2 Video Game Japanese
BeatmapID:2097735
BeatmapSetID:1001685

[Difficulty]
HPDrainRate:7
CircleSize:4
OverallDifficulty:7
ApproachRate:5
SliderMultiplier:1.4
SliderTickRate:1

[Events]
//Background and Video events
0,0,"Background.jpg",0,0
//Break Periods
//Storyboard Layer 0 (Background)
//Storyboard Layer 1 (Fail)
//Storyboard Layer 2 (Pass)
//Storyboard Layer 3 (Foreground)
//Storyboard Sound Samples

[TimingPoints]
35,400,3,2,1,30,1,0
9635,400,4,2,1,30,1,0

[HitObjects]
448,192,35,5,0,0:0:0:0:
320,192,335,1,0,0:0:0:0:
192,192,635,1,0,0:0:0:0:
64,192,1035,1,0,0:0:0:0:
448,192,1235,1,0,0:0:0:0:
320,192,1535,1,0,0:0:0:0:
192,192,1835,1,0,0:0:0:0:
448,192,2235,1,0,0:0:0:0:
320,192,2435,1,0,0:0:0:0:
192,192,2735,1,0,0:0:0:0:
64,192,3035,1,0,0:0:0:0:
192,192,3435,1,0,0:0:0:0:
448,192,3635,1,0,0:0:0:0:
320,192,3935,1,0,0:0:0:0:
64,192,4235,1,0,0:0:0:0:
320,192,4635,1,0,0:0:0:0:
448,192,4835,1,0,0:0:0:0:
320,192,5135,1,0,0:0:0:0:
192,192,5435,1,0,0:0:0:0:
64,192,5835,1,0,0:0:0:0:
448,192,6035,1,0,0:0:0:0:
320,192,6335,1,0,0:0:0:0:
192,192,6635,1,0,0:0:0:0:
448,192,7035,1,0,0:0:0:0:
320,192,7235,1,0,0:0:0:0:
192,192,7535,1,0,0:0:0:0:
64,192,7835,1,0,0:0:0:0:
192,192,8235,1,0,0:0:0:0:
448,192,8435,1,0,0:0:0:0:
320,192,8735,1,0,0:0:0:0:
192,192,9035,1,0,0:0:0:0:
448,192,9435,1,0,0:0:0:0:
64,192,9635,1,0,0:0:0:0:
320,192,10035,1,0,0:0:0:0:
192,192,10035,1,0,0:0:0:0:
320,192,10435,1,0,0:0:0:0:
64,192,10635,1,0,0:0:0:0:
192,192,10835,1,0,0:0:0:0:
448,192,10835,1,0,0:0:0:0:
448,192,11235,1,0,0:0:0:0:
64,192,11635,1,0,0:0:0:0:
192,192,11635,1,0,0:0:0:0:
320,192,12035,1,0,0:0:0:0:
192,192,12235,1,0,0:0:0:0:
448,192,12435,1,0,0:0:0:0:
64,192,12435,1,0,0:0:0:0:
192,192,12835,1,0,0:0:0:0:
320,192,13235,1,0,0:0:0:0:
448,192,13235,1,0,0:0:0:0:
64,192,13635,1,0,0:0:0:0:
320,192,13835,1,0,0:0:0:0:
192,192,14035,1,0,0:0:0:0:
448,192,14035,1,0,0:0:0:0:
192,192,14435,1,0,0:0:0:0:
64,192,14835,1,0,0:0:0:0:
320,192,14835,1,0,0:0:0:0:
448,192,15235,1,0,0:0:0:0:
192,192,15435,1,0,0:0:0:0:
320,192,15635,1,0,0:0:0:0:
448,192,15635,1,0,0:0:0:0:
64,192,16035,1,0,0:0:0:0:
192,192,16435,1,0,0:0:0:0:
320,192,16435,1,0,0:0:0:0:
192,192,16835,1,0,0:0:0:0:
448,192,17035,1,0,0:0:0:0:
320,192,17235,1,0,0:0:0:0:
64,192,17235,1,0,0:0:0:0:
192,192,17635,1,0,0:0:0:0:
448,192,18035,1,0,0:0:0:0:
64,192,18035,1,0,0:0:0:0:
320,192,18435,1,0,0:0:0:0:
448,192,18635,1,0,0:0:0:0:
192,192,18835,1,0,0:0:0:0:
64,192,18835,1,0,0:0:0:0:
320,192,19235,1,0,0:0:0:0:
192,192,19635,1,0,0:0:0:0:
448,192,19635,1,0,0:0:0:0:
64,192,20035,1,0,0:0:0:0:
192,192,20235,1,0,0:0:0:0:
320,192,20435,1,0,0:0:0:0:
448,192,20435,1,0,0:0:0:0:
192,192,20835,1,0,0:0:0:0:
448,192,21235,1,0,0:0:0:0:
64,192,21235,1,0,0:0:0:0:
192,192,21635,1,0,0:0:0:0:
448,192,21835,1,0,0:0:0:0:
320,192,22035,1,0,0:0:0:0:
64,192,22035,1,0,0:0:0:0:
192,192,22435,1,0,0:0:0:0:
320,192,22835,1,0,0:0:0:0:
448,192,22835,1,0,0:0:0:0:
64,192,23235,1,0,0:0:0:0:
320,192,23435,1,0,0:0:0:0:
192,192,23635,1,0,0:0:0:0:
448,192,23635,1,0,0:0:0:0:
192,192,24035,1,0,0:0:0:0:
320,192,24435,1,0,0:0:0:0:
64,192,24435,1,0,0:0:0:0:
448,192,24835,1,0,0:0:0:0:
320,192,25035,1,0,0:0:0:0:
192,192,25235,1,0,0:0:0:0:
64,192,25235,1,0,0:0:0:0:
448,192,25635,1,0,0:0:0:0:
64,192,26035,1,0,0:0:0:0:
320,192,26035,1,0,0:0:0:0:
192,192,26435,1,0,0:0:0:0:
320,192,26635,1,0,0:0:0:0:
64,192,26835,1,0,0:0:0:0:
448,192,26835,1,0,0:0:0:0:
320,192,27235,1,0,0:0:0:0:
192,192,27635,1,0,0:0:0:0:
448,192,27635,1,0,0:0:0:0:
64,192,28035,1,0,0:0:0:0:
192,192,28235,1,0,0:0:0:0:
320,192,28435,1,0,0:0:0:0:
448,192,28435,1,0,0:0:0:0:
192,192,28835,1,0,0:0:0:0:
320,192,29235,1,0,0:0:0:0:
64,192,29235,1,0,0:0:0:0:
448,192,29635,1,0,0:0:0:0:
320,192,29835,1,0,0:0:0:0:
192,192,30035,1,0,0:0:0:0:
64,192,30035,1,0,0:0:0:0:
320,192,30435,1,0,0:0:0:0:
192,192,30835,1,0,0:0:0:0:
448,192,30835,1,0,0:0:0:0:
64,192,31235,1,0,0:0:0:0:
448,192,31435,1,0,0:0:0:0:
320,192,31635,1,0,0:0:0:0:
192,192,31635,1,0,0:0:0:0:
64,192,32035,1,0,0:0:0:0:
320,192,32435,1,0,0:0:0:0:
448,192,32435,1,0,0:0:0:0:
192,192,32835,1,0,0:0:0:0:
448,192,33035,1,0,0:0:0:0:
320,192,33235,1,0,0:0:0:0:
64,192,33235,1,0,0:0:0:0:
192,192,33635,1,0,0:0:0:0:
448,192,34035,1,0,0:0:0:0:
64,192,34035,1,0,0:0:0:0:
320,192,34435,1,0,0:0:0:0:
64,192,34635,1,0,0:0:0:0:
192,192,34835,1,0,0:0:0:0:
448,192,34835,1,0,0:0:0:0:
320,192,35235,1,0,0:0:0:0:
320,192,35635,1,0,0:0:0:0:
192,192,35635,1,0,0:0:0:0:
64,192,35835,1,0,0:0:0:0:
192,192,36035,1,0,0:0:0:0:
320,192,36235,1,0,0:0:0:0:
192,192,36435,1,0,0:0:0:0:
448,192,36435,1,0,0:0:0:0:
448,192,36835,1,0,0:0:0:0:
448,192,37235,1,0,0:0:0:0:
64,192,37235,1,0,0:0:0:0:
320,192,37435,1,0,0:0:0:0:
64,192,37635,1,0,0:0:0:0:
448,192,37835,1,0,0:0:0:0:
64,192,38035,1,0,0:0:0:0:
192,192,38035,1,0,0:0:0:0:
192,192,38435,1,0,0:0:0:0:
192,192,38835,1,0,0:0:0:0:
448,192,38835,1,0,0:0:0:0:
64,192,39035,1,0,0:0:0:0:
448,192,39235,1,0,0:0:0:0:
192,192,39435,1,0,0:0:0:0:
448,192,39635,1,0,0:0:0:0:
320,192,39635,1,0,0:0:0:0:
320,192,40035,1,0,0:0:0:0:
320,192,40435,1,0,0:0:0:0:
192,192,40435,1,0,0:0:0:0:
448,192,40635,1,0,0:0:0:0:
192,192,40835,1,0,0:0:0:0:
64,192,41035,1,0,0:0:0:0:
192,192,41235,1,0,0:0:0:0:
448,192,41235,1,0,0:0:0:0:
448,192,41635,128,0,42035:0:0:0:0:
64,192,42035,1,0,0:0:0:0:
192,192,42035,128,0,42435:0:0:0:0:
320,192,42435,128,0,42835:0:0:0:0:
64,192,42835,128,0,43235:0:0:0:0:
448,192,42835,1,0,0:0:0:0:
320,192,43235,128,0,43635:0:0:0:0:
192,192,43635,128,0,44035:0:0:0:0:
64,192,43635,1,0,0:0:0:0:
448,192,44035,128,0,44435:0:0:0:0:
64,192,44435,128,0,44835:0:0:0:0:
320,192,44435,1,0,0:0:0:0:
448,192,44835,128,0,45235:0:0:0:0:
192,192,45035,1,0,0:0:0:0:
320,192,45235,128,0,45635:0:0:0:0:
64,192,45235,1,0,0:0:0:0:
64,192,45635,128,0,46035:0:0:0:0:
320,192,45835,1,0,0:0:0:0:
192,192,46035,128,0,46435:0:0:0:0:
448,192,46035,1,0,0:0:0:0:
320,192,46435,128,0,46835:0:0:0:0:
64,192,46635,1,0,0:0:0:0:
448,192,46835,128,0,47235:0:0:0:0:
192,192,46835,1,0,0:0:0:0:
64,192,47235,1,0,0:0:0:0:
192,192,47635,1,0,0:0:0:0:
448,192,47835,1,0,0:0:0:0:
