osu file format v14

[General]
AudioFilename: audio.mp3
AudioLeadIn: 0
PreviewTime: 64048
Countdown: 1
SampleSet: Soft
StackLeniency: 0.7
Mode: 0
LetterboxInBreaks: 0
WidescreenStoryboard: 0

[Editor]
Bookmarks: 22048,63191,65934,109820,153706
DistanceSpacing: 2.5
BeatDivisor: 2
GridSize: 4
TimelineZoom: 1

[Metadata]
Title:Falling In Love Is Wonderful
TitleUnicode:Falling In Love Is Wonderful
Artist:nClear & Eugenics Eight
ArtistUnicode:nClear & Eugenics Eight
Creator:ocarinayoy
Version:nClear Challenge
Source:Ledge Sounds
Tags:nClear & Eugenics Eight Falling In Love Is Wonderful Drum And Bass 'n' liquid
BeatmapID:1750532
BeatmapSetID:835867

[Difficulty]
HPDrainRate:6
CircleSize:3.8
OverallDifficulty:7
ApproachRate:9.7
SliderMultiplier:1.8
SliderTickRate:1

[Events]
//Background and Video events
0,0,"51412_anime_scenery.jpg",0,0
//Break Periods
2,65963,76411
2,110020,120296
//Storyboard Layer 0 (Background)
//Storyboard Layer 1 (Fail)
//Storyboard Layer 2 (Pass)
//Storyboard Layer 3 (Foreground)
//Storyboard Sound Samples

[TimingPoints]
106,342.857142857143,4,2,0,100,1,0
22048,-100,4,2,0,100,0,1
63191,-100,4,2,0,100,0,0

[Colours]
Combo1 : 167,117,221
Combo2 : 128,255,128
Combo3 : 132,235,253
Combo4 : 231,238,145

[HitObjects]
33,224,106,6,0,P|118:210|218:246,1,180
242,266,620,1,0,0:0:0:0:
380,89,791,2,0,P|365:177|383:265,1,180
470,160,1306,1,0,0:0:0:0:
444,27,1477,1,0,0:0:0:0:
450,251,1648,1,0,0:0:0:0:
257,133,1820,2,0,L|346:125,1,90
136,43,2163,2,0,L|46:50,1,90
196,218,2506,2,0,P|281:241|369:222,1,180
362,43,3191,5,0,0:0:0:0:
436,256,3363,5,0,0:0:0:0:
125,73,3706,5,0,0:0:0:0:
255,255,3877,1,0,0:0:0:0:
210,248,3963,1,0,0:0:0:0:
166,239,4048,1,0,0:0:0:0:
121,230,4134,1,0,0:0:0:0:
77,222,4220,1,0,0:0:0:0:
291,157,4391,5,0,0:0:0:0:
145,330,4563,5,0,0:0:0:0:
86,113,4734,5,0,0:0:0:0:
15,279,4906,5,0,0:0:0:0:
59,283,4991,1,0,0:0:0:0:
104,284,5077,1,0,0:0:0:0:
149,282,5163,1,0,0:0:0:0:
194,277,5248,1,0,0:0:0:0:
238,268,5334,1,0,0:0:0:0:
281,256,5420,1,0,0:0:0:0:
324,241,5506,1,0,0:0:0:0:
389,180,5591,6,0,P|304:166|204:202,1,180
198,212,6106,1,0,0:0:0:0:
346,43,6277,2,0,P|363:130|349:219,1,180
128,269,6791,1,0,0:0:0:0:
306,298,6963,1,0,0:0:0:0:
211,94,7134,1,0,0:0:0:0:
228,319,7306,2,0,L|317:327,1,90
195,158,7648,2,0,L|105:151,1,90
307,51,7991,2,0,L|127:37,1,180
108,36,8677,5,0,0:0:0:0:
104,260,8848,5,0,0:0:0:0:
460,211,9191,5,0,0:0:0:0:
299,128,9363,1,0,0:0:0:0:
254,121,9448,1,0,0:0:0:0:
210,112,9534,1,0,0:0:0:0:
165,103,9620,1,0,0:0:0:0:
121,95,9706,1,0,0:0:0:0:
270,262,9877,5,0,0:0:0:0:
325,91,10048,5,0,0:0:0:0:
330,316,10220,5,0,0:0:0:0:
217,121,10391,5,0,0:0:0:0:
182,148,10477,1,0,0:0:0:0:
150,179,10563,1,0,0:0:0:0:
119,212,10648,1,0,0:0:0:0:
91,248,10734,1,0,0:0:0:0:
66,285,10820,1,0,0:0:0:0:
45,324,10906,1,0,0:0:0:0:
28,364,10991,1,0,0:0:0:0:
34,251,11077,6,0,L|55:72,1,180
185,256,11591,1,0,0:0:0:0:
378,140,11763,2,0,L|199:118,1,180
299,320,12277,2,0,L|388:330,1,90
429,335,12620,1,0,0:0:0:0:
248,201,12791,1,0,0:0:0:0:
472,214,12962,1,0,0:0:0:0:
340,30,13134,2,0,L|347:120,1,90
298,340,13477,2,0,L|283:152,1,180
268,123,14163,5,0,0:0:0:0:
149,313,14334,5,0,0:0:0:0:
59,50,14677,5,0,0:0:0:0:
207,218,14848,1,0,0:0:0:0:
251,226,14933,1,0,0:0:0:0:
296,235,15019,1,0,0:0:0:0:
340,244,15105,1,0,0:0:0:0:
385,251,15191,1,0,0:0:0:0:
271,56,15363,5,0,0:0:0:0:
185,213,15534,5,0,0:0:0:0:
371,86,15706,5,0,0:0:0:0:
504,244,15877,5,0,0:0:0:0:
462,259,15963,1,0,0:0:0:0:
419,271,16048,1,0,0:0:0:0:
375,280,16134,1,0,0:0:0:0:
330,286,16220,1,0,0:0:0:0:
285,288,16306,1,0,0:0:0:0:
240,286,16391,1,0,0:0:0:0:
195,282,16477,1,0,0:0:0:0:
280,208,16563,6,0,L|266:28,1,180
107,189,17077,2,0,L|100:99,1,90
200,301,17420,2,0,L|193:211,1,90
191,187,17763,1,0,0:0:0:0:
398,272,17934,2,0,L|308:261,1,90
177,77,18277,2,0,L|355:98,1,180
383,103,18791,1,0,0:0:0:0:
356,281,18963,2,0,P|286:219|245:139,1,180
246,142,19648,5,0,0:0:0:0:
411,325,19991,2,0,P|456:326|498:309,1,90
323,165,20334,2,0,L|336:253,1,90
409,40,20677,2,0,B|274:64|274:64|231:62,1,180
13,121,21191,2,0,L|21:210,1,90
219,317,21534,2,0,L|210:227,1,90
208,205,21877,1,0,0:0:0:0:
243,70,22048,6,0,P|328:56|428:92,1,180
232,217,22563,2,0,L|235:116,1,90
337,328,22906,2,0,L|339:238,1,90
339,238,23248,1,0,0:0:0:0:
127,159,23420,1,0,0:0:0:0:
290,312,23591,1,0,0:0:0:0:
72,251,23763,2,0,L|161:243,1,90
293,59,24106,2,0,L|203:66,1,90
11,182,24448,2,0,L|191:168,1,180
375,64,25134,5,0,0:0:0:0:
411,286,25306,5,0,0:0:0:0:
124,70,25648,5,0,0:0:0:0:
139,295,25820,1,0,0:0:0:0:
139,295,26163,1,0,0:0:0:0:
195,77,26334,5,0,0:0:0:0:
285,283,26506,5,0,0:0:0:0:
347,114,26677,5,0,0:0:0:0:
184,79,26848,5,0,0:0:0:0:
186,123,26933,1,0,0:0:0:0:
194,168,27019,1,0,0:0:0:0:
209,210,27105,1,0,0:0:0:0:
230,250,27190,1,0,0:0:0:0:
256,286,27276,1,0,0:0:0:0:
288,319,27362,1,0,0:0:0:0:
323,346,27448,1,0,0:0:0:0:
413,350,27534,6,0,L|424:169,1,180
300,38,28048,2,0,L|305:127,1,90
306,151,28391,1,0,0:0:0:0:
469,61,28563,1,0,0:0:0:0:
245,83,28734,1,0,0:0:0:0:
439,197,28906,2,0,L|473:280,1,90
251,246,29248,2,0,L|216:162,1,90
316,62,29591,2,0,P|227:75|140:55,1,180
118,39,30106,1,0,0:0:0:0:
193,201,30277,1,0,0:0:0:0:
148,25,30620,5,0,0:0:0:0:
97,244,30791,5,0,0:0:0:0:
403,124,31134,5,0,0:0:0:0:
245,282,31306,1,0,0:0:0:0:
290,275,31391,1,0,0:0:0:0:
334,266,31477,1,0,0:0:0:0:
379,257,31563,1,0,0:0:0:0:
423,249,31648,1,0,0:0:0:0:
207,185,31820,5,0,0:0:0:0:
364,347,31991,5,0,0:0:0:0:
339,124,32163,5,0,0:0:0:0:
480,300,32334,5,0,0:0:0:0:
436,304,32420,1,0,0:0:0:0:
391,305,32506,1,0,0:0:0:0:
346,303,32591,1,0,0:0:0:0:
301,298,32677,1,0,0:0:0:0:
257,289,32763,1,0,0:0:0:0:
214,277,32848,1,0,0:0:0:0:
171,262,32934,1,0,0:0:0:0:
93,181,33020,6,0,L|119:365,1,180
280,202,33534,2,0,P|238:186|193:185,1,90
36,274,33877,1,0,0:0:0:0:
215,275,34048,2,0,L|303:289,1,90
471,357,34391,2,0,L|442:179,1,180
434,149,34906,1,0,0:0:0:0:
232,247,35077,1,0,0:0:0:0:
456,245,35248,1,0,0:0:0:0:
287,94,35420,1,0,0:0:0:0:
319,270,35591,1,0,0:0:0:0:
186,147,35763,6,0,L|7:166,1,180
159,263,36277,5,0,0:0:0:0:
238,109,36620,5,0,0:0:0:0:
267,282,36791,1,0,0:0:0:0:
222,275,36877,1,0,0:0:0:0:
178,266,36963,1,0,0:0:0:0:
133,257,37048,1,0,0:0:0:0:
89,249,37134,1,0,0:0:0:0:
129,73,37306,5,0,0:0:0:0:
175,255,37477,5,0,0:0:0:0:
315,143,37648,5,0,0:0:0:0:
207,29,37820,5,0,0:0:0:0:
203,74,37906,1,0,0:0:0:0:
201,119,37991,1,0,0:0:0:0:
203,164,38077,1,0,0:0:0:0:
209,209,38163,1,0,0:0:0:0:
218,253,38248,1,0,0:0:0:0:
230,296,38334,1,0,0:0:0:0:
245,338,38420,1,0,0:0:0:0:
432,195,38506,6,0,P|347:181|247:217,1,180
236,222,39020,1,0,0:0:0:0:
383,52,39191,2,0,P|400:139|386:228,1,180
159,222,39706,1,0,0:0:0:0:
272,82,39877,1,0,0:0:0:0:
90,214,40048,1,0,0:0:0:0:
303,288,40220,2,0,L|392:296,1,90
218,152,40563,2,0,L|128:145,1,90
335,55,40906,2,0,L|155:41,1,180
331,229,41591,5,0,0:0:0:0:
162,346,41934,2,0,P|117:347|75:330,1,90
147,164,42277,2,0,L|133:252,1,90
273,75,42620,2,0,B|408:99|408:99|450:97,1,180
281,244,43134,2,0,L|272:333,1,90
482,247,43477,2,0,L|490:157,1,90
490,157,43820,1,0,0:0:0:0:
246,218,43991,6,0,L|232:38,1,180
61,187,44506,2,0,L|54:97,1,90
196,272,44848,2,0,L|106:282,1,90
301,169,45191,1,0,0:0:0:0:
480,303,45363,2,0,L|390:292,1,90
294,87,45706,2,0,L|472:108,1,180
301,255,46220,1,0,0:0:0:0:
204,51,46391,2,0,L|182:229,1,180
155,41,47077,5,0,0:0:0:0:
104,260,47248,5,0,0:0:0:0:
410,140,47591,5,0,0:0:0:0:
267,282,47763,1,0,0:0:0:0:
222,275,47848,1,0,0:0:0:0:
178,266,47934,1,0,0:0:0:0:
133,257,48020,1,0,0:0:0:0:
89,249,48106,1,0,0:0:0:0:
313,228,48277,5,0,0:0:0:0:
470,66,48448,5,0,0:0:0:0:
445,289,48620,5,0,0:0:0:0:
311,313,48791,5,0,0:0:0:0:
267,309,48877,1,0,0:0:0:0:
224,296,48963,1,0,0:0:0:0:
185,274,49048,1,0,0:0:0:0:
152,244,49134,1,0,0:0:0:0:
126,207,49220,1,0,0:0:0:0:
110,165,49306,1,0,0:0:0:0:
103,121,49391,1,0,0:0:0:0:
32,31,49477,6,0,L|48:221,1,180
48,231,49991,1,0,0:0:0:0:
243,341,50163,2,0,P|225:253|240:165,1,180
464,129,50677,1,0,0:0:0:0:
247,69,50848,1,0,0:0:0:0:
350,268,51020,1,0,0:0:0:0:
337,88,51191,1,0,0:0:0:0:
208,273,51363,1,0,0:0:0:0:
187,94,51534,1,0,0:0:0:0:
381,208,51706,5,0,0:0:0:0:
157,178,51877,2,0,P|79:222|30:297,1,180
357,41,52563,5,0,0:0:0:0:
408,260,52734,5,0,0:0:0:0:
102,140,53077,5,0,0:0:0:0:
245,282,53248,1,0,0:0:0:0:
290,275,53334,1,0,0:0:0:0:
334,266,53420,1,0,0:0:0:0:
379,257,53506,1,0,0:0:0:0:
423,249,53591,1,0,0:0:0:0:
199,228,53763,5,0,0:0:0:0:
42,66,53934,5,0,0:0:0:0:
67,289,54106,5,0,0:0:0:0:
204,109,54277,5,0,0:0:0:0:
248,104,54363,1,0,0:0:0:0:
293,103,54448,1,0,0:0:0:0:
338,105,54534,1,0,0:0:0:0:
383,110,54620,1,0,0:0:0:0:
427,119,54706,1,0,0:0:0:0:
470,131,54791,1,0,0:0:0:0:
512,147,54877,1,0,0:0:0:0:
479,224,54963,6,0,P|390:210|306:237,1,180
270,266,55477,1,0,0:0:0:0:
132,89,55648,2,0,P|146:177|129:264,1,180
25,224,56163,1,0,0:0:0:0:
75,51,56334,1,0,0:0:0:0:
89,275,56506,1,0,0:0:0:0:
274,144,56677,2,0,L|185:136,1,90
390,41,57020,2,0,L|480:48,1,90
274,144,57363,2,0,P|196:99|147:24,1,180
148,25,58048,5,0,0:0:0:0:
97,244,58220,5,0,0:0:0:0:
403,124,58563,5,0,0:0:0:0:
245,282,58734,1,0,0:0:0:0:
290,275,58820,1,0,0:0:0:0:
334,266,58906,1,0,0:0:0:0:
379,257,58991,1,0,0:0:0:0:
423,249,59077,1,0,0:0:0:0:
207,185,59248,5,0,0:0:0:0:
364,347,59420,5,0,0:0:0:0:
339,124,59591,5,0,0:0:0:0:
480,300,59763,5,0,0:0:0:0:
436,304,59848,1,0,0:0:0:0:
391,305,59934,1,0,0:0:0:0:
346,303,60020,1,0,0:0:0:0:
301,298,60106,1,0,0:0:0:0:
257,289,60191,1,0,0:0:0:0:
214,277,60277,1,0,0:0:0:0:
171,262,60363,1,0,0:0:0:0:
79,195,60448,6,0,P|168:181|252:208,1,180
276,222,60963,1,0,0:0:0:0:
129,51,61134,2,0,P|111:139|126:228,1,180
353,222,61648,1,0,0:0:0:0:
240,82,61820,1,0,0:0:0:0:
422,214,61991,1,0,0:0:0:0:
209,288,62163,2,0,L|120:296,1,90
294,152,62506,2,0,L|384:145,1,90
177,55,62848,2,0,L|357:41,1,180
356,41,63534,5,0,0:0:0:0:
470,260,63877,2,0,P|425:260|383:243,1,90
232,185,64220,2,0,L|218:273,1,90
334,80,64563,2,0,B|376:81|376:81|511:57,1,180
317,172,65077,2,0,L|227:180,1,90
408,315,65420,2,0,L|497:306,1,90
497,306,65763,1,0,0:0:0:0:
98,164,76906,6,0,P|178:203|267:200,1,180
180,42,77420,1,0,0:0:0:0:
135,39,77506,1,0,0:0:0:0:
92,52,77591,1,0,0:0:0:0:
121,230,77763,1,0,0:0:0:0:
274,136,77934,1,0,0:0:0:0:
51,171,78106,1,0,0:0:0:0:
247,279,78277,6,0,L|426:270,1,180
262,115,78791,1,0,0:0:0:0:
217,117,78877,1,0,0:0:0:0:
172,119,78963,1,0,0:0:0:0:
382,201,79134,2,0,L|292:205,1,90
71,158,79477,1,0,0:0:0:0:
292,205,79648,6,0,P|340:234|409:336,1,180
197,251,80163,1,0,0:0:0:0:
198,206,80248,1,0,0:0:0:0:
199,161,80334,1,0,0:0:0:0:
44,254,80506,1,0,0:0:0:0:
42,298,80591,1,0,0:0:0:0:
41,343,80677,1,0,0:0:0:0:
127,186,80848,1,0,0:0:0:0:
284,97,81020,6,0,L|104:83,1,180
180,247,81534,1,0,0:0:0:0:
135,243,81620,1,0,0:0:0:0:
90,240,81706,1,0,0:0:0:0:
298,159,81877,1,0,0:0:0:0:
205,312,82048,1,0,0:0:0:0:
223,86,82220,1,0,0:0:0:0:
271,258,82391,5,0,0:0:0:0:
75,145,82563,1,0,0:0:0:0:
249,188,82734,2,0,P|338:192|423:164,1,180
448,146,83163,1,0,0:0:0:0:
477,111,83248,1,0,0:0:0:0:
301,253,83420,2,0,L|331:337,1,90
383,164,83763,6,0,P|378:121|352:79,1,90
160,197,84106,2,0,L|260:170,1,90
54,57,84448,1,0,0:0:0:0:
38,99,84534,1,0,0:0:0:0:
32,143,84620,1,0,0:0:0:0:
34,188,84706,1,0,0:0:0:0:
45,232,84791,1,0,0:0:0:0:
245,339,84963,1,0,0:0:0:0:
455,261,85134,6,0,P|465:217|463:172,1,90
458,151,85477,1,0,0:0:0:0:
358,352,85648,1,0,0:0:0:0:
296,134,85820,1,0,0:0:0:0:
301,89,85906,1,0,0:0:0:0:
307,44,85991,1,0,0:0:0:0:
403,248,86163,2,0,P|360:232|316:228,1,90
114,329,86506,6,0,L|136:241,1,90
339,147,86848,2,0,P|307:177|265:192,1,90
64,89,87191,5,0,0:0:0:0:
105,70,87277,1,0,0:0:0:0:
148,58,87363,1,0,0:0:0:0:
193,54,87448,1,0,0:0:0:0:
238,56,87534,1,0,0:0:0:0:
282,64,87620,1,0,0:0:0:0:
324,80,87706,1,0,0:0:0:0:
363,102,87791,1,0,0:0:0:0:
433,189,87877,6,0,P|352:228|263:224,1,180
332,42,88391,1,0,0:0:0:0:
377,39,88477,1,0,0:0:0:0:
420,52,88563,1,0,0:0:0:0:
391,230,88734,1,0,0:0:0:0:
238,136,88906,1,0,0:0:0:0:
461,171,89077,1,0,0:0:0:0:
265,279,89248,6,0,L|86:270,1,180
250,115,89763,1,0,0:0:0:0:
295,117,89848,1,0,0:0:0:0:
340,119,89934,1,0,0:0:0:0:
130,201,90106,2,0,L|220:205,1,90
441,158,90448,1,0,0:0:0:0:
219,205,90620,6,0,P|147:257|104:335,1,180
315,251,91134,1,0,0:0:0:0:
314,206,91220,1,0,0:0:0:0:
313,161,91306,1,0,0:0:0:0:
468,254,91477,1,0,0:0:0:0:
470,298,91563,1,0,0:0:0:0:
471,343,91648,1,0,0:0:0:0:
385,186,91820,1,0,0:0:0:0:
228,97,91991,6,0,L|408:83,1,180
332,247,92506,1,0,0:0:0:0:
377,243,92591,1,0,0:0:0:0:
422,240,92677,1,0,0:0:0:0:
214,159,92848,1,0,0:0:0:0:
307,312,93020,1,0,0:0:0:0:
289,86,93191,1,0,0:0:0:0:
241,258,93363,5,0,0:0:0:0:
437,145,93534,1,0,0:0:0:0:
263,187,93706,2,0,P|173:191|88:163,1,180
64,146,94134,1,0,0:0:0:0:
35,111,94220,1,0,0:0:0:0:
211,253,94391,2,0,L|181:337,1,90
128,163,94734,6,0,P|134:119|157:81,1,90
352,197,95077,2,0,L|265:173,1,90
458,57,95420,1,0,0:0:0:0:
474,99,95506,1,0,0:0:0:0:
480,143,95591,1,0,0:0:0:0:
478,188,95677,1,0,0:0:0:0:
467,232,95763,1,0,0:0:0:0:
267,339,95934,1,0,0:0:0:0:
56,260,96106,6,0,P|47:217|48:172,1,90
54,151,96448,1,0,0:0:0:0:
154,352,96620,1,0,0:0:0:0:
216,134,96791,1,0,0:0:0:0:
211,89,96877,1,0,0:0:0:0:
205,44,96963,1,0,0:0:0:0:
109,247,97134,2,0,P|151:232|195:227,1,90
398,329,97477,6,0,L|376:241,1,90
172,146,97820,2,0,P|205:177|247:192,1,90
448,89,98163,5,0,0:0:0:0:
407,70,98248,1,0,0:0:0:0:
364,58,98334,1,0,0:0:0:0:
319,54,98420,1,0,0:0:0:0:
274,56,98506,1,0,0:0:0:0:
230,64,98591,1,0,0:0:0:0:
188,80,98677,1,0,0:0:0:0:
149,102,98763,1,0,0:0:0:0:
70,182,98848,6,0,L|90:362,1,180
274,230,99363,1,0,0:0:0:0:
229,227,99448,1,0,0:0:0:0:
186,240,99534,1,0,0:0:0:0:
378,357,99706,1,0,0:0:0:0:
405,134,99877,1,0,0:0:0:0:
457,306,100048,1,0,0:0:0:0:
296,225,100220,6,0,L|476:215,1,180
262,115,100734,1,0,0:0:0:0:
217,117,100820,1,0,0:0:0:0:
172,119,100906,1,0,0:0:0:0:
51,253,101077,2,0,L|141:249,1,90
166,250,101420,1,0,0:0:0:0:
344,256,101591,6,0,P|368:169|352:82,1,180
214,197,102106,1,0,0:0:0:0:
213,242,102191,1,0,0:0:0:0:
212,287,102277,1,0,0:0:0:0:
380,221,102448,1,0,0:0:0:0:
381,176,102534,1,0,0:0:0:0:
383,132,102620,1,0,0:0:0:0:
209,86,102791,1,0,0:0:0:0:
83,216,102963,6,0,L|263:230,1,180
414,132,103477,1,0,0:0:0:0:
369,128,103563,1,0,0:0:0:0:
324,125,103648,1,0,0:0:0:0:
145,153,103820,1,0,0:0:0:0:
364,198,103991,1,0,0:0:0:0:
179,67,104163,1,0,0:0:0:0:
211,289,104334,5,0,0:0:0:0:
24,161,104506,1,0,0:0:0:0:
246,193,104677,2,0,P|335:197|420:169,1,180
448,146,105106,1,0,0:0:0:0:
477,111,105191,1,0,0:0:0:0:
301,253,105363,2,0,L|331:337,1,90
383,164,105706,6,0,P|378:121|352:79,1,90
160,197,106048,2,0,L|260:170,1,90
54,57,106391,1,0,0:0:0:0:
38,99,106477,1,0,0:0:0:0:
32,143,106563,1,0,0:0:0:0:
34,188,106648,1,0,0:0:0:0:
45,232,106734,1,0,0:0:0:0:
245,339,106906,1,0,0:0:0:0:
455,261,107077,6,0,P|465:217|463:172,1,90
458,151,107420,1,0,0:0:0:0:
358,352,107591,1,0,0:0:0:0:
245,155,107763,2,0,P|200:154|158:171,1,90
204,346,108106,2,0,L|218:258,1,90
337,122,108448,2,0,L|307:306,1,180
304,324,108963,1,0,0:0:0:0:
143,244,109134,5,0,0:0:0:0:
184,225,109220,1,0,0:0:0:0:
227,213,109306,1,0,0:0:0:0:
272,209,109391,1,0,0:0:0:0:
317,211,109477,1,0,0:0:0:0:
361,219,109563,1,0,0:0:0:0:
403,235,109648,1,0,0:0:0:0:
442,257,109734,1,0,0:0:0:0:
478,285,109820,1,0,0:0:0:0:
330,184,120791,6,0,P|249:224|177:168,1,180
369,50,121306,1,0,0:0:0:0:
402,79,121391,1,0,0:0:0:0:
424,119,121477,1,0,0:0:0:0:
270,282,121648,1,0,0:0:0:0:
400,186,121820,1,0,0:0:0:0:
178,223,121991,1,0,0:0:0:0:
43,343,122163,6,0,L|52:164,1,180
229,197,122677,1,0,0:0:0:0:
227,242,122763,1,0,0:0:0:0:
225,287,122848,1,0,0:0:0:0:
143,77,123020,2,0,L|139:167,1,90
125,347,123363,1,0,0:0:0:0:
242,211,123534,6,0,P|256:123|232:37,1,180
129,184,124048,1,0,0:0:0:0:
130,229,124134,1,0,0:0:0:0:
131,274,124220,1,0,0:0:0:0:
282,176,124391,1,0,0:0:0:0:
284,132,124477,1,0,0:0:0:0:
285,87,124563,1,0,0:0:0:0:
203,246,124734,1,0,0:0:0:0:
316,105,124906,6,0,L|496:91,1,180
290,236,125420,1,0,0:0:0:0:
335,232,125506,1,0,0:0:0:0:
380,229,125591,1,0,0:0:0:0:
222,140,125763,1,0,0:0:0:0:
297,303,125934,1,0,0:0:0:0:
308,77,126106,1,0,0:0:0:0:
228,238,126277,5,0,0:0:0:0:
435,153,126448,1,0,0:0:0:0:
263,187,126620,2,0,P|173:191|88:163,1,180
64,146,127048,1,0,0:0:0:0:
35,111,127134,1,0,0:0:0:0:
211,253,127306,2,0,L|181:337,1,90
128,163,127648,6,0,P|134:119|157:81,1,90
352,197,127991,2,0,L|265:173,1,90
458,57,128334,1,0,0:0:0:0:
474,99,128420,1,0,0:0:0:0:
480,143,128506,1,0,0:0:0:0:
478,188,128591,1,0,0:0:0:0:
467,232,128677,1,0,0:0:0:0:
267,339,128848,1,0,0:0:0:0:
56,260,129020,6,0,P|47:217|48:172,1,90
54,151,129363,1,0,0:0:0:0:
154,352,129534,1,0,0:0:0:0:
216,134,129706,1,0,0:0:0:0:
211,89,129791,1,0,0:0:0:0:
205,44,129877,1,0,0:0:0:0:
109,247,130048,2,0,P|151:232|195:227,1,90
398,329,130391,6,0,L|376:241,1,90
172,146,130734,2,0,P|205:177|247:192,1,90
448,89,131077,5,0,0:0:0:0:
407,70,131163,1,0,0:0:0:0:
364,58,131248,1,0,0:0:0:0:
319,54,131334,1,0,0:0:0:0:
274,56,131420,1,0,0:0:0:0:
230,64,131506,1,0,0:0:0:0:
188,80,131591,1,0,0:0:0:0:
149,102,131677,1,0,0:0:0:0:
78,189,131763,6,0,P|159:228|248:224,1,180
180,42,132277,1,0,0:0:0:0:
135,39,132363,1,0,0:0:0:0:
92,52,132448,1,0,0:0:0:0:
121,230,132620,1,0,0:0:0:0:
274,136,132791,1,0,0:0:0:0:
51,171,132963,1,0,0:0:0:0:
247,279,133134,6,0,L|426:270,1,180
262,115,133648,1,0,0:0:0:0:
217,117,133734,1,0,0:0:0:0:
172,119,133820,1,0,0:0:0:0:
382,201,133991,2,0,L|292:205,1,90
71,158,134334,1,0,0:0:0:0:
292,205,134506,6,0,P|364:257|408:334,1,180
197,251,135020,1,0,0:0:0:0:
198,206,135106,1,0,0:0:0:0:
199,161,135191,1,0,0:0:0:0:
44,254,135363,1,0,0:0:0:0:
42,298,135448,1,0,0:0:0:0:
41,343,135534,1,0,0:0:0:0:
127,186,135706,1,0,0:0:0:0:
284,97,135877,6,0,L|104:83,1,180
180,247,136391,1,0,0:0:0:0:
135,243,136477,1,0,0:0:0:0:
90,240,136563,1,0,0:0:0:0:
298,159,136734,1,0,0:0:0:0:
205,312,136906,1,0,0:0:0:0:
223,86,137077,1,0,0:0:0:0:
271,258,137248,5,0,0:0:0:0:
75,145,137420,1,0,0:0:0:0:
248,187,137591,2,0,P|338:191|423:163,1,180
448,146,138020,1,0,0:0:0:0:
477,111,138106,1,0,0:0:0:0:
301,253,138277,2,0,L|331:337,1,90
383,163,138620,6,0,P|377:119|354:81,1,90
160,197,138963,2,0,L|246:173,1,90
54,57,139306,1,0,0:0:0:0:
38,99,139391,1,0,0:0:0:0:
32,143,139477,1,0,0:0:0:0:
34,188,139563,1,0,0:0:0:0:
45,232,139648,1,0,0:0:0:0:
245,339,139820,1,0,0:0:0:0:
455,260,139991,6,0,P|464:217|463:172,1,90
458,151,140334,1,0,0:0:0:0:
358,352,140506,1,0,0:0:0:0:
296,134,140677,1,0,0:0:0:0:
301,89,140763,1,0,0:0:0:0:
307,44,140848,1,0,0:0:0:0:
402,247,141020,2,0,P|360:232|316:227,1,90
114,329,141363,6,0,L|136:241,1,90
339,146,141706,2,0,P|306:177|264:192,1,90
64,89,142048,5,0,0:0:0:0:
105,70,142134,1,0,0:0:0:0:
148,58,142220,1,0,0:0:0:0:
193,54,142306,1,0,0:0:0:0:
238,56,142391,1,0,0:0:0:0:
282,64,142477,1,0,0:0:0:0:
324,80,142563,1,0,0:0:0:0:
363,102,142648,1,0,0:0:0:0:
442,182,142734,6,0,L|422:360,1,180
238,230,143248,1,0,0:0:0:0:
283,227,143334,1,0,0:0:0:0:
326,240,143420,1,0,0:0:0:0:
134,357,143591,1,0,0:0:0:0:
107,134,143763,1,0,0:0:0:0:
55,306,143934,1,0,0:0:0:0:
216,225,144106,6,0,L|37:216,1,180
250,115,144620,1,0,0:0:0:0:
295,117,144706,1,0,0:0:0:0:
340,119,144791,1,0,0:0:0:0:
461,253,144963,2,0,L|371:249,1,90
346,250,145306,1,0,0:0:0:0:
167,256,145477,6,0,P|143:169|157:81,1,180
298,197,145991,1,0,0:0:0:0:
299,242,146077,1,0,0:0:0:0:
300,287,146163,1,0,0:0:0:0:
132,221,146334,1,0,0:0:0:0:
131,176,146420,1,0,0:0:0:0:
129,132,146506,1,0,0:0:0:0:
303,86,146677,1,0,0:0:0:0:
429,216,146848,6,0,L|249:230,1,180
98,132,147363,1,0,0:0:0:0:
143,128,147448,1,0,0:0:0:0:
188,125,147534,1,0,0:0:0:0:
367,153,147706,1,0,0:0:0:0:
148,198,147877,1,0,0:0:0:0:
333,67,148048,1,0,0:0:0:0:
301,289,148220,5,0,0:0:0:0:
488,161,148391,1,0,0:0:0:0:
266,192,148563,2,0,P|176:196|91:168,1,180
64,146,148991,1,0,0:0:0:0:
35,111,149077,1,0,0:0:0:0:
211,253,149248,2,0,L|181:337,1,90
128,163,149591,6,0,P|134:119|157:81,1,90
352,197,149934,2,0,L|265:173,1,90
458,57,150277,1,0,0:0:0:0:
474,99,150363,1,0,0:0:0:0:
480,143,150448,1,0,0:0:0:0:
478,188,150534,1,0,0:0:0:0:
467,232,150620,1,0,0:0:0:0:
267,339,150791,1,0,0:0:0:0:
56,260,150963,6,0,P|47:217|48:172,1,90
54,151,151306,1,0,0:0:0:0:
154,352,151477,1,0,0:0:0:0:
159,137,151648,2,0,L|173:225,1,90
308,346,151991,2,0,L|294:258,1,90
175,122,152334,2,0,L|203:299,1,180
208,324,152848,1,0,0:0:0:0:
384,363,153020,5,0,0:0:0:0:
403,322,153106,1,0,0:0:0:0:
415,279,153191,1,0,0:0:0:0:
419,234,153277,1,0,0:0:0:0:
417,189,153363,1,0,0:0:0:0:
409,145,153448,1,0,0:0:0:0:
393,103,153534,1,0,0:0:0:0:
371,64,153620,1,0,0:0:0:0:
343,29,153706,1,0,0:0:0:0:
