osu file format v14

[General]
AudioFilename: audio.mp3
AudioLeadIn: 0
PreviewTime: 137204
Countdown: 1
SampleSet: Soft
StackLeniency: 0.2
Mode: 0
LetterboxInBreaks: 0
WidescreenStoryboard: 1

[Editor]
Bookmarks: 14244,27369,28849,35658,37435,44046,49474,59638,63783,72467,76612,89145,142137,142630,207762,216051,226512
DistanceSpacing: 1.6
BeatDivisor: 4
GridSize: 8
TimelineZoom: 2.7

[Metadata]
Title:Kono Fuzaketa Subarashiki Sekai wa, Boku no Tame ni Aru
TitleUnicode:このふざけた素晴らしき世界は、僕の為にある
Artist:n.k
ArtistUnicode:n.k
Creator:MCO3
Version:Insane
Source:niconico
Tags:miku , niconico
BeatmapID:1082615
BeatmapSetID:509061

[Difficulty]
HPDrainRate:6
CircleSize:4
OverallDifficulty:8
ApproachRate:9
SliderMultiplier:1.4
SliderTickRate:1

[Events]
//Background and Video events
0,0,"2016-07-29 21_34_33-.jpg",0,0
//Break Periods
2,39608,44729
//Storyboard Layer 0 (Background)
//Storyboard Layer 1 (Fail)
//Storyboard Layer 2 (Pass)
//Storyboard Layer 3 (Foreground)
//Storyboard Sound Samples

[TimingPoints]
4671.86549470266,394.736842105263,4,2,0,50,1,0
6250,-133.333333333333,4,2,0,50,0,0
6350,-66.6666666666667,4,2,0,50,0,0
7040,-100,4,2,0,50,0,0
14145,-66.6666666666667,4,2,0,50,0,1
25198,-66.6666666666667,4,2,0,50,0,0
25198,-66.6666666666667,4,2,0,50,0,1
27961,-25,4,2,0,50,0,0
28356,-66.6666666666667,4,2,0,50,0,0
71777,-100,4,2,0,50,0,0
72566,-66.6666666666667,4,2,0,50,0,1
96250,-66.6666666666667,4,2,0,50,0,0
106908,-33.3333333333333,4,2,0,50,0,0
110065,-66.6666666666667,4,2,0,50,0,0
137302,394.736842105263,4,2,0,50,1,1
137302,-66.6666666666667,4,2,0,50,0,1
160990,-200,4,2,0,50,0,0
163749,-66.6666666666667,4,2,0,50,0,0
164144,-200,4,2,0,50,0,0
165328,-66.6666666666667,4,2,0,50,0,0
165723,-200,4,2,0,50,0,0
166019,-200,4,2,0,5,0,0
166117,-200,4,2,0,50,0,0
166413,-200,4,2,0,5,0,0
166512,-200,4,2,0,50,0,0
166808,-200,4,2,0,5,0,0
166907,-200,4,2,0,50,0,0
167203,-200,4,2,0,5,0,0
167302,-100,4,2,0,65,0,0
172334,-100,4,2,0,5,0,0
172433,-100,4,2,0,65,0,0
172729,-100,4,2,0,5,0,0
172828,-100,4,2,0,65,0,0
173124,-100,4,2,0,5,0,0
173223,-100,4,2,0,65,0,0
173519,-100,4,2,0,65,0,0
177565,-66.6666666666667,4,2,0,50,0,0
184374,-133.333333333333,4,2,0,50,0,0
185953,-66.6666666666667,4,2,0,50,0,0
200197,-100,4,2,0,50,0,0
201828,-66.6666666666667,4,2,0,50,0,1
226512,-66.6666666666667,4,2,0,50,0,0
248815,-50,4,2,0,50,0,0
250298,-66.6666666666667,4,2,0,50,0,0
260953,-66.6666666666667,4,2,0,5,0,0

[HitObjects]
329,55,724,6,0,P|401:52|464:95,1,140
324,275,1513,2,0,L|259:249,1,70
211,229,1810,1,0,0:0:0:0:
173,211,1908,1,0,0:0:0:0:
233,72,2106,5,0,0:0:0:0:
116,279,2303,1,0,0:0:0:0:
294,116,2500,2,0,L|342:116,2,35
208,330,2895,1,0,0:0:0:0:
454,186,3092,2,0,L|366:154,1,70
337,145,3388,1,0,0:0:0:0:
108,288,3685,1,0,0:0:0:0:
113,80,3882,1,0,0:0:0:0:
403,307,4277,5,0,0:0:0:0:
292,129,4474,1,0,0:0:0:0:
121,228,4671,2,0,L|195:266,1,70
231,282,4967,1,0,0:0:0:0:
280,260,5066,2,0,L|354:222,1,70
336,77,5461,1,0,0:0:0:0:
336,293,5658,2,0,L|384:293,2,35
175,149,6053,1,0,0:0:0:0:
385,122,6250,2,0,P|375:200|308:269,1,157.500006008148
162,281,7040,5,0,0:0:0:0:
52,49,7435,1,0,0:0:0:0:
432,52,7829,5,0,0:0:0:0:
179,228,8125,1,0,0:0:0:0:
234,233,8224,2,0,L|322:241,1,70
395,344,8619,1,0,0:0:0:0:
155,289,8915,1,0,0:0:0:0:
167,237,9013,2,0,L|239:253,1,70
395,164,9408,5,0,0:0:0:0:
155,85,9704,1,0,0:0:0:0:
209,84,9803,2,0,L|279:84,1,70
218,307,10198,1,0,0:0:0:0:
88,77,10493,1,0,0:0:0:0:
143,76,10592,2,0,L|223:76,1,70
413,159,10987,2,0,L|358:236,1,70
339,258,11283,1,0,0:0:0:0:
304,299,11382,1,0,0:0:0:0:
102,182,11579,5,0,0:0:0:0:
253,68,11777,1,0,0:0:0:0:
102,182,11974,1,0,0:0:0:0:
361,201,12171,1,0,0:0:0:0:
166,90,12369,1,0,0:0:0:0:
166,252,12566,2,0,L|318:236,1,140
399,103,13158,5,0,0:0:0:0:
226,74,13356,1,0,0:0:0:0:
164,88,13454,1,0,0:0:0:0:
113,127,13553,1,0,0:0:0:0:
76,180,13652,1,0,0:0:0:0:
70,244,13750,2,0,P|68:287|84:313,1,70
435,305,14145,6,0,L|330:297,1,105.000004005432
269,291,14440,1,0,0:0:0:0:
206,281,14539,1,0,0:0:0:0:
417,195,14737,1,0,0:0:0:0:
293,307,14935,1,0,0:0:0:0:
193,190,15132,1,0,0:0:0:0:
258,193,15231,1,0,0:0:0:0:
318,216,15329,1,0,0:0:0:0:
446,342,15527,5,0,0:0:0:0:
72,309,15724,2,0,P|130:336|200:325,1,105.000004005432
232,327,16020,1,0,0:0:0:0:
289,296,16119,1,0,0:0:0:0:
416,137,16316,1,0,0:0:0:0:
454,257,16513,2,0,P|407:278|356:268,1,105.000004005432
306,229,16810,1,0,0:0:0:0:
264,183,16908,1,0,0:0:0:0:
69,244,17106,5,0,0:0:0:0:
110,291,17204,1,0,0:0:0:0:
169,314,17303,2,0,P|218:328|289:314,1,105.000004005432
329,297,17599,1,0,0:0:0:0:
372,250,17698,1,0,0:0:0:0:
255,61,17895,1,0,0:0:0:0:
135,246,18092,6,0,L|263:238,1,105.000004005432
302,234,18388,1,0,0:0:0:0:
367,229,18487,1,0,0:0:0:0:
255,61,18685,1,0,0:0:0:0:
141,275,18882,6,0,P|206:289|261:275,1,105.000004005432
304,270,19178,1,0,0:0:0:0:
356,234,19277,1,0,0:0:0:0:
255,61,19474,1,0,0:0:0:0:
117,256,19671,5,0,0:0:0:0:
165,296,19770,1,0,0:0:0:0:
228,303,19869,1,0,0:0:0:0:
417,67,20066,5,0,0:0:0:0:
454,268,20263,1,0,0:0:0:0:
404,307,20362,1,0,0:0:0:0:
347,333,20461,2,0,P|307:348|241:312,1,105.000004005432
106,180,20856,1,0,0:0:0:0:
263,49,21053,1,0,0:0:0:0:
417,309,21250,1,0,0:0:0:0:
354,324,21349,1,0,0:0:0:0:
290,329,21448,1,0,0:0:0:0:
227,317,21546,1,0,0:0:0:0:
174,284,21645,1,0,0:0:0:0:
95,69,21842,1,0,0:0:0:0:
312,176,22040,6,0,P|260:166|208:169,1,105.000004005432
148,189,22336,1,0,0:0:0:0:
96,226,22435,1,0,0:0:0:0:
335,316,22632,1,0,0:0:0:0:
149,111,22829,5,0,0:0:0:0:
207,85,22928,1,0,0:0:0:0:
268,71,23027,1,0,0:0:0:0:
329,86,23125,1,0,0:0:0:0:
384,118,23224,1,0,0:0:0:0:
374,302,23421,1,0,0:0:0:0:
54,303,23619,2,0,L|200:263,1,105.000004005432
215,255,23915,1,0,0:0:0:0:
275,233,24013,1,0,0:0:0:0:
413,79,24211,1,0,0:0:0:0:
176,51,24408,2,0,P|139:102|143:157,1,105.000004005432
149,206,24704,1,0,0:0:0:0:
178,264,24803,1,0,0:0:0:0:
226,306,24902,1,0,0:0:0:0:
288,321,25000,1,0,0:0:0:0:
333,49,25198,2,0,P|381:57|453:129,1,105.000004005432
460,130,25494,1,0,0:0:0:0:
322,177,25790,5,0,0:0:0:0:
148,214,25987,2,0,P|190:268|240:284,1,105.000004005432
274,290,26283,1,0,0:0:0:0:
236,55,26579,1,0,0:0:0:0:
313,186,26777,1,0,0:0:0:0:
437,54,26974,1,0,0:0:0:0:
249,185,27171,1,0,0:0:0:0:
374,55,27369,1,0,0:0:0:0:
120,78,27566,2,0,L|248:70,1,105.000004005432
330,218,27961,2,0,B|262:331|262:331|395:256,1,280
444,122,28356,1,0,0:0:0:0:
308,114,28553,1,0,0:0:0:0:
286,123,28652,1,0,0:0:0:0:
152,171,28849,1,0,0:0:0:0:
173,164,28948,1,0,0:0:0:0:
332,303,29145,1,0,0:0:0:0:
287,94,29342,2,0,P|324:83|363:103,1,52.5000020027161
393,184,29540,2,0,P|365:222|319:225,1,52.5000020027161
250,225,29737,2,0,P|222:197|219:150,1,52.5000020027161
224,74,29935,2,0,P|280:55|352:74,1,105.000004005432
382,82,30231,2,0,P|418:136|404:199,1,105.000004005432
418,237,30527,2,0,P|392:242|365:237,1,52.5000020027161
330,189,30724,2,0,P|281:169|225:189,1,105.000004005432
92,297,31119,2,0,P|144:316|212:305,1,105.000004005432
382,196,31513,1,0,0:0:0:0:
59,34,31711,1,0,0:0:0:0:
82,41,31810,1,0,0:0:0:0:
218,82,32007,1,0,0:0:0:0:
195,75,32106,1,0,0:0:0:0:
84,205,32303,1,0,0:0:0:0:
229,291,32500,2,0,P|240:314|261:330,1,52.5000020027161
372,329,32697,2,0,P|392:312|403:289,1,52.5000020027161
348,190,32895,2,0,P|322:188|298:198,1,52.5000020027161
235,290,33093,2,0,P|171:298|123:268,1,105.000004005432
84,245,33388,2,0,P|132:225|182:235,1,105.000004005432
242,261,33685,2,0,P|276:276|330:261,1,52.5000020027161
350,284,33882,2,0,P|370:223|353:178,1,105.000004005432
71,61,34277,2,0,P|158:53|216:72,1,105.000004005432
336,196,34671,1,0,0:0:0:0:
87,333,34869,1,0,0:0:0:0:
108,326,34967,1,0,0:0:0:0:
243,276,35165,1,0,0:0:0:0:
221,285,35263,1,0,0:0:0:0:
93,111,35461,1,0,0:0:0:0:
285,81,35658,2,0,P|318:102|327:128,1,52.5000020027161
217,186,35856,2,0,P|238:219|264:228,1,52.5000020027161
372,222,36053,2,0,P|404:242|414:269,1,52.5000020027161
340,328,36251,2,0,P|281:337|235:328,1,105.000004005432
182,303,36547,2,0,P|125:277|93:235,1,105.000004005432
78,186,36843,2,0,P|82:149|116:115,1,52.5000020027161
120,81,37040,2,0,P|176:63|240:81,1,105.000004005432
291,276,37435,2,0,P|241:284|186:269,1,105.000004005432
185,55,37829,1,0,0:0:0:0:
382,234,38026,1,0,0:0:0:0:
360,243,38125,1,0,0:0:0:0:
226,291,38322,1,0,0:0:0:0:
247,284,38421,1,0,0:0:0:0:
431,83,38619,1,0,0:0:0:0:
381,84,38717,1,0,0:0:0:0:
332,93,38816,1,0,0:0:0:0:
296,127,38915,1,0,0:0:0:0:
292,177,39013,1,0,0:0:0:0:
290,226,39112,1,0,0:0:0:0:
258,266,39211,1,0,0:0:0:0:
209,279,39310,1,0,0:0:0:0:
158,274,39408,1,0,0:0:0:0:
421,282,45329,5,0,0:0:0:0:
319,126,45527,1,0,0:0:0:0:
157,248,45724,2,0,P|211:265|277:256,1,105.000004005432
311,251,46020,1,0,0:0:0:0:
355,220,46119,1,0,0:0:0:0:
197,125,46316,1,0,0:0:0:0:
60,242,46513,2,0,P|74:305|110:343,1,105.000004005432
265,184,46908,1,0,0:0:0:0:
81,134,47106,1,0,0:0:0:0:
173,197,47303,2,0,P|237:220|317:213,1,105.000004005432
327,220,47599,1,0,0:0:0:0:
378,202,47698,1,0,0:0:0:0:
249,78,47895,5,0,0:0:0:0:
109,194,48092,1,0,0:0:0:0:
287,227,48290,2,0,L|309:180,1,52.5000020027161
409,50,48586,1,0,0:0:0:0:
379,65,48685,1,0,0:0:0:0:
406,184,48882,2,0,B|276:190|308:270|244:302,1,210.000008010865
88,268,49474,2,0,P|73:202|94:139,1,105.000004005432
207,74,49869,1,0,0:0:0:0:
259,88,49967,1,0,0:0:0:0:
302,120,50066,1,0,0:0:0:0:
207,251,50263,1,0,0:0:0:0:
98,99,50461,2,0,P|159:88|210:107,1,105.000004005432
244,127,50757,1,0,0:0:0:0:
282,157,50856,5,0,0:0:0:0:
141,302,51053,1,0,0:0:0:0:
111,263,51152,1,0,0:0:0:0:
93,217,51250,1,0,0:0:0:0:
189,68,51448,1,0,0:0:0:0:
247,225,51645,1,0,0:0:0:0:
329,79,51842,1,0,0:0:0:0:
247,225,52040,2,0,P|310:212|367:225,1,105.000004005432
400,230,52336,1,0,0:0:0:0:
444,256,52435,1,0,0:0:0:0:
334,68,52632,1,0,0:0:0:0:
252,235,52829,2,0,P|204:284|155:303,1,105.000004005432
84,165,53224,5,0,0:0:0:0:
203,47,53421,1,0,0:0:0:0:
95,284,53619,2,0,P|163:301|215:292,1,105.000004005432
249,286,53915,1,0,0:0:0:0:
290,258,54013,1,0,0:0:0:0:
314,78,54211,1,0,0:0:0:0:
86,119,54408,1,0,0:0:0:0:
134,137,54507,1,0,0:0:0:0:
171,168,54606,1,0,0:0:0:0:
248,345,54803,1,0,0:0:0:0:
369,172,55000,1,0,0:0:0:0:
86,119,55198,2,0,P|147:106|214:127,1,105.000004005432
240,128,55494,1,0,0:0:0:0:
285,152,55592,1,0,0:0:0:0:
231,311,55790,1,0,0:0:0:0:
142,165,55987,1,0,0:0:0:0:
231,311,56185,1,0,0:0:0:0:
435,111,56382,2,0,B|466:166|435:244,1,105.000004005432
163,192,56777,1,0,0:0:0:0:
256,192,56875,12,0,57566,0:0:0:0:
97,68,57763,5,0,0:0:0:0:
149,84,57862,1,0,0:0:0:0:
191,116,57961,1,0,0:0:0:0:
221,158,58060,1,0,0:0:0:0:
235,207,58158,1,0,0:0:0:0:
355,325,58356,1,0,0:0:0:0:
417,115,58553,2,0,P|371:101|312:108,1,105.000004005432
264,318,58948,1,0,0:0:0:0:
237,110,59145,2,0,P|197:94|132:103,1,105.000004005432
83,275,59540,2,0,P|138:306|218:288,1,105.000004005432
228,116,59935,2,0,P|284:101|348:116,1,105.000004005432
377,134,60231,1,0,0:0:0:0:
412,171,60329,1,0,0:0:0:0:
294,282,60527,1,0,0:0:0:0:
248,306,60625,1,0,0:0:0:0:
198,323,60724,2,0,P|149:330|93:323,1,105.000004005432
96,110,61119,1,0,0:0:0:0:
308,251,61316,1,0,0:0:0:0:
248,38,61513,1,0,0:0:0:0:
256,192,61612,12,0,63092,0:0:0:0:
125,84,64277,5,0,0:0:0:0:
242,294,64474,1,0,0:0:0:0:
319,84,64671,1,0,0:0:0:0:
438,294,64869,2,0,P|391:302|333:294,1,105.000004005432
194,199,65263,1,0,0:0:0:0:
343,57,65461,2,0,P|404:53|447:73,1,105.000004005432
410,278,65856,2,0,P|361:290|305:272,1,105.000004005432
89,208,66250,2,0,P|59:147|68:77,1,105.000004005432
82,65,66546,1,0,0:0:0:0:
122,36,66645,1,0,0:0:0:0:
311,66,66842,1,0,0:0:0:0:
346,102,66941,1,0,0:0:0:0:
354,153,67040,2,0,P|348:206|310:260,1,105.000004005432
79,317,67435,2,0,P|138:324|191:301,1,105.000004005432
306,199,67829,1,0,0:0:0:0:
428,59,68027,2,0,P|372:57|315:71,1,105.000004005432
167,137,68421,1,0,0:0:0:0:
99,296,68619,1,0,0:0:0:0:
326,153,68816,1,0,0:0:0:0:
344,181,68915,1,0,0:0:0:0:
360,215,69013,2,0,P|376:251|378:292,1,52.5000020027161
302,330,69211,2,0,P|276:342|249:335,1,52.5000020027161
159,251,69408,2,0,L|134:119,1,105.000004005432
128,95,69704,1,0,0:0:0:0:
120,47,69803,1,0,0:0:0:0:
274,55,70000,1,0,0:0:0:0:
318,80,70099,1,0,0:0:0:0:
349,119,70198,1,0,0:0:0:0:
202,236,70395,1,0,0:0:0:0:
161,201,70494,1,0,0:0:0:0:
144,153,70592,1,0,0:0:0:0:
343,51,70790,1,0,0:0:0:0:
394,239,70987,1,0,0:0:0:0:
229,325,71185,1,0,0:0:0:0:
180,318,71283,1,0,0:0:0:0:
141,287,71382,1,0,0:0:0:0:
115,246,71481,1,0,0:0:0:0:
106,197,71579,1,0,0:0:0:0:
108,147,71678,1,0,0:0:0:0:
130,101,71777,2,0,P|158:65|205:47,1,70
264,222,72171,2,0,P|234:235|194:222,1,70
203,70,72566,2,0,P|257:51|331:70,1,105.000004005432
361,84,72862,1,0,0:0:0:0:
407,129,72961,1,0,0:0:0:0:
433,298,73158,1,0,0:0:0:0:
153,293,73356,5,0,0:0:0:0:
136,74,73553,1,0,0:0:0:0:
193,45,73652,1,0,0:0:0:0:
258,45,73750,1,0,0:0:0:0:
371,255,73948,1,0,0:0:0:0:
92,253,74145,2,0,P|147:262|236:245,1,105.000004005432
255,232,74441,1,0,0:0:0:0:
300,189,74540,5,0,0:0:0:0:
459,51,74737,1,0,0:0:0:0:
236,57,74935,2,0,P|180:56|126:80,1,105.000004005432
86,111,75231,5,0,0:0:0:0:
54,165,75329,1,0,0:0:0:0:
222,319,75527,1,0,0:0:0:0:
280,294,75625,1,0,0:0:0:0:
330,258,75724,2,0,P|360:196|359:150,1,105.000004005432
356,100,76020,1,0,0:0:0:0:
328,44,76119,1,0,0:0:0:0:
192,265,76316,1,0,0:0:0:0:
115,80,76513,1,0,0:0:0:0:
305,61,76711,5,0,0:0:0:0:
360,87,76810,1,0,0:0:0:0:
407,129,76908,1,0,0:0:0:0:
156,295,77106,1,0,0:0:0:0:
138,91,77303,2,0,P|197:70|245:72,1,105.000004005432
295,95,77599,1,0,0:0:0:0:
348,128,77698,1,0,0:0:0:0:
156,295,77895,1,0,0:0:0:0:
299,89,78092,1,0,0:0:0:0:
356,111,78191,1,0,0:0:0:0:
403,152,78290,1,0,0:0:0:0:
156,295,78487,1,0,0:0:0:0:
89,65,78685,1,0,0:0:0:0:
154,67,78783,1,0,0:0:0:0:
217,69,78882,2,0,L|329:69,1,105.000004005432
383,71,79178,1,0,0:0:0:0:
446,73,79277,1,0,0:0:0:0:
302,229,79474,1,0,0:0:0:0:
101,139,79671,1,0,0:0:0:0:
114,311,79869,1,0,0:0:0:0:
174,334,79967,1,0,0:0:0:0:
237,331,80066,1,0,0:0:0:0:
280,104,80263,1,0,0:0:0:0:
85,237,80461,2,0,P|142:256|237:261,1,105.000004005432
248,266,80757,1,0,0:0:0:0:
312,257,80856,5,0,0:0:0:0:
227,77,81053,1,0,0:0:0:0:
45,172,81250,2,0,P|58:235|116:303,1,105.000004005432
123,314,81546,1,0,0:0:0:0:
179,345,81645,5,0,0:0:0:0:
366,154,81842,1,0,0:0:0:0:
124,181,82040,2,0,P|186:201|268:197,1,105.000004005432
289,198,82336,1,0,0:0:0:0:
344,170,82435,1,0,0:0:0:0:
124,81,82632,1,0,0:0:0:0:
412,232,82829,2,0,P|366:238|307:218,1,105.000004005432
257,188,83125,1,0,0:0:0:0:
214,141,83224,1,0,0:0:0:0:
118,324,83421,1,0,0:0:0:0:
145,63,83619,2,0,P|215:67|281:95,1,105.000004005432
301,110,83915,1,0,0:0:0:0:
350,148,84013,1,0,0:0:0:0:
157,279,84211,1,0,0:0:0:0:
420,156,84408,1,0,0:0:0:0:
70,39,84606,1,0,0:0:0:0:
133,41,84704,1,0,0:0:0:0:
194,56,84803,1,0,0:0:0:0:
249,90,84902,1,0,0:0:0:0:
287,139,85000,5,0,0:0:0:0:
321,192,85099,1,0,0:0:0:0:
343,252,85198,2,0,P|303:293|243:301,1,105.000004005432
196,297,85494,1,0,0:0:0:0:
138,273,85592,1,0,0:0:0:0:
323,80,85790,1,0,0:0:0:0:
92,203,85987,1,0,0:0:0:0:
381,143,86185,1,0,0:0:0:0:
400,203,86283,1,0,0:0:0:0:
387,263,86382,1,0,0:0:0:0:
194,98,86579,5,0,0:0:0:0:
218,322,86777,2,0,P|277:333|338:322,1,105.000004005432
382,314,87073,1,0,0:0:0:0:
433,276,87171,1,0,0:0:0:0:
330,98,87369,1,0,0:0:0:0:
70,122,87566,2,0,P|75:178|111:238,1,105.000004005432
137,267,87862,1,0,0:0:0:0:
189,302,87961,5,0,0:0:0:0:
410,156,88158,1,0,0:0:0:0:
378,102,88257,1,0,0:0:0:0:
333,59,88356,2,0,P|284:40|232:39,1,105.000004005432
172,51,88652,1,0,0:0:0:0:
116,82,88750,1,0,0:0:0:0:
131,313,88948,1,0,0:0:0:0:
274,108,89145,1,0,0:0:0:0:
450,343,89342,5,0,0:0:0:0:
465,284,89441,1,0,0:0:0:0:
462,221,89540,1,0,0:0:0:0:
280,264,89737,1,0,0:0:0:0:
445,97,89935,2,0,B|256:207|384:103|248:71|216:143|216:143|232:71|224:79|224:-32|200:79|168:43,1,420.000016021729
76,235,90921,1,0,0:0:0:0:
307,318,91119,5,0,0:0:0:0:
395,71,91316,1,0,0:0:0:0:
333,59,91415,1,0,0:0:0:0:
270,60,91513,2,0,P|216:71|166:102,1,105.000004005432
126,136,91810,1,0,0:0:0:0:
87,186,91908,1,0,0:0:0:0:
294,300,92106,1,0,0:0:0:0:
398,77,92303,2,0,P|353:59|295:54,1,105.000004005432
236,66,92599,1,0,0:0:0:0:
182,98,92698,1,0,0:0:0:0:
117,308,92895,1,0,0:0:0:0:
395,135,93092,2,0,P|342:127|290:135,1,105.000004005432
235,161,93388,1,0,0:0:0:0:
188,203,93487,1,0,0:0:0:0:
366,307,93685,1,0,0:0:0:0:
380,78,93882,1,0,0:0:0:0:
318,65,93981,1,0,0:0:0:0:
256,63,94079,1,0,0:0:0:0:
194,70,94178,1,0,0:0:0:0:
136,92,94277,5,0,0:0:0:0:
56,340,94474,1,0,0:0:0:0:
120,334,94573,1,0,0:0:0:0:
180,316,94671,2,0,P|249:297|288:264,1,105.000004005432
388,264,94967,2,0,P|415:205|402:150,1,105.000004005432
384,111,95263,1,0,0:0:0:0:
333,75,95362,1,0,0:0:0:0:
271,58,95461,1,0,0:0:0:0:
257,289,95658,1,0,0:0:0:0:
129,88,95856,1,0,0:0:0:0:
453,137,96053,1,0,0:0:0:0:
395,163,96152,1,0,0:0:0:0:
337,195,96250,2,0,B|385:299|497:171|577:363|233:347,1,420.000016021729
205,110,97237,2,0,L|277:110,1,52.5000020027161
204,173,97435,2,0,L|132:173,1,52.5000020027161
208,240,97632,2,0,L|272:240,1,52.5000020027161
168,144,97830,2,0,L|296:144,1,105.000004005432
104,232,98126,2,0,L|256:232,1,105.000004005432
264,144,98422,2,0,L|352:144,1,52.5000020027161
320,96,98619,2,0,L|440:96,1,105.000004005432
172,158,99013,2,0,L|325:163,1,105.000004005432
121,165,99310,1,0,0:0:0:0:
135,220,99408,2,0,L|253:227,1,105.000004005432
204,158,99704,1,0,0:0:0:0:
194,175,99803,1,0,0:0:0:0:
166,167,100000,1,0,0:0:0:0:
243,180,100198,1,0,0:0:0:0:
205,110,100395,2,0,L|277:110,1,52.5000020027161
204,173,100593,2,0,L|132:173,1,52.5000020027161
208,240,100790,2,0,L|272:240,1,52.5000020027161
168,144,100988,2,0,L|296:144,1,105.000004005432
104,232,101284,2,0,L|256:232,1,105.000004005432
264,144,101580,2,0,L|352:144,1,52.5000020027161
320,96,101777,2,0,L|440:96,1,105.000004005432
172,158,102171,2,0,L|325:163,1,105.000004005432
121,165,102468,1,0,0:0:0:0:
135,220,102566,2,0,L|253:227,1,105.000004005432
204,158,102862,1,0,0:0:0:0:
194,175,102961,1,0,0:0:0:0:
166,167,103158,1,0,0:0:0:0:
243,180,103356,1,0,0:0:0:0:
205,110,103553,2,0,L|277:110,1,52.5000020027161
204,173,103751,2,0,L|132:173,1,52.5000020027161
208,240,103948,2,0,L|272:240,1,52.5000020027161
168,144,104146,2,0,L|296:144,1,105.000004005432
104,232,104442,2,0,L|256:232,1,105.000004005432
264,144,104738,2,0,L|352:144,1,52.5000020027161
320,96,104935,2,0,L|440:96,1,105.000004005432
172,158,105329,2,0,L|325:163,1,105.000004005432
121,165,105626,1,0,0:0:0:0:
135,220,105724,2,0,L|253:227,1,105.000004005432
204,158,106020,5,0,0:0:0:0:
194,175,106119,1,0,0:0:0:0:
166,167,106316,1,0,0:0:0:0:
126,108,106513,2,0,L|291:116,1,157.500006008148
85,58,106908,2,0,L|357:54,1,210.000008010865
325,52,107204,1,0,0:0:0:0:
383,49,107303,1,0,0:0:0:0:
42,308,110066,1,0,0:0:0:0:
204,230,110263,1,0,0:0:0:0:
204,230,110362,1,0,0:0:0:0:
204,230,110461,6,0,L|332:246,1,105.000004005432
144,304,110856,1,0,0:0:0:0:
52,213,111053,1,0,0:0:0:0:
103,73,111250,2,0,L|223:64,1,105.000004005432
352,224,111645,1,0,0:0:0:0:
179,126,111842,1,0,0:0:0:0:
144,272,112040,2,0,B|80:232|64:200|72:82,1,210.000008010865
130,30,112632,1,0,0:0:0:0:
213,143,112829,2,0,L|349:171,1,105.000004005432
271,90,113125,1,0,0:0:0:0:
240,272,113224,5,0,0:0:0:0:
272,80,113421,1,0,0:0:0:0:
118,307,113619,2,0,L|248:303,1,105.000004005432
120,176,114013,1,0,0:0:0:0:
117,64,114211,1,0,0:0:0:0:
184,142,114408,1,0,0:0:0:0:
266,62,114606,1,0,0:0:0:0:
263,83,114704,1,0,0:0:0:0:
264,176,114803,5,0,0:0:0:0:
68,284,115000,1,0,0:0:0:0:
296,272,115198,2,0,L|176:240,1,105.000004005432
381,190,115494,1,0,0:0:0:0:
381,190,115592,1,0,0:0:0:0:
43,169,115790,1,0,0:0:0:0:
193,76,115987,1,0,0:0:0:0:
193,76,116086,1,0,0:0:0:0:
70,85,116185,1,0,0:0:0:0:
328,240,116382,2,0,L|408:168,1,105.000004005432
98,290,116777,2,0,L|110:164,1,105.000004005432
256,224,117171,1,0,0:0:0:0:
152,312,117369,1,0,0:0:0:0:
200,131,117566,2,0,L|321:110,1,105.000004005432
187,64,117961,2,0,L|312:45,1,105.000004005432
78,207,118356,2,0,L|91:82,1,105.000004005432
232,272,118750,1,0,0:0:0:0:
356,283,118948,1,0,0:0:0:0:
164,227,119145,2,0,L|285:214,1,105.000004005432
208,72,119540,1,0,0:0:0:0:
401,182,119737,1,0,0:0:0:0:
54,156,119935,2,0,L|255:51,1,210.000008010865
151,223,120527,1,0,0:0:0:0:
256,216,120724,1,0,0:0:0:0:
119,268,120921,1,0,0:0:0:0:
216,128,121119,1,0,0:0:0:0:
59,177,121316,1,0,0:0:0:0:
76,18,121513,2,0,L|209:20,1,105.000004005432
238,28,121810,1,0,0:0:0:0:
293,77,121908,2,0,L|446:73,1,105.000004005432
449,199,122303,1,0,0:0:0:0:
402,269,122500,1,0,0:0:0:0:
441,295,122599,1,0,0:0:0:0:
224,192,122698,5,0,0:0:0:0:
132,176,122895,1,0,0:0:0:0:
182,54,123092,1,0,0:0:0:0:
292,111,123290,2,0,L|411:110,1,105.000004005432
126,275,123685,1,0,0:0:0:0:
66,104,123882,2,0,L|180:107,1,105.000004005432
83,36,124277,2,0,L|223:42,1,105.000004005432
89,153,124671,2,0,L|204:155,1,105.000004005432
221,172,124967,1,0,0:0:0:0:
208,240,125066,1,0,0:0:0:0:
168,288,125263,1,0,0:0:0:0:
219,198,125362,1,0,0:0:0:0:
87,127,125461,2,0,L|206:136,1,105.000004005432
369,193,125856,1,0,0:0:0:0:
369,193,126053,1,0,0:0:0:0:
256,192,126152,12,0,127632,0:0:0:0:
114,86,127829,6,0,L|268:80,1,105.000004005432
155,167,128125,2,0,L|310:155,1,105.000004005432
172,282,128421,2,0,L|299:277,1,105.000004005432
345,143,128717,1,0,0:0:0:0:
356,185,128816,1,0,0:0:0:0:
112,224,129013,6,0,L|256:224,1,105.000004005432
208,112,129408,1,0,0:0:0:0:
81,53,129606,2,0,L|231:39,1,105.000004005432
232,272,130000,1,0,0:0:0:0:
44,163,130198,2,0,L|190:150,1,105.000004005432
137,30,130592,2,0,L|290:35,1,105.000004005432
242,255,130987,6,0,L|324:149,1,105.000004005432
418,263,131283,5,0,0:0:0:0:
348,270,131382,1,0,0:0:0:0:
403,142,131579,1,0,0:0:0:0:
403,142,131678,1,0,0:0:0:0:
55,220,131777,2,0,L|91:103,1,105.000004005432
80,304,132171,1,0,0:0:0:0:
186,90,132369,1,0,0:0:0:0:
80,30,132566,1,0,0:0:0:0:
139,238,132763,2,0,L|366:196,1,210.000008010865
261,137,133356,1,0,0:0:0:0:
437,157,133553,1,4,0:0:0:0:
437,157,133652,1,4,0:0:0:0:
313,198,133750,5,4,0:0:0:0:
393,220,133849,1,0,0:0:0:0:
352,165,133948,1,0,0:0:0:0:
392,141,134046,1,0,0:0:0:0:
30,43,134145,2,0,L|38:156,1,105.000004005432
33,194,134441,1,0,0:0:0:0:
71,234,134540,1,0,0:0:0:0:
60,280,134737,1,0,0:0:0:0:
102,266,134836,1,0,0:0:0:0:
83,238,134935,5,0,0:0:0:0:
208,88,135132,1,0,0:0:0:0:
257,95,135231,1,0,0:0:0:0:
273,135,135329,1,0,0:0:0:0:
336,104,135527,1,0,0:0:0:0:
344,256,135724,1,0,0:0:0:0:
221,43,135823,1,0,0:0:0:0:
221,43,135921,1,0,0:0:0:0:
221,43,136020,1,0,0:0:0:0:
206,58,136119,1,0,0:0:0:0:
221,43,136217,1,0,0:0:0:0:
221,43,136316,1,0,0:0:0:0:
221,43,136415,1,0,0:0:0:0:
186,89,136513,2,0,L|394:113,1,210.000008010865
128,216,137302,2,0,L|256:216,1,105.000004005432
272,216,137598,1,0,0:0:0:0:
304,216,137697,1,0,0:0:0:0:
288,56,137894,1,0,0:0:0:0:
112,80,138092,5,0,0:0:0:0:
256,136,138289,1,0,0:0:0:0:
288,152,138388,1,0,0:0:0:0:
312,168,138486,1,0,0:0:0:0:
392,96,138684,1,0,0:0:0:0:
104,256,138881,2,0,L|248:248,1,105.000004005432
240,248,139177,1,0,0:0:0:0:
264,248,139276,5,0,0:0:0:0:
328,64,139473,1,0,0:0:0:0:
136,104,139671,2,0,L|240:112,1,105.000004005432
272,112,139967,5,0,0:0:0:0:
304,112,140065,1,0,0:0:0:0:
168,168,140263,1,0,0:0:0:0:
192,176,140361,1,0,0:0:0:0:
224,184,140460,2,0,L|336:200,1,105.000004005432
352,200,140756,1,0,0:0:0:0:
384,208,140855,1,0,0:0:0:0:
144,256,141052,1,0,0:0:0:0:
136,96,141249,1,0,0:0:0:0:
256,88,141447,5,0,0:0:0:0:
256,128,141546,1,0,0:0:0:0:
248,168,141644,1,0,0:0:0:0:
296,232,141842,1,0,0:0:0:0:
56,152,142039,2,0,L|160:160,1,105.000004005432
176,160,142335,1,0,0:0:0:0:
192,160,142434,1,0,0:0:0:0:
376,120,142631,1,0,0:0:0:0:
240,256,142828,1,0,0:0:0:0:
200,248,142927,1,0,0:0:0:0:
168,240,143026,1,0,0:0:0:0:
136,88,143223,1,0,0:0:0:0:
232,72,143421,1,0,0:0:0:0:
272,80,143519,1,0,0:0:0:0:
288,120,143618,2,0,L|400:120,1,105.000004005432
408,120,143914,1,0,0:0:0:0:
432,128,144013,1,0,0:0:0:0:
408,296,144210,1,0,0:0:0:0:
208,280,144407,1,0,0:0:0:0:
120,128,144605,1,0,0:0:0:0:
144,136,144703,1,0,0:0:0:0:
168,144,144802,1,0,0:0:0:0:
280,104,144999,1,0,0:0:0:0:
88,224,145197,2,0,L|240:248,1,105.000004005432
216,248,145493,1,0,0:0:0:0:
240,256,145592,5,0,0:0:0:0:
352,200,145789,1,0,0:0:0:0:
128,128,145986,2,0,L|256:128,1,105.000004005432
264,136,146282,1,0,0:0:0:0:
304,144,146381,5,0,0:0:0:0:
168,312,146578,1,0,0:0:0:0:
136,184,146776,2,0,L|280:200,1,105.000004005432
264,200,147072,1,0,0:0:0:0:
296,208,147171,1,0,0:0:0:0:
328,72,147368,1,0,0:0:0:0:
96,56,147565,2,0,L|216:72,1,105.000004005432
224,72,147861,1,0,0:0:0:0:
248,72,147960,1,0,0:0:0:0:
320,216,148157,1,0,0:0:0:0:
96,288,148355,2,0,L|232:320,1,105.000004005432
224,312,148651,1,0,0:0:0:0:
256,304,148749,1,0,0:0:0:0:
160,104,148947,1,0,0:0:0:0:
328,72,149144,1,0,0:0:0:0:
96,64,149342,1,0,0:0:0:0:
128,64,149440,1,0,0:0:0:0:
160,64,149539,1,0,0:0:0:0:
192,64,149638,1,0,0:0:0:0:
224,64,149736,5,0,0:0:0:0:
256,72,149835,1,0,0:0:0:0:
280,80,149934,2,0,L|272:200,1,105.000004005432
272,216,150230,1,0,0:0:0:0:
264,232,150328,1,0,0:0:0:0:
112,320,150526,1,0,0:0:0:0:
104,112,150723,1,0,0:0:0:0:
184,192,150921,1,0,0:0:0:0:
208,160,151019,1,0,0:0:0:0:
240,128,151118,1,0,0:0:0:0:
440,248,151315,5,0,0:0:0:0:
208,192,151513,2,0,L|328:192,1,105.000004005432
206,102,151809,1,0,0:0:0:0:
240,104,151907,1,0,0:0:0:0:
272,232,152105,1,0,0:0:0:0:
104,80,152302,2,0,L|216:104,1,105.000004005432
240,112,152598,1,0,0:0:0:0:
280,120,152697,5,0,0:0:0:0:
128,264,152894,1,0,0:0:0:0:
160,256,152993,1,0,0:0:0:0:
192,240,153092,2,0,L|296:232,1,105.000004005432
320,224,153388,1,0,0:0:0:0:
336,224,153486,1,0,0:0:0:0:
176,112,153684,1,0,0:0:0:0:
56,136,153881,1,0,0:0:0:0:
64,272,154078,5,0,0:0:0:0:
96,280,154177,1,0,0:0:0:0:
128,288,154276,1,0,0:0:0:0:
280,264,154473,1,0,0:0:0:0:
56,64,154671,2,0,B|112:112|136:0|136:112|144:104|128:176|128:176|160:104|296:136|168:240|416:96|368:120,1,420.000016021729
96,168,155657,1,0,0:0:0:0:
168,280,155855,5,0,0:0:0:0:
192,120,156052,1,0,0:0:0:0:
192,120,156151,1,0,0:0:0:0:
264,200,156249,2,0,L|376:192,1,105.000004005432
216,200,156546,1,0,0:0:0:0:
224,48,156644,1,0,0:0:0:0:
112,144,156842,1,0,0:0:0:0:
216,136,157039,2,0,L|328:160,1,105.000004005432
152,168,157335,1,0,0:0:0:0:
400,184,157434,1,0,0:0:0:0:
216,176,157631,1,0,0:0:0:0:
152,136,157828,2,0,L|280:136,1,105.000004005432
168,248,158124,1,0,0:0:0:0:
80,192,158223,1,0,0:0:0:0:
256,136,158421,1,0,0:0:0:0:
376,200,158618,1,0,0:0:0:0:
192,144,158717,1,0,0:0:0:0:
192,144,158815,1,0,0:0:0:0:
192,104,158914,1,0,0:0:0:0:
104,104,159013,5,0,0:0:0:0:
216,248,159210,1,0,0:0:0:0:
200,216,159309,1,0,0:0:0:0:
272,152,159407,2,0,L|400:152,1,105.000004005432
168,320,159703,2,0,L|40:328,1,105.000004005432
240,168,159999,1,0,0:0:0:0:
240,168,160098,1,0,0:0:0:0:
240,168,160197,1,0,0:0:0:0:
200,288,160394,1,0,0:0:0:0:
144,152,160592,1,0,0:0:0:0:
240,48,160789,1,0,0:0:0:0:
312,112,160986,2,0,B|360:216|472:88|552:280|507:319|61:277,1,630.000024032594
77,148,162367,1,0,0:0:0:0:
77,148,162565,1,0,0:0:0:0:
117,114,162762,1,0,0:0:0:0:
117,114,162861,1,0,0:0:0:0:
117,114,162959,1,0,0:0:0:0:
249,139,163157,1,0,0:0:0:0:
249,139,163255,1,0,0:0:0:0:
249,139,163354,1,0,0:0:0:0:
448,222,163552,1,0,0:0:0:0:
432,234,163650,1,0,0:0:0:0:
44,83,163749,2,0,L|165:69,1,105.000004005432
246,27,164144,1,0,0:0:0:0:
337,183,164341,1,0,0:0:0:0:
337,183,164440,1,0,0:0:0:0:
337,183,164538,1,0,0:0:0:0:
326,313,164736,1,0,0:0:0:0:
315,311,164834,1,0,0:0:0:0:
302,308,164933,1,0,0:0:0:0:
428,278,165130,1,0,0:0:0:0:
256,295,165229,1,0,0:0:0:0:
84,122,165328,2,0,L|176:53,1,105.000004005432
236,103,165723,2,0,L|292:88,1,52.5
278,195,166117,2,0,L|331:168,1,52.5
147,40,166512,2,0,L|199:36,1,52.5
148,242,166907,2,0,L|215:232,1,52.5
88,116,167302,2,0,L|170:112,1,70
305,158,167696,2,0,L|398:144,1,70
143,215,168091,2,0,L|233:185,1,70
249,143,168387,1,0,0:0:0:0:
296,200,168486,5,0,0:0:0:0:
181,41,168683,1,0,0:0:0:0:
88,116,168880,2,0,L|170:112,1,70
305,158,169274,2,0,L|398:144,1,70
143,215,169669,2,0,L|233:185,1,70
331,96,169966,1,0,0:0:0:0:
88,116,170065,2,0,L|170:112,1,70
305,158,170459,2,0,L|398:144,1,70
143,215,170854,2,0,L|233:185,1,70
88,116,171249,2,0,L|170:112,1,70
232,77,171545,1,0,0:0:0:0:
305,158,171643,2,0,L|398:144,1,70
143,215,172038,2,0,L|251:184,1,105
88,116,172433,2,0,L|203:107,1,105
305,158,172827,2,0,L|420:140,1,105
143,215,173223,2,0,L|246:147,1,105
320,136,173617,1,0,0:0:0:0:
249,30,173815,1,0,0:0:0:0:
296,240,173913,1,0,0:0:0:0:
296,240,174012,1,0,0:0:0:0:
168,224,174209,1,0,0:0:0:0:
168,224,174308,1,0,0:0:0:0:
155,145,174407,2,0,L|237:139,1,70
303,335,174802,1,0,0:0:0:0:
72,176,174999,5,0,0:0:0:0:
66,40,175196,2,0,L|164:38,1,70
232,232,175591,1,0,0:0:0:0:
40,148,175788,1,0,0:0:0:0:
283,124,175986,2,0,L|369:116,1,70
152,136,176380,1,0,0:0:0:0:
272,64,176578,5,0,0:0:0:0:
352,128,176775,1,0,0:0:0:0:
328,232,176973,1,0,0:0:0:0:
304,280,177071,1,0,0:0:0:0:
256,304,177170,1,0,0:0:0:0:
160,288,177368,1,0,0:0:0:0:
112,256,177466,1,0,0:0:0:0:
60,101,177565,2,0,L|176:103,1,105.000004005432
349,261,177959,1,0,0:0:0:0:
426,212,178157,1,0,0:0:0:0:
43,30,178354,2,0,L|164:25,1,105.000004005432
296,216,178749,1,0,0:0:0:0:
176,112,178946,1,0,0:0:0:0:
165,42,179144,2,0,L|289:105,1,105.000004005432
339,192,179538,2,0,L|417:118,1,105.000004005432
160,104,179933,2,0,L|192:240,1,105.000004005432
264,256,180328,1,0,0:0:0:0:
42,227,180525,1,0,0:0:0:0:
66,41,180723,2,0,L|129:146,1,105.000004005432
288,64,181117,6,0,L|320:200,1,105.000004005432
384,224,181512,1,0,0:0:0:0:
182,138,181709,1,0,0:0:0:0:
106,48,181907,2,0,L|334:39,1,210.000008010865
224,176,182499,1,0,0:0:0:0:
117,118,182696,2,0,L|225:81,1,105.000004005432
152,224,183091,1,0,0:0:0:0:
384,192,183486,1,0,0:0:0:0:
128,120,183880,1,0,0:0:0:0:
288,248,184275,1,0,0:0:0:0:
104,88,184670,2,0,L|328:120,1,210.000008010865
414,62,185657,1,0,0:0:0:0:
414,62,185755,1,0,0:0:0:0:
243,61,185854,1,0,0:0:0:0:
312,240,186051,5,0,0:0:0:0:
256,264,186150,1,0,0:0:0:0:
200,256,186249,1,0,0:0:0:0:
112,208,186447,1,0,0:0:0:0:
80,168,186545,1,0,0:0:0:0:
64,112,186644,1,0,0:0:0:0:
372,165,186841,1,0,0:0:0:0:
372,165,186940,1,0,0:0:0:0:
372,165,187038,6,0,L|261:117,1,105.000004005432
80,136,187433,5,0,0:0:0:0:
232,200,187630,1,0,0:0:0:0:
400,256,187828,1,0,0:0:0:0:
400,128,188025,1,0,0:0:0:0:
224,99,188124,1,0,0:0:0:0:
152,240,188223,1,0,0:0:0:0:
368,56,188420,1,0,0:0:0:0:
66,36,188617,2,0,L|56:157,1,105.000004005432
135,176,188913,1,0,0:0:0:0:
232,96,189012,5,0,0:0:0:0:
306,208,189209,1,0,0:0:0:0:
306,208,189308,1,0,0:0:0:0:
116,21,189407,2,0,L|231:25,1,105.000004005432
386,128,189703,1,0,0:0:0:0:
272,280,189802,1,0,0:0:0:0:
307,152,189999,1,0,0:0:0:0:
286,128,190098,1,0,0:0:0:0:
128,168,190197,1,0,0:0:0:0:
200,96,190394,1,0,0:0:0:0:
344,178,190492,1,0,0:0:0:0:
53,37,190591,2,0,L|171:21,1,105.000004005432
208,272,190986,1,0,0:0:0:0:
272,152,191183,1,0,0:0:0:0:
421,179,191282,1,0,0:0:0:0:
332,177,191380,1,0,0:0:0:0:
240,72,191578,1,0,0:0:0:0:
61,85,191775,6,0,L|172:-8,1,105.000004005432
352,120,192170,1,0,0:0:0:0:
316,163,192367,1,0,0:0:0:0:
279,185,192466,1,0,0:0:0:0:
255,225,192565,2,0,L|385:215,1,105.000004005432
342,196,192861,1,0,0:0:0:0:
380,182,192959,1,0,0:0:0:0:
367,191,193157,1,0,0:0:0:0:
192,96,193354,1,0,0:0:0:0:
367,191,193551,1,0,0:0:0:0:
335,256,193650,1,0,0:0:0:0:
272,304,193749,1,0,0:0:0:0:
359,273,193946,1,0,0:0:0:0:
71,197,194144,2,0,L|288:149,1,210.000008010865
167,93,194736,1,0,0:0:0:0:
227,92,194933,1,0,0:0:0:0:
337,80,195130,1,0,0:0:0:0:
337,80,195229,5,0,0:0:0:0:
491,223,195328,1,0,0:0:0:0:
491,223,195525,1,0,0:0:0:0:
155,130,195723,2,0,L|271:114,1,105.000004005432
97,80,196117,2,0,L|221:62,1,105.000004005432
133,269,196512,1,0,0:0:0:0:
173,190,196709,1,0,0:0:0:0:
320,288,196907,1,0,0:0:0:0:
171,211,197104,1,0,0:0:0:0:
87,107,197301,2,0,L|204:87,1,105.000004005432
245,39,197598,1,0,0:0:0:0:
273,78,197696,1,0,0:0:0:0:
300,142,197894,1,0,0:0:0:0:
248,230,198091,1,0,0:0:0:0:
204,204,198288,1,0,0:0:0:0:
251,184,198387,1,0,0:0:0:0:
251,184,198486,1,0,0:0:0:0:
235,202,198584,1,0,0:0:0:0:
266,206,198683,1,0,0:0:0:0:
262,180,198782,1,0,0:0:0:0:
256,180,198880,1,0,0:0:0:0:
246,193,199176,1,0,0:0:0:0:
379,292,199473,1,0,0:0:0:0:
328,120,199670,1,0,0:0:0:0:
79,110,200459,2,0,L|316:87,1,210
235,288,201249,2,0,L|451:223,1,210
128,216,202038,2,0,L|256:216,1,105.000004005432
272,216,202334,1,0,0:0:0:0:
304,216,202433,1,0,0:0:0:0:
288,56,202630,1,0,0:0:0:0:
112,80,202828,5,0,0:0:0:0:
256,136,203025,1,0,0:0:0:0:
288,152,203124,1,0,0:0:0:0:
312,168,203222,1,0,0:0:0:0:
392,96,203420,1,0,0:0:0:0:
104,256,203617,2,0,L|248:248,1,105.000004005432
240,248,203913,1,0,0:0:0:0:
264,248,204012,5,0,0:0:0:0:
328,64,204209,1,0,0:0:0:0:
136,104,204407,2,0,L|240:112,1,105.000004005432
272,112,204703,5,0,0:0:0:0:
304,112,204801,1,0,0:0:0:0:
168,168,204999,1,0,0:0:0:0:
192,176,205097,1,0,0:0:0:0:
224,184,205196,2,0,L|336:200,1,105.000004005432
352,200,205492,1,0,0:0:0:0:
384,208,205591,1,0,0:0:0:0:
144,256,205788,1,0,0:0:0:0:
136,96,205985,1,0,0:0:0:0:
256,88,206183,5,0,0:0:0:0:
256,128,206282,1,0,0:0:0:0:
248,168,206380,1,0,0:0:0:0:
296,232,206578,1,0,0:0:0:0:
56,152,206775,2,0,L|160:160,1,105.000004005432
176,160,207071,1,0,0:0:0:0:
192,160,207170,1,0,0:0:0:0:
376,120,207367,1,0,0:0:0:0:
240,256,207564,1,0,0:0:0:0:
200,248,207663,1,0,0:0:0:0:
168,240,207762,1,0,0:0:0:0:
136,88,207959,1,0,0:0:0:0:
232,72,208157,1,0,0:0:0:0:
272,80,208255,1,0,0:0:0:0:
288,120,208354,2,0,L|400:120,1,105.000004005432
408,120,208650,1,0,0:0:0:0:
432,128,208749,1,0,0:0:0:0:
408,296,208946,1,0,0:0:0:0:
208,280,209143,1,0,0:0:0:0:
120,128,209341,1,0,0:0:0:0:
144,136,209439,1,0,0:0:0:0:
168,144,209538,1,0,0:0:0:0:
280,104,209735,1,0,0:0:0:0:
88,224,209933,2,0,L|240:248,1,105.000004005432
216,248,210229,1,0,0:0:0:0:
240,256,210328,5,0,0:0:0:0:
352,200,210525,1,0,0:0:0:0:
128,128,210722,2,0,L|256:128,1,105.000004005432
264,136,211018,1,0,0:0:0:0:
304,144,211117,5,0,0:0:0:0:
168,312,211314,1,0,0:0:0:0:
136,184,211512,2,0,L|280:200,1,105.000004005432
264,200,211808,1,0,0:0:0:0:
296,208,211907,1,0,0:0:0:0:
328,72,212104,1,0,0:0:0:0:
96,56,212301,2,0,L|216:72,1,105.000004005432
224,72,212597,1,0,0:0:0:0:
248,72,212696,1,0,0:0:0:0:
320,216,212893,1,0,0:0:0:0:
96,288,213091,2,0,L|232:320,1,105.000004005432
224,312,213387,1,0,0:0:0:0:
256,304,213485,5,0,0:0:0:0:
160,104,213683,1,0,0:0:0:0:
328,72,213880,1,0,0:0:0:0:
292,233,213979,1,0,0:0:0:0:
139,217,214078,1,0,0:0:0:0:
128,64,214176,1,0,0:0:0:0:
160,64,214275,1,0,0:0:0:0:
192,64,214374,1,0,0:0:0:0:
224,64,214472,5,0,0:0:0:0:
256,72,214571,1,0,0:0:0:0:
280,80,214670,2,0,L|272:200,1,105.000004005432
36,160,214966,2,0,L|14:275,1,105.000004005432
112,320,215262,1,0,0:0:0:0:
104,112,215459,1,0,0:0:0:0:
184,192,215657,1,0,0:0:0:0:
360,297,215755,1,0,0:0:0:0:
53,196,215854,2,0,L|91:308,1,105.000004005432
208,192,216249,2,0,L|328:192,1,105.000004005432
145,21,216545,2,0,L|267:21,1,105.000004005432
272,232,216841,1,0,0:0:0:0:
104,80,217038,2,0,L|216:104,1,105.000004005432
240,112,217334,1,0,0:0:0:0:
391,129,217433,1,0,0:0:0:0:
385,108,217532,1,0,0:0:0:0:
128,264,217630,1,0,0:0:0:0:
160,256,217729,1,0,0:0:0:0:
192,240,217828,2,0,L|296:232,1,105.000004005432
320,224,218124,1,0,0:0:0:0:
336,224,218222,1,0,0:0:0:0:
230,25,218321,1,0,0:0:0:0:
176,112,218420,1,0,0:0:0:0:
56,136,218617,1,0,0:0:0:0:
64,272,218814,5,0,0:0:0:0:
96,280,218913,1,0,0:0:0:0:
128,288,219012,1,0,0:0:0:0:
280,264,219209,1,0,0:0:0:0:
56,64,219407,2,0,B|112:112|136:0|136:112|144:104|128:176|128:176|160:104|296:136|168:240|416:96|368:120,1,420.000016021729
367,132,220295,1,0,0:0:0:0:
384,116,220393,1,0,0:0:0:0:
66,266,220591,5,0,0:0:0:0:
148,373,220788,1,0,0:0:0:0:
148,373,220887,1,0,0:0:0:0:
148,373,220985,2,0,L|260:365,1,105.000004005432
70,37,221282,2,0,L|186:15,1,105.000004005432
419,54,221578,1,0,0:0:0:0:
216,136,221775,2,0,L|328:160,1,105.000004005432
152,168,222071,1,0,0:0:0:0:
400,184,222170,1,0,0:0:0:0:
74,302,222269,1,0,0:0:0:0:
216,176,222367,1,0,0:0:0:0:
152,136,222564,2,0,L|280:136,1,105.000004005432
96,34,222861,2,0,L|216:25,1,105.000004005432
256,136,223157,1,0,0:0:0:0:
376,200,223354,1,0,0:0:0:0:
192,144,223453,1,0,0:0:0:0:
192,144,223551,1,0,0:0:0:0:
104,104,223749,5,0,0:0:0:0:
341,305,223848,1,0,0:0:0:0:
216,248,223946,1,0,0:0:0:0:
200,216,224045,1,0,0:0:0:0:
272,152,224143,2,0,L|400:152,1,105.000004005432
168,320,224439,2,0,L|40:328,1,105.000004005432
240,168,224735,1,0,0:0:0:0:
240,168,224834,1,0,0:0:0:0:
240,168,224933,1,0,0:0:0:0:
200,288,225130,1,0,0:0:0:0:
328,283,225229,1,0,0:0:0:0:
144,152,225328,1,0,0:0:0:0:
328,283,225426,1,0,0:0:0:0:
240,48,225525,1,0,0:0:0:0:
272,192,225624,1,0,0:0:0:0:
312,112,225722,2,0,B|360:216|472:88|552:280|208:264,1,420.000016021729
205,110,226709,2,0,L|277:110,1,52.5000020027161
204,173,226907,2,0,L|132:173,1,52.5000020027161
208,240,227104,2,0,L|272:240,1,52.5000020027161
168,144,227302,2,0,L|296:144,1,105.000004005432
104,232,227696,2,0,L|256:232,1,105.000004005432
89,58,228091,1,0,0:0:0:0:
138,79,228190,1,0,0:0:0:0:
138,79,228288,1,0,0:0:0:0:
172,158,228485,2,0,L|325:163,1,105.000004005432
135,220,228880,2,0,L|253:227,1,105.000004005432
204,158,229176,1,0,0:0:0:0:
194,175,229275,1,0,0:0:0:0:
166,167,229472,1,0,0:0:0:0:
243,180,229670,1,0,0:0:0:0:
205,110,229867,2,0,L|277:110,1,52.5000020027161
204,173,230065,2,0,L|132:173,1,52.5000020027161
208,240,230262,2,0,L|272:240,1,52.5000020027161
168,144,230460,2,0,L|296:144,1,105.000004005432
104,232,230854,2,0,L|256:232,1,105.000004005432
92,80,231249,1,0,0:0:0:0:
41,107,231348,1,0,0:0:0:0:
92,80,231446,1,0,0:0:0:0:
172,158,231643,2,0,L|325:163,1,105.000004005432
135,220,232038,2,0,L|253:227,1,105.000004005432
204,158,232334,1,0,0:0:0:0:
194,175,232433,1,0,0:0:0:0:
166,167,232630,1,0,0:0:0:0:
243,180,232828,1,0,0:0:0:0:
205,110,233025,2,0,L|277:110,1,52.5000020027161
204,173,233223,2,0,L|132:173,1,52.5000020027161
208,240,233420,2,0,L|272:240,1,52.5000020027161
168,144,233618,2,0,L|296:144,1,105.000004005432
104,232,234012,2,0,L|256:232,1,105.000004005432
10,109,234407,1,0,0:0:0:0:
10,109,234505,1,0,0:0:0:0:
10,109,234604,1,0,0:0:0:0:
172,158,234801,2,0,L|325:163,1,105.000004005432
135,220,235196,2,0,L|253:227,1,105.000004005432
204,158,235492,5,0,0:0:0:0:
194,175,235591,1,0,0:0:0:0:
166,167,235788,1,0,0:0:0:0:
243,180,235986,1,0,0:0:0:0:
205,110,236183,2,0,L|277:110,1,52.5000020027161
204,173,236381,2,0,L|132:173,1,52.5000020027161
208,240,236578,2,0,L|272:240,1,52.5000020027161
168,144,236776,2,0,L|296:144,1,105.000004005432
46,157,237071,1,0,0:0:0:0:
128,234,237170,1,0,0:0:0:0:
128,234,237269,1,0,0:0:0:0:
128,234,237367,1,0,0:0:0:0:
10,109,237565,1,0,0:0:0:0:
10,109,237663,1,0,0:0:0:0:
10,109,237762,1,0,0:0:0:0:
133,266,237861,1,0,0:0:0:0:
172,158,237959,2,0,L|325:163,1,105.000004005432
80,269,238255,1,0,0:0:0:0:
135,220,238354,2,0,L|253:227,1,105.000004005432
204,158,238650,5,0,0:0:0:0:
194,175,238749,1,0,0:0:0:0:
166,167,238946,1,0,0:0:0:0:
243,180,239144,1,0,0:0:0:0:
205,110,239341,2,0,L|277:110,1,52.5000020027161
204,173,239539,2,0,L|132:173,1,52.5000020027161
208,240,239736,2,0,L|272:240,1,52.5000020027161
168,144,239934,2,0,L|296:144,1,105.000004005432
104,232,240328,2,0,L|256:232,1,105.000004005432
92,80,240723,1,0,0:0:0:0:
41,107,240822,1,0,0:0:0:0:
92,80,240920,1,0,0:0:0:0:
172,158,241117,2,0,L|325:163,1,105.000004005432
135,220,241512,2,0,L|253:227,1,105.000004005432
204,158,241808,1,0,0:0:0:0:
194,175,241907,1,0,0:0:0:0:
166,167,242104,1,0,0:0:0:0:
243,180,242301,1,0,0:0:0:0:
205,110,242498,2,0,L|277:110,1,52.5000020027161
204,173,242696,2,0,L|132:173,1,52.5000020027161
208,240,242893,2,0,L|272:240,1,52.5000020027161
168,144,243091,2,0,L|296:144,1,105.000004005432
104,232,243485,2,0,L|256:232,1,105.000004005432
92,80,243880,1,0,0:0:0:0:
41,107,243979,1,0,0:0:0:0:
92,80,244077,1,0,0:0:0:0:
172,158,244274,2,0,L|325:163,1,105.000004005432
135,220,244669,2,0,L|253:227,1,105.000004005432
204,158,244965,1,0,0:0:0:0:
194,175,245064,1,0,0:0:0:0:
166,167,245261,1,0,0:0:0:0:
243,180,245459,1,0,0:0:0:0:
205,110,245656,2,0,L|277:110,1,52.5000020027161
204,173,245854,2,0,L|132:173,1,52.5000020027161
208,240,246051,2,0,L|272:240,1,52.5000020027161
168,144,246249,2,0,L|296:144,1,105.000004005432
104,232,246643,2,0,L|256:232,1,105.000004005432
92,80,247038,1,0,0:0:0:0:
41,107,247137,1,0,0:0:0:0:
92,80,247235,1,0,0:0:0:0:
172,158,247432,2,0,L|325:163,1,105.000004005432
135,220,247827,2,0,L|253:227,1,105.000004005432
204,158,248123,1,0,0:0:0:0:
194,175,248222,1,0,0:0:0:0:
345,222,248321,1,0,0:0:0:0:
166,167,248419,5,0,0:0:0:0:
141,294,248617,1,0,0:0:0:0:
234,247,248815,1,0,0:0:0:0:
60,307,248913,1,0,0:0:0:0:
37,114,249012,1,0,0:0:0:0:
185,157,249209,1,0,0:0:0:0:
281,148,249308,1,0,0:0:0:0:
35,41,249407,2,0,L|202:36,1,140
376,280,249801,1,0,0:0:0:0:
147,169,249999,1,0,0:0:0:0:
56,92,250196,2,0,L|237:89,1,140
217,248,250492,1,0,0:0:0:0:
376,216,250591,1,0,0:0:0:0:
96,247,250788,1,0,0:0:0:0:
110,50,250986,2,0,L|235:57,1,105.000004005432
196,301,251282,1,0,0:0:0:0:
376,152,251380,1,0,0:0:0:0:
78,187,251578,1,0,0:0:0:0:
256,192,251775,5,0,0:0:0:0:
256,48,251973,1,0,0:0:0:0:
256,192,252170,1,0,0:0:0:0:
104,192,252367,1,0,0:0:0:0:
61,63,252565,2,0,L|189:72,1,105.000004005432
269,237,252861,1,0,0:0:0:0:
112,288,252959,1,0,0:0:0:0:
183,193,253157,1,0,0:0:0:0:
255,95,253354,2,0,L|383:98,1,105.000004005432
380,254,253650,1,0,0:0:0:0:
176,288,253749,1,0,0:0:0:0:
56,198,253946,1,0,0:0:0:0:
66,72,254144,2,0,L|176:120,1,105.000004005432
158,209,254440,1,0,0:0:0:0:
240,288,254538,1,0,0:0:0:0:
126,248,254736,1,0,0:0:0:0:
176,128,254933,5,0,0:0:0:0:
296,160,255130,1,0,0:0:0:0:
133,289,255229,1,0,0:0:0:0:
176,128,255328,1,0,0:0:0:0:
248,208,255525,1,0,0:0:0:0:
151,348,255624,1,0,0:0:0:0:
112,44,255723,6,0,L|242:43,1,105.000004005432
18,237,256019,1,0,0:0:0:0:
256,312,256117,1,0,0:0:0:0:
42,222,256315,1,0,0:0:0:0:
74,124,256512,2,0,L|198:149,1,105.000004005432
137,254,256808,1,0,0:0:0:0:
256,312,256907,1,0,0:0:0:0:
341,232,257104,1,0,0:0:0:0:
96,50,257301,2,0,L|223:45,1,105.000004005432
281,217,257598,1,0,0:0:0:0:
256,312,257696,1,0,0:0:0:0:
279,185,257894,1,0,0:0:0:0:
336,264,258091,5,0,0:0:0:0:
168,216,258288,1,0,0:0:0:0:
336,176,258486,1,0,0:0:0:0:
168,128,258683,1,0,0:0:0:0:
94,35,258880,2,0,L|226:28,1,105.000004005432
139,234,259176,1,0,0:0:0:0:
200,240,259275,1,0,0:0:0:0:
306,199,259473,1,0,0:0:0:0:
37,281,259670,6,0,L|171:283,1,105.000004005432
122,199,259966,1,0,0:0:0:0:
176,160,260065,1,0,0:0:0:0:
90,185,260262,1,0,0:0:0:0:
204,49,260459,1,0,0:0:0:0:
256,192,260558,12,0,260953,0:0:0:0:
