osu file format v14

[General]
AudioFilename: audio.mp3
AudioLeadIn: 0
PreviewTime: 222852
Countdown: 0
SampleSet: Soft
StackLeniency: 0.7
Mode: 0
LetterboxInBreaks: 0
WidescreenStoryboard: 0

[Editor]
DistanceSpacing: 0.6
BeatDivisor: 6
GridSize: 8
TimelineZoom: 1

[Metadata]
Title:Shihatsu to Kafka
TitleUnicode:始発とカフカ
Artist:n-buna
ArtistUnicode:ナブナ
Creator:Ryuusei Aika
Version:Summer around the corner
Source:
Tags:Sihatsu First Train and Kafuka Teages 花と水飴、最終電車 Hana to Mizuame, Saishuu Densha Japanese Rock J-Rock JRock Pop J-Pop JPop Vocaloid ボーカロイド ボカロ Hatsune Miku 初音ミク
BeatmapID:4150762
BeatmapSetID:1997071

[Difficulty]
HPDrainRate:5
CircleSize:4
OverallDifficulty:7
ApproachRate:7.5
SliderMultiplier:2.4
SliderTickRate:1

[Events]
//Background and Video events
0,0,"bg.jpg",0,0
//Break Periods
2,280472,302022
//Storyboard Layer 0 (Background)
//Storyboard Layer 1 (Fail)
//Storyboard Layer 2 (Pass)
//Storyboard Layer 3 (Foreground)
//Storyboard Layer 4 (Overlay)
//Storyboard Sound Samples

[TimingPoints]
2972,750,4,2,1,40,1,0
26972,-100,4,3,1,60,0,0
50972,-133.333333333333,4,3,1,50,0,0
74972,-133.333333333333,4,2,1,45,0,0
75722,-133.333333333333,4,2,1,50,0,0
80972,-133.333333333333,4,2,1,60,0,0
86972,-90.9090909090909,4,3,1,75,0,1
89972,-90.9090909090909,4,3,1,75,0,0
92972,-90.9090909090909,4,3,1,75,0,1
95972,-90.9090909090909,4,3,1,75,0,0
98972,-90.9090909090909,4,3,1,75,0,1
101972,-90.9090909090909,4,3,1,75,0,0
104972,-90.9090909090909,4,3,1,75,0,1
107972,-90.9090909090909,4,3,1,75,0,0
110972,-133.333333333333,4,3,1,60,0,0
118097,-111.111111111111,4,3,1,60,0,0
118472,-100,4,3,1,60,0,0
122972,-111.111111111111,4,3,1,50,0,0
124472,-133.333333333333,4,3,1,50,0,0
146972,-133.333333333333,4,2,1,50,0,0
158972,-90.9090909090909,4,3,1,75,0,1
161972,-90.9090909090909,4,3,1,75,0,0
164972,-90.9090909090909,4,3,1,75,0,1
167972,-90.9090909090909,4,3,1,75,0,0
170972,-90.9090909090909,4,3,1,75,0,1
173972,-90.9090909090909,4,3,1,75,0,0
176972,-90.9090909090909,4,3,1,75,0,1
179972,-90.9090909090909,4,3,1,75,0,0
182972,-90.9090909090909,4,3,1,50,0,0
196472,-90.9090909090909,4,3,1,60,0,0
208847,-100,4,3,1,60,0,0
222722,-200,4,2,1,45,0,0
248472,-100,4,3,1,60,0,0
248972,-66.6666666666667,4,3,1,60,0,1
249097,-66.6666666666667,4,3,1,60,0,0
250472,-200,4,3,1,60,0,0
250847,-66.6666666666667,4,3,1,75,0,1
250972,-66.6666666666667,4,3,1,75,0,0
251972,-200,4,3,1,75,0,0
252347,-66.6666666666667,4,3,1,75,0,1
252472,-66.6666666666667,4,3,1,75,0,0
252722,-83.3333333333333,4,3,1,75,0,0
254972,-83.3333333333333,4,3,1,75,0,1
272972,-100,4,3,1,75,0,1
277472,-83.3333333333333,4,3,1,75,0,1
302847,-100,4,2,1,50,0,0

[Colours]
Combo1 : 128,214,255
Combo2 : 191,191,191
Combo3 : 128,255,128
Combo4 : 255,128,128

[HitObjects]
256,360,2972,5,0,0:2:0:0:
256,360,3722,5,0,0:2:0:0:
256,360,4472,5,0,0:2:0:0:
256,360,5222,5,0,0:2:0:0:
256,360,5972,5,0,0:2:0:0:
256,360,6722,5,0,0:2:0:0:
256,360,7472,5,0,0:2:0:0:
256,360,8222,5,0,0:2:0:0:
256,360,8972,5,0,0:2:0:0:
256,360,9722,5,0,0:2:0:0:
256,360,10472,5,0,0:2:0:0:
256,24,11222,5,2,0:2:0:0:
256,360,11972,5,0,0:2:0:0:
256,192,12722,5,2,0:2:0:0:
256,360,13472,5,0,0:2:0:0:
256,360,14222,5,0,0:2:0:0:
256,360,14972,5,0,0:2:0:0:
256,360,15722,5,0,0:2:0:0:
256,360,16472,5,0,0:2:0:0:
256,360,17222,5,0,0:2:0:0:
256,360,17972,5,0,0:2:0:0:
256,360,18722,5,0,0:2:0:0:
256,360,19472,5,0,0:2:0:0:
256,360,20222,5,0,0:2:0:0:
256,360,20972,5,0,0:2:0:0:
256,360,21722,5,0,0:2:0:0:
256,360,22472,5,0,0:2:0:0:
256,24,23222,5,2,0:2:0:0:
256,360,23972,5,0,0:2:0:0:
256,360,24722,5,0,0:2:0:0:
256,360,25472,5,0,0:2:0:0:
256,360,26222,5,0,0:2:0:0:
256,192,26972,6,0,P|294:208|346:190,1,80,4|0,3:2|0:2,0:2:0:0:
300,135,27347,2,0,L|294:226,1,80,2|0,3:2|0:2,0:2:0:0:
294,214,27722,1,0,1:2:0:0:
425,302,28097,6,0,P|384:303|349:338,1,80,2|0,0:2|0:2,0:2:0:0:
354,326,28472,1,0,3:2:0:0:
354,326,28847,5,0,3:2:0:0:
338,312,28972,1,0,3:2:0:0:
322,298,29097,1,0,3:2:0:0:
306,284,29222,2,0,L|216:296,1,80,2|0,1:2|0:2,0:2:0:0:
154,329,29597,2,0,L|233:318,1,80,2|0,0:2|0:2,0:2:0:0:
233,318,29972,1,0,3:2:0:0:
156,347,30347,6,0,P|116:317|57:338,1,80,2|0,3:2|0:2,0:2:0:0:
57,334,30722,1,0,1:2:0:0:
39,178,31097,2,0,L|21:295,1,80,2|0,0:2|0:2,0:2:0:0:
26,257,31472,1,0,3:2:0:0:
26,257,31847,5,0,3:2:0:0:
63,247,31972,1,0,3:2:0:0:
97,245,32097,1,0,3:2:0:0:
126,261,32222,2,0,L|209:243,1,80,2|0,1:2|0:2,0:2:0:0:
234,262,32597,2,0,L|284:250,2,40,2|0|0,3:2|1:2|1:2,0:2:0:0:
257,154,32972,5,4,3:2:0:0:
367,89,33347,1,2,3:2:0:0:
413,168,33597,1,0,0:2:0:0:
413,168,33722,2,0,P|367:187|346:226,1,80,0|0,1:2|0:2,0:2:0:0:
371,93,34097,2,0,L|404:6,1,80,2|0,0:2|0:2,0:2:0:0:
307,33,34472,1,0,3:2:0:0:
307,33,34847,5,0,3:2:0:0:
275,45,34972,1,0,3:2:0:0:
242,38,35097,1,0,3:2:0:0:
223,11,35222,2,0,P|191:36|149:35,1,80,2|0,1:2|0:2,0:2:0:0:
63,25,35597,2,0,P|95:0|137:1,1,80,2|0,0:2|0:2,0:2:0:0:
153,36,35972,5,0,3:2:0:0:
86,104,36222,1,2,0:2:0:0:
83,124,36347,1,0,3:2:0:0:
171,161,36597,1,2,0:2:0:0:
181,143,36722,2,0,P|173:208|197:269,1,120,0|0,1:2|0:2,0:2:0:0:
273,346,37347,1,2,0:2:0:0:
273,346,37472,1,0,3:2:0:0:
113,363,37847,5,0,3:2:0:0:
97,334,37972,1,0,3:2:0:0:
81,305,38097,1,0,3:2:0:0:
69,280,38222,1,0,1:2:0:0:
69,280,38472,5,0,0:2:0:0:
100,286,38597,1,0,0:2:0:0:
131,278,38722,1,0,1:2:0:0:
155,257,38847,1,0,1:2:0:0:
160,225,38972,1,4,3:2:0:0:
310,259,39347,6,0,L|217:270,1,80,0|0,3:2|0:2,0:2:0:0:
237,193,39722,2,0,P|275:206|304:246,1,80,0|0,1:2|0:2,0:2:0:0:
224,284,40097,2,0,L|303:274,1,80,2|0,0:2|0:2,0:2:0:0:
303,274,40472,1,0,3:2:0:0:
303,274,40847,5,0,3:2:0:0:
336,304,40972,1,0,3:2:0:0:
360,327,41097,1,0,3:2:0:0:
384,350,41222,2,0,P|417:323|475:334,1,80,2|0,1:2|0:2,0:2:0:0:
512,267,41597,2,0,P|479:294|421:283,1,80,2|0,0:2|0:2,0:2:0:0:
443,294,41972,1,0,3:2:0:0:
397,124,42347,5,2,3:2:0:0:
327,153,42722,2,0,P|322:115|341:74,1,80,0|0,1:2|0:2,0:2:0:0:
401,128,43097,2,0,P|437:146|484:141,1,80,2|0,0:2|0:2,0:2:0:0:
506,133,43472,1,0,3:2:0:0:
382,212,43847,5,0,3:2:0:0:
382,212,43972,1,0,3:2:0:0:
382,212,44097,1,0,3:2:0:0:
400,205,44222,6,0,P|392:233|394:304,1,80,2|0,1:2|0:2,0:2:0:0:
395,305,44597,2,0,P|392:324|393:344,2,40,2|0|0,0:2|0:2|0:2,0:2:0:0:
288,279,44972,5,4,3:2:0:0:
170,357,45347,1,0,3:2:0:0:
205,254,45597,1,0,0:2:0:0:
205,254,45722,2,0,P|172:280|121:281,1,80,0|0,1:2|0:2,0:2:0:0:
36,246,46097,2,0,L|42:166,1,80,2|0,0:2|0:2,0:2:0:0:
42,166,46472,1,0,3:2:0:0:
42,166,46847,5,0,3:2:0:0:
77,157,46972,1,0,3:2:0:0:
92,129,47097,1,0,3:2:0:0:
85,98,47222,2,0,L|193:88,1,80,2|0,1:2|0:2,0:2:0:0:
254,64,47597,2,0,L|174:71,1,80,2|0,0:2|0:2,0:2:0:0:
174,71,47972,1,0,3:2:0:0:
241,157,48222,5,2,0:2:0:0:
257,171,48347,1,0,3:2:0:0:
342,112,48597,1,2,0:2:0:0:
361,103,48722,2,0,P|418:97|482:115,1,120,0|0,1:2|0:2,0:2:0:0:
449,240,49347,5,2,0:2:0:0:
449,240,49472,2,0,L|421:333,1,80,0|0,3:2|0:2,0:2:0:0:
425,316,49847,1,0,3:2:0:0:
399,307,49972,1,0,3:2:0:0:
366,308,50097,1,0,3:2:0:0:
336,323,50222,1,0,1:2:0:0:
261,251,50472,5,0,0:2:0:0:
261,251,50597,1,0,3:2:0:0:
261,251,50722,1,0,3:2:0:0:
240,227,50847,5,2,3:2:0:0:
240,227,50972,2,0,P|202:249|136:250,1,90.0000034332277,4|0,0:2|0:2,0:2:0:0:
90,303,51597,1,2,0:2:0:0:
90,303,51722,2,0,P|128:325|194:326,1,90.0000034332277,0|0,1:2|0:2,0:2:0:0:
269,344,52347,1,2,0:2:0:0:
269,344,52472,2,0,P|231:366|165:367,1,90.0000034332277,0|0,0:2|0:2,0:2:0:0:
185,371,52972,2,0,L|138:349,2,30.0000011444092,0|0|0,0:2|0:2|1:2,0:2:0:0:
191,295,53472,2,0,L|163:282,1,30.0000011444092,0|0,0:2|0:2,0:2:0:0:
241,229,53847,1,2,0:2:0:0:
243,218,53972,5,4,3:2:0:0:
194,156,54347,1,0,0:2:0:0:
234,117,54597,1,2,0:2:0:0:
234,117,54722,5,0,1:2:0:0:
313,142,55097,1,0,0:2:0:0:
297,215,55347,1,2,0:2:0:0:
297,215,55472,6,0,P|263:239|225:282,1,90.0000034332277,0|0,3:2|0:2,0:2:0:0:
217,260,55972,2,0,L|192:295,1,30.0000011444092,0|2,0:2|0:2,0:2:0:0:
179,332,56222,1,0,1:2:0:0:
179,332,56472,5,0,0:2:0:0:
208,338,56597,1,0,0:2:0:0:
229,355,56722,1,0,0:2:0:0:
244,377,56847,1,2,0:2:0:0:
275,370,56972,6,0,L|368:347,1,90.0000034332277,4|0,0:2|0:2,0:2:0:0:
442,301,57597,1,2,0:2:0:0:
442,301,57722,2,0,L|354:322,1,90.0000034332277,0|0,1:2|0:2,0:2:0:0:
308,260,58347,1,2,0:2:0:0:
308,260,58472,2,0,L|332:173,1,90.0000034332277,0|0,0:2|0:2,0:2:0:0:
354,149,58972,2,0,P|355:163|364:174,1,30.0000011444092,0|2,0:2|0:2,0:2:0:0:
430,223,59222,5,0,1:2:0:0:
471,112,59597,1,0,0:2:0:0:
416,68,59847,1,2,0:2:0:0:
416,68,59972,6,0,P|420:114|461:149,1,90.0000034332277,4|0,0:2|0:2,0:2:0:0:
442,39,60597,1,2,0:2:0:0:
442,39,60722,2,0,P|397:61|342:53,1,90.0000034332277,0|0,1:2|0:2,0:2:0:0:
282,35,61347,2,0,P|261:26|242:10,1,30.0000011444092,2|0,0:2|0:2,0:2:0:0:
255,22,61847,5,0,0:2:0:0:
255,22,61972,1,0,0:2:0:0:
255,22,62097,1,2,0:2:0:0:
281,60,62222,2,0,P|254:76|227:115,1,60.0000022888184,0|0,1:2|0:2,0:2:0:0:
205,87,62597,2,0,L|185:128,2,30.0000011444092,0|0|2,0:2|0:2|0:2,0:2:0:0:
227,184,62972,6,0,L|209:284,1,90.0000034332277,4|0,0:2|0:2,0:2:0:0:
151,325,63597,1,2,0:2:0:0:
151,325,63722,2,0,P|132:279|133:221,1,90.0000034332277,0|0,1:2|0:2,0:2:0:0:
152,155,64347,1,2,0:2:0:0:
152,155,64472,2,0,P|157:194|143:257,1,90.0000034332277,0|0,0:2|0:2,0:2:0:0:
148,243,64972,2,0,P|138:259|115:271,2,30.0000011444092,0|2|0,0:2|0:2|1:2,0:2:0:0:
72,256,65472,2,0,P|59:263|44:267,1,30.0000011444092,0|0,0:2|0:2,0:2:0:0:
13,171,65847,1,2,0:2:0:0:
16,160,65972,5,0,3:2:0:0:
65,121,66222,1,0,0:2:0:0:
65,121,66347,1,0,0:2:0:0:
153,148,66722,5,0,1:2:0:0:
220,84,67097,1,2,0:2:0:0:
180,33,67347,5,2,0:2:0:0:
180,33,67472,2,0,P|136:44|86:44,1,90.0000034332277,0|0,3:2|0:2,0:2:0:0:
80,62,67972,2,0,P|97:64|117:83,1,30.0000011444092,0|2,0:2|0:2,0:2:0:0:
140,115,68222,1,0,1:2:0:0:
140,115,68472,5,0,0:2:0:0:
159,134,68597,1,0,0:2:0:0:
165,160,68722,1,0,0:2:0:0:
161,186,68847,1,2,0:2:0:0:
197,191,68972,6,0,P|248:202|282:222,1,90.0000034332277,4|0,0:2|0:2,0:2:0:0:
352,254,69597,1,2,0:2:0:0:
352,254,69722,2,0,P|300:265|267:285,1,90.0000034332277,0|0,1:2|0:2,0:2:0:0:
193,347,70347,1,2,0:2:0:0:
193,347,70472,1,0,3:2:0:0:
193,347,70847,5,0,0:2:0:0:
229,360,70972,2,0,L|274:377,1,30.0000011444092,0|2,0:2|0:2,0:2:0:0:
344,345,71222,2,0,P|395:356|429:376,1,90.0000034332277,0|0,1:2|0:2,0:2:0:0:
477,319,71847,1,2,0:2:0:0:
477,319,71972,2,0,P|439:278|448:240,1,90.0000034332277,4|0,3:2|0:2,0:2:0:0:
503,171,72597,1,2,0:2:0:0:
503,171,72722,5,0,1:2:0:0:
453,120,73097,1,0,0:2:0:0:
418,144,73347,1,2,0:2:0:0:
418,144,73472,2,0,P|376:117|317:106,1,90.0000034332277,0|0,0:2|0:2,0:2:0:0:
331,92,73972,2,0,P|316:96|304:104,1,30.0000011444092,0|2,0:2|0:2,0:2:0:0:
277,149,74222,1,0,1:2:0:0:
277,149,74472,5,0,0:2:0:0:
288,180,74597,1,0,0:2:0:0:
276,210,74722,1,0,0:2:0:0:
244,221,74847,1,0,0:2:0:0:
213,209,74972,6,0,P|217:274|203:320,1,90.0000034332277,6|0,3:2|0:2,0:2:0:0:
164,384,75597,2,0,P|143:340|135:245,1,120.000004577637,2|2,0:2|0:2,0:2:0:0:
168,122,76472,1,2,3:2:0:0:
168,122,77222,5,2,3:2:0:0:
75,189,77597,1,2,1:2:0:0:
99,116,77847,1,2,3:2:0:0:
99,116,77972,6,0,P|166:145|249:128,1,150.000005722046,0|2,3:2|0:2,0:2:0:0:
239,132,78722,1,2,3:2:0:0:
376,61,79097,2,0,L|262:70,1,90.0000034332277,2|0,0:2|3:2,0:2:0:0:
286,68,79847,6,0,P|266:61|259:37,1,30.0000011444092,0|0,3:2|3:2,0:2:0:0:
299,120,80097,2,0,P|282:133|258:127,1,30.0000011444092,0|2,3:2|1:2,0:2:0:0:
204,129,80472,5,0,3:2:0:0:
204,129,80597,1,2,3:2:0:0:
200,201,80847,1,0,3:2:0:0:
195,246,80972,6,0,P|198:314|212:344,1,90.0000034332277,6|0,3:2|0:2,0:2:0:0:
287,269,81597,2,0,P|346:290|381:351,1,120.000004577637,2|2,0:2|0:2,0:2:0:0:
455,179,82472,1,2,3:2:0:0:
455,179,83222,5,2,3:2:0:0:
404,105,83472,1,2,0:2:0:0:
386,123,83597,1,0,1:2:0:0:
333,171,83847,5,2,0:2:0:0:
337,186,83972,2,0,L|301:109,1,60.0000022888184,0|0,3:2|0:2,0:2:0:0:
296,75,84347,2,0,P|255:69|228:40,1,60.0000022888184,2|0,0:2|0:2,0:2:0:0:
203,13,84722,1,0,3:2:0:0:
121,84,85097,1,2,0:2:0:0:
166,143,85347,5,2,1:2:0:0:
166,143,85472,2,0,P|202:178|215:210,1,60.0000022888184,0|0,3:2|0:2,0:2:0:0:
244,246,85847,1,0,3:2:0:0:
229,259,85972,1,0,3:2:0:0:
218,276,86097,1,0,3:2:0:0:
213,295,86222,1,0,1:2:0:0:
352,306,86472,5,0,3:2:0:0:
319,319,86597,1,0,3:2:0:0:
256,364,86847,2,0,P|266:372|251:372,1,30.0000011444092,2|4,3:2|0:1,0:2:0:0:
292,39,87597,5,2,0:2:0:0:
219,54,87722,1,2,0:1:0:0:
220,345,88347,5,2,0:2:0:0:
293,330,88472,1,2,0:1:0:0:
292,51,89097,5,2,0:2:0:0:
219,66,89222,1,2,0:1:0:0:
220,333,89847,5,2,0:2:0:0:
293,318,89972,1,2,0:1:0:0:
256,192,90597,5,2,0:2:0:0:
256,192,90722,2,0,P|214:207|163:204,1,88.000002685547,2|0,0:2|0:2,0:2:0:0:
79,177,91097,2,0,P|121:162|172:165,1,88.000002685547,0|0,0:2|0:2,0:2:0:0:
181,184,91472,5,2,0:2:0:0:
132,293,91847,1,0,1:2:0:0:
160,300,91972,1,0,1:2:0:0:
182,319,92097,1,0,1:2:0:0:
192,346,92222,1,2,1:2:0:0:
268,247,92472,5,0,1:2:0:0:
237,272,92597,1,0,1:2:0:0:
215,305,92722,1,0,1:2:0:0:
206,343,92847,1,0,1:2:0:0:
214,381,92972,1,4,1:1:0:0:
292,39,93597,5,2,0:2:0:0:
219,54,93722,1,2,0:1:0:0:
220,345,94347,5,2,0:2:0:0:
293,330,94472,1,2,0:1:0:0:
292,51,95097,5,2,0:2:0:0:
219,66,95222,1,2,0:1:0:0:
220,333,95847,5,2,0:2:0:0:
293,318,95972,1,2,0:1:0:0:
256,192,96597,5,2,0:2:0:0:
256,192,96722,2,0,P|298:177|349:180,1,88.000002685547,0|0,0:2|0:2,0:2:0:0:
433,207,97097,2,0,P|391:222|340:219,1,88.000002685547,2|0,0:2|0:2,0:2:0:0:
326,216,97472,1,2,0:2:0:0:
366,384,97847,5,0,1:2:0:0:
349,361,97972,1,0,1:2:0:0:
322,349,98097,1,0,1:2:0:0:
293,353,98222,1,0,1:2:0:0:
385,303,98472,5,0,1:2:0:0:
347,292,98597,1,0,1:2:0:0:
310,303,98722,1,0,1:2:0:0:
278,326,98847,1,0,1:2:0:0:
260,361,98972,1,4,1:1:0:0:
292,39,99597,5,2,0:2:0:0:
219,54,99722,1,2,0:1:0:0:
220,345,100347,5,2,0:2:0:0:
293,330,100472,1,2,0:1:0:0:
292,51,101097,5,2,0:2:0:0:
219,66,101222,1,2,0:1:0:0:
220,333,101847,5,2,0:2:0:0:
293,318,101972,1,2,0:1:0:0:
256,192,102597,5,2,0:2:0:0:
256,192,102722,2,0,P|287:221|352:225,1,88.000002685547,2|0,0:2|0:2,0:2:0:0:
252,236,103097,2,0,L|150:244,1,88.000002685547,2|0,0:2|0:2,0:2:0:0:
132,245,103472,1,2,0:2:0:0:
58,326,103847,5,0,1:2:0:0:
87,331,103972,1,0,1:2:0:0:
116,336,104097,1,0,1:2:0:0:
145,341,104222,1,2,1:2:0:0:
256,374,104472,5,0,1:2:0:0:
220,355,104597,1,0,1:2:0:0:
225,317,104722,1,0,1:2:0:0:
265,309,104847,1,0,1:2:0:0:
283,344,104972,1,4,1:1:0:0:
292,39,105597,5,2,0:2:0:0:
219,54,105722,1,2,0:1:0:0:
219,54,106347,5,2,0:2:0:0:
292,69,106472,1,2,0:1:0:0:
220,345,107097,5,2,0:2:0:0:
293,330,107222,1,2,0:1:0:0:
293,330,107847,5,2,0:2:0:0:
220,315,107972,1,2,0:1:0:0:
256,192,108347,5,2,1:2:0:0:
256,192,108722,6,0,L|379:210,1,88.000002685547,0|0,1:2|0:2,0:2:0:0:
379,210,109097,2,0,P|331:217|291:268,1,88.000002685547,2|0,1:2|0:2,0:2:0:0:
294,280,109472,1,2,0:2:0:0:
366,364,109847,6,0,P|398:329|421:323,1,44.0000013427735,0|0,1:2|1:2,0:2:0:0:
455,288,110097,2,0,P|500:273|523:279,1,44.0000013427735,0|2,1:2|1:2,0:2:0:0:
495,273,110472,1,0,1:2:0:0:
468,235,110597,5,0,1:2:0:0:
499,194,110722,1,0,1:2:0:0:
474,156,110847,1,0,1:2:0:0:
501,120,110972,1,6,1:2:0:0:
256,12,111722,6,0,P|292:83|299:154,1,150.000005722046,0|0,1:2|0:2,0:2:0:0:
299,152,112472,1,0,3:2:0:0:
192,136,113222,2,0,P|215:166|225:210,1,60.0000022888184,0|0,1:2|0:2,0:2:0:0:
250,370,113972,5,4,3:2:0:0:
250,370,114722,2,0,P|181:345|91:357,1,150.000005722046,0|0,1:2|0:2,0:2:0:0:
106,351,115472,2,0,L|-1:368,1,90.0000034332277,0|0,3:2|3:2,0:2:0:0:
14,214,116222,2,0,L|163:241,1,150.000005722046,0|0,1:2|1:2,0:2:0:0:
250,258,116972,6,0,P|293:274|329:313,1,90.0000034332277,4|2,3:2|3:2,0:2:0:0:
377,167,117722,1,0,1:2:0:0:
249,79,118097,6,0,P|289:77|328:48,1,71.9999978027344,2|0,0:2|0:2,0:2:0:0:
331,40,118472,1,0,3:2:0:0:
423,78,118722,1,0,0:2:0:0:
416,50,118847,5,0,3:2:0:0:
443,55,118972,1,0,3:2:0:0:
462,75,119097,1,0,3:2:0:0:
466,102,119222,2,0,L|447:208,1,80,0|0,1:2|0:2,0:2:0:0:
443,235,119597,2,0,P|429:265|398:236,1,80,2|0,0:2|0:2,0:2:0:0:
373,204,119972,5,4,3:2:0:0:
290,248,120222,1,2,0:2:0:0:
268,235,120347,1,0,3:2:0:0:
196,267,120597,5,2,0:2:0:0:
200,280,120722,1,0,1:2:0:0:
151,330,120972,1,0,0:2:0:0:
117,293,121097,5,0,0:2:0:0:
68,306,121222,1,0,0:2:0:0:
32,274,121347,1,2,0:2:0:0:
35,226,121472,1,0,3:2:0:0:
104,198,121722,5,0,0:2:0:0:
116,151,121847,1,0,3:2:0:0:
91,109,121972,1,0,3:2:0:0:
43,100,122097,1,0,3:2:0:0:
7,132,122222,2,0,L|204:107,1,160,0|0,1:2|1:2,0:2:0:0:
243,101,122847,1,0,1:2:0:0:
256,99,122972,5,4,3:2:0:0:
415,123,123347,2,0,P|376:131|340:172,1,71.9999978027344,2|2,3:2|0:2,0:2:0:0:
409,199,123722,1,0,1:2:0:0:
289,238,123972,1,0,0:2:0:0:
310,249,124097,2,0,L|298:300,2,35.9999989013672,2|2|2,0:2|0:2|0:2,0:2:0:0:
373,294,124472,6,0,P|344:307|311:370,1,90.0000034332277,0|0,3:2|3:2,0:2:0:0:
312,354,124972,1,0,3:2:0:0:
312,354,125097,1,0,3:2:0:0:
282,364,125222,2,0,L|210:369,1,60.0000022888184,0|0,1:2|0:2,0:2:0:0:
210,370,125597,1,2,0:2:0:0:
160,300,125847,5,0,0:2:0:0:
160,300,125972,2,0,P|126:322|52:320,1,90.0000034332277,4|2,3:2|3:2,0:2:0:0:
122,231,126597,1,0,0:2:0:0:
106,212,126722,1,0,1:2:0:0:
192,166,126972,1,0,0:2:0:0:
188,153,127097,2,0,P|233:159|282:195,1,90.0000034332277,2|0,0:2|3:2,0:2:0:0:
288,22,127847,5,0,3:2:0:0:
310,45,127972,1,0,3:2:0:0:
340,58,128097,1,0,3:2:0:0:
376,64,128222,1,0,1:2:0:0:
376,64,128472,5,0,0:2:0:0:
413,57,128597,1,2,0:2:0:0:
434,93,128722,1,0,0:2:0:0:
407,123,128847,1,0,0:2:0:0:
370,105,128972,1,4,3:2:0:0:
323,172,129222,5,0,0:2:0:0:
323,172,129347,2,0,L|384:202,1,60.0000022888184,0|0,3:2|0:2,0:2:0:0:
407,214,129722,1,0,1:2:0:0:
272,237,130097,1,2,0:2:0:0:
196,286,130347,1,0,0:2:0:0:
201,299,130472,2,0,L|230:376,1,60.0000022888184,0|0,3:2|0:2,0:2:0:0:
222,355,130847,1,0,3:2:0:0:
222,355,130972,1,0,3:2:0:0:
222,355,131097,1,0,3:2:0:0:
274,345,131222,6,0,P|307:347|273:366,1,90.0000034332277,0|2,1:2|0:2,0:2:0:0:
187,358,131847,1,0,0:2:0:0:
196,369,131972,2,0,P|145:364|99:331,1,90.0000034332277,4|0,3:2|3:2,0:2:0:0:
72,281,132597,1,2,0:2:0:0:
64,255,132722,5,0,1:2:0:0:
131,174,133097,1,0,0:2:0:0:
35,131,133472,2,0,P|47:82|44:29,1,90.0000034332277,0|0,3:2|3:2,0:2:0:0:
78,35,133972,1,0,3:2:0:0:
109,27,134097,1,0,3:2:0:0:
144,23,134222,1,0,1:2:0:0:
144,23,134472,5,0,0:2:0:0:
119,57,134597,1,0,3:2:0:0:
125,98,134722,1,0,3:2:0:0:
158,123,134847,1,2,3:2:0:0:
199,115,134972,1,4,0:2:0:0:
193,195,135222,5,0,0:2:0:0:
215,218,135347,1,0,0:2:0:0:
297,218,135597,1,2,0:2:0:0:
319,195,135722,1,0,1:2:0:0:
256,148,135972,1,0,0:2:0:0:
256,148,136097,2,0,P|249:104|257:60,1,90.0000034332277,0|0,0:2|0:2,0:2:0:0:
367,0,136847,5,0,0:2:0:0:
367,0,136972,1,0,0:2:0:0:
367,0,137097,1,0,0:2:0:0:
354,30,137222,1,0,1:2:0:0:
433,64,137472,2,0,P|422:83|405:99,1,30.0000011444092,0|0,0:2|0:2,0:2:0:0:
488,133,137847,1,2,0:2:0:0:
492,122,137972,6,0,P|454:156|446:189,1,60.0000022888184,4|0,0:2|0:2,0:2:0:0:
450,163,138347,1,0,0:2:0:0:
353,169,138597,1,2,0:2:0:0:
382,204,138722,2,0,P|395:250|388:282,1,60.0000022888184,0|0,1:2|0:2,0:2:0:0:
393,261,139097,1,0,0:2:0:0:
256,247,139347,1,2,0:2:0:0:
261,234,139472,6,0,P|309:242|296:292,1,90.0000034332277,0|0,0:2|0:2,0:2:0:0:
318,308,139972,1,0,0:2:0:0:
340,332,140097,1,2,0:2:0:0:
374,347,140222,1,0,1:2:0:0:
374,347,140472,5,0,0:2:0:0:
332,343,140597,1,0,0:2:0:0:
290,339,140722,1,0,0:2:0:0:
248,335,140847,1,2,0:2:0:0:
206,331,140972,1,4,0:2:0:0:
141,357,141222,5,0,0:2:0:0:
141,357,141347,2,0,L|87:293,1,60.0000022888184,0|2,0:2|0:2,0:2:0:0:
91,299,141722,1,0,1:2:0:0:
21,258,141972,1,0,0:2:0:0:
24,244,142097,2,0,P|59:225|118:215,1,90.0000034332277,0|0,0:2|0:2,0:2:0:0:
108,215,142847,5,0,0:2:0:0:
108,215,142972,1,0,0:2:0:0:
123,190,143097,2,0,L|131:148,1,30.0000011444092,2|0,0:2|1:2,0:2:0:0:
151,62,143472,1,0,0:2:0:0:
155,46,143597,2,0,P|121:51|111:97,1,60.0000022888184,0|2,0:2|0:2,0:2:0:0:
107,70,143972,5,4,0:2:0:0:
158,134,144222,2,0,P|139:142|118:170,1,30.0000011444092,0|0,0:2|0:2,0:2:0:0:
215,193,144597,1,2,0:2:0:0:
240,186,144722,2,0,P|210:218|205:262,1,90.0000034332277,0|0,1:2|0:2,0:2:0:0:
271,372,145347,1,2,0:2:0:0:
300,382,145472,1,0,0:2:0:0:
300,382,145847,5,0,0:2:0:0:
334,372,145972,1,0,0:2:0:0:
349,339,146097,1,2,0:2:0:0:
334,312,146222,1,0,1:2:0:0:
334,312,146472,5,0,0:2:0:0:
346,271,146597,1,0,0:2:0:0:
358,230,146722,1,0,0:2:0:0:
370,189,146847,1,2,0:2:0:0:
382,148,146972,1,4,3:2:0:0:
270,59,147597,6,0,L|222:75,1,30.0000011444092,2|0,0:2|1:2,0:2:0:0:
175,90,148097,1,2,2:2:0:0:
112,44,148347,1,2,1:2:0:0:
112,44,148472,2,0,P|159:71|159:130,1,90.0000034332277,0|0,3:1|0:2,0:2:0:0:
95,120,149097,5,2,0:2:0:0:
95,120,149222,2,0,L|157:129,1,60.0000022888184,0|0,1:2|0:2,0:2:0:0:
239,135,149597,2,0,L|177:144,1,60.0000022888184,2|2,1:2|3:2,0:2:0:0:
179,143,149972,6,0,P|198:200|167:241,1,90.0000034332277,0|0,3:2|0:2,0:2:0:0:
112,237,150597,1,2,0:2:0:0:
112,220,150722,2,0,P|127:267|178:301,1,90.0000034332277,0|2,1:2|0:2,0:2:0:0:
253,256,151347,1,2,1:2:0:0:
245,290,151472,1,0,3:2:0:0:
245,290,151847,6,0,P|239:307|243:333,1,30.0000011444092,0|0,3:2|3:2,0:2:0:0:
312,316,152097,2,0,P|298:327|288:352,1,30.0000011444092,0|0,3:2|1:2,0:2:0:0:
381,370,152472,5,0,3:2:0:0:
381,370,152597,2,0,P|410:357|453:358,1,60.0000022888184,2|2,3:2|0:2,0:2:0:0:
389,280,152972,6,0,P|394:240|425:169,1,90.0000034332277,4|0,3:2|0:2,0:2:0:0:
469,114,153597,1,2,0:2:0:0:
491,96,153722,1,0,1:2:0:0:
491,96,154097,1,2,0:2:0:0:
413,58,154347,1,2,1:2:0:0:
421,49,154472,2,0,P|385:82|325:70,1,90.0000034332277,0|0,3:2|0:2,0:2:0:0:
91,49,155222,6,0,P|127:82|187:70,1,90.0000034332277,0|2,1:2|0:2,0:2:0:0:
289,21,155847,1,2,3:2:0:0:
266,41,155972,2,0,L|248:120,1,60.0000022888184,0|0,3:2|0:2,0:2:0:0:
238,154,156347,2,0,L|311:147,1,60.0000022888184,0|2,0:2|0:2,0:2:0:0:
355,144,156722,1,0,1:2:0:0:
426,184,156972,6,0,P|421:202|402:214,1,30.0000011444092,0|2,0:2|0:2,0:2:0:0:
320,281,157347,1,2,3:2:0:0:
347,269,157472,2,0,L|423:288,1,60.0000022888184,0|0,3:2|0:2,0:2:0:0:
478,301,157847,1,0,3:2:0:0:
494,289,157972,1,0,3:2:0:0:
502,270,158097,1,0,3:2:0:0:
501,250,158222,1,0,1:2:0:0:
495,374,158472,5,0,0:2:0:0:
462,382,158597,2,0,P|433:381|399:369,1,60.0000022888184,2|0,3:2|0:2,0:2:0:0:
293,330,158972,1,4,3:1:0:0:
334,184,159347,5,0,1:2:0:0:
292,39,159597,5,2,0:2:0:0:
219,54,159722,1,2,0:1:0:0:
178,200,160097,5,0,1:2:0:0:
220,345,160347,5,2,0:2:0:0:
293,330,160472,1,2,0:1:0:0:
334,184,160847,5,0,1:2:0:0:
292,51,161097,5,2,0:2:0:0:
219,66,161222,1,2,0:1:0:0:
178,200,161597,5,0,1:2:0:0:
220,333,161847,5,2,0:2:0:0:
293,318,161972,1,2,0:1:0:0:
256,192,162347,5,0,1:2:0:0:
256,192,162597,5,2,0:2:0:0:
256,192,162722,2,0,P|226:146|188:138,1,88.000002685547,2|0,0:2|0:2,0:2:0:0:
280,223,163097,2,0,P|310:177|348:169,1,88.000002685547,0|0,0:2|0:2,0:2:0:0:
367,170,163472,1,2,0:2:0:0:
383,281,163722,1,0,0:2:0:0:
383,281,163847,5,0,1:2:0:0:
370,307,163972,1,0,1:2:0:0:
374,336,164097,1,0,1:2:0:0:
395,356,164222,1,2,1:2:0:0:
312,256,164472,5,0,1:2:0:0:
334,288,164597,1,0,1:2:0:0:
328,327,164722,1,0,1:2:0:0:
297,352,164847,1,0,1:2:0:0:
257,345,164972,1,4,1:1:0:0:
334,184,165347,5,0,1:2:0:0:
292,39,165597,5,2,0:2:0:0:
219,54,165722,1,2,0:1:0:0:
178,200,166097,5,0,1:2:0:0:
220,345,166347,5,2,0:2:0:0:
293,330,166472,1,2,0:1:0:0:
334,184,166847,5,0,1:2:0:0:
292,51,167097,5,2,0:2:0:0:
219,66,167222,1,2,0:1:0:0:
178,200,167597,5,0,1:2:0:0:
220,333,167847,5,2,0:2:0:0:
293,318,167972,1,2,0:1:0:0:
256,192,168347,5,0,1:2:0:0:
256,192,168597,5,2,0:2:0:0:
256,192,168722,2,0,P|232:226|179:219,1,88.000002685547,2|0,0:2|0:2,0:2:0:0:
243,166,169097,2,0,P|296:138|344:160,1,88.000002685547,2|0,0:2|0:2,0:2:0:0:
341,157,169472,1,2,0:2:0:0:
349,63,169722,1,0,0:2:0:0:
349,63,169847,5,0,1:2:0:0:
378,72,169972,1,0,1:2:0:0:
407,81,170097,1,0,1:2:0:0:
436,90,170222,1,2,1:2:0:0:
393,224,170472,5,0,1:2:0:0:
354,231,170597,1,0,1:2:0:0:
328,260,170722,1,0,1:2:0:0:
316,297,170847,1,0,1:2:0:0:
325,335,170972,1,4,1:1:0:0:
334,184,171347,5,0,1:2:0:0:
292,39,171597,5,2,0:2:0:0:
219,54,171722,1,2,0:1:0:0:
178,200,172097,5,0,1:2:0:0:
220,345,172347,5,2,0:2:0:0:
293,330,172472,1,2,0:1:0:0:
334,184,172847,5,0,1:2:0:0:
292,51,173097,5,2,0:2:0:0:
219,66,173222,1,2,0:1:0:0:
178,200,173597,5,0,1:2:0:0:
220,333,173847,5,2,0:2:0:0:
293,318,173972,1,2,0:1:0:0:
255,192,174347,5,0,1:2:0:0:
255,192,174597,5,2,0:2:0:0:
255,192,174722,2,0,P|203:192|148:203,1,88.000002685547,2|0,0:2|0:2,0:2:0:0:
96,213,175097,1,2,0:2:0:0:
170,232,175347,1,0,0:2:0:0:
206,233,175472,2,0,P|258:233|313:244,1,88.000002685547,0|0,0:2|0:2,0:2:0:0:
380,263,175847,5,0,1:2:0:0:
406,279,175972,1,0,1:2:0:0:
425,303,176097,1,0,1:2:0:0:
439,330,176222,1,2,1:2:0:0:
439,182,176472,5,0,1:2:0:0:
446,143,176597,1,0,1:2:0:0:
411,125,176722,1,0,1:2:0:0:
382,152,176847,1,0,1:2:0:0:
400,187,176972,1,4,1:1:0:0:
178,200,177347,5,0,1:2:0:0:
218,54,177597,5,2,0:2:0:0:
291,39,177722,1,2,0:1:0:0:
292,184,178097,5,0,1:2:0:0:
294,330,178347,5,2,0:2:0:0:
221,345,178472,1,2,0:1:0:0:
218,207,178847,5,0,1:2:0:0:
219,66,179097,5,2,0:2:0:0:
292,51,179222,1,2,0:1:0:0:
292,184,179597,5,0,1:2:0:0:
293,318,179847,5,2,0:2:0:0:
220,333,179972,1,2,0:1:0:0:
256,192,180347,5,0,1:2:0:0:
256,192,180597,5,0,0:2:0:0:
256,192,180722,2,0,L|346:197,1,88.000002685547,0|0,1:2|0:2,0:2:0:0:
378,185,181097,2,0,P|423:200|455:256,1,88.000002685547,2|0,0:2|0:2,0:2:0:0:
459,279,181472,1,2,0:2:0:0:
397,316,181722,5,0,0:2:0:0:
397,316,181847,2,0,L|342:333,1,44.0000013427735,0|0,1:2|1:2,0:2:0:0:
278,315,182097,2,0,L|235:302,1,44.0000013427735,0|2,1:2|1:2,0:2:0:0:
75,252,182472,5,0,1:2:0:0:
124,248,182597,1,0,1:2:0:0:
165,272,182722,1,0,1:2:0:0:
153,226,182847,1,0,1:2:0:0:
110,205,182972,6,0,P|61:278|56:340,1,132.00000402832,6|0,1:2|0:2,0:2:0:0:
14,196,183597,2,0,P|58:147|116:117,1,132.00000402832,2|0,0:2|2:2,0:2:0:0:
116,116,184097,1,2,0:2:0:0:
16,24,184347,1,0,0:2:0:0:
0,14,184472,6,0,L|142:30,1,132.00000402832,2|0,3:2|3:2,0:2:0:0:
156,17,184972,1,0,3:2:0:0:
170,33,185097,2,0,P|199:91|196:177,1,132.00000402832,2|0,0:2|0:2,0:2:0:0:
175,217,185597,2,0,P|157:239|187:222,1,88.000002685547,2|0,0:2|0:2,0:2:0:0:
191,231,185972,6,0,P|256:275|339:269,1,132.00000402832,6|0,3:2|0:2,0:2:0:0:
140,328,186597,2,0,P|205:372|288:366,1,132.00000402832,2|0,0:2|2:2,0:2:0:0:
256,375,187097,5,0,0:2:0:0:
383,291,187347,1,0,0:2:0:0:
394,308,187472,6,0,L|414:152,1,132.00000402832,2|0,3:2|0:2,0:2:0:0:
399,113,187972,2,0,P|371:118|382:144,1,44.0000013427735,0|0,3:2|3:2,0:2:0:0:
369,129,188222,2,0,P|303:136|249:150,1,88.000002685547,2|0,1:2|0:2,0:2:0:0:
212,165,188597,5,0,3:2:0:0:
212,165,188722,1,0,3:2:0:0:
212,165,188847,1,0,3:2:0:0:
189,142,188972,6,0,P|229:218|211:262,1,132.00000402832,6|0,3:2|0:2,0:2:0:0:
87,310,189597,2,0,P|112:227|156:209,1,132.00000402832,2|0,0:2|2:2,0:2:0:0:
148,210,190097,1,2,0:2:0:0:
33,155,190347,1,0,0:2:0:0:
40,173,190472,6,0,P|52:117|53:18,1,132.00000402832,2|0,3:2|0:2,0:2:0:0:
123,24,190972,2,0,P|114:40|118:88,1,44.0000013427735,0|2,3:2|3:2,0:2:0:0:
110,65,191222,2,0,L|231:45,1,88.000002685547,0|2,1:2|0:2,0:2:0:0:
247,35,191597,1,2,0:2:0:0:
182,96,191847,1,0,3:2:0:0:
182,96,191972,6,0,P|277:106|299:152,1,132.00000402832,6|0,3:2|0:2,0:2:0:0:
391,238,192534,5,0,3:2:0:0:
391,238,192628,5,0,3:2:0:0:
391,238,192722,6,0,P|425:290|421:398,1,132.00000402832,2|0,1:2|2:2,0:2:0:0:
489,251,193284,5,0,3:2:0:0:
489,251,193378,5,0,3:2:0:0:
489,251,193472,6,0,P|459:290|455:341,1,88.000002685547,6|0,3:2|2:2,0:2:0:0:
419,333,193847,1,0,3:2:0:0:
384,338,193972,1,0,3:2:0:0:
349,343,194097,1,0,3:2:0:0:
314,348,194222,1,0,1:2:0:0:
209,363,194472,5,0,3:2:0:0:
184,321,194597,1,0,3:2:0:0:
208,279,194722,1,0,1:2:0:0:
177,241,194847,1,0,1:2:0:0:
193,195,194972,1,0,3:2:0:0:
47,262,195222,6,0,P|71:265|64:285,1,44.0000013427735,0|0,3:2|0:2,0:2:0:0:
17,177,195597,1,0,3:2:0:0:
17,177,195722,2,0,P|122:126|213:57,1,220.000006713867,2|0,1:2|0:2,0:2:0:0:
254,9,196472,5,6,0:2:0:0:
404,93,196847,1,0,1:2:0:0:
301,143,197097,1,0,0:2:0:0:
309,99,197222,1,2,0:2:0:0:
309,99,197472,2,0,P|290:120|270:111,1,44.0000013427735,0|0,0:2|1:2,0:2:0:0:
230,225,197847,1,0,0:2:0:0:
277,217,197972,2,0,P|357:221|419:235,1,132.00000402832,2|0,0:2|1:2,0:2:0:0:
277,305,198597,5,0,0:2:0:0:
235,310,198722,2,0,L|124:325,1,88.000002685547,2|0,0:2|0:2,0:2:0:0:
311,335,199097,2,0,L|398:323,1,88.000002685547,0|0,1:2|0:2,0:2:0:0:
398,322,199472,6,0,P|338:367|256:362,1,132.00000402832,6|0,0:2|1:2,0:2:0:0:
152,326,200097,1,0,0:2:0:0:
120,296,200222,2,0,P|90:232|98:161,1,132.00000402832,2|0,0:2|1:2,0:2:0:0:
203,47,200847,1,0,0:2:0:0:
203,47,200972,6,0,P|202:89|243:111,1,88.000002685547,2|0,0:2|0:2,0:2:0:0:
297,14,201347,2,0,P|305:57|346:109,1,88.000002685547,0|0,1:2|0:2,0:2:0:0:
408,0,201722,2,0,P|392:15|422:5,1,88.000002685547,2|0,0:2|0:2,0:2:0:0:
421,0,202097,1,0,1:2:0:0:
411,115,202347,1,0,0:2:0:0:
452,101,202472,6,0,P|476:136|472:192,1,88.000002685547,6|0,0:2|0:2,0:2:0:0:
427,122,202847,2,0,P|392:153|407:216,1,88.000002685547,0|0,1:2|0:2,0:2:0:0:
390,191,203222,1,2,0:2:0:0:
449,257,203472,1,0,0:2:0:0:
462,278,203597,2,0,P|414:290|372:313,1,88.000002685547,0|0,1:2|0:2,0:2:0:0:
319,346,203972,5,2,0:2:0:0:
225,277,204222,2,0,P|244:287|223:289,1,44.0000013427735,0|0,0:2|1:2,0:2:0:0:
279,188,204597,2,0,P|294:202|273:199,1,44.0000013427735,0|2,0:2|0:2,0:2:0:0:
169,201,204972,1,0,0:2:0:0:
169,201,205097,2,0,L|68:217,1,88.000002685547,0|0,1:2|0:2,0:2:0:0:
35,222,205472,5,6,0:2:0:0:
45,96,205722,1,0,0:2:0:0:
66,57,205847,1,0,1:2:0:0:
139,126,206097,1,0,0:2:0:0:
174,101,206222,2,0,P|212:86|292:116,1,88.000002685547,2|0,0:2|0:2,0:2:0:0:
389,123,206847,1,0,0:2:0:0:
404,83,206972,6,0,P|425:146|410:216,1,132.00000402832,2|0,0:2|1:2,0:2:0:0:
359,250,207472,1,0,0:2:0:0:
358,267,207597,2,0,P|351:242|327:222,1,44.0000013427735,0|2,0:2|0:2,0:2:0:0:
441,371,207972,2,0,P|446:347|458:329,1,44.0000013427735,0|0,0:2|1:2,0:2:0:0:
456,330,208222,1,0,0:2:0:0:
456,330,208347,1,0,0:2:0:0:
437,312,208472,6,0,P|377:317|289:342,1,132.00000402832,6|0,0:2|1:2,0:2:0:0:
175,370,209097,1,0,0:2:0:0:
138,388,209222,1,2,0:2:0:0:
138,388,209597,1,0,1:2:0:0:
107,263,209847,5,0,0:2:0:0:
83,297,209972,1,2,0:2:0:0:
83,297,210347,1,0,1:2:0:0:
4,195,210597,5,0,0:2:0:0:
0,236,210722,1,2,0:2:0:0:
0,236,210972,2,0,P|32:216|26:193,1,40,0|0,0:2|1:2,0:2:0:0:
69,112,211347,1,0,0:2:0:0:
59,82,211472,6,0,P|70:147|105:195,1,120,2|0,0:2|1:2,0:2:0:0:
208,86,212097,1,0,0:2:0:0:
241,94,212222,2,0,L|379:126,1,120,2|0,0:2|1:2,0:2:0:0:
408,170,212722,2,0,P|424:166|397:148,1,40,0|0,0:2|0:2,0:2:0:0:
425,144,212972,6,0,P|368:221|391:264,1,120,2|0,0:2|1:2,0:2:0:0:
454,345,213597,1,0,0:2:0:0:
482,374,213722,1,2,1:2:0:0:
377,333,213972,2,0,P|360:348|351:372,1,40,0|0,0:2|1:2,0:2:0:0:
283,266,214347,1,0,0:2:0:0:
302,296,214472,6,0,P|263:329|178:327,1,120,2|0,0:2|1:2,0:2:0:0:
196,334,216347,1,0,0:2:0:0:
92,305,216597,2,0,P|158:295|198:231,1,120,2|0,0:2|0:2,0:2:0:0:
118,230,217097,2,0,L|22:219,1,80,0|0,0:2|0:2,0:2:0:0:
43,202,217472,6,0,P|76:159|155:156,1,120,2|0,0:2|0:2,0:2:0:0:
235,167,218097,1,0,0:2:0:0:
239,140,218222,2,0,P|305:145|350:186,1,120,2|0,1:2|0:2,0:2:0:0:
396,66,218847,1,0,0:2:0:0:
405,32,218972,6,0,L|423:168,1,120,2|0,0:2|0:2,0:2:0:0:
461,165,219472,1,0,0:2:0:0:
480,205,219597,1,0,0:2:0:0:
471,247,219722,2,0,P|431:256|419:317,1,80,2|0,1:2|0:2,0:2:0:0:
411,330,220097,1,0,0:2:0:0:
371,343,220222,1,0,0:2:0:0:
338,317,220347,1,0,0:2:0:0:
228,336,222972,6,0,P|226:346|221:354,1,20,0|0,0:2|0:2,0:2:0:0:
215,360,223347,2,0,P|222:349|221:335,1,20,0|2,0:2|0:2,0:2:0:0:
104,280,224097,5,0,0:2:0:0:
104,280,224222,2,0,P|116:232|116:175,1,100,2|0,0:2|0:2,0:2:0:0:
116,181,224972,1,2,0:2:0:0:
263,97,225597,5,0,0:2:0:0:
263,97,225722,2,0,P|251:145|251:202,1,100,2|0,0:2|0:2,0:2:0:0:
250,195,226472,1,2,0:2:0:0:
325,233,227097,5,0,0:2:0:0:
325,233,227222,2,0,P|355:217|393:228,1,60,2|0,0:2|0:2,0:2:0:0:
386,255,227847,2,0,P|367:285|336:266,1,80,2|0,0:2|0:2,0:2:0:0:
301,259,228597,2,0,P|289:259|289:277,1,20,2|0,0:0|0:0,0:0:0:0:
292,363,229472,5,2,0:2:0:0:
104,280,230097,5,0,0:2:0:0:
104,280,230222,2,0,P|116:232|116:175,1,100,2|0,0:2|0:2,0:2:0:0:
116,181,230972,1,2,0:2:0:0:
263,97,231597,5,0,0:2:0:0:
263,97,231722,2,0,P|251:145|251:202,1,100,2|0,0:2|0:2,0:2:0:0:
250,195,232472,1,2,0:2:0:0:
325,233,233097,5,0,0:2:0:0:
325,233,233222,2,0,P|352:249|359:289,1,60,2|0,0:2|0:2,0:2:0:0:
383,304,233847,2,0,P|421:289|471:295,1,80,2|0,0:2|0:2,0:2:0:0:
490,310,234597,2,0,L|470:319,1,20,2|0,0:0|0:0,0:0:0:0:
351,381,235472,5,2,0:2:0:0:
263,97,236097,5,0,0:2:0:0:
263,97,236222,2,0,P|251:145|251:202,1,100,2|0,0:2|0:2,0:2:0:0:
250,195,236972,1,2,0:2:0:0:
249,287,237597,5,0,0:2:0:0:
249,287,237722,2,0,P|261:239|261:182,1,100,2|0,0:2|0:2,0:2:0:0:
262,189,238472,1,2,0:2:0:0:
256,192,239097,5,0,0:2:0:0:
256,192,239222,2,0,L|326:182,1,60,2|0,0:2|0:2,0:2:0:0:
348,172,239847,2,0,P|373:173|376:222,1,80,2|0,0:2|0:2,0:2:0:0:
400,248,240597,2,0,P|397:258|378:265,1,20,2|0,0:2|0:2,0:2:0:0:
361,357,241472,5,2,0:2:0:0:
263,97,242097,5,0,0:2:0:0:
271,133,242222,1,2,0:2:0:0:
271,133,242847,5,0,0:2:0:0:
240,113,242972,1,2,0:2:0:0:
272,271,243597,5,0,0:2:0:0:
241,251,243722,1,2,0:2:0:0:
241,251,244347,5,0,0:2:0:0:
249,287,244472,1,2,0:2:0:0:
256,384,246972,6,0,P|247:376|226:378,1,20,0|0,0:2|0:2,0:2:0:0:
256,384,247347,2,0,P|265:376|286:378,1,20,0|0,0:2|0:2,0:2:0:0:
256,0,248472,5,0,0:2:0:0:
256,0,248597,2,0,P|227:27|164:28,1,80,2|0,3:2|0:2,0:2:0:0:
96,3,248972,6,0,P|179:36|236:105,1,180.000006866455,4|0,3:1|1:2,0:2:0:0:
303,252,249597,5,2,0:2:0:0:
294,305,249722,2,0,P|240:366|195:375,1,120.000004577637,0|0,0:1|0:2,0:2:0:0:
131,341,250097,2,0,P|105:263|119:220,1,120.000004577637,0|2,1:2|0:2,0:2:0:0:
114,229,250472,6,0,L|162:221,1,40,0|0,0:1|0:2,0:2:0:0:
202,167,250847,6,0,P|271:152|338:163,1,120.000004577637,0|2,1:2|0:2,0:2:0:0:
389,182,251222,5,0,1:1:0:0:
446,227,251347,1,0,1:2:0:0:
487,286,251472,1,0,1:2:0:0:
510,357,251597,2,0,P|455:321|393:313,1,120.000004577637,0|2,1:2|0:2,0:2:0:0:
402,312,251972,6,0,L|392:366,1,40,0|0,0:1|0:2,0:2:0:0:
273,371,252347,6,0,P|230:324|222:268,1,120.000004577637,0|2,1:2|0:2,0:2:0:0:
319,245,252722,6,0,P|299:305|255:340,1,95.9999970703126,4|0,1:1|0:2,0:2:0:0:
144,261,253097,2,0,P|164:201|208:166,1,95.9999970703126,0|0,1:2|0:2,0:2:0:0:
354,140,253472,2,0,L|240:161,1,95.9999970703126,2|0,1:2|0:2,0:2:0:0:
257,72,253847,5,0,1:2:0:0:
300,38,253972,1,0,1:2:0:0:
355,39,254097,1,0,1:2:0:0:
404,77,254222,1,4,1:1:0:0:
404,77,254472,5,0,1:2:0:0:
342,48,254597,1,0,1:2:0:0:
274,54,254722,1,0,1:2:0:0:
215,89,254847,1,0,1:2:0:0:
147,97,254972,1,6,1:1:0:0:
256,192,255347,5,0,1:2:0:0:
166,362,255597,5,2,0:2:0:0:
93,377,255722,2,0,P|66:310|88:229,1,143.999995605469,2|0,0:1|1:2,0:2:0:0:
346,22,256347,5,2,0:2:0:0:
419,7,256472,2,0,P|446:74|424:155,1,143.999995605469,2|0,0:1|1:2,0:2:0:0:
171,351,257097,5,2,0:2:0:0:
102,365,257222,2,0,P|77:302|98:226,1,143.999995605469,2|0,0:1|1:2,0:2:0:0:
340,32,257847,5,2,0:2:0:0:
409,18,257972,2,0,P|434:81|413:157,1,143.999995605469,2|0,0:1|1:2,0:2:0:0:
256,192,258597,5,2,0:2:0:0:
256,192,258722,2,0,P|298:219|316:287,1,95.9999970703126,2|0,0:1|0:2,0:2:0:0:
335,144,259097,2,0,P|301:96|259:86,1,95.9999970703126,2|0,0:2|0:2,0:2:0:0:
243,56,259472,2,0,L|177:66,2,47.9999985351563,2|0|0,0:1|0:2|0:2,0:2:0:0:
158,41,259847,5,0,1:2:0:0:
110,41,259972,1,0,1:2:0:0:
68,65,260097,1,0,1:2:0:0:
49,109,260222,1,2,1:1:0:0:
174,84,260472,5,0,1:2:0:0:
130,46,260597,1,0,1:2:0:0:
94,91,260722,1,0,1:2:0:0:
58,136,260847,1,0,1:2:0:0:
14,98,260972,1,6,1:1:0:0:
256,192,261347,5,0,1:2:0:0:
166,362,261597,5,2,0:2:0:0:
93,377,261722,2,0,P|66:310|88:229,1,143.999995605469,2|0,0:1|1:2,0:2:0:0:
346,22,262347,5,2,0:2:0:0:
419,7,262472,2,0,P|446:74|424:155,1,143.999995605469,2|0,0:1|1:2,0:2:0:0:
171,351,263097,5,2,0:2:0:0:
102,365,263222,2,0,P|77:302|98:226,1,143.999995605469,2|0,0:1|1:2,0:2:0:0:
340,32,263847,5,2,0:2:0:0:
409,18,263972,2,0,P|434:81|413:157,1,143.999995605469,2|0,0:1|1:2,0:2:0:0:
256,192,264597,5,2,0:2:0:0:
256,192,264722,2,0,L|158:198,1,95.9999970703126,2|0,0:1|0:2,0:2:0:0:
88,201,265097,1,2,0:2:0:0:
164,162,265347,5,0,0:2:0:0:
211,165,265472,2,0,L|309:171,1,95.9999970703126,2|0,0:1|0:2,0:2:0:0:
358,158,265847,1,0,1:2:0:0:
372,198,265972,1,0,1:2:0:0:
386,238,266097,1,0,1:2:0:0:
400,278,266222,1,2,1:1:0:0:
419,112,266472,5,0,1:2:0:0:
382,156,266597,1,0,1:2:0:0:
389,213,266722,1,0,1:2:0:0:
436,247,266847,1,0,1:2:0:0:
493,237,266972,1,6,1:1:0:0:
256,192,267347,5,0,1:2:0:0:
121,347,267597,5,2,0:2:0:0:
48,362,267722,2,0,P|21:295|43:214,1,143.999995605469,2|0,0:1|1:2,0:2:0:0:
35,226,268347,5,2,0:2:0:0:
35,226,268472,2,0,P|21:296|48:362,1,143.999995605469,2|0,0:1|1:2,0:2:0:0:
403,172,269097,5,2,0:2:0:0:
476,157,269222,2,0,P|490:87|464:22,1,143.999995605469,2|0,0:1|1:2,0:2:0:0:
464,22,269847,5,2,0:2:0:0:
464,22,269972,1,2,0:1:0:0:
256,192,270347,5,0,1:2:0:0:
256,192,270597,5,0,0:2:0:0:
256,192,270722,2,0,P|233:235|239:296,1,95.9999970703126,0|0,0:2|0:2,0:2:0:0:
242,154,271097,2,0,P|194:155|154:180,1,95.9999970703126,2|0,0:2|0:2,0:2:0:0:
136,220,271472,1,2,0:2:0:0:
145,340,271722,1,0,0:2:0:0:
145,340,271847,5,0,1:2:0:0:
171,305,271972,1,0,1:2:0:0:
213,312,272097,1,0,1:2:0:0:
239,277,272222,1,2,1:2:0:0:
336,353,272472,5,0,1:2:0:0:
316,298,272597,1,0,1:2:0:0:
371,278,272722,1,0,1:2:0:0:
426,258,272847,1,0,1:2:0:0:
451,310,272972,1,0,1:2:0:0:
451,60,273722,6,0,P|406:106|356:96,1,120,0|0,1:2|0:2,0:2:0:0:
299,0,274347,2,0,L|276:38,1,40,0|0,0:2|0:2,0:2:0:0:
130,116,274847,6,0,P|166:134|188:173,1,80,2|0,0:2|0:2,0:2:0:0:
173,234,275222,2,0,P|178:266|200:235,1,80,2|0,1:2|0:2,0:2:0:0:
204,244,275597,1,2,1:2:0:0:
241,239,275722,1,0,1:2:0:0:
277,233,275847,1,0,1:2:0:0:
322,225,275972,6,0,P|246:271|192:387,1,200,4|0,0:2|0:2,0:2:0:0:
142,292,276722,2,0,P|111:320|114:377,1,80,0|0,1:2|0:2,0:2:0:0:
146,296,277097,2,0,P|110:273|56:290,1,80,0|0,0:2|0:2,0:2:0:0:
55,293,277472,1,0,0:2:0:0:
69,204,277722,1,0,0:2:0:0:
69,204,277847,5,0,1:2:0:0:
88,165,277972,1,0,1:2:0:0:
61,130,278097,1,0,1:2:0:0:
19,140,278222,1,2,1:2:0:0:
117,73,278472,5,0,1:2:0:0:
172,58,278597,1,0,1:2:0:0:
228,68,278722,1,0,1:2:0:0:
268,108,278847,1,0,1:2:0:0:
282,162,278972,1,4,1:1:0:0:
282,162,302847,5,0,3:2:0:0:
282,162,302972,5,4,1:2:0:0:
224,207,303347,1,0,3:2:0:0:
155,181,303722,1,0,1:2:0:0:
213,136,304097,1,0,3:2:0:0:
37,224,304347,1,0,3:2:0:0:
37,224,304472,5,0,1:2:0:0:
105,252,304847,1,0,3:2:0:0:
148,311,305222,1,0,1:2:0:0:
164,383,305597,1,0,3:2:0:0:
337,306,305847,1,0,3:2:0:0:
337,306,305972,5,0,1:2:0:0:
265,274,306347,1,0,3:2:0:0:
233,346,306722,1,0,1:2:0:0:
305,378,307097,1,0,3:2:0:0:
444,300,307347,1,0,3:2:0:0:
444,300,307472,5,0,1:2:0:0:
434,225,307847,1,0,3:2:0:0:
496,178,308222,1,0,1:2:0:0:
506,253,308597,1,0,3:2:0:0:
385,206,308847,1,0,3:2:0:0:
359,236,308972,5,0,1:2:0:0:
288,250,309347,1,0,3:2:0:0:
217,264,309722,1,0,1:2:0:0:
146,278,310097,1,0,3:2:0:0:
14,192,310347,1,0,3:2:0:0:
14,192,310472,5,0,1:2:0:0:
14,192,311222,1,2,1:2:0:0:
86,185,311597,1,0,3:2:0:0:
125,98,311847,1,0,3:2:0:0:
125,98,311972,5,0,1:2:0:0:
198,109,312347,1,0,3:2:0:0:
269,91,312722,1,0,1:2:0:0:
318,36,313097,1,0,3:2:0:0:
358,126,313347,6,0,P|368:174|338:255,1,120,6|0,3:2|3:2,0:2:0:0:
280,274,313847,1,2,3:2:0:0:
311,362,314097,5,0,3:2:0:0:
357,342,314222,2,0,P|425:348|492:376,1,120,2|0,3:1|0:2,0:2:0:0:
