osu file format v14

[General]
AudioFilename: aira.mp3
AudioLeadIn: 0
PreviewTime: 5651
Countdown: 1
SampleSet: None
StackLeniency: 0.7
Mode: 0
LetterboxInBreaks: 1
WidescreenStoryboard: 1

[Editor]
DistanceSpacing: 1.3
BeatDivisor: 4
GridSize: 4
TimelineZoom: 2.599999

[Metadata]
Title:Aira
TitleUnicode:アイラ
Artist:n-buna
ArtistUnicode:ナブナ
Creator:kanor
Version:Hard
Source:
Tags:GUMI
BeatmapID:1219752
BeatmapSetID:575641

[Difficulty]
HPDrainRate:5
CircleSize:3.8
OverallDifficulty:7
ApproachRate:8
SliderMultiplier:1.3
SliderTickRate:1

[Events]
//Background and Video events
0,0,"BG.jpg",0,0
//Break Periods
//Storyboard Layer 0 (Background)
//Storyboard Layer 1 (Fail)
//Storyboard Layer 2 (Pass)
//Storyboard Layer 3 (Foreground)
//Storyboard Sound Samples

[TimingPoints]
46,315.789473684211,4,2,0,20,1,0
46,-111.111111111111,4,2,0,20,0,0
6361,-83.3333333333333,4,2,0,20,0,0
26572,-111.111111111111,4,2,0,20,0,0
36677,-100,4,2,0,20,0,0
46782,-111.111111111111,4,2,0,20,0,0

[HitObjects]
254,190,1309,5,0,0:0:0:0:
254,190,2572,1,0,0:0:0:0:
256,192,3835,12,0,5730,0:0:0:0:
355,94,6361,6,0,P|394:91|443:112,1,77.999997619629
489,176,6677,6,0,P|472:211|429:243,1,77.999997619629
350,253,6993,6,0,P|327:220|321:167,1,77.999997619629
252,117,7309,1,0,0:0:0:0:
252,117,7467,1,0,0:0:0:0:
171,70,7624,6,0,P|132:67|83:88,1,77.999997619629
41,156,7940,6,0,P|80:153|129:174,1,77.999997619629
170,242,8256,6,0,P|131:239|82:260,1,77.999997619629
40,328,8572,6,0,P|79:325|128:346,1,77.999997619629
209,330,8888,6,0,P|245:342|284:339,1,77.999997619629
321,253,9203,6,0,P|357:240|396:243,1,77.999997619629
466,306,9519,1,0,0:0:0:0:
466,306,9677,1,0,0:0:0:0:
493,216,9835,1,0,0:0:0:0:
493,216,9993,1,0,0:0:0:0:
474,124,10151,6,0,P|437:111|398:114,1,77.999997619629
324,57,10466,6,0,P|287:69|248:66,1,77.999997619629
159,36,10782,1,0,0:0:0:0:
159,36,10940,1,0,0:0:0:0:
186,126,11098,1,0,0:0:0:0:
186,126,11256,1,0,0:0:0:0:
94,105,11414,6,0,P|60:124|21:128,1,77.999997619629
29,222,11730,6,0,P|62:241|85:272,1,77.999997619629
166,224,12046,6,0,P|166:185|181:149,1,77.999997619629
266,109,12361,1,0,0:0:0:0:
266,109,12519,1,0,0:0:0:0:
359,109,12677,2,0,L|461:115,1,77.999997619629
400,200,12993,2,0,L|502:194,1,77.999997619629
486,289,13309,2,0,L|384:295,1,77.999997619629
445,380,13625,2,0,L|343:374,1,77.999997619629
312,299,13940,6,0,P|273:295|236:308,1,77.999997619629
157,358,14256,6,0,P|120:345|81:348,1,77.999997619629
28,271,14572,1,0,0:0:0:0:
28,271,14730,1,0,0:0:0:0:
54,181,14888,1,0,0:0:0:0:
54,181,15046,1,0,0:0:0:0:
25,92,15203,6,0,P|63:88|100:101,1,77.999997619629
184,59,15519,6,0,P|220:46|259:49,1,77.999997619629
341,95,15835,1,0,0:0:0:0:
341,95,15993,1,0,0:0:0:0:
421,47,16151,2,0,L|425:85,3,38.9999988098145
472,94,16467,2,0,L|461:186,1,77.999997619629
462,171,16782,2,0,P|421:166|381:180,1,77.999997619629
293,193,17098,2,0,P|254:187|217:198,1,77.999997619629
124,182,17414,1,0,0:0:0:0:
124,182,17572,1,0,0:0:0:0:
46,234,17730,2,0,P|41:275|55:315,1,77.999997619629
136,351,18046,2,0,P|131:310|145:270,1,77.999997619629
223,229,18361,2,0,P|218:270|232:310,1,77.999997619629
313,346,18677,2,0,P|308:305|322:265,1,77.999997619629
383,201,18993,2,0,P|424:206|464:192,1,77.999997619629
457,100,19309,2,0,P|419:89|381:94,1,77.999997619629
304,148,19624,1,0,0:0:0:0:
304,148,19782,1,0,0:0:0:0:
228,92,19940,1,0,0:0:0:0:
228,92,20098,1,0,0:0:0:0:
134,90,20256,2,0,P|93:85|53:99,1,77.999997619629
55,190,20572,2,0,P|92:200|130:195,1,77.999997619629
224,195,20887,1,0,0:0:0:0:
224,195,21045,1,0,0:0:0:0:
304,242,21203,1,0,0:0:0:0:
304,242,21361,1,0,0:0:0:0:
385,288,21519,2,0,L|462:289,1,77.999997619629
482,197,21835,2,0,L|404:198,1,77.999997619629
393,105,22151,2,0,L|470:106,1,77.999997619629
433,20,22467,1,0,0:0:0:0:
433,20,22624,1,0,0:0:0:0:
339,20,22782,2,0,P|297:14|259:25,1,77.999997619629
186,77,23098,2,0,P|148:67|110:74,1,77.999997619629
106,168,23414,2,0,P|148:174|186:163,1,77.999997619629
265,121,23730,2,0,P|302:130|340:123,1,77.999997619629
428,88,24046,2,0,L|414:-11,2,77.999997619629
459,176,24519,1,0,0:0:0:0:
459,176,24598,1,0,0:0:0:0:
459,176,24677,2,0,L|473:275,2,77.999997619629
369,206,25151,1,0,0:0:0:0:
369,206,25230,1,0,0:0:0:0:
369,206,25309,2,0,L|271:198,1,77.999997619629
318,110,25624,2,0,L|220:119,1,77.999997619629
241,22,25940,2,0,L|146:48,1,77.999997619629
72,54,26256,2,0,L|75:92,3,38.9999988098145
33,127,26572,2,0,L|156:125,1,116.999996429443
45,220,27203,2,0,L|172:217,1,116.999996429443
184,312,27677,1,0,0:0:0:0:
184,312,27835,2,0,L|57:315,2,116.999996429443
323,295,28782,1,0,0:0:0:0:
323,295,28940,1,0,0:0:0:0:
323,295,29098,2,0,P|382:311|442:286,1,116.999996429443
485,162,29730,2,0,P|430:144|374:160,1,116.999996429443
284,128,30203,1,0,0:0:0:0:
284,128,30361,2,0,P|229:110|173:126,1,116.999996429443
64,40,30993,1,0,0:0:0:0:
64,40,31151,1,0,0:0:0:0:
84,124,31309,1,0,0:0:0:0:
84,124,31467,1,0,0:0:0:0:
68,208,31624,2,0,B|108:228|108:228|184:200,2,116.999996429443
196,328,32572,1,0,0:0:0:0:
196,328,32730,1,0,0:0:0:0:
196,328,32888,2,0,B|236:348|236:348|312:320,1,116.999996429443
464,256,33519,2,0,B|424:276|424:276|348:248,1,116.999996429443
300,184,33993,1,0,0:0:0:0:
300,184,34151,2,0,P|287:123|312:56,2,116.999996429443
475,185,35098,1,0,0:0:0:0:
475,185,35256,1,0,0:0:0:0:
475,185,35414,2,0,P|487:124|463:57,1,116.999996429443
392,37,35888,1,0,0:0:0:0:
392,37,36046,2,0,L|318:32,1,58.4999982147217
250,62,36361,1,0,0:0:0:0:
250,62,36519,1,0,0:0:0:0:
250,62,36677,2,0,P|183:50|125:74,1,130
62,127,37151,1,0,0:0:0:0:
62,127,37309,2,0,P|52:168|64:211,1,65
138,174,37624,2,0,P|140:206|131:237,1,65
79,304,37940,2,0,P|138:321|199:282,1,130
263,238,38414,1,0,0:0:0:0:
263,238,38572,2,0,L|280:151,1,65
359,164,38887,2,0,L|346:227,1,65
420,268,39203,2,0,L|447:124,1,130
466,58,39677,1,0,0:0:0:0:
466,58,39835,2,0,P|424:48|382:60,1,65
326,88,40151,2,0,P|284:97|242:86,1,65
200,36,40467,2,0,P|222:95|210:158,1,130
150,218,40940,1,0,0:0:0:0:
150,218,41098,2,0,L|55:205,1,65
35,278,41414,1,0,0:0:0:0:
35,278,41572,1,0,0:0:0:0:
70,354,41730,2,0,L|165:367,1,65
187,296,42046,2,0,L|282:309,1,65
328,338,42361,2,0,L|341:243,1,65
270,221,42677,2,0,L|257:126,1,65
343,133,42993,2,0,L|351:197,1,65
420,247,43309,2,0,L|411:311,1,65
492,286,43624,2,0,L|505:191,1,65
445,157,43940,1,0,0:0:0:0:
445,157,44098,1,0,0:0:0:0:
483,81,44256,2,0,P|446:75|414:77,1,65
338,47,44572,2,0,P|301:41|269:43,1,65
190,61,44888,1,0,0:0:0:0:
190,61,45046,1,0,0:0:0:0:
108,40,45203,1,0,0:0:0:0:
108,40,45361,1,0,0:0:0:0:
43,94,45519,2,0,P|37:131|39:163,1,65
113,197,45835,2,0,P|114:229|108:261,1,65
48,321,46151,1,0,0:0:0:0:
48,321,46309,1,0,0:0:0:0:
128,346,46467,1,0,0:0:0:0:
128,346,46625,1,0,0:0:0:0:
191,290,46782,2,0,P|260:277|314:295,1,116.999996429443
360,341,47256,2,0,P|429:354|483:336,1,116.999996429443
487,266,47730,1,0,0:0:0:0:
487,266,47888,1,0,0:0:0:0:
476,190,48046,2,0,L|410:165,1,58.4999982147217
457,102,48361,2,0,L|391:77,1,58.4999982147217
342,33,48677,2,0,L|317:99,1,58.4999982147217
254,52,48992,2,0,L|229:118,1,58.4999982147217
186,167,49309,2,0,P|255:154|309:172,1,116.999996429443
440,223,49940,2,0,L|459:293,1,58.4999982147217
392,336,50256,2,0,L|372:266,1,58.4999982147217
301,252,50572,1,0,0:0:0:0:
301,252,50730,2,0,P|232:265|178:247,1,116.999996429443
112,250,51203,2,0,P|117:282|112:316,1,58.4999982147217
46,340,51519,2,0,P|40:307|45:273,1,58.4999982147217
50,206,51835,2,0,B|106:210|106:210|163:173,1,116.999996429443
182,104,52309,1,0,0:0:0:0:
182,104,52467,2,0,L|257:107,2,58.4999982147217
105,60,52940,1,0,0:0:0:0:
105,60,53019,1,0,0:0:0:0:
105,60,53098,2,0,L|40:59,2,58.4999982147217
186,25,53572,1,0,0:0:0:0:
186,25,53651,1,0,0:0:0:0:
186,25,53730,2,0,L|251:24,1,58.4999982147217
331,37,54046,2,0,L|338:99,1,58.4999982147217
422,118,54361,2,0,L|429:56,2,58.4999982147217
365,185,54835,1,0,0:0:0:0:
365,185,54914,1,0,0:0:0:0:
365,185,54993,2,0,L|372:247,1,58.4999982147217
456,219,55309,2,0,L|449:281,1,58.4999982147217
379,330,55624,1,0,0:0:0:0:
379,330,55782,1,0,0:0:0:0:
298,295,55940,1,0,0:0:0:0:
298,295,56098,1,0,0:0:0:0:
219,333,56256,1,0,0:0:0:0:
