osu file format v14

[General]
AudioFilename: audio.mp3
AudioLeadIn: 0
PreviewTime: 134165
Countdown: 0
SampleSet: Soft
StackLeniency: 0.7
Mode: 0
LetterboxInBreaks: 0
WidescreenStoryboard: 1

[Editor]
Bookmarks: 334,6567,12801,25269,37736,40853,53321,64230,65788,75139,78256,84489,96957,112541,125009,134359,137476,162411,168256
DistanceSpacing: 0.9
BeatDivisor: 4
GridSize: 32
TimelineZoom: 3.199999

[Metadata]
Title:Fader
TitleUnicode:フェーダー
Artist:mzsrz
ArtistUnicode:mzsrz
Creator:Ianos
Version:Normal
Source:
Tags:ミズシラズ mizushirazu 現在地未明 Genzaichimimei japanese pop jpop j-pop DECO*27 Rockwell
BeatmapID:4501720
BeatmapSetID:2135079

[Difficulty]
HPDrainRate:4
CircleSize:3.5
OverallDifficulty:5
ApproachRate:5
SliderMultiplier:1
SliderTickRate:1

[Events]
//Background and Video events
0,0,"91931636_p0.png",0,0
//Break Periods
//Storyboard Layer 0 (Background)
//Storyboard Layer 1 (Fail)
//Storyboard Layer 2 (Pass)
//Storyboard Layer 3 (Foreground)
//Storyboard Layer 4 (Overlay)
//Storyboard Sound Samples

[TimingPoints]
334,389.610389610389,4,2,1,20,1,0
334,-100,4,2,1,20,0,0
3450,-100,4,2,1,25,0,0
5009,-100,4,2,1,30,0,0
6567,-100,4,2,1,35,0,0
12996,-100,4,2,2,40,0,0
14944,-100,4,2,1,40,0,0
16113,-100,4,2,2,40,0,0
18061,-100,4,2,1,40,0,0
19230,-100,4,2,2,40,0,0
21178,-100,4,2,1,40,0,0
22346,-100,4,2,2,40,0,0
25269,-100,4,2,2,50,0,0
37736,-100,4,2,2,40,0,0
40074,-100,4,2,2,45,0,0
40853,-100,4,2,1,50,0,0
41924,-100,4,2,2,50,0,0
42411,-100,4,2,1,50,0,0
43483,-100,4,2,2,50,0,0
45528,-100,4,2,1,55,0,0
46308,-100,4,2,2,55,0,0
47087,-100,4,2,2,60,0,0
47282,-100,4,2,1,60,0,0
47866,-100,4,2,2,60,0,0
48840,-100,4,2,1,60,0,0
49424,-100,4,2,2,60,0,0
51762,-100,4,2,3,65,0,0
51957,-100,4,2,2,65,0,0
52152,-100,4,2,3,65,0,0
52346,-100,4,2,2,65,0,0
52541,-100,4,2,3,65,0,0
52833,-100,4,2,2,65,0,0
52931,-100,4,2,3,65,0,0
53126,-100,4,2,2,65,0,0
53321,-100,4,2,3,75,0,0
53613,-100,4,2,2,75,0,0
53710,-100,4,2,3,75,0,0
53905,-100,4,2,2,75,0,0
54100,-100,4,2,3,75,0,0
54295,-100,4,2,2,75,0,0
54489,-100,4,2,3,75,0,0
54684,-100,4,2,2,75,0,0
54879,-100,4,2,3,75,0,0
55171,-100,4,2,2,75,0,0
55269,-100,4,2,3,75,0,0
55463,-100,4,2,2,75,0,0
55658,-100,4,2,3,75,0,0
55853,-100,4,2,2,75,0,0
56048,-100,4,2,3,75,0,0
56243,-100,4,2,2,75,0,0
56437,-100,4,2,3,75,0,0
56730,-100,4,2,2,75,0,0
56827,-100,4,2,3,75,0,0
57022,-100,4,2,2,75,0,0
57217,-100,4,2,3,75,0,0
57411,-100,4,2,2,75,0,0
57606,-100,4,2,3,75,0,0
57801,-100,4,2,2,75,0,0
57996,-100,4,2,3,75,0,0
58288,-100,4,2,2,75,0,0
58385,-100,4,2,3,75,0,0
58580,-100,4,2,2,75,0,0
58775,-100,4,2,3,75,0,0
58970,-100,4,2,1,75,0,0
59165,-100,4,2,3,75,0,0
59359,-100,4,2,2,75,0,0
59554,-100,4,2,3,80,0,0
60139,-100,4,2,4,80,0,0
60333,-100,4,2,3,80,0,0
62671,-100,4,2,3,85,0,0
62866,-100,4,2,1,85,0,0
63061,-100,4,2,3,85,0,0
63256,-100,4,2,1,85,0,0
63450,-100,4,2,3,85,0,0
63645,-100,4,2,1,85,0,0
63840,-100,4,2,3,85,0,0
64035,-100,4,2,1,85,0,0
64230,-100,4,2,1,80,0,0
65398,-100,4,2,1,85,0,0
65788,-90.9090909090909,4,2,1,90,0,1
66178,-90.9090909090909,4,2,3,90,0,1
66762,-90.9090909090909,4,2,1,90,0,1
66957,-90.9090909090909,4,2,3,90,0,1
67346,-90.9090909090909,4,2,1,90,0,1
67736,-90.9090909090909,4,2,3,90,0,1
68321,-90.9090909090909,4,2,1,90,0,1
68515,-90.9090909090909,4,2,3,90,0,1
68905,-90.9090909090909,4,2,1,90,0,1
69295,-90.9090909090909,4,2,3,90,0,1
69879,-90.9090909090909,4,2,1,90,0,1
70074,-90.9090909090909,4,2,3,90,0,1
70463,-90.9090909090909,4,2,1,90,0,1
70853,-90.9090909090909,4,2,4,90,0,1
71437,-90.9090909090909,4,2,2,90,0,1
71632,-90.9090909090909,4,2,4,90,0,1
72022,-90.9090909090909,4,2,1,90,0,1
72411,-90.9090909090909,4,2,3,90,0,1
72996,-90.9090909090909,4,2,1,90,0,1
73191,-90.9090909090909,4,2,3,90,0,1
73580,-90.9090909090909,4,2,1,90,0,1
73970,-90.9090909090909,4,2,3,90,0,1
74554,-90.9090909090909,4,2,1,90,0,1
74749,-90.9090909090909,4,2,4,90,0,1
75139,-100,4,2,4,50,0,0
77087,-100,4,2,1,45,0,0
77282,-100,4,2,1,40,0,0
80788,-100,4,2,2,40,0,0
81372,-100,4,2,1,40,0,0
83905,-100,4,2,2,40,0,0
84489,-100,4,2,2,45,0,0
86827,-100,4,2,1,45,0,0
87801,-100,4,2,2,45,0,0
89944,-100,4,2,1,45,0,0
90918,-100,4,2,2,45,0,0
93061,-100,4,2,1,45,0,0
94035,-100,4,2,2,45,0,0
96178,-100,4,2,1,45,0,0
96957,-100,4,2,2,55,0,0
98126,-100,4,2,1,55,0,0
98515,-100,4,2,2,55,0,0
99295,-100,4,2,1,55,0,0
100074,-100,4,2,2,55,0,0
101243,-100,4,2,1,55,0,0
101632,-100,4,2,2,55,0,0
102411,-100,4,2,1,55,0,0
103191,-100,4,2,2,55,0,0
103970,-100,4,2,4,55,0,0
104359,-100,4,2,1,55,0,0
104749,-100,4,2,2,55,0,0
105528,-100,4,2,3,55,0,0
106308,-100,4,2,2,55,0,0
107476,-100,4,2,1,55,0,0
107866,-100,4,2,2,55,0,0
108645,-100,4,2,1,55,0,0
109424,-100,4,2,2,40,0,0
110204,-100,4,2,4,40,0,0
110983,-100,4,2,1,50,0,0
111762,-100,4,2,1,55,0,0
112541,-100,4,2,1,60,0,0
113126,-100,4,2,2,60,0,0
113515,-100,4,2,1,60,0,0
113905,-100,4,2,2,60,0,0
114295,-100,4,2,1,60,0,0
114684,-100,4,2,2,60,0,0
115074,-100,4,2,1,60,0,0
115463,-100,4,2,2,60,0,0
115853,-100,4,2,1,60,0,0
116243,-100,4,2,2,60,0,0
116632,-100,4,2,1,60,0,0
117022,-100,4,2,2,60,0,0
117411,-100,4,2,1,60,0,0
117801,-100,4,2,2,60,0,0
118191,-100,4,2,1,60,0,0
118580,-100,4,2,2,60,0,0
118775,-100,4,2,2,65,0,0
118970,-100,4,2,1,65,0,0
119165,-100,4,2,2,65,0,0
119359,-100,4,2,1,65,0,0
119554,-100,4,2,2,65,0,0
119749,-100,4,2,1,65,0,0
119944,-100,4,2,2,65,0,0
120139,-100,4,2,1,65,0,0
120333,-100,4,2,2,65,0,0
120528,-100,4,2,1,65,0,0
120723,-100,4,2,2,65,0,0
120918,-100,4,2,1,65,0,0
121113,-100,4,2,2,65,0,0
121308,-100,4,2,1,65,0,0
121502,-100,4,2,2,65,0,0
121697,-100,4,2,1,65,0,0
121892,-100,4,2,5,70,0,0
122087,-100,4,2,1,70,0,0
122184,-100,4,2,2,70,0,0
122282,-100,4,2,5,70,0,0
122476,-100,4,2,1,70,0,0
122574,-100,4,2,2,70,0,0
122671,-100,4,2,5,70,0,0
122866,-100,4,2,1,70,0,0
122963,-100,4,2,2,70,0,0
123061,-100,4,2,5,70,0,0
123256,-100,4,2,1,70,0,0
123353,-100,4,2,4,70,0,0
123450,-100,4,2,4,75,0,0
123548,-100,4,2,1,75,0,0
123645,-100,4,2,5,75,0,0
123840,-100,4,2,4,75,0,0
123937,-100,4,2,1,75,0,0
124035,-100,4,2,5,75,0,0
124230,-100,4,2,4,75,0,0
124327,-100,4,2,1,75,0,0
124424,-100,4,2,5,75,0,0
124619,-100,4,2,4,75,0,0
124717,-100,4,2,1,75,0,0
124814,-100,4,2,5,75,0,0
125009,-100,4,2,3,80,0,0
125301,-100,4,2,2,80,0,0
125398,-100,4,2,3,80,0,0
125593,-100,4,2,2,80,0,0
125788,-100,4,2,3,80,0,0
125983,-100,4,2,2,80,0,0
126178,-100,4,2,3,80,0,0
126372,-100,4,2,2,80,0,0
126567,-100,4,2,3,80,0,0
126859,-100,4,2,2,80,0,0
126957,-100,4,2,3,80,0,0
127152,-100,4,2,2,80,0,0
127346,-100,4,2,3,80,0,0
127541,-100,4,2,2,80,0,0
127736,-100,4,2,3,80,0,0
127833,-100,4,2,2,80,0,0
128126,-100,4,2,3,80,0,0
128418,-100,4,2,2,80,0,0
128515,-100,4,2,3,80,0,0
128710,-100,4,2,2,80,0,0
128905,-100,4,2,3,80,0,0
129100,-100,4,2,2,80,0,0
129295,-100,4,2,3,80,0,0
129489,-100,4,2,2,80,0,0
129684,-100,4,2,3,80,0,0
129879,-100,4,2,2,80,0,0
130074,-100,4,2,3,80,0,0
130269,-100,4,2,2,80,0,0
130463,-100,4,2,3,80,0,0
130658,-100,4,2,1,80,0,0
130853,-100,4,2,3,80,0,0
131048,-100,4,2,2,80,0,0
131243,-100,4,2,3,80,0,0
131827,-100,4,2,4,80,0,0
132022,-100,4,2,3,80,0,0
134359,-100,4,2,3,40,0,0
135918,-100,4,2,3,60,0,0
136308,-100,4,2,3,70,0,0
136697,-100,4,2,3,80,0,0
137087,-100,4,2,5,90,0,0
137476,-100,4,2,1,100,0,1
138061,-83.3333333333333,4,2,1,100,0,1
138645,-83.3333333333333,4,2,3,100,0,1
139035,-83.3333333333333,4,2,1,100,0,1
139424,-83.3333333333333,4,2,3,100,0,1
140009,-83.3333333333333,4,2,1,100,0,1
140204,-83.3333333333333,4,2,3,100,0,1
140593,-83.3333333333333,4,2,1,100,0,1
140983,-83.3333333333333,4,2,3,100,0,1
141567,-83.3333333333333,4,2,1,100,0,1
141762,-83.3333333333333,4,2,3,100,0,1
142152,-83.3333333333333,4,2,1,100,0,1
142541,-83.3333333333333,4,2,4,100,0,1
143126,-83.3333333333333,4,2,2,100,0,1
143321,-83.3333333333333,4,2,4,100,0,1
143710,-83.3333333333333,4,2,1,100,0,1
144100,-83.3333333333333,4,2,3,100,0,1
144684,-83.3333333333333,4,2,1,100,0,1
144879,-83.3333333333333,4,2,3,100,0,1
145269,-83.3333333333333,4,2,1,100,0,1
145658,-83.3333333333333,4,2,3,100,0,1
146243,-83.3333333333333,4,2,1,100,0,1
146437,-83.3333333333333,4,2,3,100,0,1
146632,-83.3333333333333,4,2,2,100,0,1
146827,-83.3333333333333,4,2,1,100,0,1
147217,-83.3333333333333,4,2,3,100,0,1
147801,-83.3333333333333,4,2,1,100,0,1
147996,-83.3333333333333,4,2,3,100,0,1
148385,-83.3333333333333,4,2,1,100,0,1
148775,-83.3333333333333,4,2,4,100,0,1
149359,-83.3333333333333,4,2,2,100,0,1
149554,-83.3333333333333,4,2,4,100,0,1
149895,-83.3333333333333,4,2,4,100,0,0
149944,-83.3333333333333,4,2,1,100,0,1
150333,-83.3333333333333,4,2,3,100,0,1
150723,-83.3333333333333,4,2,2,100,0,1
151113,-83.3333333333333,4,2,3,100,0,1
151502,-83.3333333333333,4,2,1,100,0,1
151892,-83.3333333333333,4,2,3,100,0,1
152476,-83.3333333333333,4,2,2,100,0,1
152671,-83.3333333333333,4,2,3,100,0,1
152866,-83.3333333333333,4,2,2,100,0,1
153061,-83.3333333333333,4,2,1,100,0,1
153450,-83.3333333333333,4,2,3,100,0,1
154035,-83.3333333333333,4,2,1,100,0,1
154230,-83.3333333333333,4,2,3,100,0,1
154619,-83.3333333333333,4,2,1,100,0,1
155009,-83.3333333333333,4,2,4,100,0,1
155593,-83.3333333333333,4,2,2,100,0,1
155788,-83.3333333333333,4,2,4,100,0,1
156178,-83.3333333333333,4,2,1,100,0,1
156567,-83.3333333333333,4,2,3,100,0,1
157152,-83.3333333333333,4,2,2,100,0,1
157346,-83.3333333333333,4,2,3,100,0,1
157736,-83.3333333333333,4,2,1,100,0,1
158126,-83.3333333333333,4,2,3,100,0,1
158710,-83.3333333333333,4,2,1,100,0,1
158905,-83.3333333333333,4,2,3,100,0,1
159100,-83.3333333333333,4,2,2,100,0,1
159295,-83.3333333333333,4,2,1,100,0,1
159684,-83.3333333333333,4,2,3,100,0,1
160269,-83.3333333333333,4,2,1,100,0,1
160463,-83.3333333333333,4,2,3,100,0,1
160853,-83.3333333333333,4,2,1,100,0,1
161243,-83.3333333333333,4,2,4,100,0,1
161827,-83.3333333333333,4,2,2,100,0,1
162022,-83.3333333333333,4,2,4,100,0,1
162411,-100,4,2,2,60,0,0
163580,-100,4,2,2,50,0,0
165528,-100,4,2,2,60,0,0
167087,-100,4,2,2,70,0,0
167476,-100,4,2,2,60,0,0
167866,-100,4,2,2,50,0,0
168256,-100,4,2,2,40,0,0

[Colours]
Combo1 : 128,255,255
Combo2 : 128,128,255
Combo3 : 255,140,140
Combo4 : 255,183,111
Combo5 : 255,255,128
Combo6 : 128,255,128

[HitObjects]
256,192,3450,12,2,6567,3:2:0:0:
461,338,7346,6,1,P|471:289|478:239,1,100,0|2,3:3|3:2,0:0:0:0:
389,225,8126,2,1,P|382:274|372:323,1,100,2|0,3:2|3:3,0:0:0:0:
361,366,8710,1,2,3:2:0:0:
361,366,8905,2,1,P|318:351|295:344,1,50,0|0,3:3|3:3,0:0:0:0:
270,336,9295,1,2,3:2:0:0:
185,305,9684,6,1,P|103:274|-1:230,1,200,2|0,3:2|3:3,0:0:0:0:
36,148,10853,1,2,3:2:0:0:
77,68,11243,2,1,P|169:107|262:142,1,200,2|0,3:2|0:0,0:0:0:0:
418,53,12801,5,0,0:0:0:0:
477,120,13191,2,1,P|487:161|492:189,1,50,0|2,0:0|2:2,0:0:0:0:
500,212,13580,1,0,0:0:0:0:
456,291,13970,2,1,P|425:304|396:304,1,50,2|0,2:2|0:0,0:0:0:0:
373,277,14359,2,1,P|314:252|270:267,1,100,2|2,2:2|2:2,0:0:0:0:
24,343,15918,5,0,0:0:0:0:
24,343,16113,2,1,P|74:355|134:377,1,100,2|2,2:2|2:2,0:0:0:0:
164,364,16697,1,0,0:0:0:0:
148,275,17087,1,2,2:2:0:0:
213,213,17476,1,2,2:2:0:0:
213,213,17671,2,1,P|227:170|236:144,1,50,0|2,0:0|2:2,0:0:0:0:
7,9,19035,5,0,3:3:0:0:
74,67,19424,2,1,P|114:60|132:42,1,50,0|2,0:0|2:2,0:0:0:0:
155,25,19814,1,0,0:0:0:0:
232,70,20204,1,2,2:2:0:0:
232,70,20398,2,1,P|291:42|327:48,1,100,0|0,0:0|0:0,0:0:0:0:
359,73,20983,1,2,2:2:0:0:
231,311,22152,5,0,0:0:0:0:
297,250,22541,2,1,P|321:244|345:238,1,50,0|2,0:0|2:2,0:0:0:0:
390,229,22931,2,1,P|402:174|417:116,2,100,0|2|2,0:0|2:2|2:2,0:0:0:0:
388,277,23905,1,0,0:0:0:0:
388,277,24100,1,2,2:2:0:0:
193,89,25269,6,1,P|134:100|81:117,1,100,6|0,1:2|3:3,0:0:0:0:
42,184,26048,1,10,3:2:0:0:
103,249,26437,2,1,P|97:279|92:303,1,50,0|2,1:1|1:2,0:0:0:0:
84,342,26827,1,2,3:2:0:0:
172,324,27217,1,2,3:2:0:0:
256,354,27606,2,1,P|311:343|375:334,1,100,8|0,3:2|3:3,0:0:0:0:
412,267,28385,6,1,P|380:221|331:211,1,100,2|2,1:2|3:2,0:0:0:0:
254,239,29165,1,10,3:2:0:0:
184,182,29554,2,1,P|150:190|124:200,1,50,0|0,1:1|1:1,0:0:0:0:
92,207,29944,2,1,P|82:151|109:110,1,100,2|2,2:2|3:2,0:0:0:0:
173,59,30723,1,10,3:2:0:0:
253,98,31113,1,0,3:3:0:0:
316,34,31502,6,1,P|378:25|426:20,1,100,2|0,1:2|3:3,0:0:0:0:
495,62,32282,1,10,3:2:0:0:
440,133,32671,2,1,P|431:175|425:200,1,50,0|2,1:1|1:2,0:0:0:0:
424,226,33061,1,2,3:2:0:0:
459,308,33450,1,2,3:2:0:0:
392,369,33840,2,1,P|337:344|324:297,1,100,8|0,3:2|3:3,0:0:0:0:
266,240,34619,6,1,P|275:190|286:142,1,100,2|2,1:2|3:2,0:0:0:0:
304,53,35398,1,10,3:2:0:0:
220,19,35788,2,1,P|181:25|156:32,1,50,0|0,1:1|1:1,0:0:0:0:
126,37,36178,2,1,P|135:86|146:134,1,100,2|2,3:2|3:2,0:0:0:0:
164,224,36957,1,10,3:2:0:0:
80,258,37347,2,1,P|41:252|16:245,2,50,0|0|2,3:3|1:1|3:2,0:0:0:0:
463,352,40074,6,1,P|450:294|436:241,1,100,2|2,2:2|2:2,0:0:0:0:
360,211,40853,2,1,B|324:211|324:211|300:240,2,75,2|2|2,2:2|2:2|2:2,0:0:0:0:
384,174,41632,1,2,2:2:0:0:
292,74,42217,1,2,2:2:0:0:
292,74,42411,2,1,B|316:44|316:44|351:44,2,75,2|2|2,2:2|2:2|2:2,0:0:0:0:
250,91,43191,2,1,P|183:70|133:60,1,100,2|0,2:2|0:0,0:0:0:0:
85,121,43970,5,2,3:2:0:0:
17,180,44359,2,1,P|39:234|88:253,1,100,0|2,3:3|3:2,0:0:0:0:
163,264,45139,2,1,P|141:318|92:337,1,100,0|2,3:3|3:2,0:0:0:0:
74,251,45918,1,0,3:3:0:0:
136,185,46308,2,1,P|168:178|193:175,1,50,2|0,3:2|0:0,0:0:0:0:
230,172,46697,1,2,3:2:0:0:
317,151,47087,6,1,P|329:104|335:82,2,50,8|2|8,2:2|2:2|2:2,0:0:0:0:
316,196,47671,2,1,P|327:256|331:299,1,100,2|0,2:2|0:0,0:0:0:0:
336,339,48256,1,10,2:2:0:0:
423,319,48645,2,1,P|428:281|437:255,1,50,8|2,2:2|2:2,0:0:0:0:
441,225,49035,2,1,P|493:246|510:293,2,100,8|10|10,2:2|2:2|2:2,0:0:0:0:
351,211,50204,6,1,P|296:198|238:188,1,100,10|10,2:2|2:2,0:0:0:0:
212,190,50788,1,2,2:2:0:0:
212,190,50983,1,8,2:2:0:0:
224,278,51372,1,8,2:2:0:0:
136,290,51762,1,10,2:2:0:0:
124,202,52152,1,10,2:2:0:0:
162,120,52541,2,1,P|179:76|185:56,1,50,10|8,2:2|2:2,0:0:0:0:
200,33,52931,1,10,2:2:0:0:
286,9,53321,6,1,P|323:39|327:89,1,100,14|10,2:2|2:2,0:0:0:0:
265,153,54100,2,1,P|272:188|275:206,1,50,10|0,2:2|1:1,0:0:0:0:
284,246,54489,2,1,P|319:239|337:236,1,50,10|2,2:2|1:2,0:0:0:0:
378,231,54879,1,10,2:2:0:0:
463,260,55269,1,10,2:2:0:0:
498,177,55658,2,1,P|493:142|488:118,1,50,10|0,2:2|1:1,0:0:0:0:
481,83,56048,2,1,P|476:48|471:24,1,50,10|2,2:2|1:2,0:0:0:0:
441,1,56437,5,10,2:2:0:0:
367,52,56827,2,1,P|312:44|281:5,1,100,10|10,2:2|2:2,0:0:0:0:
213,68,57606,2,1,P|158:75|127:114,1,100,10|10,2:2|2:2,0:0:0:0:
57,159,58385,1,10,2:2:0:0:
91,242,58775,2,1,P|132:248|152:252,1,50,10|0,2:2|1:1,0:0:0:0:
184,258,59165,1,10,2:2:0:0:
275,283,59554,5,10,2:2:0:0:
275,283,59749,2,1,P|315:276|339:273,2,50,8|10|10,2:2|2:2|2:2,0:0:0:0:
265,238,60333,2,1,P|273:195|279:166,1,50,10|8,2:2|2:2,0:0:0:0:
282,144,60723,1,10,2:2:0:0:
352,87,61113,1,10,2:2:0:0:
352,87,61308,2,1,P|359:50|362:30,2,50,8|10|8,2:2|2:2|2:2,0:0:0:0:
382,120,61892,2,1,P|420:134|442:134,1,50,10|8,2:2|2:2,0:0:0:0:
475,130,62282,1,10,2:2:0:0:
444,214,62671,6,1,P|434:270|420:324,1,100,10|10,2:2|2:2,0:0:0:0:
411,355,63256,2,1,P|383:348|352:341,1,50,2|10,1:2|2:2,0:0:0:0:
332,309,63645,2,1,P|304:302|273:295,1,50,2|10,1:2|2:2,0:0:0:0:
240,284,64035,1,2,1:2:0:0:
202,258,64230,2,1,B|194:219|194:219|216:187,2,75,2|2|2,2:2|2:2|2:2,0:0:0:0:
41,83,65788,6,1,P|110:64|172:49,1,110.000003356934,6|10,1:2|3:2,0:0:0:0:
201,48,66372,1,2,3:2:0:0:
292,4,66762,1,0,1:1:0:0:
292,4,66957,2,1,P|331:18|353:27,1,55.0000016784668,10|2,3:2|3:2,0:0:0:0:
390,39,67346,1,2,1:2:0:0:
475,89,67736,2,1,P|461:138|448:199,1,110.000003356934,8|0,3:2|3:3,0:0:0:0:
435,243,68321,1,0,1:1:0:0:
435,243,68515,1,8,3:2:0:0:
353,298,68905,6,1,P|298:277|279:228,1,110.000003356934,2|10,1:2|3:2,0:0:0:0:
287,180,69489,1,2,3:2:0:0:
205,124,69879,1,0,1:1:0:0:
205,124,70074,1,10,3:2:0:0:
149,200,70463,1,2,1:2:0:0:
149,200,70658,2,1,P|98:214|79:219,1,55.0000016784668,2|8,1:2|3:2,0:0:0:0:
47,228,71048,1,2,3:2:0:0:
0,228,71243,2,1,B|-10:266|-10:266|6:309,2,82.5000025177003,2|2|2,3:2|2:2|3:2,0:0:0:0:
12,182,72022,6,1,P|20:124|24:53,1,110.000003356934,6|10,1:2|3:2,0:0:0:0:
28,23,72606,1,2,3:2:0:0:
126,54,72996,1,0,1:1:0:0:
126,54,73191,2,1,P|169:44|189:42,1,55.0000016784668,10|2,3:2|3:2,0:0:0:0:
228,32,73580,1,2,1:2:0:0:
313,82,73970,1,8,3:2:0:0:
381,17,74359,2,1,P|421:23|438:37,1,55.0000016784668,0|0,3:3|1:1,0:0:0:0:
480,44,74749,2,1,P|504:76|506:98,1,55.0000016784668,8|0,3:2|3:3,0:0:0:0:
479,126,75139,6,1,P|462:199|448:272,1,150,2|2,3:2|2:2,0:0:0:0:
319,315,76308,2,1,P|304:241|287:168,1,150,2|2,2:2|2:2,0:0:0:0:
271,79,77282,1,2,2:2:0:0:
168,279,78256,6,1,P|111:294|60:310,2,100,2|2|10,1:2|3:2|3:2,0:0:0:0:
253,251,79424,2,1,P|283:240|309:232,1,50,0|2,1:1|1:2,0:0:0:0:
343,222,79814,1,2,3:2:0:0:
426,188,80204,2,1,P|456:177|482:169,2,50,2|0|10,3:2|3:3|3:2,0:0:0:0:
247,164,81372,6,1,P|229:108|212:54,2,100,2|2|10,1:2|3:2|3:2,0:0:0:0:
275,249,82541,2,1,P|283:274|291:299,1,50,0|2,1:1|1:2,0:0:0:0:
306,338,82931,1,2,3:2:0:0:
221,370,83321,2,1,P|203:325|193:305,1,50,2|0,3:2|3:3,0:0:0:0:
190,285,83710,1,10,3:2:0:0:
190,285,83905,1,2,1:2:0:0:
85,199,84489,5,0,1:1:0:0:
85,199,84684,2,1,P|94:156|99:133,1,50,2|0,3:2|3:3,0:0:0:0:
106,106,85074,1,2,1:2:0:0:
106,106,85269,2,1,P|163:90|205:114,1,100,8|2,3:2|1:2,0:0:0:0:
287,111,86048,1,2,3:2:0:0:
374,90,86437,1,2,3:2:0:0:
345,4,86827,1,10,3:2:0:0:
463,146,87606,5,0,1:1:0:0:
463,146,87801,2,1,P|503:156|526:161,2,50,2|0|2,3:2|3:3|1:2,0:0:0:0:
422,165,88385,1,8,3:2:0:0:
387,248,88775,2,1,P|395:280|399:305,1,50,2|0,1:2|1:1,0:0:0:0:
408,340,89165,1,2,3:2:0:0:
329,384,89554,1,2,3:2:0:0:
250,338,89944,2,1,P|216:348|183:357,1,50,10|0,3:2|1:1,0:0:0:0:
78,311,90723,5,0,1:1:0:0:
78,311,90918,2,1,P|41:305|17:299,1,50,2|0,3:2|3:3,0:0:0:0:
0,274,91308,1,2,3:2:0:0:
0,274,91502,2,1,P|25:226|77:216,1,100,8|2,3:2|1:2,0:0:0:0:
111,136,92282,1,2,3:2:0:0:
192,172,92671,1,2,3:2:0:0:
261,114,93061,1,10,3:2:0:0:
103,37,93840,5,0,1:1:0:0:
103,37,94035,2,1,P|59:46|32:51,2,50,2|0|2,3:2|3:3|1:2,0:0:0:0:
147,30,94619,1,8,3:2:0:0:
240,23,95009,1,2,1:2:0:0:
240,23,95204,2,1,P|293:52|306:109,1,100,0|0,1:1|3:3,0:0:0:0:
295,130,95788,1,2,3:2:0:0:
259,212,96178,1,10,3:2:0:0:
381,344,96957,6,1,P|328:335|276:319,1,100,2|0,1:2|3:3,0:0:0:0:
240,309,97541,1,2,1:2:0:0:
240,309,97736,2,1,B|227:348|227:348|237:387,2,75,10|2|2,3:2|2:2|1:2,0:0:0:0:
250,265,98515,1,2,3:2:0:0:
173,214,98905,2,1,P|146:221|117:229,1,50,2|0,3:2|3:3,0:0:0:0:
80,237,99295,1,10,3:2:0:0:
11,178,99684,1,2,2:2:0:0:
46,95,100074,6,1,P|51:62|74:32,1,50,2|0,1:2|3:3,0:0:0:0:
102,35,100463,2,1,P|128:15|166:10,1,50,2|0,3:2|1:1,0:0:0:0:
185,29,100853,2,1,P|259:45|297:56,1,100,10|2,3:2|1:2,0:0:0:0:
365,16,101632,2,1,P|388:24|407:40,1,50,2|0,3:2|3:3,0:0:0:0:
400,85,102021,2,1,P|410:107|412:132,1,50,2|0,3:2|3:3,0:0:0:0:
399,175,102410,1,10,3:2:0:0:
314,144,102801,1,2,2:2:0:0:
239,194,103191,6,1,P|250:250|258:299,1,100,2|0,1:2|3:3,0:0:0:0:
266,340,103775,1,2,1:2:0:0:
266,340,103970,2,1,B|229:357|229:357|187:346,2,75,10|2|2,3:2|2:2|1:2,0:0:0:0:
309,328,104749,1,2,3:2:0:0:
378,270,105139,2,1,P|414:276|435:292,1,50,2|0,3:2|3:3,0:0:0:0:
465,303,105528,1,10,3:2:0:0:
504,222,105918,1,2,2:2:0:0:
428,173,106308,6,1,P|420:133|414:111,1,50,2|0,1:2|3:3,0:0:0:0:
386,91,106697,2,1,P|346:99|324:105,1,50,2|0,3:2|1:1,0:0:0:0:
299,76,107087,2,1,P|240:63|190:48,1,100,10|2,3:2|1:2,0:0:0:0:
125,99,107866,2,1,P|100:93|76:88,1,50,2|0,3:2|3:3,0:0:0:0:
44,122,108255,2,1,P|38:146|33:170,1,50,2|0,3:2|3:3,0:0:0:0:
31,216,108645,1,10,3:2:0:0:
112,254,109035,2,1,P|119:291|122:320,1,50,10|0,2:2|1:1,0:0:0:0:
128,347,109424,6,1,B|90:352|90:352|62:327,2,75,2|0|2,1:2|1:1|1:2,0:0:0:0:
171,334,110204,1,10,3:2:0:0:
251,373,110593,2,1,P|309:358|359:348,1,100,2|0,3:2|1:1,0:0:0:0:
414,288,111372,2,1,P|408:252|403:229,1,50,0|0,1:1|1:1,0:0:0:0:
382,199,111762,2,1,P|398:144|408:93,1,100,0|0,1:1|1:1,0:0:0:0:
345,36,112541,6,1,P|291:48|238:62,1,100,14|10,3:2|3:2,0:0:0:0:
158,72,113321,2,1,B|124:60|124:60|86:79,2,75,8|0|2,3:2|3:3|3:2,0:0:0:0:
177,112,114100,2,1,P|165:166|151:219,1,100,8|10,3:2|3:2,0:0:0:0:
136,297,114879,2,1,B|102:309|102:309|64:290,2,75,8|0|2,3:2|3:3|3:2,0:0:0:0:
179,284,115658,5,8,3:2:0:0:
247,342,116048,2,1,P|288:321|308:271,1,100,10|8,3:2|3:2,0:0:0:0:
333,186,116827,2,1,P|374:207|394:257,1,100,10|8,3:2|3:2,0:0:0:0:
307,273,117606,1,10,3:2:0:0:
243,208,117996,2,1,P|234:165|228:141,1,50,8|2,3:2|3:2,0:0:0:0:
226,114,118385,1,10,3:2:0:0:
230,24,118775,6,1,P|191:9|166:9,1,50,10|10,3:2|3:2,0:0:0:0:
139,0,119165,2,1,P|97:6|76:19,1,50,10|10,3:2|3:2,0:0:0:0:
55,33,119554,1,10,3:2:0:0:
93,114,119944,1,10,3:2:0:0:
15,158,120333,2,1,P|0:197|0:222,1,50,10|10,3:2|3:2,0:0:0:0:
28,239,120723,2,1,P|43:278|43:303,1,50,10|10,3:2|3:2,0:0:0:0:
28,328,121113,1,10,3:2:0:0:
115,347,121502,2,1,P|139:340|164:334,1,50,10|10,3:2|3:2,0:0:0:0:
207,325,121892,5,2,3:2:0:0:
248,245,122282,1,2,3:2:0:0:
335,226,122671,1,2,3:2:0:0:
407,279,123061,1,2,3:2:0:0:
380,364,123450,2,1,P|352:372|322:365,1,50,10|2,3:2|3:2,0:0:0:0:
294,343,123840,2,1,P|284:305|282:280,1,50,10|2,3:2|3:2,0:0:0:0:
277,254,124230,1,10,3:2:0:0:
277,254,124424,2,1,P|322:244|342:239,2,50,2|10|2,3:2|3:2|3:2,0:0:0:0:
240,227,125009,6,1,P|175:215|123:201,1,100,14|10,3:2|2:2,0:0:0:0:
96,129,125788,2,1,P|54:141|26:147,1,50,10|0,2:2|1:1,0:0:0:0:
5,158,126178,2,1,P|17:200|23:228,1,50,10|2,2:2|1:2,0:0:0:0:
33,248,126567,1,10,2:2:0:0:
110,294,126957,1,10,2:2:0:0:
166,224,127346,2,1,P|177:179|184:154,1,50,10|0,2:2|1:1,0:0:0:0:
205,140,127736,2,1,P|216:95|223:70,1,50,10|2,2:2|1:2,0:0:0:0:
202,49,128126,5,10,2:2:0:0:
277,0,128515,2,1,P|331:15|353:62,1,100,10|10,2:2|2:2,0:0:0:0:
354,95,129100,1,0,1:1:0:0:
345,139,129295,2,1,P|360:193|407:215,1,100,10|10,2:2|2:2,0:0:0:0:
471,262,130074,1,10,2:2:0:0:
403,321,130463,2,1,P|367:328|339:333,1,50,10|0,2:2|1:1,0:0:0:0:
312,313,130853,2,1,P|276:306|248:300,1,50,10|2,2:2|1:2,0:0:0:0:
223,320,131243,5,10,2:2:0:0:
223,320,131437,2,1,P|216:366|216:390,2,50,8|10|10,2:2|2:2|2:2,0:0:0:0:
182,299,132022,2,1,P|145:308|124:312,1,50,10|8,2:2|2:2,0:0:0:0:
90,312,132411,1,10,2:2:0:0:
48,238,132801,1,10,2:2:0:0:
48,238,132996,2,1,P|5:230|-19:227,2,50,8|10|8,2:2|2:2|2:2,0:0:0:0:
68,197,133580,2,1,P|77:174|84:150,1,50,10|8,2:2|2:2,0:0:0:0:
69,106,133970,2,1,P|58:68|48:41,1,50,10|8,2:2|2:2,0:0:0:0:
61,13,134359,1,2,2:2:0:0:
101,348,137087,5,2,1:2:0:0:
36,261,137476,1,6,1:2:0:0:
93,177,137865,1,10,3:2:0:0:
93,177,138061,2,1,P|100:148|109:119,1,59.9999981689454,2|0,3:2|3:3,0:0:0:0:
132,72,138450,1,0,1:1:0:0:
132,72,138645,1,10,3:2:0:0:
227,21,139035,2,1,P|269:36|296:46,1,59.9999981689454,2|2,1:2|1:2,0:0:0:0:
336,52,139424,2,1,P|345:114|352:172,1,119.999996337891,8|0,3:2|3:3,0:0:0:0:
361,228,140009,1,0,1:1:0:0:
361,228,140204,1,8,3:2:0:0:
459,272,140593,6,1,P|466:309|476:341,2,59.9999981689454,2|2|10,1:2|3:2|3:2,0:0:0:0:
456,217,141178,1,2,3:2:0:0:
506,121,141567,1,0,1:1:0:0:
506,121,141762,1,10,3:2:0:0:
426,56,142152,1,2,1:2:0:0:
426,56,142346,2,1,P|374:68|353:73,1,59.9999981689454,2|8,1:2|3:2,0:0:0:0:
317,79,142736,1,2,3:2:0:0:
263,88,142931,2,1,B|232:52|232:52|233:1,2,89.9999972534181,2|2|2,3:2|2:2|3:2,0:0:0:0:
292,133,143710,5,6,1:2:0:0:
215,208,144100,1,10,3:2:0:0:
215,208,144295,2,1,P|202:261|197:287,1,59.9999981689454,2|0,3:2|3:3,0:0:0:0:
194,323,144684,1,0,1:1:0:0:
194,323,144879,1,10,3:2:0:0:
90,292,145269,2,1,P|77:244|70:223,1,59.9999981689454,2|2,1:2|1:2,0:0:0:0:
28,204,145658,2,1,P|46:141|101:116,1,119.999996337891,8|0,3:2|3:3,0:0:0:0:
144,97,146243,1,0,1:1:0:0:
144,97,146437,2,1,P|187:107|213:118,1,59.9999981689454,10|2,3:2|3:2,0:0:0:0:
255,121,146827,6,1,P|249:80|243:48,2,59.9999981689454,2|2|10,1:2|3:2|3:2,0:0:0:0:
264,174,147411,1,2,3:2:0:0:
352,110,147801,1,0,1:1:0:0:
352,110,147996,1,10,3:2:0:0:
430,183,148385,1,2,1:2:0:0:
431,183,148581,2,1,P|426:212|419:241,1,59.9999981689454,2|8,1:2|3:2,0:0:0:0:
406,294,148970,1,2,3:2:0:0:
393,346,149165,2,1,B|434:370|434:370|482:359,2,89.9999972534181,2|2|2,3:2|2:2|3:2,0:0:0:0:
342,327,149944,5,6,1:2:0:0:
239,314,150333,1,10,3:2:0:0:
239,314,150528,2,1,P|162:285|119:269,1,119.999996337891,2|2,3:2|1:2,0:0:0:0:
76,252,151113,1,10,3:2:0:0:
123,155,151502,2,1,P|197:143|255:127,1,119.999996337891,2|8,1:2|3:2,0:0:0:0:
318,80,152282,2,1,P|339:110|341:139,1,59.9999981689454,2|2,3:2|1:2,0:0:0:0:
312,178,152671,2,1,P|291:208|289:237,1,59.9999981689454,10|2,3:2|3:2,0:0:0:0:
287,284,153061,6,1,P|248:275|221:271,2,59.9999981689454,2|2|10,1:2|3:2|3:2,0:0:0:0:
339,299,153645,1,2,3:2:0:0:
435,358,154035,1,0,1:1:0:0:
435,358,154230,1,10,3:2:0:0:
494,268,154619,1,2,1:2:0:0:
494,268,154814,2,1,P|484:217|478:195,1,59.9999981689454,2|8,1:2|3:2,0:0:0:0:
461,158,155204,1,2,3:2:0:0:
424,118,155398,2,1,B|407:73|407:73|427:35,2,89.9999972534181,2|2|2,3:2|2:2|3:2,0:0:0:0:
382,152,156178,5,6,1:2:0:0:
292,101,156567,1,10,3:2:0:0:
292,101,156762,2,1,P|245:117|222:126,1,59.9999981689454,2|0,3:2|3:3,0:0:0:0:
188,143,157152,1,2,1:2:0:0:
188,143,157346,1,10,3:2:0:0:
81,161,157736,2,1,P|90:204|95:229,1,59.9999981689454,2|2,1:2|1:2,0:0:0:0:
101,273,158126,2,1,P|158:293|186:348,1,119.999996337891,8|0,3:2|3:3,0:0:0:0:
237,372,158710,1,0,1:1:0:0:
237,372,158905,2,1,P|270:379|303:386,1,59.9999981689454,10|2,3:2|3:2,0:0:0:0:
336,348,159295,6,1,P|374:338|399:329,2,59.9999981689454,2|2|10,1:2|3:2|3:2,0:0:0:0:
305,303,159879,1,2,3:2:0:0:
319,199,160269,1,0,1:1:0:0:
319,199,160463,1,10,3:2:0:0:
230,146,160853,1,2,1:2:0:0:
230,146,161048,2,1,P|186:154|158:160,1,59.9999981689454,2|8,1:2|3:2,0:0:0:0:
117,163,161437,1,0,3:3:0:0:
63,171,161632,2,1,B|33:131|33:131|38:89,2,89.9999972534181,2|2|2,3:2|2:2|3:2,0:0:0:0:
50,214,162411,6,1,P|35:278|16:362,3,150,2|2|2|2,1:2|2:2|2:2|2:2,0:0:0:0:
256,192,164359,12,2,168256,2:2:0:0:
