osu file format v14

[General]
AudioFilename: audio.mp3
AudioLeadIn: 0
PreviewTime: 134165
Countdown: 0
SampleSet: Soft
StackLeniency: 0.7
Mode: 0
LetterboxInBreaks: 0
WidescreenStoryboard: 1

[Editor]
Bookmarks: 334,6567,12801,25269,37736,40853,53321,64230,65788,75139,78256,84489,96957,112541,125009,134359,137476,162411,168256
DistanceSpacing: 0.5
BeatDivisor: 4
GridSize: 32
TimelineZoom: 3.199999

[Metadata]
Title:Fader
TitleUnicode:フェーダー
Artist:mzsrz
ArtistUnicode:mzsrz
Creator:Ianos
Version:Insane
Source:
Tags:ミズシラズ mizushirazu 現在地未明 Genzaichimimei japanese pop jpop j-pop DECO*27 Rockwell
BeatmapID:4498430
BeatmapSetID:2135079

[Difficulty]
HPDrainRate:6
CircleSize:4
OverallDifficulty:7
ApproachRate:8.8
SliderMultiplier:1.4
SliderTickRate:1

[Events]
//Background and Video events
0,0,"91931636_p0.png",0,0
//Break Periods
//Storyboard Layer 0 (Background)
//Storyboard Layer 1 (Fail)
//Storyboard Layer 2 (Pass)
//Storyboard Layer 3 (Foreground)
//Storyboard Layer 4 (Overlay)
//Storyboard Sound Samples

[TimingPoints]
334,389.610389610389,4,2,1,20,1,0
334,-125,4,2,1,20,0,0
3450,-125,4,2,1,25,0,0
5009,-125,4,2,1,30,0,0
6567,-125,4,2,1,35,0,0
12801,-111.111111111111,4,2,1,35,0,0
12996,-111.111111111111,4,2,2,40,0,0
14944,-111.111111111111,4,2,1,40,0,0
16113,-111.111111111111,4,2,2,40,0,0
18061,-111.111111111111,4,2,1,40,0,0
19230,-111.111111111111,4,2,2,40,0,0
21178,-111.111111111111,4,2,1,40,0,0
22346,-111.111111111111,4,2,2,40,0,0
25269,-100,4,2,2,50,0,0
37736,-100,4,2,2,40,0,0
38905,-125,4,2,2,40,0,0
40074,-166.666666666667,4,2,2,45,0,0
40853,-100,4,2,1,50,0,0
41632,-125,4,2,1,50,0,0
41924,-125,4,2,2,50,0,0
42411,-166.666666666667,4,2,1,50,0,0
43191,-250.000000000001,4,2,1,50,0,0
43483,-250.000000000001,4,2,2,50,0,0
44359,-100,4,2,2,50,0,0
45528,-100,4,2,1,55,0,0
46308,-100,4,2,2,55,0,0
47087,-100,4,2,2,60,0,0
47282,-100,4,2,1,60,0,0
47866,-100,4,2,2,60,0,0
48840,-100,4,2,1,60,0,0
49424,-100,4,2,2,60,0,0
51762,-100,4,2,3,65,0,0
51957,-100,4,2,2,65,0,0
52152,-100,4,2,3,65,0,0
52346,-100,4,2,2,65,0,0
52541,-100,4,2,3,65,0,0
52833,-100,4,2,2,65,0,0
52931,-83.3333333333333,4,2,3,65,0,0
53126,-83.3333333333333,4,2,2,65,0,0
53321,-76.9230769230769,4,2,3,75,0,0
53613,-76.9230769230769,4,2,2,75,0,0
53710,-76.9230769230769,4,2,3,75,0,0
53905,-76.9230769230769,4,2,2,75,0,0
54100,-76.9230769230769,4,2,3,75,0,0
54295,-76.9230769230769,4,2,2,75,0,0
54489,-76.9230769230769,4,2,3,75,0,0
54684,-76.9230769230769,4,2,2,75,0,0
54879,-76.9230769230769,4,2,3,75,0,0
55171,-76.9230769230769,4,2,2,75,0,0
55269,-76.9230769230769,4,2,3,75,0,0
55463,-76.9230769230769,4,2,2,75,0,0
55658,-76.9230769230769,4,2,3,75,0,0
55853,-76.9230769230769,4,2,2,75,0,0
56048,-76.9230769230769,4,2,3,75,0,0
56243,-76.9230769230769,4,2,2,75,0,0
56437,-76.9230769230769,4,2,3,75,0,0
56730,-76.9230769230769,4,2,2,75,0,0
56827,-76.9230769230769,4,2,3,75,0,0
57022,-76.9230769230769,4,2,2,75,0,0
57217,-76.9230769230769,4,2,3,75,0,0
57411,-76.9230769230769,4,2,2,75,0,0
57606,-76.9230769230769,4,2,3,75,0,0
57801,-76.9230769230769,4,2,2,75,0,0
57996,-76.9230769230769,4,2,3,75,0,0
58288,-76.9230769230769,4,2,2,75,0,0
58385,-76.9230769230769,4,2,3,75,0,0
58580,-76.9230769230769,4,2,2,75,0,0
58775,-76.9230769230769,4,2,3,75,0,0
58970,-76.9230769230769,4,2,1,75,0,0
59165,-76.9230769230769,4,2,3,75,0,0
59359,-76.9230769230769,4,2,2,75,0,0
59554,-76.9230769230769,4,2,3,80,0,0
60139,-76.9230769230769,4,2,4,80,0,0
60333,-76.9230769230769,4,2,3,80,0,0
62671,-76.9230769230769,4,2,3,85,0,0
62866,-76.9230769230769,4,2,1,85,0,0
63061,-76.9230769230769,4,2,3,85,0,0
63256,-76.9230769230769,4,2,1,85,0,0
63450,-76.9230769230769,4,2,3,85,0,0
63645,-76.9230769230769,4,2,1,85,0,0
63840,-76.9230769230769,4,2,3,85,0,0
64035,-76.9230769230769,4,2,1,85,0,0
64230,-71.4285714285714,4,2,1,80,0,0
64522,-62.5,4,2,1,80,0,0
64814,-55.5555555555556,4,2,1,80,0,0
65204,-71.4285714285714,4,2,1,80,0,0
65398,-71.4285714285714,4,2,1,85,0,0
65788,-76.9230769230769,4,2,1,90,0,1
66178,-76.9230769230769,4,2,3,90,0,1
66762,-76.9230769230769,4,2,1,90,0,1
66957,-76.9230769230769,4,2,3,90,0,1
67346,-76.9230769230769,4,2,1,90,0,1
67736,-76.9230769230769,4,2,3,90,0,1
68321,-76.9230769230769,4,2,1,90,0,1
68515,-76.9230769230769,4,2,3,90,0,1
68905,-76.9230769230769,4,2,1,90,0,1
69295,-76.9230769230769,4,2,3,90,0,1
69879,-76.9230769230769,4,2,1,90,0,1
70074,-76.9230769230769,4,2,3,90,0,1
70463,-76.9230769230769,4,2,1,90,0,1
70853,-76.9230769230769,4,2,4,90,0,1
71243,-71.4285714285714,4,2,4,90,0,1
71437,-71.4285714285714,4,2,2,90,0,1
71632,-71.4285714285714,4,2,4,90,0,1
72022,-76.9230769230769,4,2,1,90,0,1
72411,-76.9230769230769,4,2,3,90,0,1
72996,-76.9230769230769,4,2,1,90,0,1
73191,-76.9230769230769,4,2,3,90,0,1
73580,-76.9230769230769,4,2,1,90,0,1
73970,-76.9230769230769,4,2,3,90,0,1
74554,-76.9230769230769,4,2,1,90,0,1
74749,-76.9230769230769,4,2,4,90,0,0
75139,-125,4,2,4,50,0,0
76308,-166.666666666667,4,2,4,50,0,0
77087,-250.000000000001,4,2,1,45,0,0
77282,-250.000000000001,4,2,1,40,0,0
79424,-125,4,2,1,40,0,0
80788,-125,4,2,2,40,0,0
81372,-125,4,2,1,40,0,0
83905,-125,4,2,2,40,0,0
84489,-111.111111111111,4,2,2,45,0,0
86827,-111.111111111111,4,2,1,45,0,0
87801,-111.111111111111,4,2,2,45,0,0
89944,-111.111111111111,4,2,1,45,0,0
90918,-111.111111111111,4,2,2,45,0,0
93061,-111.111111111111,4,2,1,45,0,0
94035,-111.111111111111,4,2,2,45,0,0
96178,-111.111111111111,4,2,1,45,0,0
96957,-99.9999999999999,4,2,2,55,0,0
98126,-99.9999999999999,4,2,1,55,0,0
98515,-99.9999999999999,4,2,2,55,0,0
99295,-99.9999999999999,4,2,1,55,0,0
100074,-99.9999999999999,4,2,2,55,0,0
101243,-99.9999999999999,4,2,1,55,0,0
101632,-99.9999999999999,4,2,2,55,0,0
102411,-99.9999999999999,4,2,1,55,0,0
103191,-99.9999999999999,4,2,2,55,0,0
103970,-99.9999999999999,4,2,4,55,0,0
104359,-99.9999999999999,4,2,1,55,0,0
104749,-99.9999999999999,4,2,2,55,0,0
105528,-99.9999999999999,4,2,3,55,0,0
106308,-99.9999999999999,4,2,2,55,0,0
107476,-99.9999999999999,4,2,1,55,0,0
107866,-99.9999999999999,4,2,2,55,0,0
108645,-99.9999999999999,4,2,1,55,0,0
109424,-111.111111111111,4,2,2,40,0,0
110204,-111.111111111111,4,2,4,40,0,0
110983,-111.111111111111,4,2,1,50,0,0
111762,-90.9090909090909,4,2,1,55,0,0
112541,-76.9230769230769,4,2,1,60,0,0
113126,-76.9230769230769,4,2,2,60,0,0
113515,-76.9230769230769,4,2,1,60,0,0
113905,-76.9230769230769,4,2,2,60,0,0
114295,-76.9230769230769,4,2,1,60,0,0
114684,-76.9230769230769,4,2,2,60,0,0
115074,-76.9230769230769,4,2,1,60,0,0
115463,-76.9230769230769,4,2,2,60,0,0
115853,-76.9230769230769,4,2,1,60,0,0
116243,-76.9230769230769,4,2,2,60,0,0
116632,-76.9230769230769,4,2,1,60,0,0
117022,-76.9230769230769,4,2,2,60,0,0
117411,-76.9230769230769,4,2,1,60,0,0
117801,-76.9230769230769,4,2,2,60,0,0
118191,-76.9230769230769,4,2,1,60,0,0
118580,-76.9230769230769,4,2,2,60,0,0
118775,-76.9230769230769,4,2,2,65,0,0
118970,-76.9230769230769,4,2,1,65,0,0
119165,-76.9230769230769,4,2,2,65,0,0
119359,-76.9230769230769,4,2,1,65,0,0
119554,-76.9230769230769,4,2,2,65,0,0
119749,-76.9230769230769,4,2,1,65,0,0
119944,-76.9230769230769,4,2,2,65,0,0
120139,-76.9230769230769,4,2,1,65,0,0
120333,-76.9230769230769,4,2,2,65,0,0
120528,-76.9230769230769,4,2,1,65,0,0
120723,-76.9230769230769,4,2,2,65,0,0
120918,-76.9230769230769,4,2,1,65,0,0
121113,-76.9230769230769,4,2,2,65,0,0
121308,-76.9230769230769,4,2,1,65,0,0
121502,-76.9230769230769,4,2,2,65,0,0
121697,-76.9230769230769,4,2,1,65,0,0
121892,-76.9230769230769,4,2,5,70,0,0
122087,-76.9230769230769,4,2,1,70,0,0
122184,-76.9230769230769,4,2,2,70,0,0
122282,-76.9230769230769,4,2,5,70,0,0
122476,-76.9230769230769,4,2,1,70,0,0
122574,-76.9230769230769,4,2,2,70,0,0
122671,-76.9230769230769,4,2,5,70,0,0
122866,-76.9230769230769,4,2,1,70,0,0
122963,-76.9230769230769,4,2,2,70,0,0
123061,-76.9230769230769,4,2,5,70,0,0
123256,-76.9230769230769,4,2,1,70,0,0
123353,-76.9230769230769,4,2,4,70,0,0
123450,-76.9230769230769,4,2,4,75,0,0
123548,-76.9230769230769,4,2,1,75,0,0
123645,-71.4285714285714,4,2,5,75,0,0
123840,-71.4285714285714,4,2,4,75,0,0
123937,-71.4285714285714,4,2,1,75,0,0
124035,-66.6666666666667,4,2,5,75,0,0
124230,-66.6666666666667,4,2,4,75,0,0
124327,-66.6666666666667,4,2,1,75,0,0
124425,-62.5,4,2,5,75,0,0
124619,-62.5,4,2,4,75,0,0
124717,-62.5,4,2,1,75,0,0
124814,-62.5,4,2,5,75,0,0
125009,-71.4285714285714,4,2,3,80,0,0
125301,-71.4285714285714,4,2,2,80,0,0
125398,-71.4285714285714,4,2,3,80,0,0
125593,-71.4285714285714,4,2,2,80,0,0
125788,-71.4285714285714,4,2,3,80,0,0
125983,-71.4285714285714,4,2,2,80,0,0
126178,-71.4285714285714,4,2,3,80,0,0
126372,-71.4285714285714,4,2,2,80,0,0
126567,-71.4285714285714,4,2,3,80,0,0
126859,-71.4285714285714,4,2,2,80,0,0
126957,-71.4285714285714,4,2,3,80,0,0
127152,-71.4285714285714,4,2,2,80,0,0
127346,-71.4285714285714,4,2,3,80,0,0
127541,-71.4285714285714,4,2,2,80,0,0
127736,-71.4285714285714,4,2,3,80,0,0
127833,-71.4285714285714,4,2,2,80,0,0
128126,-71.4285714285714,4,2,3,80,0,0
128418,-71.4285714285714,4,2,2,80,0,0
128515,-71.4285714285714,4,2,3,80,0,0
128710,-71.4285714285714,4,2,2,80,0,0
128905,-71.4285714285714,4,2,3,80,0,0
129100,-71.4285714285714,4,2,2,80,0,0
129295,-71.4285714285714,4,2,3,80,0,0
129489,-71.4285714285714,4,2,2,80,0,0
129684,-71.4285714285714,4,2,3,80,0,0
129879,-71.4285714285714,4,2,2,80,0,0
130074,-71.4285714285714,4,2,3,80,0,0
130269,-71.4285714285714,4,2,2,80,0,0
130463,-71.4285714285714,4,2,3,80,0,0
130658,-71.4285714285714,4,2,1,80,0,0
130853,-71.4285714285714,4,2,3,80,0,0
131048,-71.4285714285714,4,2,2,80,0,0
131243,-71.4285714285714,4,2,3,80,0,0
131827,-71.4285714285714,4,2,4,80,0,0
132022,-71.4285714285714,4,2,3,80,0,0
134359,-71.4285714285714,4,2,3,40,0,0
135918,-71.4285714285714,4,2,3,60,0,0
136308,-71.4285714285714,4,2,3,70,0,0
136697,-71.4285714285714,4,2,3,80,0,0
137087,-71.4285714285714,4,2,5,90,0,0
137476,-71.4285714285714,4,2,1,100,0,1
138645,-71.4285714285714,4,2,3,100,0,1
139035,-71.4285714285714,4,2,1,100,0,1
139424,-71.4285714285714,4,2,3,100,0,1
140009,-71.4285714285714,4,2,1,100,0,1
140204,-71.4285714285714,4,2,3,100,0,1
140593,-71.4285714285714,4,2,1,100,0,1
140983,-71.4285714285714,4,2,3,100,0,1
141567,-71.4285714285714,4,2,1,100,0,1
141762,-71.4285714285714,4,2,3,100,0,1
142152,-71.4285714285714,4,2,1,100,0,1
142541,-71.4285714285714,4,2,4,100,0,1
142931,-66.6666666666667,4,2,4,100,0,1
143126,-66.6666666666667,4,2,2,100,0,1
143321,-66.6666666666667,4,2,4,100,0,1
143710,-71.4285714285714,4,2,1,100,0,1
144100,-71.4285714285714,4,2,3,100,0,1
144684,-71.4285714285714,4,2,1,100,0,1
144879,-71.4285714285714,4,2,3,100,0,1
145269,-71.4285714285714,4,2,1,100,0,1
145658,-71.4285714285714,4,2,3,100,0,1
146243,-71.4285714285714,4,2,1,100,0,1
146437,-71.4285714285714,4,2,3,100,0,1
146632,-71.4285714285714,4,2,2,100,0,1
146827,-71.4285714285714,4,2,1,100,0,1
147217,-71.4285714285714,4,2,3,100,0,1
147801,-71.4285714285714,4,2,1,100,0,1
147996,-71.4285714285714,4,2,3,100,0,1
148385,-71.4285714285714,4,2,1,100,0,1
148775,-71.4285714285714,4,2,4,100,0,1
149165,-66.6666666666667,4,2,4,100,0,1
149359,-66.6666666666667,4,2,2,100,0,1
149554,-66.6666666666667,4,2,4,100,0,1
149895,-66.6666666666667,4,2,4,100,0,0
149944,-71.4285714285714,4,2,1,100,0,1
150333,-71.4285714285714,4,2,3,100,0,1
150723,-71.4285714285714,4,2,2,100,0,1
151113,-71.4285714285714,4,2,3,100,0,1
151502,-66.6666666666667,4,2,1,100,0,1
151795,-58.8235294117647,4,2,1,100,0,1
151892,-58.8235294117647,4,2,3,100,0,1
152087,-52.6315789473684,4,2,3,100,0,1
152476,-52.6315789473684,4,2,2,100,0,1
152671,-52.6315789473684,4,2,3,100,0,1
152866,-52.6315789473684,4,2,2,100,0,1
153061,-52.6315789473684,4,2,1,100,0,1
153450,-52.6315789473684,4,2,3,100,0,1
153840,-71.4285714285714,4,2,3,100,0,1
154035,-71.4285714285714,4,2,1,100,0,1
154230,-71.4285714285714,4,2,3,100,0,1
154619,-71.4285714285714,4,2,1,100,0,1
155009,-71.4285714285714,4,2,4,100,0,1
155398,-66.6666666666667,4,2,4,100,0,1
155593,-66.6666666666667,4,2,2,100,0,1
155788,-66.6666666666667,4,2,4,100,0,1
156178,-71.4285714285714,4,2,1,100,0,1
156567,-71.4285714285714,4,2,3,100,0,1
157152,-71.4285714285714,4,2,2,100,0,1
157346,-71.4285714285714,4,2,3,100,0,1
157736,-71.4285714285714,4,2,1,100,0,1
158126,-71.4285714285714,4,2,3,100,0,1
158710,-71.4285714285714,4,2,1,100,0,1
158905,-71.4285714285714,4,2,3,100,0,1
159100,-71.4285714285714,4,2,2,100,0,1
159295,-71.4285714285714,4,2,1,100,0,1
159684,-71.4285714285714,4,2,3,100,0,1
160269,-71.4285714285714,4,2,1,100,0,1
160463,-71.4285714285714,4,2,3,100,0,1
160853,-71.4285714285714,4,2,1,100,0,1
161243,-71.4285714285714,4,2,4,100,0,1
161632,-58.8235294117647,4,2,4,100,0,1
161827,-58.8235294117647,4,2,2,100,0,1
161924,-66.6666666666667,4,2,2,100,0,1
162022,-66.6666666666667,4,2,4,100,0,1
162217,-76.9230769230769,4,2,4,100,0,1
162411,-250.000000000001,4,2,2,60,0,0
163580,-500.000000000005,4,2,2,50,0,0
165528,-500.000000000005,4,2,2,60,0,0
167087,-500.000000000005,4,2,2,70,0,0
167476,-500.000000000005,4,2,2,60,0,0
167866,-500.000000000005,4,2,2,50,0,0
168256,-500.000000000005,4,2,2,40,0,0

[Colours]
Combo1 : 128,255,255
Combo2 : 128,128,255
Combo3 : 255,140,140
Combo4 : 255,183,111
Combo5 : 255,255,128
Combo6 : 128,255,128

[HitObjects]
256,192,3450,12,2,6567,3:2:0:0:
200,120,6957,5,0,3:3:0:0:
210,197,7152,1,2,3:2:0:0:
132,207,7346,1,0,3:3:0:0:
122,130,7541,1,0,3:3:0:0:
200,120,7736,2,1,L|210:90,3,18.6666666666667,2|0|0|0,3:2|3:3|3:3|3:3,0:0:0:0:
344,177,8126,6,1,L|360:194,3,18.6666666666667,2|0|0|0,3:2|3:3|3:3|3:3,0:0:0:0:
302,74,8515,1,0,3:3:0:0:
374,105,8710,1,2,3:2:0:0:
272,146,8904,1,0,3:3:0:0:
344,177,9099,1,0,3:3:0:0:
302,74,9295,1,2,3:2:0:0:
302,74,9392,1,0,3:3:0:0:
302,74,9489,1,0,3:3:0:0:
284,225,9684,5,2,3:2:0:0:
284,225,10074,1,0,3:3:0:0:
222,273,10269,1,2,3:2:0:0:
270,334,10463,1,0,3:3:0:0:
332,287,10658,1,0,3:3:0:0:
284,225,10853,1,2,3:2:0:0:
222,273,11048,2,1,L|199:278,3,18.6666666666667,0|0|0|2,3:3|3:3|3:3|3:2,0:0:0:0:
210,197,11535,5,2,2:2:0:0:
272,146,11827,1,2,2:2:0:0:
284,225,12119,1,2,2:2:0:0:
256,192,12411,5,2,2:2:0:0:
227,164,12801,6,1,P|217:114|208:82,1,62.9999980773926,0|2,0:0|2:2,0:0:0:0:
152,53,13191,2,1,P|102:63|70:71,1,62.9999980773926,0|2,0:0|2:2,0:0:0:0:
0,178,13580,6,1,P|66:198|86:258,1,125.999996154785,0|2,0:0|2:2,0:0:0:0:
41,310,14165,1,0,0:0:0:0:
195,361,14359,6,1,P|187:316|179:280,1,62.9999980773926,2|0,2:2|0:0,0:0:0:0:
177,219,14749,1,2,2:2:0:0:
273,308,14944,6,1,P|288:232|298:196,3,94.499997116089,2|2|2|2,2:2|2:2|2:2|2:2,0:0:0:0:
292,215,15918,1,0,0:0:0:0:
471,232,16113,6,1,B|398:242|436:272|359:284,1,125.999996154785,2|2,2:2|2:2,0:0:0:0:
345,150,16697,2,1,P|362:86|383:24,1,125.999996154785,0|2,0:0|2:2,0:0:0:0:
178,102,17476,6,1,P|191:137|199:171,1,62.9999980773926,2|0,2:2|0:0,0:0:0:0:
206,239,17866,1,2,2:2:0:0:
267,109,18061,6,1,P|252:52|240:18,2,94.499997116089,2|2|2,2:2|3:2|3:2,0:0:0:0:
277,196,18840,5,0,3:3:0:0:
277,196,18937,1,2,3:2:0:0:
277,196,19035,1,0,3:3:0:0:
409,101,19230,6,1,P|451:114|482:127,1,62.9999980773926,2|0,2:2|0:0,0:0:0:0:
496,46,19619,1,2,2:2:0:0:
496,46,19814,2,1,P|466:34|436:25,1,62.9999980773926,0|0,0:0|0:0,0:0:0:0:
240,18,20204,5,2,2:2:0:0:
186,76,20398,2,1,P|151:86|125:96,1,62.9999980773926,0|2,0:0|2:2,0:0:0:0:
27,15,20788,2,1,P|37:49|47:75,1,62.9999980773926,0|2,0:0|2:2,0:0:0:0:
191,160,21178,6,1,P|183:212|176:257,3,94.499997116089,2|2|2|2,2:2|2:2|2:2|2:2,0:0:0:0:
176,253,22152,1,0,0:0:0:0:
29,324,22346,5,2,2:2:0:0:
29,324,22541,1,0,0:0:0:0:
91,279,22736,1,2,2:2:0:0:
192,364,22931,2,1,P|234:359|263:326,1,62.9999980773926,0|0,0:0|0:0,0:0:0:0:
316,210,23321,5,2,2:2:0:0:
300,285,23515,1,0,0:0:0:0:
433,340,23710,6,1,P|402:334|371:327,1,62.9999980773926,2|0,2:2|0:0,0:0:0:0:
315,384,24100,1,2,2:2:0:0:
455,360,24489,6,1,P|475:355|496:350,4,31.4999990386963,0|0|0|0|0,3:3|3:3|3:3|3:3|3:3,0:0:0:0:
420,258,25074,5,0,3:3:0:0:
420,258,25171,1,0,3:3:0:0:
420,258,25269,2,1,P|443:163|465:107,1,140,6|0,1:2|3:3,0:0:0:0:
238,108,25853,5,2,1:2:0:0:
284,44,26048,2,1,P|343:56|378:102,1,105,10|0,3:2|0:0,0:0:0:0:
372,87,26437,1,0,1:1:0:0:
392,16,26632,1,2,1:2:0:0:
301,170,26827,6,1,P|260:180|223:193,1,70,2|0,3:2|3:3,0:0:0:0:
87,259,27217,1,2,3:2:0:0:
87,259,27314,1,0,3:3:0:0:
87,259,27411,2,1,P|19:198|24:137,1,140,0|2,3:3|3:2,0:0:0:0:
85,51,27996,2,1,P|104:89|97:129,1,70,0|2,3:3|3:2,0:0:0:0:
10,72,28385,5,2,1:2:0:0:
10,72,28580,1,0,3:3:0:0:
172,53,28775,5,2,3:2:0:0:
102,115,28970,1,0,1:1:0:0:
284,140,29165,5,10,3:2:0:0:
186,154,29359,2,1,P|225:158|256:166,2,70,0|0|0,3:3|1:1|1:1,0:0:0:0:
352,184,29944,5,2,2:2:0:0:
254,245,30139,1,0,3:3:0:0:
432,192,30333,5,2,3:2:0:0:
380,274,30528,1,0,3:3:0:0:
512,169,30723,5,10,3:2:0:0:
512,169,30918,1,0,3:3:0:0:
495,252,31113,1,0,3:3:0:0:
495,252,31210,1,0,3:3:0:0:
495,252,31308,1,0,1:1:0:0:
447,108,31502,6,1,B|361:106|396:147|297:146,1,140,2|0,1:2|3:3,0:0:0:0:
226,25,32087,1,2,1:2:0:0:
226,25,32184,1,0,0:0:0:0:
226,25,32282,2,1,P|299:40|321:74,2,105,10|0|2,3:2|0:0|1:2,0:0:0:0:
56,10,33061,6,1,P|47:59|39:94,1,70,2|0,3:2|3:3,0:0:0:0:
108,174,33450,1,2,3:2:0:0:
108,174,33548,1,0,3:3:0:0:
108,174,33645,2,1,P|126:94|137:31,1,140,0|2,3:3|3:2,0:0:0:0:
21,161,34230,2,1,P|32:209|41:243,1,70,0|2,3:3|3:2,0:0:0:0:
80,352,34619,5,2,1:2:0:0:
80,352,34814,1,0,3:3:0:0:
147,245,35009,5,2,3:2:0:0:
172,343,35204,1,0,1:1:0:0:
202,170,35398,5,10,3:2:0:0:
273,278,35593,2,1,P|256:327|236:368,2,70,0|0|0,3:3|1:1|1:1,0:0:0:0:
296,76,36178,5,2,3:2:0:0:
281,196,36372,1,0,3:3:0:0:
402,47,36567,5,2,3:2:0:0:
350,144,36762,1,0,3:3:0:0:
495,80,36957,5,10,3:2:0:0:
495,80,37152,1,0,3:3:0:0:
432,125,37346,1,0,3:3:0:0:
432,125,37444,1,0,3:3:0:0:
432,125,37541,1,0,1:1:0:0:
453,223,37736,5,2,3:2:0:0:
453,223,38126,1,0,3:3:0:0:
375,213,38321,1,2,3:2:0:0:
365,290,38516,1,2,3:2:0:0:
443,300,38710,1,0,3:3:0:0:
453,223,38905,2,1,L|483:213,3,18.6666666666667,2|0|0|0,3:2|3:3|3:3|3:3,0:0:0:0:
258,343,39295,6,1,L|242:360,3,18.6666666666667,0|0|0|0,3:3|3:3|3:3|3:3,0:0:0:0:
300,240,39684,1,0,3:3:0:0:
228,271,39879,1,0,3:3:0:0:
331,311,40074,6,1,P|325:268|318:227,1,83.9999974365235,2|2,2:2|2:2,0:0:0:0:
308,149,40658,1,2,2:2:0:0:
410,87,40853,6,1,P|331:67|295:55,2,105,2|2|2,2:2|2:2|2:2,0:0:0:0:
227,171,41632,6,1,P|284:156|310:147,2,84,2|2|2,2:2|2:2|2:2,0:0:0:0:
378,244,42411,6,1,P|333:232|312:225,2,62.9999980773926,2|2|2,2:2|2:2|2:2,0:0:0:0:
290,322,43191,6,1,P|319:314|332:310,2,42,2|2|2,2:2|2:2|2:2,0:0:0:0:
215,340,43970,1,2,3:2:0:0:
422,174,44359,6,1,P|493:203|506:270,1,140,0|2,3:3|3:2,0:0:0:0:
393,62,45139,6,1,P|342:82|333:129,1,105,0|0,3:3|0:0,0:0:0:0:
333,128,45528,2,1,P|254:146|218:158,2,105,2|2|2,3:2|2:2|2:2,0:0:0:0:
192,46,46308,6,1,P|137:31|106:26,1,70,2|0,3:2|0:0,0:0:0:0:
53,58,46697,1,2,3:2:0:0:
10,123,46892,1,0,0:0:0:0:
88,225,47087,6,1,P|99:271|105:303,2,70,8|2|8,2:2|2:2|2:2,0:0:0:0:
10,205,47671,2,1,P|85:184|172:167,1,140,2|0,2:2|0:0,0:0:0:0:
229,242,48256,5,10,2:2:0:0:
229,242,48450,1,0,0:0:0:0:
330,310,48645,6,1,P|321:351|315:385,1,70,8|2,2:2|2:2,0:0:0:0:
468,326,49035,1,8,2:2:0:0:
405,281,49230,2,1,P|389:226|375:183,1,70,2|10,2:2|2:2,0:0:0:0:
366,139,49619,1,0,0:0:0:0:
489,84,49814,5,10,2:2:0:0:
445,149,50009,1,0,0:0:0:0:
309,69,50204,2,1,P|218:46|160:36,1,140,10|10,2:2|2:2,0:0:0:0:
8,194,50788,6,1,P|55:169|70:132,1,70,2|8,2:2|2:2,0:0:0:0:
158,114,51178,2,1,P|111:89|96:52,1,70,2|8,2:2|2:2,0:0:0:0:
214,170,51567,5,2,2:2:0:0:
129,234,51762,2,1,P|114:282|106:313,1,70,10|2,2:2|2:2,0:0:0:0:
108,301,52054,1,0,0:0:0:0:
108,301,52152,1,10,2:2:0:0:
253,243,52346,5,2,3:2:0:0:
320,302,52541,1,10,2:2:0:0:
320,302,52639,1,8,2:2:0:0:
320,302,52736,1,8,2:2:0:0:
432,219,52931,2,1,B|438:185|450:157|450:157|434:123|425:88,1,125.999996154785,10|0,2:2|0:0,0:0:0:0:
373,44,53321,6,1,P|316:31|283:26,1,90.9999958343508,14|0,2:2|0:0,0:0:0:0:
259,2,53613,2,1,P|206:24|185:63,1,90.9999958343508,2|0,2:2|0:0,0:0:0:0:
221,122,53905,1,2,2:2:0:0:
119,247,54100,6,1,P|67:236|29:225,1,90.9999958343508,10|0,2:2|1:1,0:0:0:0:
4,198,54392,2,1,P|56:187|94:176,1,90.9999958343508,2|0,2:2|0:0,0:0:0:0:
144,119,54684,1,2,1:2:0:0:
232,236,54879,6,1,B|281:216|271:208|315:194,1,90.9999958343508,10|0,2:2|0:0,0:0:0:0:
325,166,55171,2,1,P|305:113|299:74,1,90.9999958343508,2|0,2:2|0:0,0:0:0:0:
340,15,55463,1,2,2:2:0:0:
512,0,55658,6,1,P|496:60|487:94,1,90.9999958343508,10|0,2:2|1:1,0:0:0:0:
458,111,55950,2,1,B|417:123|417:123|380:90,1,90.9999958343508,2|0,2:2|0:0,0:0:0:0:
426,27,56243,1,2,1:2:0:0:
403,166,56437,6,1,P|419:237|431:304,1,136.499993751526,10|2,2:2|2:2,0:0:0:0:
413,379,56827,6,1,P|380:300|334:286,1,136.499993751526,10|0,2:2|0:0,0:0:0:0:
268,324,57217,1,10,2:2:0:0:
212,155,57411,5,0,1:1:0:0:
212,155,57509,1,2,1:2:0:0:
212,155,57606,2,1,P|179:234|133:248,1,136.499993751526,10|0,2:2|0:0,0:0:0:0:
67,210,57996,1,10,2:2:0:0:
50,44,58191,5,0,0:0:0:0:
16,116,58385,1,10,2:2:0:0:
136,13,58580,1,2,2:2:0:0:
136,13,58678,1,2,2:2:0:0:
136,13,58775,2,1,P|192:3|234:-1,1,90.9999958343508,10|0,2:2|1:1,0:0:0:0:
302,33,59165,1,10,2:2:0:0:
302,33,59359,1,2,1:2:0:0:
409,131,59554,5,10,2:2:0:0:
379,0,59749,1,8,2:2:0:0:
335,159,59944,5,10,2:2:0:0:
451,48,60139,1,10,2:2:0:0:
463,43,60236,1,2,2:2:0:0:
467,55,60333,5,10,2:2:0:0:
292,21,60528,1,8,2:2:0:0:
408,215,60723,5,10,2:2:0:0:
273,98,60918,1,8,2:2:0:0:
317,277,61113,6,1,P|374:289|419:304,1,90.9999958343508,10|8,2:2|2:2,0:0:0:0:
262,116,61502,2,1,P|205:128|160:143,1,90.9999958343508,10|8,2:2|2:2,0:0:0:0:
79,343,61893,5,10,2:2:0:0:
212,206,62088,1,8,2:2:0:0:
189,384,62282,5,10,2:2:0:0:
127,206,62477,1,8,2:2:0:0:
254,303,62671,6,1,P|287:298|312:296,3,45.4999979171754,10|8|2|0,2:2|2:2|1:2|1:1,0:0:0:0:
196,188,63061,2,1,P|163:183|138:181,3,45.4999979171754,10|8|2|0,2:2|2:2|1:2|1:1,0:0:0:0:
7,224,63450,5,10,2:2:0:0:
28,215,63548,1,8,2:2:0:0:
44,198,63645,1,2,1:2:0:0:
55,178,63743,1,0,1:1:0:0:
60,156,63840,5,10,2:2:0:0:
43,128,63937,1,8,2:2:0:0:
35,96,64035,1,2,1:2:0:0:
43,65,64132,1,0,1:1:0:0:
60,38,64230,6,1,P|114:51|163:67,1,97.9999970092774,2|0,2:2|0:0,0:0:0:0:
238,55,64522,6,1,P|280:95|317:136,1,112,2|0,2:2|0:0,0:0:0:0:
406,149,64814,6,1,P|433:244|452:333,1,188.999994232178,2|0,2:2|0:0,0:0:0:0:
425,262,65204,6,1,P|439:220|448:189,1,48.9999985046387,2|0,2:2|0:0,0:0:0:0:
480,51,65398,5,2,3:2:0:0:
483,65,65496,1,0,3:3:0:0:
485,79,65593,1,2,3:2:0:0:
487,93,65691,1,0,3:3:0:0:
490,109,65788,2,1,B|387:97|415:150|313:132,1,181.999991668702,6|10,1:2|3:2,0:0:0:0:
132,48,66372,5,2,3:2:0:0:
132,48,66470,1,0,3:3:0:0:
132,48,66567,1,0,3:3:0:0:
202,15,66762,1,0,1:1:0:0:
241,155,66957,2,1,P|232:207|226:251,1,90.9999958343508,10|2,3:2|3:2,0:0:0:0:
68,148,67346,5,2,1:2:0:0:
144,127,67541,1,2,1:2:0:0:
12,91,67736,5,8,3:2:0:0:
75,228,67931,1,0,3:3:0:0:
92,235,68028,1,0,3:3:0:0:
109,245,68126,1,0,3:3:0:0:
124,257,68223,1,0,3:3:0:0:
137,271,68321,1,0,1:1:0:0:
250,382,68515,2,1,P|306:357|320:311,1,90.9999958343508,8|0,3:2|3:3,0:0:0:0:
310,255,68808,5,0,3:3:0:0:
310,255,68905,2,1,P|394:272|494:298,1,181.999991668702,2|10,1:2|3:2,0:0:0:0:
494,374,69489,1,2,3:2:0:0:
410,240,69684,5,0,3:3:0:0:
410,240,69782,1,0,3:3:0:0:
410,240,69879,1,0,1:1:0:0:
512,129,70074,2,1,P|496:73|481:37,1,90.9999958343508,10|2,3:2|3:2,0:0:0:0:
316,7,70463,5,2,1:2:0:0:
292,82,70658,1,2,1:2:0:0:
217,59,70853,1,8,3:2:0:0:
352,149,71048,5,2,3:2:0:0:
352,149,71145,1,0,3:3:0:0:
352,149,71243,2,1,B|298:164|316:180|262:191,1,97.9999970092774,2|0,3:2|1:1,0:0:0:0:
199,233,71535,2,1,B|145:218|163:202|109:191,1,97.9999970092774,2|0,2:2|0:0,0:0:0:0:
36,218,71827,5,2,3:2:0:0:
36,218,71924,1,0,3:3:0:0:
36,218,72022,2,1,P|85:188|81:60,1,181.999991668702,6|10,1:2|3:2,0:0:0:0:
15,55,72606,1,2,3:2:0:0:
194,142,72801,5,0,3:3:0:0:
194,142,72898,1,0,3:3:0:0:
194,142,72996,1,0,1:1:0:0:
132,268,73191,1,10,3:2:0:0:
275,295,73385,5,2,3:2:0:0:
275,295,73483,1,0,3:3:0:0:
275,295,73580,2,1,P|258:229|246:191,1,90.9999958343508,2|2,1:2|1:2,0:0:0:0:
404,289,73970,2,1,P|391:332|380:376,1,90.9999958343508,8|0,3:2|3:3,0:0:0:0:
379,376,74262,1,0,3:3:0:0:
379,376,74359,1,0,3:3:0:0:
461,354,74554,1,0,1:1:0:0:
343,237,74749,5,8,3:2:0:0:
420,213,74944,1,0,3:3:0:0:
420,213,75041,1,0,3:3:0:0:
420,213,75139,2,1,P|371:199|355:195,3,56,2|2|2|2,3:2|2:2|2:2|2:2,0:0:0:0:
297,145,76113,5,0,0:0:0:0:
297,145,76308,2,1,P|247:152|238:154,3,41.9999987182618,2|2|2|2,2:2|2:2|2:2|2:2,0:0:0:0:
176,172,77087,6,1,L|176:206,1,28,2|2,2:2|2:2,0:0:0:0:
176,200,78256,5,2,1:2:0:0:
176,200,78450,1,0,3:3:0:0:
153,125,78645,1,2,3:2:0:0:
130,50,78840,1,0,1:1:0:0:
55,73,79035,1,10,3:2:0:0:
78,148,79230,1,0,3:3:0:0:
101,223,79424,2,1,L|106:240,3,18.6666666666667,0|0|0|2,1:1|3:3|3:3|1:2,0:0:0:0:
251,223,79814,6,1,L|260:202,3,18.6666666666667,2|0|0|0,3:2|3:3|3:3|3:3,0:0:0:0:
228,298,80204,1,2,3:2:0:0:
228,298,80301,1,0,3:3:0:0:
228,298,80398,1,0,3:3:0:0:
303,322,80593,1,10,3:2:0:0:
303,322,81372,5,2,1:2:0:0:
303,322,81567,1,0,3:3:0:0:
327,247,81762,1,2,3:2:0:0:
402,271,81957,1,0,1:1:0:0:
351,172,82152,1,10,3:2:0:0:
426,196,82346,1,0,3:3:0:0:
292,120,82541,5,0,1:1:0:0:
366,94,82736,2,1,L|387:85,3,18.6666666666667,2|0|0|2,1:2|3:3|3:3|3:2,0:0:0:0:
266,46,83126,1,0,3:3:0:0:
340,20,83321,1,2,3:2:0:0:
340,20,83418,1,0,3:3:0:0:
340,20,83515,1,0,3:3:0:0:
366,94,83710,1,10,3:2:0:0:
292,120,83905,1,2,1:2:0:0:
280,139,84489,6,1,P|268:180|261:214,1,62.9999980773926,0|2,1:1|3:2,0:0:0:0:
364,269,84879,2,1,P|356:238|347:208,1,62.9999980773926,0|2,3:3|1:2,0:0:0:0:
408,157,85269,1,8,3:2:0:0:
408,157,85366,1,0,3:3:0:0:
408,157,85463,1,0,3:3:0:0:
384,44,85658,6,1,P|331:31|294:23,2,62.9999980773926,2|0|2,1:2|1:1|3:2,0:0:0:0:
512,48,86243,1,0,3:3:0:0:
480,118,86437,1,2,3:2:0:0:
480,118,86535,1,0,3:3:0:0:
480,118,86632,1,0,3:3:0:0:
480,196,86827,2,1,P|501:268|514:332,1,125.999996154785,10|2,3:2|2:2,0:0:0:0:
327,115,87606,5,0,1:1:0:0:
327,115,87801,2,1,P|296:134|281:168,1,62.9999980773926,2|0,3:2|3:3,0:0:0:0:
270,232,88191,1,2,1:2:0:0:
152,297,88385,2,1,P|87:274|24:257,1,125.999996154785,8|2,3:2|1:2,0:0:0:0:
18,180,88970,1,0,1:1:0:0:
160,211,89165,6,1,P|174:168|187:133,1,62.9999980773926,2|0,3:2|3:3,0:0:0:0:
134,7,89554,1,2,3:2:0:0:
134,7,89652,1,0,3:3:0:0:
134,7,89749,1,0,3:3:0:0:
65,43,89944,2,1,P|54:72|44:102,1,62.9999980773926,10|0,3:2|1:1,0:0:0:0:
265,65,90723,5,0,1:1:0:0:
327,115,90918,2,1,P|374:104|409:99,1,62.9999980773926,2|0,3:2|3:3,0:0:0:0:
326,201,91308,1,2,3:2:0:0:
326,201,91502,2,1,P|256:187|194:175,1,125.999996154785,8|2,3:2|1:2,0:0:0:0:
138,222,92087,1,0,1:1:0:0:
199,273,92282,2,1,P|242:284|275:296,1,62.9999980773926,2|0,3:2|3:3,0:0:0:0:
66,351,92671,5,2,3:2:0:0:
66,351,92769,1,0,3:3:0:0:
66,351,92866,1,0,3:3:0:0:
124,302,93061,2,1,P|110:220|110:163,1,125.999996154785,10|2,3:2|2:2,0:0:0:0:
110,0,93840,5,0,1:1:0:0:
110,0,94035,2,1,P|83:24|72:61,2,62.9999980773926,2|0|2,3:2|3:3|1:2,0:0:0:0:
0,48,94619,2,1,P|55:91|135:103,1,125.999996154785,8|2,3:2|1:2,0:0:0:0:
175,60,95204,1,0,1:1:0:0:
309,0,95398,5,2,3:2:0:0:
356,61,95593,1,0,3:3:0:0:
423,18,95788,1,2,3:2:0:0:
423,18,95885,1,0,3:3:0:0:
423,18,95983,1,0,3:3:0:0:
478,74,96178,1,10,3:2:0:0:
445,355,96957,6,1,P|374:340|290:325,1,140,2|0,1:2|3:3,0:0:0:0:
232,336,97541,1,2,1:2:0:0:
115,199,97736,2,1,P|148:242|147:273,1,70,10|0,3:2|3:3,0:0:0:0:
66,376,98126,5,2,1:2:0:0:
72,367,98223,1,2,2:2:0:0:
77,358,98321,1,2,1:2:0:0:
81,348,98418,1,2,2:2:0:0:
84,338,98515,2,1,P|73:277|63:244,1,70,2|0,3:2|3:3,0:0:0:0:
0,154,98905,5,2,3:2:0:0:
0,154,99002,1,0,3:3:0:0:
0,154,99100,1,0,3:3:0:0:
85,63,99295,5,10,3:2:0:0:
105,57,99489,1,2,2:2:0:0:
125,51,99684,1,2,2:2:0:0:
145,46,99879,1,0,0:0:0:0:
206,142,100074,5,2,1:2:0:0:
186,218,100269,1,0,3:3:0:0:
130,162,100463,1,2,3:2:0:0:
211,292,100658,5,0,1:1:0:0:
155,348,100853,2,1,P|106:333|67:318,1,70,10|0,3:2|3:3,0:0:0:0:
321,332,101243,5,2,1:2:0:0:
330,336,101340,1,2,2:2:0:0:
339,340,101437,1,2,1:2:0:0:
348,344,101535,1,2,2:2:0:0:
357,348,101632,2,1,P|406:333|445:318,1,70,2|0,3:2|3:3,0:0:0:0:
301,292,102022,1,2,3:2:0:0:
301,292,102119,1,0,3:3:0:0:
301,292,102217,1,0,3:3:0:0:
326,218,102411,5,10,3:2:0:0:
306,142,102606,1,2,2:2:0:0:
306,142,102704,1,2,2:2:0:0:
306,142,102801,1,2,2:2:0:0:
382,162,102996,1,0,1:1:0:0:
230,173,103191,6,1,P|164:193|122:248,1,140,2|0,1:2|3:3,0:0:0:0:
151,321,103775,1,2,1:2:0:0:
147,165,103970,2,1,P|136:117|130:93,1,70,10|0,3:2|3:3,0:0:0:0:
267,0,104359,5,2,1:2:0:0:
265,10,104457,1,2,2:2:0:0:
263,20,104554,1,2,1:2:0:0:
261,30,104652,1,2,2:2:0:0:
259,40,104749,2,1,P|303:55|336:71,1,70,2|0,3:2|3:3,0:0:0:0:
454,0,105139,5,2,3:2:0:0:
454,0,105236,1,0,3:3:0:0:
454,0,105333,1,0,3:3:0:0:
408,109,105528,5,10,3:2:0:0:
406,129,105723,1,2,2:2:0:0:
404,149,105918,1,2,2:2:0:0:
402,169,106113,1,0,0:0:0:0:
493,303,106308,5,2,1:2:0:0:
473,229,106502,1,0,3:3:0:0:
399,249,106697,1,2,3:2:0:0:
342,357,106892,5,0,1:1:0:0:
302,289,107087,2,1,P|319:242|337:203,1,70,10|0,3:2|3:3,0:0:0:0:
170,301,107476,5,2,1:2:0:0:
180,298,107574,1,2,2:2:0:0:
190,295,107671,1,2,1:2:0:0:
200,292,107769,1,2,2:2:0:0:
210,289,107866,2,1,P|193:242|175:203,1,70,2|0,3:2|3:3,0:0:0:0:
170,357,108255,5,2,3:2:0:0:
170,357,108352,1,0,3:3:0:0:
170,357,108450,1,0,3:3:0:0:
39,229,108645,5,10,3:2:0:0:
19,303,108839,1,10,2:2:0:0:
19,303,108937,1,8,2:2:0:0:
19,303,109034,1,10,2:2:0:0:
113,249,109230,1,0,1:1:0:0:
285,319,109424,6,1,P|331:328|376:342,2,94.499997116089,2|0|2,1:2|1:1|1:2,0:0:0:0:
210,289,110204,1,10,3:2:0:0:
240,214,110398,1,0,3:3:0:0:
315,244,110593,2,1,L|328:210,3,20.9999993591309,2|0|0|0,3:2|3:3|3:3|3:3,0:0:0:0:
398,257,110983,5,0,1:1:0:0:
405,240,111080,1,0,1:1:0:0:
408,221,111178,1,0,1:1:0:0:
405,202,111275,1,0,1:1:0:0:
397,185,111372,5,0,1:1:0:0:
380,164,111470,1,0,1:1:0:0:
371,139,111567,1,0,1:1:0:0:
371,112,111665,1,0,1:1:0:0:
380,87,111762,2,1,L|374:61,6,19.2500005874634,0|0|0|0|0|0|0,1:1|1:1|1:1|1:1|1:1|1:1|1:1,0:0:0:0:
455,69,112152,2,1,L|449:43,6,19.2500005874634,0|0|0|0|0|0|0,1:1|1:1|1:1|1:1|1:1|1:1|1:1,0:0:0:0:
464,149,112541,6,1,P|372:125|326:115,2,136.499993751526,14|0|2,3:2|3:3|3:2,0:0:0:0:
327,32,113321,5,8,3:2:0:0:
254,95,113613,1,0,3:3:0:0:
162,63,113905,1,2,3:2:0:0:
149,211,114100,6,1,P|242:186|289:176,2,136.499993751526,8|0|2,3:2|3:3|3:2,0:0:0:0:
33,52,114879,6,1,P|75:75|91:114,1,90.9999958343508,8|2,3:2|3:2,0:0:0:0:
90,113,115171,1,0,3:3:0:0:
90,113,115269,1,10,3:2:0:0:
62,190,115463,1,2,3:2:0:0:
159,289,115658,2,1,P|147:333|133:377,1,90.9999958343508,8|2,3:2|3:2,0:0:0:0:
291,328,116048,6,1,P|332:316|357:277,1,90.9999958343508,10|2,3:2|3:2,0:0:0:0:
399,216,116340,1,0,3:3:0:0:
399,216,116437,2,1,P|454:201|498:195,1,90.9999958343508,8|2,3:2|3:2,0:0:0:0:
338,146,116827,6,1,P|296:134|271:95,1,90.9999958343508,10|2,3:2|3:2,0:0:0:0:
230,34,117119,1,0,3:3:0:0:
230,34,117216,2,1,P|175:19|131:13,1,90.9999958343508,8|2,3:2|3:2,0:0:0:0:
3,132,117606,2,1,P|58:117|102:111,1,90.9999958343508,10|2,3:2|3:2,0:0:0:0:
211,219,117996,5,8,3:2:0:0:
178,113,118191,1,2,3:2:0:0:
98,261,118385,5,10,3:2:0:0:
122,187,118580,1,2,3:2:0:0:
225,237,118775,5,10,3:2:0:0:
244,244,118872,1,0,3:3:0:0:
262,253,118970,1,10,3:2:0:0:
279,263,119067,1,0,3:3:0:0:
296,275,119165,1,10,3:2:0:0:
339,343,119359,1,10,3:2:0:0:
293,175,119554,5,10,3:2:0:0:
293,175,119652,1,0,3:3:0:0:
293,175,119749,2,1,P|279:119|277:111,1,45.4999979171754,10|0,3:2|3:3,0:0:0:0:
363,133,119944,6,1,P|400:126|427:120,1,45.4999979171754,10|0,3:2|3:3,0:0:0:0:
478,59,120139,2,1,P|441:52|414:46,1,45.4999979171754,10|0,3:2|3:3,0:0:0:0:
280,12,120333,5,10,3:2:0:0:
261,22,120431,1,0,3:3:0:0:
243,34,120528,1,10,3:2:0:0:
226,46,120626,1,0,3:3:0:0:
210,60,120723,1,10,3:2:0:0:
132,44,120918,1,10,3:2:0:0:
68,154,121113,6,1,P|74:117|80:88,1,45.4999979171754,10|0,3:2|3:3,0:0:0:0:
146,169,121308,2,1,P|152:132|158:103,1,45.4999979171754,10|0,3:2|3:3,0:0:0:0:
203,237,121502,6,1,P|209:274|215:303,1,45.4999979171754,10|0,3:2|3:3,0:0:0:0:
281,222,121697,2,1,P|287:259|293:288,1,45.4999979171754,10|0,3:2|3:3,0:0:0:0:
374,184,121892,5,2,3:2:0:0:
349,167,121989,1,2,3:2:0:0:
331,143,122087,1,2,3:2:0:0:
321,115,122184,1,2,3:2:0:0:
321,85,122282,2,1,P|356:75|379:68,1,45.4999979171754,2|2,3:2|3:2,0:0:0:0:
418,12,122476,2,1,P|453:22|476:29,1,45.4999979171754,2|2,3:2|3:2,0:0:0:0:
512,124,122671,6,1,P|505:158|498:188,1,45.4999979171754,2|2,3:2|3:2,0:0:0:0:
488,243,122866,2,1,P|481:277|474:307,1,45.4999979171754,2|2,3:2|3:2,0:0:0:0:
409,353,123061,6,1,P|404:330|399:308,1,45.4999979171754,2|2,3:2|3:2,0:0:0:0:
383,228,123256,2,1,P|378:205|373:183,1,45.4999979171754,2|2,3:2|3:2,0:0:0:0:
260,100,123450,5,10,3:2:0:0:
260,100,123548,1,2,3:2:0:0:
260,100,123645,2,1,P|298:115|308:123,1,48.9999985046387,2|2,3:2|3:2,0:0:0:0:
131,74,123840,5,10,3:2:0:0:
131,74,123937,1,2,3:2:0:0:
131,74,124035,2,1,P|150:56|173:44,1,52.5000020027161,2|2,3:2|3:2,0:0:0:0:
34,155,124230,5,10,3:2:0:0:
34,155,124327,1,2,3:2:0:0:
34,155,124425,2,1,P|27:127|29:99,1,56,2|2,3:2|3:2,0:0:0:0:
151,269,124619,5,10,3:2:0:0:
147,239,124717,1,2,3:2:0:0:
140,210,124814,1,2,3:2:0:0:
130,181,124911,1,2,3:2:0:0:
113,155,125009,6,1,P|99:230|91:268,1,97.9999970092774,14|0,3:2|0:0,0:0:0:0:
34,295,125301,1,2,2:2:0:0:
34,295,125398,2,1,P|42:328|47:355,1,48.9999985046387,10|0,2:2|0:0,0:0:0:0:
111,384,125593,1,2,2:2:0:0:
252,268,125788,6,1,P|290:239|300:191,1,97.9999970092774,10|0,2:2|1:1,0:0:0:0:
254,129,126080,1,2,2:2:0:0:
254,129,126178,2,1,P|243:91|239:72,1,48.9999985046387,10|0,2:2|0:0,0:0:0:0:
279,13,126372,1,2,1:2:0:0:
402,179,126567,6,1,P|478:202|513:215,1,97.9999970092774,10|0,2:2|0:0,0:0:0:0:
426,51,126859,1,2,2:2:0:0:
426,51,126957,2,1,P|418:86|411:105,1,48.9999985046387,10|0,2:2|0:0,0:0:0:0:
340,128,127152,1,2,2:2:0:0:
171,254,127346,6,1,P|100:279|56:297,1,97.9999970092774,10|0,2:2|1:1,0:0:0:0:
0,224,127639,1,2,2:2:0:0:
0,224,127736,2,1,B|12:202|12:202|36:194,1,48.9999985046387,10|2,2:2|2:2,0:0:0:0:
62,270,127931,1,2,1:2:0:0:
55,78,128126,6,1,B|137:104|105:124|185:146,1,146.999995513916,10|2,2:2|2:2,0:0:0:0:
217,76,128515,6,1,P|294:105|318:162,1,146.999995513916,10|0,2:2|0:0,0:0:0:0:
270,224,128905,1,10,2:2:0:0:
512,214,129100,5,0,1:1:0:0:
512,214,129197,1,2,1:2:0:0:
512,214,129295,2,1,P|434:243|410:300,1,146.999995513916,10|0,2:2|0:0,0:0:0:0:
459,362,129684,1,10,2:2:0:0:
324,305,129879,5,2,2:2:0:0:
324,305,129976,1,2,2:2:0:0:
324,305,130073,1,10,2:2:0:0:
347,229,130268,1,2,2:2:0:0:
479,132,130463,5,10,2:2:0:0:
337,100,130658,1,0,1:1:0:0:
214,52,130853,5,10,2:2:0:0:
290,36,131048,1,2,1:2:0:0:
161,199,131243,5,10,2:2:0:0:
125,20,131437,1,8,2:2:0:0:
244,181,131632,5,10,2:2:0:0:
36,117,131827,1,10,2:2:0:0:
25,127,131924,1,2,2:2:0:0:
38,135,132022,5,10,2:2:0:0:
205,67,132217,1,8,2:2:0:0:
82,224,132411,5,10,2:2:0:0:
116,41,132606,1,8,2:2:0:0:
178,219,132801,6,1,P|189:267|201:315,1,97.9999970092774,10|8,2:2|2:2,0:0:0:0:
347,123,133191,2,1,P|359:76|371:28,1,97.9999970092774,10|8,2:2|2:2,0:0:0:0:
244,170,133580,5,10,2:2:0:0:
421,206,133775,1,8,2:2:0:0:
281,342,133970,5,10,2:2:0:0:
257,191,134165,1,8,2:2:0:0:
234,41,134359,1,2,2:2:0:0:
256,192,135918,12,2,137087,1:2:0:0:
40,344,137476,6,1,P|121:317|232:289,1,195.999994018555,6|10,1:2|3:2,0:0:0:0:
271,227,138061,1,2,3:2:0:0:
102,154,138256,2,1,P|77:195|79:243,1,97.9999970092774,0|0,3:3|1:1,0:0:0:0:
99,24,138645,6,1,P|190:70|235:50,1,146.999995513916,10|0,3:2|0:0,0:0:0:0:
226,57,139035,1,2,1:2:0:0:
291,9,139230,1,2,1:2:0:0:
437,81,139424,5,8,3:2:0:0:
386,143,139619,1,0,3:3:0:0:
361,139,139717,1,0,3:3:0:0:
337,133,139814,1,0,3:3:0:0:
313,126,139911,1,0,3:3:0:0:
290,116,140009,1,0,1:1:0:0:
467,159,140204,6,1,P|455:207|447:258,1,97.9999970092774,8|0,3:2|3:3,0:0:0:0:
447,254,140496,1,0,3:3:0:0:
447,254,140593,1,2,1:2:0:0:
479,337,140788,1,2,3:2:0:0:
318,343,140983,5,10,3:2:0:0:
398,323,141178,1,2,3:2:0:0:
398,323,141275,1,0,3:3:0:0:
398,323,141372,1,0,3:3:0:0:
241,376,141567,5,0,1:1:0:0:
272,217,141762,2,1,P|225:206|158:192,1,97.9999970092774,10|2,3:2|3:2,0:0:0:0:
62,44,142152,5,2,1:2:0:0:
40,120,142346,1,2,1:2:0:0:
116,102,142541,1,8,3:2:0:0:
68,242,142736,5,2,3:2:0:0:
68,242,142833,1,0,3:3:0:0:
68,242,142931,2,1,B|127:265|97:276|164:302,1,105.000004005432,2|0,3:2|1:1,0:0:0:0:
213,363,143223,2,1,B|272:340|242:329|309:303,1,105.000004005432,2|0,2:2|0:0,0:0:0:0:
415,253,143515,5,2,3:2:0:0:
415,253,143613,1,0,3:3:0:0:
415,253,143710,2,1,P|327:295|326:393,1,195.999994018555,6|10,1:2|3:2,0:0:0:0:
492,222,144295,1,2,3:2:0:0:
492,222,144392,1,0,3:3:0:0:
492,222,144489,2,1,P|477:168|463:126,1,97.9999970092774,0|0,3:3|1:1,0:0:0:0:
291,1,144879,6,1,P|273:59|249:148,1,146.999995513916,10|0,3:2|0:0,0:0:0:0:
250,142,145269,1,2,1:2:0:0:
232,68,145463,1,2,1:2:0:0:
87,153,145658,5,8,3:2:0:0:
50,83,145853,1,0,3:3:0:0:
59,60,145950,1,0,3:3:0:0:
72,39,146048,1,0,3:3:0:0:
85,18,146145,1,0,3:3:0:0:
102,0,146243,1,0,1:1:0:0:
0,188,146437,5,10,3:2:0:0:
13,219,146535,1,2,3:2:0:0:
37,243,146632,1,2,3:2:0:0:
69,253,146730,1,2,3:2:0:0:
103,248,146827,1,2,1:2:0:0:
236,289,147022,1,2,3:2:0:0:
87,329,147217,1,10,3:2:0:0:
215,198,147411,5,2,3:2:0:0:
215,198,147509,1,0,3:3:0:0:
215,198,147606,2,1,P|275:213|335:233,1,97.9999970092774,0|0,3:3|1:1,0:0:0:0:
428,334,147996,6,1,P|455:323|482:313,1,48.9999985046387,10|0,3:2|3:3,0:0:0:0:
512,250,148191,2,1,P|502:227|494:204,1,48.9999985046387,2|0,3:2|3:3,0:0:0:0:
430,250,148385,1,2,1:2:0:0:
281,134,148580,5,2,1:2:0:0:
281,134,148678,1,0,3:3:0:0:
281,134,148775,2,1,P|298:81|343:54,1,97.9999970092774,8|2,3:2|3:2,0:0:0:0:
405,25,149067,5,0,0:0:0:0:
412,50,149165,2,1,B|399:96|399:96|402:106|402:106|389:151,1,105.000004005432,2|0,3:2|1:1,0:0:0:0:
290,256,149457,2,1,B|277:210|277:210|280:200|280:200|267:154,1,105.000004005432,2|0,2:2|0:0,0:0:0:0:
136,269,149749,5,2,3:2:0:0:
136,269,149846,1,0,3:3:0:0:
136,269,149944,2,1,B|183:258|226:301|220:307|214:313|252:358|304:342,1,195.999994018555,6|10,1:2|3:2,0:0:0:0:
364,289,150528,1,2,3:2:0:0:
150,349,150723,5,2,3:2:0:0:
157,336,150821,1,2,2:2:0:0:
163,323,150918,1,2,1:2:0:0:
169,309,151015,1,2,2:2:0:0:
174,295,151113,2,1,P|157:206|140:147,1,146.999995513916,10|0,3:2|3:3,0:0:0:0:
100,79,151502,6,1,P|51:66|-23:38,1,105.000004005432,2|0,1:2|1:1,0:0:0:0:
217,88,151795,6,1,P|175:45|137:-1,1,119.000002269745,2|0,2:2|0:0,0:0:0:0:
305,109,152087,6,1,P|296:75|290:40,1,66.4999982242585,2|0,3:2|0:0,0:0:0:0:
472,1,152282,5,2,3:2:0:0:
486,32,152379,1,2,3:2:0:0:
481,70,152476,1,2,1:2:0:0:
457,94,152574,1,2,3:2:0:0:
431,107,152671,1,10,3:2:0:0:
419,128,152769,1,2,3:2:0:0:
417,147,152866,1,2,3:2:0:0:
421,161,152963,1,2,3:2:0:0:
429,167,153061,5,2,1:2:0:0:
362,26,153256,1,2,3:2:0:0:
330,186,153450,1,10,3:2:0:0:
481,70,153645,5,2,3:2:0:0:
481,70,153743,1,0,3:3:0:0:
481,70,153840,2,1,P|418:90|382:105,1,97.9999970092774,0|0,3:3|1:1,0:0:0:0:
181,0,154230,2,1,P|223:26|235:81,1,97.9999970092774,10|2,3:2|3:2,0:0:0:0:
330,186,154619,5,2,1:2:0:0:
255,207,154814,1,2,1:2:0:0:
310,262,155009,1,8,3:2:0:0:
161,137,155204,5,2,3:2:0:0:
161,137,155301,1,0,3:3:0:0:
161,137,155398,2,1,P|106:156|80:194,1,105.000004005432,2|0,3:2|1:1,0:0:0:0:
168,319,155691,2,1,P|179:261|159:220,1,105.000004005432,2|0,2:2|0:0,0:0:0:0:
90,315,155983,5,2,3:2:0:0:
90,315,156080,1,0,3:3:0:0:
90,315,156178,2,1,P|66:222|45:117,1,195.999994018555,6|10,1:2|3:2,0:0:0:0:
0,59,156762,1,2,3:2:0:0:
64,12,156957,1,0,3:3:0:0:
219,132,157152,5,2,1:2:0:0:
206,139,157249,1,2,2:2:0:0:
193,146,157346,2,1,P|142:117|136:75,1,97.9999970092774,10|2,3:2|3:2,0:0:0:0:
331,14,157736,5,2,1:2:0:0:
407,0,157931,1,2,1:2:0:0:
452,172,158126,5,8,3:2:0:0:
399,114,158321,1,0,3:3:0:0:
374,106,158418,1,0,3:3:0:0:
350,99,158515,1,0,3:3:0:0:
326,93,158613,1,0,3:3:0:0:
302,87,158710,1,0,1:1:0:0:
341,290,158905,5,10,3:2:0:0:
330,257,159002,1,2,3:2:0:0:
305,233,159100,1,2,3:2:0:0:
272,221,159197,1,2,3:2:0:0:
238,228,159295,1,2,1:2:0:0:
371,189,159489,1,2,3:2:0:0:
264,300,159684,1,10,3:2:0:0:
202,158,159879,5,2,3:2:0:0:
73,201,160074,1,0,3:3:0:0:
73,201,160171,1,0,3:3:0:0:
73,201,160269,1,0,1:1:0:0:
263,109,160463,5,10,3:2:0:0:
141,68,160658,1,2,3:2:0:0:
141,68,160755,1,0,3:3:0:0:
141,68,160853,1,2,1:2:0:0:
277,28,161048,5,2,1:2:0:0:
277,28,161145,1,0,3:3:0:0:
277,28,161243,1,8,3:2:0:0:
345,93,161437,5,0,3:3:0:0:
345,93,161535,1,0,3:3:0:0:
345,93,161632,2,1,P|365:160|379:226,1,119.000002269745,2|0,3:2|1:1,0:0:0:0:
299,240,161924,6,1,P|256:284|212:324,1,105.000004005432,2|0,2:2|0:0,0:0:0:0:
151,277,162217,6,1,P|121:269|92:260,1,45.4999979171754,2|0,3:2|0:0,0:0:0:0:
18,294,162411,6,1,P|7:337|-2:383,1,83.9999974365235,2|2,1:2|2:2,0:0:0:0:
31,315,163580,6,1,P|25:336|20:359,1,42,2|2,2:2|2:2,0:0:0:0:
256,192,164262,12,2,168256,2:2:0:0:
