osu file format v14

[General]
AudioFilename: audio.mp3
AudioLeadIn: 0
PreviewTime: 134165
Countdown: 0
SampleSet: Soft
StackLeniency: 0.7
Mode: 0
LetterboxInBreaks: 0
WidescreenStoryboard: 1

[Editor]
Bookmarks: 334,6567,12801,25269,37736,40853,53321,64230,65788,75139,78256,84489,96957,112541,125009,134359,137476,162411,168256
DistanceSpacing: 1.5
BeatDivisor: 4
GridSize: 32
TimelineZoom: 3.199999

[Metadata]
Title:Fader
TitleUnicode:フェーダー
Artist:mzsrz
ArtistUnicode:mzsrz
Creator:Ianos
Version:Hard
Source:
Tags:ミズシラズ mizushirazu 現在地未明 Genzaichimimei japanese pop jpop j-pop DECO*27 Rockwell
BeatmapID:4501544
BeatmapSetID:2135079

[Difficulty]
HPDrainRate:5
CircleSize:3.7
OverallDifficulty:6
ApproachRate:8
SliderMultiplier:1.2
SliderTickRate:1

[Events]
//Background and Video events
0,0,"91931636_p0.png",0,0
//Break Periods
//Storyboard Layer 0 (Background)
//Storyboard Layer 1 (Fail)
//Storyboard Layer 2 (Pass)
//Storyboard Layer 3 (Foreground)
//Storyboard Layer 4 (Overlay)
//Storyboard Sound Samples

[TimingPoints]
334,389.610389610389,4,2,1,20,1,0
334,-125,4,2,1,20,0,0
3450,-125,4,2,1,25,0,0
5009,-125,4,2,1,30,0,0
6567,-125,4,2,1,35,0,0
11243,-142.857142857143,4,2,1,35,0,0
12996,-111.111111111111,4,2,2,40,0,0
14944,-111.111111111111,4,2,1,40,0,0
16113,-111.111111111111,4,2,2,40,0,0
18061,-111.111111111111,4,2,1,40,0,0
19230,-111.111111111111,4,2,2,40,0,0
21178,-111.111111111111,4,2,1,40,0,0
22346,-111.111111111111,4,2,2,40,0,0
25269,-99.9999999999999,4,2,2,50,0,0
37736,-99.9999999999999,4,2,2,40,0,0
38126,-125,4,2,2,40,0,0
40074,-111.111111111111,4,2,2,45,0,0
40853,-100,4,2,1,50,0,0
41924,-100,4,2,2,50,0,0
42411,-100,4,2,1,50,0,0
43483,-100,4,2,2,50,0,0
45528,-100,4,2,1,55,0,0
46308,-100,4,2,2,55,0,0
47087,-100,4,2,2,60,0,0
47282,-100,4,2,1,60,0,0
47866,-100,4,2,2,60,0,0
48840,-100,4,2,1,60,0,0
49424,-100,4,2,2,60,0,0
51762,-90.9090909090909,4,2,3,65,0,0
51957,-90.9090909090909,4,2,2,65,0,0
52152,-90.9090909090909,4,2,3,65,0,0
52346,-90.9090909090909,4,2,2,65,0,0
52541,-90.9090909090909,4,2,3,65,0,0
52833,-90.9090909090909,4,2,2,65,0,0
52931,-90.9090909090909,4,2,3,65,0,0
53126,-90.9090909090909,4,2,2,65,0,0
53321,-90.9090909090909,4,2,3,75,0,0
53613,-90.9090909090909,4,2,2,75,0,0
53710,-90.9090909090909,4,2,3,75,0,0
53905,-90.9090909090909,4,2,2,75,0,0
54100,-90.9090909090909,4,2,3,75,0,0
54295,-90.9090909090909,4,2,2,75,0,0
54489,-90.9090909090909,4,2,3,75,0,0
54684,-90.9090909090909,4,2,2,75,0,0
54879,-90.9090909090909,4,2,3,75,0,0
55171,-90.9090909090909,4,2,2,75,0,0
55269,-90.9090909090909,4,2,3,75,0,0
55463,-90.9090909090909,4,2,2,75,0,0
55658,-90.9090909090909,4,2,3,75,0,0
55853,-90.9090909090909,4,2,2,75,0,0
56048,-90.9090909090909,4,2,3,75,0,0
56243,-90.9090909090909,4,2,2,75,0,0
56437,-90.9090909090909,4,2,3,75,0,0
56730,-90.9090909090909,4,2,2,75,0,0
56827,-90.9090909090909,4,2,3,75,0,0
57022,-90.9090909090909,4,2,2,75,0,0
57217,-90.9090909090909,4,2,3,75,0,0
57411,-90.9090909090909,4,2,2,75,0,0
57606,-90.9090909090909,4,2,3,75,0,0
57801,-90.9090909090909,4,2,2,75,0,0
57996,-90.9090909090909,4,2,3,75,0,0
58288,-90.9090909090909,4,2,2,75,0,0
58385,-90.9090909090909,4,2,3,75,0,0
58580,-90.9090909090909,4,2,2,75,0,0
58775,-90.9090909090909,4,2,3,75,0,0
58970,-90.9090909090909,4,2,1,75,0,0
59165,-90.9090909090909,4,2,3,75,0,0
59359,-90.9090909090909,4,2,2,75,0,0
59554,-90.9090909090909,4,2,3,80,0,0
60139,-90.9090909090909,4,2,4,80,0,0
60333,-90.9090909090909,4,2,3,80,0,0
62671,-90.9090909090909,4,2,3,85,0,0
62866,-90.9090909090909,4,2,1,85,0,0
63061,-90.9090909090909,4,2,3,85,0,0
63256,-90.9090909090909,4,2,1,85,0,0
63450,-90.9090909090909,4,2,3,85,0,0
63645,-90.9090909090909,4,2,1,85,0,0
63840,-90.9090909090909,4,2,3,85,0,0
64035,-90.9090909090909,4,2,1,85,0,0
64230,-83.3333333333333,4,2,1,80,0,0
65398,-83.3333333333333,4,2,1,85,0,0
65788,-83.3333333333333,4,2,1,90,0,1
66178,-83.3333333333333,4,2,3,90,0,1
66762,-83.3333333333333,4,2,1,90,0,1
66957,-83.3333333333333,4,2,3,90,0,1
67346,-83.3333333333333,4,2,1,90,0,1
67736,-83.3333333333333,4,2,3,90,0,1
68321,-83.3333333333333,4,2,1,90,0,1
68515,-83.3333333333333,4,2,3,90,0,1
68905,-83.3333333333333,4,2,1,90,0,1
69295,-83.3333333333333,4,2,3,90,0,1
69879,-83.3333333333333,4,2,1,90,0,1
70074,-83.3333333333333,4,2,3,90,0,1
70463,-83.3333333333333,4,2,1,90,0,1
70853,-83.3333333333333,4,2,4,90,0,1
71437,-83.3333333333333,4,2,2,90,0,1
71632,-83.3333333333333,4,2,4,90,0,1
72022,-83.3333333333333,4,2,1,90,0,1
72411,-83.3333333333333,4,2,3,90,0,1
72996,-83.3333333333333,4,2,1,90,0,1
73191,-83.3333333333333,4,2,3,90,0,1
73580,-83.3333333333333,4,2,1,90,0,1
73970,-83.3333333333333,4,2,3,90,0,1
74554,-83.3333333333333,4,2,1,90,0,1
74749,-83.3333333333333,4,2,4,90,0,1
75139,-83.3333333333333,4,2,4,50,0,0
75333,-100,4,2,4,50,0,0
76308,-111.111111111111,4,2,4,50,0,0
77087,-125,4,2,1,45,0,0
77282,-125,4,2,1,40,0,0
80788,-125,4,2,2,40,0,0
81372,-125,4,2,1,40,0,0
83905,-125,4,2,2,40,0,0
84489,-125,4,2,2,45,0,0
84684,-111.111111111111,4,2,2,45,0,0
86827,-111.111111111111,4,2,1,45,0,0
87801,-111.111111111111,4,2,2,45,0,0
89944,-111.111111111111,4,2,1,45,0,0
90918,-111.111111111111,4,2,2,45,0,0
93061,-111.111111111111,4,2,1,45,0,0
94035,-111.111111111111,4,2,2,45,0,0
96178,-111.111111111111,4,2,1,45,0,0
96957,-100,4,2,2,55,0,0
98126,-100,4,2,1,55,0,0
98515,-100,4,2,2,55,0,0
99295,-100,4,2,1,55,0,0
100074,-100,4,2,2,55,0,0
101243,-100,4,2,1,55,0,0
101632,-100,4,2,2,55,0,0
102411,-100,4,2,1,55,0,0
103191,-100,4,2,2,55,0,0
103970,-100,4,2,4,55,0,0
104359,-100,4,2,1,55,0,0
104749,-100,4,2,2,55,0,0
105528,-100,4,2,3,55,0,0
106308,-100,4,2,2,55,0,0
107476,-100,4,2,1,55,0,0
107866,-100,4,2,2,55,0,0
108645,-100,4,2,1,55,0,0
109424,-100,4,2,2,40,0,0
110204,-100,4,2,4,40,0,0
110983,-100,4,2,1,50,0,0
111762,-100,4,2,1,55,0,0
112541,-90.9090909090909,4,2,1,60,0,0
113126,-90.9090909090909,4,2,2,60,0,0
113515,-90.9090909090909,4,2,1,60,0,0
113905,-90.9090909090909,4,2,2,60,0,0
114295,-90.9090909090909,4,2,1,60,0,0
114684,-90.9090909090909,4,2,2,60,0,0
115074,-90.9090909090909,4,2,1,60,0,0
115463,-90.9090909090909,4,2,2,60,0,0
115853,-90.9090909090909,4,2,1,60,0,0
116243,-90.9090909090909,4,2,2,60,0,0
116632,-90.9090909090909,4,2,1,60,0,0
117022,-90.9090909090909,4,2,2,60,0,0
117411,-90.9090909090909,4,2,1,60,0,0
117801,-90.9090909090909,4,2,2,60,0,0
118191,-90.9090909090909,4,2,1,60,0,0
118580,-90.9090909090909,4,2,2,60,0,0
118775,-90.9090909090909,4,2,2,65,0,0
118970,-90.9090909090909,4,2,1,65,0,0
119165,-90.9090909090909,4,2,2,65,0,0
119359,-90.9090909090909,4,2,1,65,0,0
119554,-90.9090909090909,4,2,2,65,0,0
119749,-90.9090909090909,4,2,1,65,0,0
119944,-90.9090909090909,4,2,2,65,0,0
120139,-90.9090909090909,4,2,1,65,0,0
120333,-90.9090909090909,4,2,2,65,0,0
120528,-90.9090909090909,4,2,1,65,0,0
120723,-90.9090909090909,4,2,2,65,0,0
120918,-90.9090909090909,4,2,1,65,0,0
121113,-90.9090909090909,4,2,2,65,0,0
121308,-90.9090909090909,4,2,1,65,0,0
121502,-90.9090909090909,4,2,2,65,0,0
121697,-90.9090909090909,4,2,1,65,0,0
121892,-90.9090909090909,4,2,5,70,0,0
122087,-90.9090909090909,4,2,1,70,0,0
122184,-90.9090909090909,4,2,2,70,0,0
122282,-90.9090909090909,4,2,5,70,0,0
122476,-90.9090909090909,4,2,1,70,0,0
122574,-90.9090909090909,4,2,2,70,0,0
122671,-90.9090909090909,4,2,5,70,0,0
122866,-90.9090909090909,4,2,1,70,0,0
122963,-90.9090909090909,4,2,2,70,0,0
123061,-90.9090909090909,4,2,5,70,0,0
123256,-90.9090909090909,4,2,1,70,0,0
123353,-90.9090909090909,4,2,4,70,0,0
123450,-90.9090909090909,4,2,4,75,0,0
123548,-90.9090909090909,4,2,1,75,0,0
123645,-90.9090909090909,4,2,5,75,0,0
123840,-90.9090909090909,4,2,4,75,0,0
123937,-90.9090909090909,4,2,1,75,0,0
124035,-90.9090909090909,4,2,5,75,0,0
124230,-90.9090909090909,4,2,4,75,0,0
124327,-90.9090909090909,4,2,1,75,0,0
124424,-90.9090909090909,4,2,5,75,0,0
124619,-90.9090909090909,4,2,4,75,0,0
124717,-90.9090909090909,4,2,1,75,0,0
124814,-90.9090909090909,4,2,5,75,0,0
125009,-83.3333333333333,4,2,3,80,0,0
125301,-83.3333333333333,4,2,2,80,0,0
125398,-83.3333333333333,4,2,3,80,0,0
125593,-83.3333333333333,4,2,2,80,0,0
125788,-83.3333333333333,4,2,3,80,0,0
125983,-83.3333333333333,4,2,2,80,0,0
126178,-83.3333333333333,4,2,3,80,0,0
126372,-83.3333333333333,4,2,2,80,0,0
126567,-83.3333333333333,4,2,3,80,0,0
126859,-83.3333333333333,4,2,2,80,0,0
126957,-83.3333333333333,4,2,3,80,0,0
127152,-83.3333333333333,4,2,2,80,0,0
127346,-83.3333333333333,4,2,3,80,0,0
127541,-83.3333333333333,4,2,2,80,0,0
127736,-83.3333333333333,4,2,3,80,0,0
127833,-83.3333333333333,4,2,2,80,0,0
128126,-83.3333333333333,4,2,3,80,0,0
128418,-83.3333333333333,4,2,2,80,0,0
128515,-83.3333333333333,4,2,3,80,0,0
128710,-83.3333333333333,4,2,2,80,0,0
128905,-83.3333333333333,4,2,3,80,0,0
129100,-83.3333333333333,4,2,2,80,0,0
129295,-83.3333333333333,4,2,3,80,0,0
129489,-83.3333333333333,4,2,2,80,0,0
129684,-83.3333333333333,4,2,3,80,0,0
129879,-83.3333333333333,4,2,2,80,0,0
130074,-83.3333333333333,4,2,3,80,0,0
130269,-83.3333333333333,4,2,2,80,0,0
130463,-83.3333333333333,4,2,3,80,0,0
130658,-83.3333333333333,4,2,1,80,0,0
130853,-83.3333333333333,4,2,3,80,0,0
131048,-83.3333333333333,4,2,2,80,0,0
131243,-83.3333333333333,4,2,3,80,0,0
131827,-83.3333333333333,4,2,4,80,0,0
132022,-83.3333333333333,4,2,3,80,0,0
134359,-83.3333333333333,4,2,3,40,0,0
135918,-83.3333333333333,4,2,3,60,0,0
136308,-83.3333333333333,4,2,3,70,0,0
136697,-83.3333333333333,4,2,3,80,0,0
137087,-83.3333333333333,4,2,5,90,0,0
137476,-76.9230769230769,4,2,1,100,0,1
138645,-76.9230769230769,4,2,3,100,0,1
139035,-76.9230769230769,4,2,1,100,0,1
139424,-76.9230769230769,4,2,3,100,0,1
140009,-76.9230769230769,4,2,1,100,0,1
140204,-76.9230769230769,4,2,3,100,0,1
140593,-76.9230769230769,4,2,1,100,0,1
140983,-76.9230769230769,4,2,3,100,0,1
141567,-76.9230769230769,4,2,1,100,0,1
141762,-76.9230769230769,4,2,3,100,0,1
142152,-76.9230769230769,4,2,1,100,0,1
142541,-76.9230769230769,4,2,4,100,0,1
143126,-76.9230769230769,4,2,2,100,0,1
143321,-76.9230769230769,4,2,4,100,0,1
143710,-76.9230769230769,4,2,1,100,0,1
144100,-76.9230769230769,4,2,3,100,0,1
144684,-76.9230769230769,4,2,1,100,0,1
144879,-76.9230769230769,4,2,3,100,0,1
145269,-76.9230769230769,4,2,1,100,0,1
145658,-76.9230769230769,4,2,3,100,0,1
146243,-76.9230769230769,4,2,1,100,0,1
146437,-76.9230769230769,4,2,3,100,0,1
146632,-76.9230769230769,4,2,2,100,0,1
146827,-76.9230769230769,4,2,1,100,0,1
147217,-76.9230769230769,4,2,3,100,0,1
147801,-76.9230769230769,4,2,1,100,0,1
147996,-76.9230769230769,4,2,3,100,0,1
148385,-76.9230769230769,4,2,1,100,0,1
148775,-76.9230769230769,4,2,4,100,0,1
149359,-76.9230769230769,4,2,2,100,0,1
149554,-76.9230769230769,4,2,4,100,0,1
149895,-76.9230769230769,4,2,4,100,0,0
149944,-76.9230769230769,4,2,1,100,0,1
150333,-76.9230769230769,4,2,3,100,0,1
150723,-76.9230769230769,4,2,2,100,0,1
151113,-76.9230769230769,4,2,3,100,0,1
151502,-76.9230769230769,4,2,1,100,0,1
151892,-76.9230769230769,4,2,3,100,0,1
152476,-76.9230769230769,4,2,2,100,0,1
152671,-76.9230769230769,4,2,3,100,0,1
152866,-76.9230769230769,4,2,2,100,0,1
153061,-76.9230769230769,4,2,1,100,0,1
153450,-76.9230769230769,4,2,3,100,0,1
154035,-76.9230769230769,4,2,1,100,0,1
154230,-76.9230769230769,4,2,3,100,0,1
154619,-76.9230769230769,4,2,1,100,0,1
155009,-76.9230769230769,4,2,4,100,0,1
155593,-76.9230769230769,4,2,2,100,0,1
155788,-76.9230769230769,4,2,4,100,0,1
156178,-76.9230769230769,4,2,1,100,0,1
156567,-76.9230769230769,4,2,3,100,0,1
157152,-76.9230769230769,4,2,2,100,0,1
157346,-76.9230769230769,4,2,3,100,0,1
157736,-76.9230769230769,4,2,1,100,0,1
158126,-76.9230769230769,4,2,3,100,0,1
158710,-76.9230769230769,4,2,1,100,0,1
158905,-76.9230769230769,4,2,3,100,0,1
159100,-76.9230769230769,4,2,2,100,0,1
159295,-76.9230769230769,4,2,1,100,0,1
159684,-76.9230769230769,4,2,3,100,0,1
160269,-76.9230769230769,4,2,1,100,0,1
160463,-76.9230769230769,4,2,3,100,0,1
160853,-76.9230769230769,4,2,1,100,0,1
161243,-76.9230769230769,4,2,4,100,0,1
161827,-76.9230769230769,4,2,2,100,0,1
162022,-76.9230769230769,4,2,4,100,0,1
162411,-125,4,2,2,60,0,0
163580,-166.666666666667,4,2,2,50,0,0
165528,-166.666666666667,4,2,2,60,0,0
167087,-166.666666666667,4,2,2,70,0,0
167476,-166.666666666667,4,2,2,60,0,0
167866,-166.666666666667,4,2,2,50,0,0
168256,-166.666666666667,4,2,2,40,0,0

[Colours]
Combo1 : 128,255,255
Combo2 : 128,128,255
Combo3 : 255,140,140
Combo4 : 255,183,111
Combo5 : 255,255,128
Combo6 : 128,255,128

[HitObjects]
256,192,3450,12,2,6567,3:2:0:0:
93,132,6957,6,1,P|63:138|46:142,2,48,0|2|0,3:3|3:2|3:3,0:0:0:0:
165,172,7541,1,0,3:3:0:0:
165,172,7736,2,1,P|184:193|197:206,1,48,2|0,3:2|3:3,0:0:0:0:
275,190,8126,6,1,P|284:159|289:140,1,48,2|0,3:2|3:3,0:0:0:0:
235,83,8515,2,1,P|204:89|187:93,2,48,0|2|0,3:3|3:2|3:3,0:0:0:0:
312,66,9100,1,0,3:3:0:0:
372,130,9295,1,2,3:2:0:0:
372,130,9392,1,0,3:3:0:0:
372,130,9489,2,1,P|394:154|408:168,1,48,0|2,3:3|3:2,0:0:0:0:
331,252,10074,6,1,P|355:246|379:241,1,48,0|2,3:3|3:2,0:0:0:0:
437,293,10463,2,1,P|428:321|418:350,1,48,0|0,3:3|3:3,0:0:0:0:
349,365,10853,2,1,P|331:346|315:327,1,48,2|0,3:2|3:3,0:0:0:0:
243,355,11243,6,1,B|214:346|214:346|181:358,1,62.9999980773926,2|2,3:2|2:2,0:0:0:0:
76,293,11827,2,1,B|47:300|47:300|15:289,2,62.9999980773926,2|2|2,2:2|2:2|2:2,0:0:0:0:
49,99,12801,5,0,0:0:0:0:
49,99,12996,2,1,P|39:47|35:22,2,53.9999983520508,2|0|2,2:2|0:0|2:2,0:0:0:0:
100,161,13580,2,1,P|156:180|208:151,1,107.999996704102,0|2,0:0|2:2,0:0:0:0:
232,89,14165,1,0,0:0:0:0:
232,89,14359,2,1,P|274:80|301:73,1,53.9999983520508,2|0,2:2|0:0,0:0:0:0:
346,28,14749,1,2,2:2:0:0:
398,90,14944,2,1,P|386:160|381:185,2,80.9999975280763,2|2|2,2:2|2:2|2:2,0:0:0:0:
316,208,15918,5,0,0:0:0:0:
316,208,16113,2,1,P|328:265|337:322,1,107.999996704102,2|2,2:2|2:2,0:0:0:0:
380,381,16697,2,1,P|336:349|283:345,1,107.999996704102,0|2,0:0|2:2,0:0:0:0:
118,307,17476,2,1,P|84:317|47:327,1,53.9999983520508,2|0,2:2|0:0,0:0:0:0:
4,279,17866,1,2,2:2:0:0:
4,279,18061,2,1,P|14:224|21:190,2,80.9999975280763,2|2|2,2:2|3:2|3:2,0:0:0:0:
87,153,19035,5,0,3:3:0:0:
87,153,19230,2,1,P|127:143|151:137,1,53.9999983520508,2|0,2:2|0:0,0:0:0:0:
193,80,19619,2,1,P|233:90|257:96,1,53.9999983520508,2|0,2:2|0:0,0:0:0:0:
379,179,20204,1,2,2:2:0:0:
379,179,20398,2,1,P|437:152|447:94,1,107.999996704102,0|0,0:0|0:0,0:0:0:0:
392,57,20983,1,2,2:2:0:0:
392,57,21178,2,1,P|328:45|287:38,2,80.9999975280763,2|2|2,2:2|2:2|2:2,0:0:0:0:
242,83,22152,5,0,0:0:0:0:
242,83,22346,2,1,P|250:129|253:155,1,53.9999983520508,2|0,2:2|0:0,0:0:0:0:
188,184,22736,1,2,2:2:0:0:
188,184,22931,2,1,P|178:240|162:295,1,107.999996704102,0|2,0:0|2:2,0:0:0:0:
92,320,23515,1,0,0:0:0:0:
92,320,23710,2,1,P|64:305|49:268,1,53.9999983520508,2|0,2:2|0:0,0:0:0:0:
17,215,24100,1,2,2:2:0:0:
89,99,24489,2,1,L|93:134,4,26.9999991760254,0|0|0|0|0,3:3|3:3|3:3|3:3|3:3,0:0:0:0:
46,32,25074,5,0,3:3:0:0:
46,32,25171,1,0,3:3:0:0:
46,32,25269,2,1,B|119:45|89:68|169:78,1,120,6|0,1:2|3:3,0:0:0:0:
225,34,25853,1,2,1:2:0:0:
225,34,26048,2,1,P|282:25|333:20,2,90,10|0|2,3:2|0:0|1:2,0:0:0:0:
240,112,26827,6,1,P|232:152|228:182,1,60,2|0,3:2|3:3,0:0:0:0:
268,241,27217,1,2,3:2:0:0:
333,292,27411,2,1,B|368:289|395:283|395:283|418:309|443:332,1,120,0|2,3:3|3:2,0:0:0:0:
368,370,27996,1,0,3:3:0:0:
368,370,28191,1,2,3:2:0:0:
262,379,28385,6,1,P|253:343|243:310,1,60,2|0,1:2|3:3,0:0:0:0:
187,267,28775,2,1,P|161:240|136:216,1,60,2|0,3:2|1:1,0:0:0:0:
71,192,29165,1,10,3:2:0:0:
117,127,29359,2,1,P|175:113|245:90,1,120,0|0,3:3|1:1,0:0:0:0:
325,7,29944,6,1,P|314:49|306:75,1,60,2|0,2:2|3:3,0:0:0:0:
354,131,30333,2,1,P|365:172|371:199,1,60,2|0,3:2|3:3,0:0:0:0:
431,240,30723,1,10,3:2:0:0:
367,288,30918,2,1,P|302:270|239:262,1,120,0|0,3:3|1:1,0:0:0:0:
150,209,31502,6,1,B|78:231|113:257|44:272,1,120,2|0,1:2|3:3,0:0:0:0:
0,205,32087,1,2,1:2:0:0:
0,205,32184,1,0,0:0:0:0:
0,205,32282,2,1,P|23:143|38:110,2,90,10|0|2,3:2|0:0|1:2,0:0:0:0:
49,270,33061,2,1,P|60:307|67:344,1,60,2|0,3:2|3:3,0:0:0:0:
134,375,33450,1,2,3:2:0:0:
134,375,33645,1,0,3:3:0:0:
220,214,34035,2,1,P|231:174|236:141,1,60,2|0,3:2|3:3,0:0:0:0:
196,86,34424,1,2,3:2:0:0:
258,7,34619,6,1,P|287:6|313:20,1,60,2|0,1:2|3:3,0:0:0:0:
394,23,35009,2,1,P|409:48|409:77,1,60,2|0,3:2|1:1,0:0:0:0:
366,144,35398,1,10,3:2:0:0:
439,179,35593,2,1,P|376:199|355:247,1,120,0|0,3:3|1:1,0:0:0:0:
365,359,36178,6,1,P|342:329|305:313,1,60,2|0,3:2|3:3,0:0:0:0:
277,256,36567,2,1,P|239:260|207:284,1,60,2|0,3:2|3:3,0:0:0:0:
160,322,36957,1,10,3:2:0:0:
87,288,37152,2,1,P|113:227|170:212,1,120,0|0,3:3|1:1,0:0:0:0:
220,271,37736,5,2,3:2:0:0:
334,140,38126,2,1,P|320:97|311:74,1,48,0|2,3:3|3:2,0:0:0:0:
241,84,38515,2,1,P|210:117|195:136,1,48,2|0,3:2|3:3,0:0:0:0:
239,192,38905,2,1,P|283:201|307:205,2,48,2|0|0,3:2|3:3|3:3,0:0:0:0:
409,168,39684,2,1,P|424:149|441:132,1,48,0|0,3:3|3:3,0:0:0:0:
488,66,40074,6,1,P|475:121|465:178,1,107.999996704102,2|2,2:2|2:2,0:0:0:0:
349,293,40853,2,1,B|347:313|342:337|342:337|356:351|371:373,2,90,2|2|2,2:2|2:2|2:2,0:0:0:0:
301,228,41632,1,2,2:2:0:0:
227,197,41827,2,1,P|146:218|104:227,1,120,0|2,0:0|2:2,0:0:0:0:
33,162,42411,6,1,B|31:142|26:118|26:118|40:104|55:82,2,90,2|2|2,2:2|2:2|2:2,0:0:0:0:
91,218,43191,2,1,P|106:266|116:306,2,90,2|2|2,2:2|2:2|2:2,0:0:0:0:
116,141,43970,1,2,3:2:0:0:
238,18,44359,6,1,P|293:48|303:103,1,120,0|2,3:3|3:2,0:0:0:0:
433,199,45139,2,1,P|488:169|498:114,2,120,0|2|0,3:3|3:2|3:3,0:0:0:0:
366,242,46113,1,2,2:2:0:0:
366,242,46308,2,1,P|327:229|293:222,1,60,2|0,3:2|0:0,0:0:0:0:
245,177,46697,2,1,P|206:190|172:197,1,60,2|0,3:2|0:0,0:0:0:0:
97,244,47087,5,8,2:2:0:0:
97,244,47282,1,2,2:2:0:0:
49,180,47476,1,8,2:2:0:0:
108,125,47671,2,1,P|120:65|136:0,1,120,2|0,2:2|0:0,0:0:0:0:
209,38,48256,1,10,2:2:0:0:
280,0,48450,2,1,P|344:23|408:40,1,120,0|2,0:0|2:2,0:0:0:0:
466,4,49035,6,1,P|486:37|487:60,1,60,8|2,2:2|2:2,0:0:0:0:
429,108,49424,1,10,2:2:0:0:
429,108,49619,1,0,0:0:0:0:
476,171,49814,2,1,P|486:200|495:243,1,60,10|0,2:2|0:0,0:0:0:0:
424,296,50204,6,1,B|355:278|396:254|319:233,1,120,10|10,2:2|2:2,0:0:0:0:
260,187,50788,2,1,B|191:205|232:229|155:250,2,120,2|2|2,2:2|2:2|2:2,0:0:0:0:
137,168,51762,6,1,P|124:128|115:105,1,66.0000020141602,10|2,2:2|2:2,0:0:0:0:
37,55,52152,2,1,P|25:86|15:118,1,66.0000020141602,10|2,2:2|3:2,0:0:0:0:
58,209,52541,1,10,2:2:0:0:
58,209,52639,1,8,2:2:0:0:
58,209,52736,1,8,2:2:0:0:
10,288,52931,2,1,P|50:303|82:296,1,66.0000020141602,10|2,2:2|2:2,0:0:0:0:
151,349,53321,6,1,P|183:355|215:363,1,66.0000020141602,14|0,2:2|0:0,0:0:0:0:
257,344,53613,2,1,P|312:333|372:323,1,99.0000030212403,2|2,2:2|2:2,0:0:0:0:
433,278,54100,2,1,P|450:225|461:174,2,99.0000030212403,10|2|2,2:2|2:2|1:2,0:0:0:0:
349,237,54879,6,1,P|344:204|326:177,1,66.0000020141602,10|0,2:2|0:0,0:0:0:0:
287,152,55171,2,1,P|237:144|188:136,1,99.0000030212403,2|2,2:2|2:2,0:0:0:0:
97,146,55658,2,1,B|91:124|76:100|76:100|88:72|92:46,2,99.0000030212403,10|2|2,2:2|2:2|1:2,0:0:0:0:
48,225,56437,2,1,P|57:274|62:308,1,66.0000020141602,10|0,2:2|0:0,0:0:0:0:
117,362,56827,6,1,P|174:317|174:248,1,132.00000402832,10|10,2:2|2:2,0:0:0:0:
256,211,57411,1,0,1:1:0:0:
256,211,57509,1,2,1:2:0:0:
256,211,57606,2,1,P|286:223|305:250,1,66.0000020141602,10|2,2:2|1:2,0:0:0:0:
352,329,57996,2,1,P|409:284|409:215,1,132.00000402832,10|10,2:2|2:2,0:0:0:0:
442,140,58580,1,2,2:2:0:0:
367,85,58775,2,1,P|322:79|285:68,1,66.0000020141602,10|0,2:2|1:1,0:0:0:0:
249,3,59165,1,10,2:2:0:0:
249,3,59359,1,2,1:2:0:0:
159,26,59554,6,1,P|131:44|118:73,1,66.0000020141602,10|8,2:2|2:2,0:0:0:0:
37,120,59944,2,1,P|64:138|77:167,1,66.0000020141602,10|10,2:2|2:2,0:0:0:0:
29,248,60333,1,10,2:2:0:0:
29,248,60528,1,8,2:2:0:0:
99,308,60723,1,10,2:2:0:0:
179,262,60918,1,8,2:2:0:0:
239,332,61113,6,1,P|284:343|329:348,1,66.0000020141602,10|8,2:2|2:2,0:0:0:0:
361,273,61502,2,1,P|316:262|271:257,1,66.0000020141602,10|8,2:2|2:2,0:0:0:0:
230,194,61892,1,10,2:2:0:0:
213,102,62087,1,8,2:2:0:0:
290,49,62282,1,10,2:2:0:0:
290,49,62477,1,8,2:2:0:0:
181,10,62671,6,1,P|158:3|142:-3,3,33.0000010070801,10|8|2|0,2:2|2:2|1:2|1:1,0:0:0:0:
112,28,63061,2,1,P|88:33|71:36,3,33.0000010070801,10|8|2|0,2:2|2:2|1:2|1:1,0:0:0:0:
57,74,63450,2,1,P|39:90|26:101,3,33.0000010070801,10|8|2|0,2:2|2:2|1:2|1:1,0:0:0:0:
37,149,63840,1,10,2:2:0:0:
37,149,63937,1,8,2:2:0:0:
37,149,64035,2,1,P|30:172|23:188,1,33.0000010070801,2|0,1:2|1:1,0:0:0:0:
54,222,64230,6,1,P|110:204|157:191,2,107.999996704102,2|2|2,2:2|2:2|2:2,0:0:0:0:
254,241,65204,5,2,2:2:0:0:
322,328,65398,1,2,3:2:0:0:
322,328,65496,1,0,3:3:0:0:
322,328,65593,2,1,L|358:337,1,35.9999989013672,2|0,3:2|3:3,0:0:0:0:
382,380,65788,6,1,P|403:302|425:230,1,143.999995605469,6|10,1:2|3:2,0:0:0:0:
494,162,66372,1,2,3:2:0:0:
418,84,66567,2,1,P|378:101|360:133,1,71.9999978027344,0|0,3:3|1:1,0:0:0:0:
266,173,66957,2,1,P|186:145|115:119,1,143.999995605469,10|2,3:2|1:2,0:0:0:0:
35,176,67541,5,2,1:2:0:0:
129,227,67736,2,1,P|174:210|190:178,1,71.9999978027344,8|0,3:2|3:3,0:0:0:0:
208,91,68126,1,0,3:3:0:0:
208,91,68223,1,0,3:3:0:0:
208,91,68321,1,0,1:1:0:0:
115,146,68515,2,1,P|103:229|94:320,1,143.999995605469,8|2,3:2|1:2,0:0:0:0:
178,360,69100,6,1,P|224:349|265:344,1,71.9999978027344,2|10,3:2|3:2,0:0:0:0:
350,382,69489,2,1,P|414:345|427:281,1,143.999995605469,2|0,3:2|1:1,0:0:0:0:
339,216,70074,2,1,P|326:161|316:129,1,71.9999978027344,10|2,3:2|3:2,0:0:0:0:
249,72,70463,5,2,1:2:0:0:
249,72,70658,1,2,1:2:0:0:
330,0,70853,1,8,3:2:0:0:
416,72,71048,1,2,3:2:0:0:
417,72,71243,2,1,P|450:84|485:94,1,71.9999978027344,2|0,3:2|1:1,0:0:0:0:
512,141,71535,2,1,P|500:174|490:209,1,71.9999978027344,2|0,2:2|0:0,0:0:0:0:
498,263,71827,5,2,3:2:0:0:
498,263,71924,1,0,3:3:0:0:
498,263,72022,2,1,B|424:278|461:311|370:328,1,143.999995605469,6|10,1:2|3:2,0:0:0:0:
269,293,72606,1,2,3:2:0:0:
304,190,72801,2,1,P|339:202|362:241,1,71.9999978027344,0|0,3:3|1:1,0:0:0:0:
258,269,73191,2,1,P|183:251|101:239,1,143.999995605469,10|2,3:2|1:2,0:0:0:0:
13,272,73775,5,2,1:2:0:0:
35,172,73970,1,8,3:2:0:0:
15,66,74165,1,0,3:3:0:0:
15,66,74263,1,0,3:3:0:0:
15,66,74359,2,0,P|70:56|104:51,1,71.9999978027344,0|0,3:3|1:1,0:0:0:0:
183,5,74749,2,1,P|248:48|252:111,1,143.999995605469,8|2,3:2|3:2,0:0:0:0:
337,95,75333,6,1,P|382:108|410:119,2,60,2|2|2,2:2|2:2|2:2,0:0:0:0:
463,178,76113,1,0,0:0:0:0:
463,178,76308,2,1,P|431:187|411:195,2,53.9999983520508,2|2|2,2:2|2:2|2:2,0:0:0:0:
328,181,77087,6,1,L|328:239,1,48,2|2,2:2|2:2,0:0:0:0:
328,229,78256,6,1,P|302:216|283:207,1,48,2|0,1:2|3:3,0:0:0:0:
262,132,78645,2,1,P|285:115|302:104,1,48,2|0,3:2|1:1,0:0:0:0:
379,123,79035,2,1,P|381:151|382:172,1,48,10|0,3:2|3:3,0:0:0:0:
459,188,79424,1,0,1:1:0:0:
459,188,79619,2,1,P|479:174|499:161,1,48,2|2,1:2|3:2,0:0:0:0:
432,65,80203,5,2,3:2:0:0:
432,65,80300,1,0,3:3:0:0:
432,65,80398,2,1,P|454:75|476:86,1,48,0|10,3:3|3:2,0:0:0:0:
328,229,81372,6,1,P|302:216|283:207,1,48,2|0,1:2|3:3,0:0:0:0:
229,266,81762,2,1,P|231:290|233:314,1,48,2|0,3:2|1:1,0:0:0:0:
177,372,82152,2,1,P|155:362|134:352,1,48,10|0,3:2|3:3,0:0:0:0:
110,273,82541,1,0,1:1:0:0:
110,273,82736,2,1,P|129:259|149:245,1,48,2|2,1:2|3:2,0:0:0:0:
29,253,83321,5,2,3:2:0:0:
29,253,83418,1,0,3:3:0:0:
29,253,83515,2,1,P|27:229|25:205,2,48,0|10|2,3:3|3:2|1:2,0:0:0:0:
206,111,84489,5,0,1:1:0:0:
206,111,84684,2,1,P|253:99|280:94,1,53.9999983520508,2|0,3:2|3:3,0:0:0:0:
330,133,85074,1,2,1:2:0:0:
389,78,85269,2,1,P|442:95|468:141,1,107.999996704102,8|2,3:2|1:2,0:0:0:0:
432,209,85853,1,0,1:1:0:0:
386,275,86048,2,1,P|400:316|408:336,1,53.9999983520508,2|0,3:2|3:3,0:0:0:0:
467,375,86437,2,1,P|405:361|348:345,1,107.999996704102,2|10,3:2|3:2,0:0:0:0:
81,235,87606,5,0,1:1:0:0:
81,235,87801,2,1,P|69:187|63:165,1,53.9999983520508,2|0,3:2|3:3,0:0:0:0:
135,121,88191,2,1,P|141:147|148:173,1,53.9999983520508,2|8,1:2|3:2,0:0:0:0:
185,324,88775,1,2,1:2:0:0:
185,324,88970,1,0,1:1:0:0:
258,359,89165,2,1,P|285:332|290:305,1,53.9999983520508,2|0,3:2|3:3,0:0:0:0:
353,270,89554,1,2,3:2:0:0:
353,270,89652,1,0,3:3:0:0:
353,270,89749,1,0,3:3:0:0:
399,206,89944,2,1,P|426:233|431:260,1,53.9999983520508,10|0,3:2|1:1,0:0:0:0:
243,127,90723,5,0,1:1:0:0:
243,127,90918,2,1,P|230:82|223:56,1,53.9999983520508,2|0,3:2|3:3,0:0:0:0:
280,14,91308,1,2,3:2:0:0:
344,63,91502,2,1,B|404:64|390:35|454:41,1,107.999996704102,8|2,3:2|1:2,0:0:0:0:
501,101,92087,1,0,1:1:0:0:
456,167,92282,1,2,3:2:0:0:
456,167,92476,1,0,3:3:0:0:
384,203,92671,2,1,P|372:264|364:313,1,107.999996704102,2|10,3:2|3:2,0:0:0:0:
62,329,93840,5,0,1:1:0:0:
62,329,94035,2,1,P|102:336|127:342,1,53.9999983520508,2|0,3:2|3:3,0:0:0:0:
188,305,94424,2,1,P|195:265|201:240,1,53.9999983520508,2|8,1:2|3:2,0:0:0:0:
106,137,95009,1,2,1:2:0:0:
106,137,95204,2,1,P|43:186|42:229,1,107.999996704102,0|0,1:1|3:3,0:0:0:0:
114,258,95788,1,2,3:2:0:0:
114,258,95885,1,0,3:3:0:0:
114,258,95983,1,0,3:3:0:0:
187,225,96178,1,10,3:2:0:0:
482,64,96957,6,1,B|451:56|423:44|423:44|399:62|365:81,1,120,2|0,1:2|3:3,0:0:0:0:
337,146,97541,1,2,1:2:0:0:
255,87,97736,2,1,P|181:68|115:57,1,120,10|2,3:2|1:2,0:0:0:0:
80,0,98321,5,2,1:2:0:0:
80,0,98418,1,2,2:2:0:0:
80,0,98515,2,1,P|115:10|133:28,1,60,2|0,3:2|3:3,0:0:0:0:
97,97,98905,2,1,P|105:125|100:154,1,60,2|0,3:2|3:3,0:0:0:0:
43,209,99295,1,10,3:2:0:0:
123,234,99489,1,2,2:2:0:0:
123,234,99684,1,2,2:2:0:0:
200,256,99879,1,0,0:0:0:0:
167,336,100074,6,1,P|137:341|108:350,1,60,2|0,1:2|3:3,0:0:0:0:
43,304,100463,2,1,P|37:274|28:245,1,60,2|0,3:2|1:1,0:0:0:0:
68,177,100853,1,10,3:2:0:0:
146,180,101048,1,0,3:3:0:0:
190,112,101243,2,1,P|208:69|222:36,1,60,2|2,1:2|1:2,0:0:0:0:
298,56,101632,6,1,P|310:84|322:112,1,60,2|0,3:2|3:3,0:0:0:0:
366,180,102022,1,2,3:2:0:0:
444,177,102217,1,0,3:3:0:0:
483,245,102411,2,1,P|474:274|469:304,1,60,10|2,3:2|2:2,0:0:0:0:
403,350,102801,1,2,2:2:0:0:
403,350,102996,1,0,1:1:0:0:
319,299,103191,6,1,B|294:322|279:344|279:344|247:337|210:336,1,120,2|0,1:2|3:3,0:0:0:0:
162,278,103775,1,2,1:2:0:0:
250,240,103970,2,1,P|266:168|283:99,1,120,10|2,3:2|1:2,0:0:0:0:
237,39,104554,5,2,1:2:0:0:
237,39,104652,1,2,2:2:0:0:
237,39,104749,2,1,P|280:31|314:27,1,60,2|0,3:2|3:3,0:0:0:0:
359,100,105139,2,1,P|329:104|299:110,1,60,2|0,3:2|3:3,0:0:0:0:
348,186,105528,1,10,3:2:0:0:
424,156,105723,1,2,2:2:0:0:
424,156,105918,1,2,2:2:0:0:
497,123,106113,1,0,0:0:0:0:
476,40,106308,6,1,P|449:53|429:75,1,60,2|0,1:2|3:3,0:0:0:0:
424,156,106697,2,1,P|439:199|448:230,1,60,2|0,3:2|1:1,0:0:0:0:
417,287,107087,2,1,P|388:306|349:309,1,60,10|0,3:2|3:3,0:0:0:0:
296,276,107476,1,2,1:2:0:0:
296,276,107671,1,2,1:2:0:0:
216,276,107866,5,2,3:2:0:0:
216,276,108061,1,0,3:3:0:0:
148,310,108256,2,1,P|119:304|95:287,1,60,2|0,3:2|3:3,0:0:0:0:
68,212,108645,1,10,3:2:0:0:
112,145,108840,1,10,2:2:0:0:
112,145,108937,1,8,2:2:0:0:
112,145,109035,2,1,P|92:122|65:109,1,60,10|0,2:2|1:1,0:0:0:0:
0,159,109424,6,1,P|13:225|20:263,2,90,2|0|2,1:2|1:1|1:2,0:0:0:0:
65,109,110204,1,10,3:2:0:0:
213,186,110593,1,2,3:2:0:0:
327,62,110983,6,1,L|333:91,3,30,0|0|0|0,1:1|1:1|1:1|1:1,0:0:0:0:
360,123,111372,2,1,L|352:157,3,30,0|0|0|0,1:1|1:1|1:1|1:1,0:0:0:0:
336,191,111762,2,1,L|340:208,14,15,0|0|0|0|0|0|0|0|0|0|0|0|0|0|0,1:1|1:1|1:1|1:1|1:1|1:1|1:1|1:1|1:1|1:1|1:1|1:1|1:1|1:1|1:1,0:0:0:0:
358,234,112541,6,1,P|405:246|453:260,2,99.0000030212403,14|0|2,3:2|3:3|3:2,0:0:0:0:
302,308,113321,2,1,P|267:338|208:339,1,99.0000030212403,8|0,3:2|3:3,0:0:0:0:
122,239,113905,1,2,3:2:0:0:
42,286,114100,6,1,P|51:342|56:392,2,99.0000030212403,8|0|2,3:2|3:3|3:2,0:0:0:0:
53,194,114879,1,8,3:2:0:0:
6,63,115171,1,0,3:3:0:0:
136,15,115463,1,2,3:2:0:0:
164,102,115658,2,1,P|209:91|241:81,1,66.0000020141602,8|2,3:2|3:2,0:0:0:0:
301,28,116048,6,1,P|338:42|365:71,1,66.0000020141602,10|2,3:2|3:2,0:0:0:0:
446,81,116437,2,1,P|452:120|440:157,1,66.0000020141602,8|2,3:2|3:2,0:0:0:0:
353,150,116827,6,1,P|316:164|289:193,1,66.0000020141602,10|2,3:2|3:2,0:0:0:0:
208,203,117216,2,1,P|201:242|213:279,1,66.0000020141602,8|2,3:2|3:2,0:0:0:0:
277,328,117606,1,10,3:2:0:0:
277,328,117801,1,2,3:2:0:0:
368,316,117996,6,1,P|412:326|449:338,1,66.0000020141602,8|2,3:2|3:2,0:0:0:0:
496,266,118385,2,1,P|506:222|518:185,1,66.0000020141602,10|2,3:2|3:2,0:0:0:0:
447,143,118775,5,10,3:2:0:0:
447,143,118970,1,10,3:2:0:0:
366,189,119165,1,10,3:2:0:0:
366,189,119359,1,10,3:2:0:0:
303,120,119554,2,1,P|261:106|219:97,1,66.0000020141602,10|10,3:2|3:2,0:0:0:0:
155,140,119944,2,1,P|113:126|71:117,1,66.0000020141602,10|10,3:2|3:2,0:0:0:0:
161,59,120333,5,10,3:2:0:0:
161,59,120528,1,10,3:2:0:0:
178,154,120723,1,10,3:2:0:0:
178,154,120918,1,10,3:2:0:0:
104,210,121113,2,1,P|95:247|86:284,1,66.0000020141602,10|10,3:2|3:2,0:0:0:0:
14,329,121502,1,10,3:2:0:0:
89,381,121697,1,10,3:2:0:0:
162,324,121892,6,1,P|210:330|236:353,1,66.0000020141602,2|2,3:2|3:2,0:0:0:0:
316,345,122282,1,2,3:2:0:0:
316,345,122476,2,1,P|334:305|363:282,1,66.0000020141602,2|2,3:2|3:2,0:0:0:0:
432,247,122866,2,1,P|414:207|385:184,1,66.0000020141602,2|2,3:2|3:2,0:0:0:0:
441,109,123256,1,2,3:2:0:0:
364,58,123450,6,1,P|335:65|321:71,3,33.0000010070801,10|2|2|2,3:2|3:2|3:2|3:2,0:0:0:0:
286,56,123840,2,1,P|264:76|255:88,3,33.0000010070801,10|2|2|2,3:2|3:2|3:2|3:2,0:0:0:0:
218,93,124230,2,1,P|209:121|207:136,3,33.0000010070801,10|2|2|2,3:2|3:2|3:2|3:2,0:0:0:0:
177,159,124619,1,10,3:2:0:0:
177,159,124717,1,2,3:2:0:0:
177,159,124814,2,1,P|184:187|190:202,1,33.0000010070801,2|2,3:2|3:2,0:0:0:0:
189,241,125009,6,1,P|151:257|116:269,1,71.9999978027344,14|0,3:2|0:0,0:0:0:0:
72,256,125301,2,1,P|56:218|33:134,1,107.999996704102,2|2,2:2|2:2,0:0:0:0:
101,76,125788,5,10,2:2:0:0:
239,136,126080,1,2,2:2:0:0:
356,40,126372,1,2,1:2:0:0:
356,40,126567,6,1,P|347:79|336:124,1,71.9999978027344,10|0,2:2|0:0,0:0:0:0:
332,160,126859,2,1,P|365:171|433:143,1,107.999996704102,2|2,2:2|2:2,0:0:0:0:
464,240,127346,5,10,2:2:0:0:
320,288,127639,1,2,2:2:0:0:
219,175,127931,1,2,1:2:0:0:
219,175,128126,1,10,2:2:0:0:
84,12,128515,6,1,P|44:34|29:63,1,71.9999978027344,10|2,2:2|2:2,0:0:0:0:
77,146,128905,1,10,2:2:0:0:
15,227,129100,5,0,1:1:0:0:
15,227,129197,1,2,1:2:0:0:
15,227,129295,2,1,P|55:249|70:278,1,71.9999978027344,10|2,2:2|1:2,0:0:0:0:
166,293,129684,2,1,P|178:336|168:367,1,71.9999978027344,10|2,2:2|2:2,0:0:0:0:
71,354,130074,2,1,P|156:331|214:318,1,143.999995605469,10|10,2:2|2:2,0:0:0:0:
302,278,130658,1,0,1:1:0:0:
216,223,130853,1,10,2:2:0:0:
216,223,131048,1,2,1:2:0:0:
309,186,131243,6,1,P|323:140|331:106,1,71.9999978027344,10|8,2:2|2:2,0:0:0:0:
418,162,131632,2,1,P|432:116|440:82,1,71.9999978027344,10|10,2:2|2:2,0:0:0:0:
359,28,132022,5,10,2:2:0:0:
260,3,132217,1,8,2:2:0:0:
192,77,132411,1,10,2:2:0:0:
93,52,132606,1,8,2:2:0:0:
57,146,132801,6,1,P|67:194|79:228,1,71.9999978027344,10|8,2:2|2:2,0:0:0:0:
151,280,133191,2,1,P|103:290|69:302,1,71.9999978027344,10|8,2:2|2:2,0:0:0:0:
163,364,133580,1,10,2:2:0:0:
163,364,133775,1,8,2:2:0:0:
239,297,133970,5,10,2:2:0:0:
256,197,134165,1,8,2:2:0:0:
273,97,134359,1,2,2:2:0:0:
256,192,135918,12,2,137087,1:2:0:0:
295,256,137476,6,1,P|344:193|418:194,1,155.999992858887,6|10,1:2|3:2,0:0:0:0:
501,272,138061,1,2,3:2:0:0:
388,286,138256,1,0,3:3:0:0:
388,286,138450,1,0,1:1:0:0:
424,174,138645,2,1,P|414:123|405:83,1,77.9999964294435,10|2,3:2|3:2,0:0:0:0:
312,30,139035,5,2,1:2:0:0:
205,77,139230,1,2,1:2:0:0:
205,77,139424,2,1,P|152:67|99:54,1,77.9999964294435,8|0,3:2|3:3,0:0:0:0:
36,132,139814,1,0,3:3:0:0:
36,132,139911,1,0,3:3:0:0:
36,132,140009,1,0,1:1:0:0:
12,246,140204,2,1,P|65:236|118:223,1,77.9999964294435,8|0,3:2|3:3,0:0:0:0:
194,280,140593,5,2,1:2:0:0:
172,165,140788,1,2,3:2:0:0:
287,143,140983,1,10,3:2:0:0:
309,258,141178,2,1,P|384:281|456:312,1,155.999992858887,2|0,3:2|1:1,0:0:0:0:
384,384,141762,2,1,P|380:345|373:306,1,77.9999964294435,10|2,3:2|3:2,0:0:0:0:
375,193,142151,1,2,1:2:0:0:
375,193,142346,1,2,1:2:0:0:
477,136,142541,2,1,P|469:174|466:213,1,77.9999964294435,8|2,3:2|3:2,0:0:0:0:
432,60,142931,6,1,P|385:50|351:41,1,77.9999964294435,2|0,3:2|1:1,0:0:0:0:
303,16,143223,2,1,P|256:26|222:35,1,77.9999964294435,2|0,2:2|0:0,0:0:0:0:
177,55,143515,5,2,3:2:0:0:
177,55,143613,1,0,3:3:0:0:
177,55,143710,2,1,B|263:78|226:111|314:122,1,155.999992858887,6|10,1:2|3:2,0:0:0:0:
385,215,144295,1,2,3:2:0:0:
284,274,144489,1,0,3:3:0:0:
284,274,144684,1,0,1:1:0:0:
180,219,144879,2,1,P|167:159|157:127,1,77.9999964294435,10|2,3:2|3:2,0:0:0:0:
67,73,145269,5,2,1:2:0:0:
9,174,145463,1,2,1:2:0:0:
9,174,145658,2,1,P|53:196|68:234,1,77.9999964294435,8|0,3:2|3:3,0:0:0:0:
10,323,146048,1,0,3:3:0:0:
10,323,146145,1,0,3:3:0:0:
10,323,146243,1,0,1:1:0:0:
122,353,146437,2,1,L|160:343,3,38.9999982147218,10|2|2|2,3:2|3:2|3:2|3:2,0:0:0:0:
209,373,146827,5,2,1:2:0:0:
183,258,147022,1,2,3:2:0:0:
297,232,147217,1,10,3:2:0:0:
271,117,147411,2,1,P|265:197|262:275,1,155.999992858887,2|0,3:2|1:1,0:0:0:0:
330,368,147996,2,1,P|367:356|403:340,1,77.9999964294435,10|2,3:2|3:2,0:0:0:0:
478,252,148384,1,2,1:2:0:0:
478,252,148579,1,2,1:2:0:0:
419,150,148775,2,1,P|403:102|389:71,1,77.9999964294435,8|2,3:2|3:2,0:0:0:0:
273,36,149165,6,1,P|238:13|190:16,1,77.9999964294435,2|0,3:2|1:1,0:0:0:0:
176,63,149457,2,1,P|186:107|199:148,1,77.9999964294435,2|0,2:2|0:0,0:0:0:0:
239,178,149749,5,2,3:2:0:0:
239,178,149846,1,0,3:3:0:0:
239,178,149944,2,1,P|224:256|213:337,1,155.999992858887,6|10,1:2|3:2,0:0:0:0:
101,364,150528,1,2,3:2:0:0:
15,284,150723,6,1,L|58:275,3,38.9999982147218,2|2|2|2,3:2|2:2|1:2|2:2,0:0:0:0:
84,226,151113,2,1,P|143:242|180:255,1,77.9999964294435,10|2,3:2|3:2,0:0:0:0:
229,153,151502,6,1,P|170:137|117:116,2,116.999994644165,2|2|2,1:2|2:2|3:2,0:0:0:0:
314,234,152282,6,1,L|352:226,3,38.9999982147218,2|2|2|2,3:2|3:2|1:2|3:2,0:0:0:0:
380,179,152671,1,10,3:2:0:0:
380,179,152769,1,2,3:2:0:0:
380,179,152866,2,1,L|418:187,1,38.9999982147218,2|2,3:2|3:2,0:0:0:0:
471,162,153061,5,2,1:2:0:0:
454,277,153256,1,2,3:2:0:0:
356,329,153450,1,10,3:2:0:0:
241,312,153645,2,1,P|162:285|81:263,1,155.999992858887,2|0,3:2|1:1,0:0:0:0:
15,176,154230,2,1,P|29:130|57:112,1,77.9999964294435,10|2,3:2|3:2,0:0:0:0:
161,156,154619,1,2,1:2:0:0:
161,156,154814,1,2,1:2:0:0:
250,80,155009,2,1,P|214:47|181:45,1,77.9999964294435,8|2,3:2|3:2,0:0:0:0:
255,172,155398,6,1,P|297:161|345:154,1,77.9999964294435,2|0,3:2|1:1,0:0:0:0:
376,117,155691,2,1,P|418:128|466:135,1,77.9999964294435,2|0,2:2|0:0,0:0:0:0:
512,162,155983,5,2,3:2:0:0:
512,162,156080,1,0,3:3:0:0:
512,162,156178,2,1,P|494:74|429:50,1,155.999992858887,6|10,1:2|3:2,0:0:0:0:
331,4,156762,1,2,3:2:0:0:
250,89,156957,1,0,3:3:0:0:
250,89,157152,1,2,1:2:0:0:
349,149,157346,2,1,P|360:193|375:243,1,77.9999964294435,10|2,3:2|3:2,0:0:0:0:
305,323,157736,5,2,1:2:0:0:
192,354,157931,1,2,1:2:0:0:
192,354,158126,2,1,P|207:294|216:264,1,77.9999964294435,8|0,3:2|3:3,0:0:0:0:
158,174,158515,1,0,3:3:0:0:
158,174,158613,1,0,3:3:0:0:
158,174,158710,1,0,1:1:0:0:
44,145,158905,2,1,L|55:107,3,38.9999982147218,10|2|2|2,3:2|3:2|3:2|3:2,0:0:0:0:
40,50,159295,5,2,1:2:0:0:
153,25,159489,1,2,3:2:0:0:
241,101,159684,1,10,3:2:0:0:
354,76,159879,2,1,P|267:57|193:48,1,155.999992858887,2|0,3:2|1:1,0:0:0:0:
256,151,160463,2,1,P|300:159|336:168,1,77.9999964294435,10|2,3:2|3:2,0:0:0:0:
440,121,160853,5,2,1:2:0:0:
440,121,161048,1,2,1:2:0:0:
495,224,161243,2,1,P|487:268|478:304,1,77.9999964294435,8|0,3:2|3:3,0:0:0:0:
378,361,161632,6,1,P|334:353|298:344,1,77.9999964294435,2|0,3:2|1:1,0:0:0:0:
258,305,161924,2,1,P|215:320|180:330,1,77.9999964294435,2|0,2:2|0:0,0:0:0:0:
127,311,162217,1,2,3:2:0:0:
23,241,162411,6,1,P|15:306|0:383,1,144,2|2,1:2|2:2,0:0:0:0:
37,269,163580,6,1,P|30:318|18:377,1,107.999996704102,2|2,2:2|2:2,0:0:0:0:
256,192,164262,12,2,168256,2:2:0:0:
