osu file format v14

[General]
AudioFilename: audio.mp3
AudioLeadIn: 0
PreviewTime: 134165
Countdown: 0
SampleSet: Soft
StackLeniency: 0.7
Mode: 0
LetterboxInBreaks: 0
WidescreenStoryboard: 0

[Editor]
Bookmarks: 334,6567,12801,25269,37736,40853,53321,64230,65788,75139,78256,84489,96957,112541,125009,134359,137476,162411,168256
DistanceSpacing: 0.5
BeatDivisor: 4
GridSize: 32
TimelineZoom: 3.199999

[Metadata]
Title:Fader
TitleUnicode:フェーダー
Artist:mzsrz
ArtistUnicode:mzsrz
Creator:Ianos
Version:Fleeting
Source:
Tags:ミズシラズ mizushirazu 現在地未明 Genzaichimimei japanese pop jpop j-pop DECO*27 Rockwell
BeatmapID:4492473
BeatmapSetID:2135079

[Difficulty]
HPDrainRate:7
CircleSize:4
OverallDifficulty:8
ApproachRate:9
SliderMultiplier:1.6
SliderTickRate:1

[Events]
//Background and Video events
0,0,"91931636_p0.png",0,0
//Break Periods
//Storyboard Layer 0 (Background)
//Storyboard Layer 1 (Fail)
//Storyboard Layer 2 (Pass)
//Storyboard Layer 3 (Foreground)
//Storyboard Layer 4 (Overlay)
//Storyboard Sound Samples

[TimingPoints]
334,389.610389610389,4,2,1,20,1,0
334,-125,4,2,1,20,0,0
3450,-125,4,2,1,25,0,0
5009,-125,4,2,1,30,0,0
6567,-125,4,2,1,35,0,0
12801,-111.111111111111,4,2,1,35,0,0
12996,-111.111111111111,4,2,2,40,0,0
14944,-125,4,2,1,40,0,0
16113,-111.111111111111,4,2,2,40,0,0
18061,-125,4,2,1,40,0,0
19230,-125,4,2,2,40,0,0
19814,-111.111111111111,4,2,2,40,0,0
21178,-125,4,2,1,40,0,0
22346,-125,4,2,2,40,0,0
22541,-111.111111111111,4,2,2,40,0,0
24100,-125,4,2,2,40,0,0
25269,-100,4,2,2,50,0,0
37736,-100,4,2,2,40,0,0
38905,-125,4,2,2,40,0,0
40074,-200,4,2,2,45,0,0
40853,-90.9090909090909,4,2,1,50,0,0
41632,-125,4,2,1,50,0,0
41924,-125,4,2,2,50,0,0
42411,-200,4,2,1,50,0,0
43483,-200,4,2,2,50,0,0
43970,-125,4,2,2,50,0,0
44359,-90.9090909090909,4,2,2,50,0,0
45528,-90.9090909090909,4,2,1,55,0,0
45918,-100,4,2,1,55,0,0
46308,-100,4,2,2,55,0,0
47087,-100,4,2,2,60,0,0
47282,-100,4,2,1,60,0,0
47866,-100,4,2,2,60,0,0
48840,-100,4,2,1,60,0,0
49424,-100,4,2,2,60,0,0
51762,-83.3333333333333,4,2,3,65,0,0
51957,-83.3333333333333,4,2,2,65,0,0
52152,-83.3333333333333,4,2,3,65,0,0
52346,-83.3333333333333,4,2,2,65,0,0
52541,-83.3333333333333,4,2,3,65,0,0
52833,-83.3333333333333,4,2,2,65,0,0
52931,-76.9230769230769,4,2,3,65,0,0
53126,-76.9230769230769,4,2,2,65,0,0
53321,-71.4285714285714,4,2,3,75,0,0
53613,-71.4285714285714,4,2,2,75,0,0
53710,-71.4285714285714,4,2,3,75,0,0
53905,-71.4285714285714,4,2,2,75,0,0
54100,-71.4285714285714,4,2,3,75,0,0
54295,-71.4285714285714,4,2,2,75,0,0
54489,-71.4285714285714,4,2,3,75,0,0
54684,-71.4285714285714,4,2,2,75,0,0
54879,-71.4285714285714,4,2,3,75,0,0
55171,-71.4285714285714,4,2,2,75,0,0
55269,-71.4285714285714,4,2,3,75,0,0
55463,-71.4285714285714,4,2,2,75,0,0
55658,-71.4285714285714,4,2,3,75,0,0
55853,-71.4285714285714,4,2,2,75,0,0
56048,-71.4285714285714,4,2,3,75,0,0
56243,-71.4285714285714,4,2,2,75,0,0
56437,-71.4285714285714,4,2,3,75,0,0
56730,-71.4285714285714,4,2,2,75,0,0
56827,-71.4285714285714,4,2,3,75,0,0
57022,-71.4285714285714,4,2,2,75,0,0
57217,-71.4285714285714,4,2,3,75,0,0
57411,-71.4285714285714,4,2,2,75,0,0
57606,-71.4285714285714,4,2,3,75,0,0
57801,-71.4285714285714,4,2,2,75,0,0
57996,-71.4285714285714,4,2,3,75,0,0
58288,-71.4285714285714,4,2,2,75,0,0
58385,-71.4285714285714,4,2,3,75,0,0
58580,-71.4285714285714,4,2,2,75,0,0
58775,-71.4285714285714,4,2,3,75,0,0
58970,-71.4285714285714,4,2,1,75,0,0
59165,-71.4285714285714,4,2,3,75,0,0
59359,-71.4285714285714,4,2,2,75,0,0
59554,-71.4285714285714,4,2,3,80,0,0
60139,-71.4285714285714,4,2,4,80,0,0
60333,-71.4285714285714,4,2,3,80,0,0
62671,-71.4285714285714,4,2,3,85,0,0
62866,-71.4285714285714,4,2,1,85,0,0
63061,-71.4285714285714,4,2,3,85,0,0
63256,-71.4285714285714,4,2,1,85,0,0
63450,-71.4285714285714,4,2,3,85,0,0
63645,-71.4285714285714,4,2,1,85,0,0
63840,-71.4285714285714,4,2,3,85,0,0
64035,-71.4285714285714,4,2,1,85,0,0
64230,-66.6666666666667,4,2,1,80,0,0
64522,-58.8235294117647,4,2,1,80,0,0
64814,-52.6315789473684,4,2,1,80,0,0
65204,-66.6666666666667,4,2,1,80,0,0
65398,-66.6666666666667,4,2,1,85,0,0
65788,-71.4285714285714,4,2,1,90,0,1
66178,-71.4285714285714,4,2,3,90,0,1
66762,-71.4285714285714,4,2,1,90,0,1
66957,-71.4285714285714,4,2,3,90,0,1
67346,-71.4285714285714,4,2,1,90,0,1
67736,-71.4285714285714,4,2,3,90,0,1
68321,-71.4285714285714,4,2,1,90,0,1
68515,-71.4285714285714,4,2,3,90,0,1
68905,-71.4285714285714,4,2,1,90,0,1
69295,-71.4285714285714,4,2,3,90,0,1
69879,-71.4285714285714,4,2,1,90,0,1
70074,-71.4285714285714,4,2,3,90,0,1
70463,-71.4285714285714,4,2,1,90,0,1
70853,-71.4285714285714,4,2,4,90,0,1
71243,-62.5,4,2,4,90,0,1
71437,-62.5,4,2,2,90,0,1
71632,-62.5,4,2,4,90,0,1
72022,-71.4285714285714,4,2,1,90,0,1
72411,-71.4285714285714,4,2,3,90,0,1
72996,-71.4285714285714,4,2,1,90,0,1
73191,-71.4285714285714,4,2,3,90,0,1
73580,-71.4285714285714,4,2,1,90,0,1
73970,-71.4285714285714,4,2,3,90,0,1
74554,-71.4285714285714,4,2,1,90,0,1
74749,-71.4285714285714,4,2,4,90,0,1
75139,-125,4,2,4,50,0,0
76308,-200,4,2,4,50,0,0
77087,-500,4,2,1,45,0,0
77282,-500,4,2,1,40,0,0
79424,-125,4,2,1,40,0,0
80788,-125,4,2,2,40,0,0
81372,-125,4,2,1,40,0,0
83905,-125,4,2,2,40,0,0
84489,-111.111111111111,4,2,2,45,0,0
86827,-125,4,2,1,45,0,0
87801,-125,4,2,2,45,0,0
88385,-111.111111111111,4,2,2,45,0,0
89944,-125,4,2,1,45,0,0
90918,-125,4,2,2,45,0,0
91502,-111.111111111111,4,2,2,45,0,0
93061,-125,4,2,1,45,0,0
94035,-111.111111111111,4,2,2,45,0,0
96178,-111.111111111111,4,2,1,45,0,0
96957,-100,4,2,2,55,0,0
98126,-100,4,2,1,55,0,0
98515,-100,4,2,2,55,0,0
99295,-100,4,2,1,55,0,0
100074,-100,4,2,2,55,0,0
101243,-100,4,2,1,55,0,0
101632,-100,4,2,2,55,0,0
102411,-100,4,2,1,55,0,0
103191,-100,4,2,2,55,0,0
103970,-100,4,2,4,55,0,0
104359,-100,4,2,1,55,0,0
104749,-100,4,2,2,55,0,0
105528,-100,4,2,3,55,0,0
106308,-100,4,2,2,55,0,0
107476,-100,4,2,1,55,0,0
107866,-100,4,2,2,55,0,0
108645,-100,4,2,1,55,0,0
109424,-100,4,2,2,40,0,0
110204,-100,4,2,4,40,0,0
110593,-125,4,2,4,40,0,0
110983,-125,4,2,1,50,0,0
111762,-71.4285714285714,4,2,1,55,0,0
112541,-71.4285714285714,4,2,1,60,0,0
113126,-71.4285714285714,4,2,2,60,0,0
113515,-71.4285714285714,4,2,1,60,0,0
113905,-71.4285714285714,4,2,2,60,0,0
114295,-71.4285714285714,4,2,1,60,0,0
114684,-71.4285714285714,4,2,2,60,0,0
115074,-71.4285714285714,4,2,1,60,0,0
115463,-71.4285714285714,4,2,2,60,0,0
115853,-71.4285714285714,4,2,1,60,0,0
116243,-71.4285714285714,4,2,2,60,0,0
116632,-71.4285714285714,4,2,1,60,0,0
117022,-71.4285714285714,4,2,2,60,0,0
117411,-71.4285714285714,4,2,1,60,0,0
117801,-71.4285714285714,4,2,2,60,0,0
118191,-71.4285714285714,4,2,1,60,0,0
118580,-71.4285714285714,4,2,2,60,0,0
118775,-71.4285714285714,4,2,2,65,0,0
118970,-71.4285714285714,4,2,1,65,0,0
119165,-71.4285714285714,4,2,2,65,0,0
119359,-71.4285714285714,4,2,1,65,0,0
119554,-71.4285714285714,4,2,2,65,0,0
119749,-71.4285714285714,4,2,1,65,0,0
119944,-71.4285714285714,4,2,2,65,0,0
120139,-71.4285714285714,4,2,1,65,0,0
120333,-71.4285714285714,4,2,2,65,0,0
120528,-71.4285714285714,4,2,1,65,0,0
120723,-71.4285714285714,4,2,2,65,0,0
120918,-71.4285714285714,4,2,1,65,0,0
121113,-71.4285714285714,4,2,2,65,0,0
121308,-71.4285714285714,4,2,1,65,0,0
121502,-71.4285714285714,4,2,2,65,0,0
121697,-71.4285714285714,4,2,1,65,0,0
121892,-71.4285714285714,4,2,5,70,0,0
122087,-71.4285714285714,4,2,1,70,0,0
122184,-71.4285714285714,4,2,2,70,0,0
122282,-71.4285714285714,4,2,5,70,0,0
122476,-71.4285714285714,4,2,1,70,0,0
122574,-71.4285714285714,4,2,2,70,0,0
122671,-71.4285714285714,4,2,5,70,0,0
122866,-71.4285714285714,4,2,1,70,0,0
122963,-71.4285714285714,4,2,2,70,0,0
123061,-71.4285714285714,4,2,5,70,0,0
123256,-71.4285714285714,4,2,1,70,0,0
123353,-71.4285714285714,4,2,4,70,0,0
123450,-66.6666666666667,4,2,4,75,0,0
123548,-66.6666666666667,4,2,1,75,0,0
123645,-66.6666666666667,4,2,5,75,0,0
123840,-58.8235294117647,4,2,4,75,0,0
123937,-58.8235294117647,4,2,1,75,0,0
124035,-58.8235294117647,4,2,5,75,0,0
124230,-52.6315789473684,4,2,4,75,0,0
124327,-52.6315789473684,4,2,1,75,0,0
124424,-52.6315789473684,4,2,5,75,0,0
124619,-52.6315789473684,4,2,4,75,0,0
124717,-52.6315789473684,4,2,1,75,0,0
124814,-52.6315789473684,4,2,5,75,0,0
125009,-71.4285714285714,4,2,3,80,0,0
125301,-71.4285714285714,4,2,2,80,0,0
125398,-71.4285714285714,4,2,3,80,0,0
125593,-71.4285714285714,4,2,2,80,0,0
125788,-71.4285714285714,4,2,3,80,0,0
125983,-71.4285714285714,4,2,2,80,0,0
126178,-71.4285714285714,4,2,3,80,0,0
126372,-71.4285714285714,4,2,2,80,0,0
126567,-71.4285714285714,4,2,3,80,0,0
126859,-71.4285714285714,4,2,2,80,0,0
126957,-71.4285714285714,4,2,3,80,0,0
127152,-71.4285714285714,4,2,2,80,0,0
127346,-71.4285714285714,4,2,3,80,0,0
127541,-71.4285714285714,4,2,2,80,0,0
127736,-71.4285714285714,4,2,3,80,0,0
127833,-71.4285714285714,4,2,2,80,0,0
128126,-71.4285714285714,4,2,3,80,0,0
128418,-71.4285714285714,4,2,2,80,0,0
128515,-71.4285714285714,4,2,3,80,0,0
128710,-71.4285714285714,4,2,2,80,0,0
128905,-71.4285714285714,4,2,3,80,0,0
129100,-71.4285714285714,4,2,2,80,0,0
129295,-71.4285714285714,4,2,3,80,0,0
129489,-71.4285714285714,4,2,2,80,0,0
129684,-71.4285714285714,4,2,3,80,0,0
129879,-71.4285714285714,4,2,2,80,0,0
130074,-71.4285714285714,4,2,3,80,0,0
130269,-71.4285714285714,4,2,2,80,0,0
130463,-71.4285714285714,4,2,3,80,0,0
130658,-71.4285714285714,4,2,1,80,0,0
130853,-71.4285714285714,4,2,3,80,0,0
131048,-71.4285714285714,4,2,2,80,0,0
131243,-71.4285714285714,4,2,3,80,0,0
131827,-71.4285714285714,4,2,4,80,0,0
132022,-71.4285714285714,4,2,3,80,0,0
134359,-71.4285714285714,4,2,3,40,0,0
135918,-71.4285714285714,4,2,3,60,0,0
136308,-71.4285714285714,4,2,3,70,0,0
136697,-71.4285714285714,4,2,3,80,0,0
137087,-71.4285714285714,4,2,5,90,0,0
137476,-66.6666666666667,4,2,1,100,0,1
138645,-66.6666666666667,4,2,3,100,0,1
139035,-66.6666666666667,4,2,1,100,0,1
139424,-66.6666666666667,4,2,3,100,0,1
140009,-66.6666666666667,4,2,1,100,0,1
140204,-66.6666666666667,4,2,3,100,0,1
140593,-66.6666666666667,4,2,1,100,0,1
140983,-66.6666666666667,4,2,3,100,0,1
141567,-66.6666666666667,4,2,1,100,0,1
141762,-66.6666666666667,4,2,3,100,0,1
142152,-66.6666666666667,4,2,1,100,0,1
142541,-66.6666666666667,4,2,4,100,0,1
142931,-58.8235294117647,4,2,4,100,0,1
143126,-58.8235294117647,4,2,2,100,0,1
143321,-58.8235294117647,4,2,4,100,0,1
143710,-66.6666666666667,4,2,1,100,0,1
144100,-66.6666666666667,4,2,3,100,0,1
144684,-66.6666666666667,4,2,1,100,0,1
144879,-66.6666666666667,4,2,3,100,0,1
145269,-66.6666666666667,4,2,1,100,0,1
145658,-66.6666666666667,4,2,3,100,0,1
146243,-66.6666666666667,4,2,1,100,0,1
146437,-66.6666666666667,4,2,3,100,0,1
146632,-66.6666666666667,4,2,2,100,0,1
146827,-66.6666666666667,4,2,1,100,0,1
147217,-66.6666666666667,4,2,3,100,0,1
147801,-66.6666666666667,4,2,1,100,0,1
147996,-66.6666666666667,4,2,3,100,0,1
148385,-66.6666666666667,4,2,1,100,0,1
148775,-66.6666666666667,4,2,4,100,0,1
149165,-58.8235294117647,4,2,4,100,0,1
149359,-58.8235294117647,4,2,2,100,0,1
149554,-58.8235294117647,4,2,4,100,0,1
149895,-58.8235294117647,4,2,4,100,0,0
149944,-66.6666666666667,4,2,1,100,0,1
150333,-66.6666666666667,4,2,3,100,0,1
150723,-66.6666666666667,4,2,2,100,0,1
151113,-66.6666666666667,4,2,3,100,0,1
151502,-58.8235294117647,4,2,1,100,0,1
151795,-52.6315789473684,4,2,1,100,0,1
151892,-52.6315789473684,4,2,3,100,0,1
152087,-47.6190476190476,4,2,3,100,0,1
152476,-47.6190476190476,4,2,2,100,0,1
152671,-47.6190476190476,4,2,3,100,0,1
152866,-47.6190476190476,4,2,2,100,0,1
153061,-47.6190476190476,4,2,1,100,0,1
153450,-47.6190476190476,4,2,3,100,0,1
154035,-47.6190476190476,4,2,1,100,0,1
154230,-66.6666666666667,4,2,3,100,0,1
154619,-66.6666666666667,4,2,1,100,0,1
155009,-66.6666666666667,4,2,4,100,0,1
155398,-58.8235294117647,4,2,4,100,0,1
155593,-58.8235294117647,4,2,2,100,0,1
155788,-58.8235294117647,4,2,4,100,0,1
156178,-66.6666666666667,4,2,1,100,0,1
156567,-66.6666666666667,4,2,3,100,0,1
157152,-66.6666666666667,4,2,2,100,0,1
157346,-66.6666666666667,4,2,3,100,0,1
157736,-66.6666666666667,4,2,1,100,0,1
158126,-66.6666666666667,4,2,3,100,0,1
158710,-66.6666666666667,4,2,1,100,0,1
158905,-66.6666666666667,4,2,3,100,0,1
159100,-66.6666666666667,4,2,2,100,0,1
159295,-66.6666666666667,4,2,1,100,0,1
159684,-66.6666666666667,4,2,3,100,0,1
160269,-66.6666666666667,4,2,1,100,0,1
160463,-66.6666666666667,4,2,3,100,0,1
160853,-66.6666666666667,4,2,1,100,0,1
161243,-66.6666666666667,4,2,4,100,0,1
161632,-52.6315789473684,4,2,4,100,0,1
161827,-52.6315789473684,4,2,2,100,0,1
161924,-58.8235294117647,4,2,2,100,0,1
162022,-58.8235294117647,4,2,4,100,0,1
162217,-66.6666666666667,4,2,4,100,0,1
162411,-250.000000000001,4,2,2,60,0,0
163580,-500.000000000005,4,2,2,50,0,0
165528,-500.000000000005,4,2,2,60,0,0
167087,-500.000000000005,4,2,2,70,0,0
167476,-500.000000000005,4,2,2,60,0,0
167866,-500.000000000005,4,2,2,50,0,0
168256,-500.000000000005,4,2,2,40,0,0

[Colours]
Combo1 : 128,255,255
Combo2 : 128,128,255
Combo3 : 255,140,140
Combo4 : 255,183,111
Combo5 : 255,255,128
Combo6 : 128,255,128

[HitObjects]
256,192,3450,12,2,6567,3:2:0:0:
150,139,6957,5,0,3:3:0:0:
212,181,7152,1,2,3:2:0:0:
191,255,7346,1,0,3:3:0:0:
114,257,7541,1,0,3:3:0:0:
90,183,7736,2,1,L|59:174,3,21.3333333333333,2|0|0|0,3:2|3:3|3:3|3:3,0:0:0:0:
347,53,8126,6,1,L|370:31,3,21.3333333333333,2|0|0|0,3:2|3:3|3:3|3:3,0:0:0:0:
288,160,8516,1,0,3:3:0:0:
357,127,8711,1,2,3:2:0:0:
272,38,8905,1,0,3:3:0:0:
235,106,9100,1,0,3:3:0:0:
347,53,9295,1,2,3:2:0:0:
347,53,9392,1,0,3:3:0:0:
347,53,9489,1,0,3:3:0:0:
261,312,9684,5,2,3:2:0:0:
261,312,10074,1,0,3:3:0:0:
269,237,10269,1,2,3:2:0:0:
342,217,10463,1,0,3:3:0:0:
383,283,10658,1,0,3:3:0:0:
332,341,10853,1,2,3:2:0:0:
332,341,11048,2,1,L|339:371,3,21.3333333333333,0|0|0|2,3:3|3:3|3:3|3:2,0:0:0:0:
212,181,11535,5,2,2:2:0:0:
269,237,11827,1,2,2:2:0:0:
288,160,12119,1,2,2:2:0:0:
256,192,12411,5,2,2:2:0:0:
278,202,12801,6,1,P|342:192|371:184,1,71.9999978027344,0|2,0:0|2:2,0:0:0:0:
348,190,13191,1,0,0:0:0:0:
425,224,13385,1,2,2:2:0:0:
369,75,13580,6,1,P|311:68|259:56,1,107.999996704102,0|0,0:0|0:0,0:0:0:0:
241,71,13970,1,2,2:2:0:0:
294,13,14165,1,0,0:0:0:0:
121,158,14359,5,2,2:2:0:0:
121,158,14554,1,0,0:0:0:0:
150,230,14749,1,2,2:2:0:0:
118,301,14944,6,1,P|109:253|99:206,3,96,2|2|2|2,2:2|2:2|2:2|2:2,0:0:0:0:
79,185,15918,1,0,0:0:0:0:
218,339,16113,6,1,P|268:322|288:273,1,107.999996704102,2|0,2:2|0:0,0:0:0:0:
306,257,16502,1,2,2:2:0:0:
370,373,16697,6,1,P|332:365|299:352,1,71.9999978027344,0|0,0:0|0:0,0:0:0:0:
218,210,17087,2,1,P|180:217|147:230,1,71.9999978027344,2|0,2:2|0:0,0:0:0:0:
453,154,17476,5,2,2:2:0:0:
379,128,17671,1,0,0:0:0:0:
438,77,17866,1,2,2:2:0:0:
512,103,18061,6,1,P|498:155|487:198,2,96,2|2|2,2:2|3:2|3:2,0:0:0:0:
468,222,18840,5,0,3:3:0:0:
468,222,18937,1,2,3:2:0:0:
468,222,19035,1,0,3:3:0:0:
359,111,19230,5,2,2:2:0:0:
284,133,19424,1,0,0:0:0:0:
151,16,19619,5,2,2:2:0:0:
141,95,19814,2,1,P|134:66|129:47,1,35.9999989013672,0|0,0:0|0:0,0:0:0:0:
309,22,20204,5,2,2:2:0:0:
309,22,20398,1,0,0:0:0:0:
169,183,20593,2,1,P|127:173|91:167,1,71.9999978027344,2|0,2:2|0:0,0:0:0:0:
99,169,20983,1,2,2:2:0:0:
220,262,21178,6,1,P|266:250|318:238,3,96,2|2|2|2,2:2|2:2|2:2|2:2,0:0:0:0:
334,254,22152,1,0,0:0:0:0:
154,353,22346,5,2,2:2:0:0:
15,274,22541,2,1,P|4:211|-3:177,1,71.9999978027344,0|2,0:0|2:2,0:0:0:0:
69,148,22931,2,1,P|84:220|95:292,1,143.999995605469,0|2,0:0|2:2,0:0:0:0:
94,289,23515,1,0,0:0:0:0:
160,132,23710,5,2,2:2:0:0:
125,202,23905,1,0,0:0:0:0:
226,325,24100,2,1,P|282:336|310:347,1,64,2|0,2:2|0:0,0:0:0:0:
291,257,24489,5,0,3:3:0:0:
307,253,24587,1,0,3:3:0:0:
322,250,24684,1,0,3:3:0:0:
337,247,24782,1,0,3:3:0:0:
352,244,24879,1,0,3:3:0:0:
499,353,25074,5,0,3:3:0:0:
480,360,25171,1,0,3:3:0:0:
461,367,25269,2,1,P|446:309|433:251,1,120,6|0,1:2|0:0,0:0:0:0:
445,228,25658,1,0,3:3:0:0:
371,16,25853,5,2,1:2:0:0:
292,107,26048,1,10,3:2:0:0:
292,107,26145,2,1,P|283:161|272:203,1,80,0|0,3:3|0:0,0:0:0:0:
296,214,26437,5,0,1:1:0:0:
296,214,26632,1,2,1:2:0:0:
453,57,26827,5,2,3:2:0:0:
378,36,27022,1,0,3:3:0:0:
256,208,27217,5,2,3:2:0:0:
256,208,27314,1,0,3:3:0:0:
255,208,27411,2,1,P|216:215|177:224,1,80,0|8,3:3|3:2,0:0:0:0:
56,126,27801,2,1,P|63:165|72:204,1,80,2|0,3:2|3:3,0:0:0:0:
72,204,28191,1,2,3:2:0:0:
26,102,28385,5,2,1:2:0:0:
73,38,28580,1,0,3:3:0:0:
215,180,28775,5,2,3:2:0:0:
143,122,28970,1,0,1:1:0:0:
45,300,29165,6,1,P|73:294|101:288,1,40,10|0,3:2|3:3,0:0:0:0:
155,259,29359,2,1,P|209:276|238:289,2,80,0|0|0,3:3|1:1|1:1,0:0:0:0:
383,317,29944,5,2,2:2:0:0:
260,366,30139,1,0,3:3:0:0:
389,177,30333,6,1,P|399:211|402:231,1,40,2|0,3:2|3:3,0:0:0:0:
466,261,30528,1,0,3:3:0:0:
321,60,30723,5,10,3:2:0:0:
297,138,30918,2,1,P|284:91|272:59,1,80,0|0,3:3|3:3,0:0:0:0:
246,39,31210,1,0,3:3:0:0:
246,39,31308,1,0,1:1:0:0:
464,66,31502,6,1,B|370:57|408:111|312:104,1,160,2|0,1:2|3:3,0:0:0:0:
78,177,32087,5,2,1:2:0:0:
78,177,32184,1,0,0:0:0:0:
78,177,32282,2,1,P|60:110|42:60,1,120,10|0,3:2|0:0,0:0:0:0:
64,32,32671,5,0,1:1:0:0:
64,32,32866,1,2,1:2:0:0:
238,90,33061,5,2,3:2:0:0:
164,112,33256,1,0,3:3:0:0:
255,250,33450,5,2,3:2:0:0:
255,250,33548,1,0,3:3:0:0:
255,250,33645,2,1,P|300:223|312:172,1,80,0|8,3:3|3:2,0:0:0:0:
135,305,34035,5,2,3:2:0:0:
40,254,34230,2,1,P|91:269|133:283,1,80,0|2,3:3|3:2,0:0:0:0:
272,271,34619,5,2,1:2:0:0:
251,347,34814,1,0,3:3:0:0:
293,164,35009,5,2,3:2:0:0:
372,254,35204,1,0,1:1:0:0:
198,94,35398,6,1,P|171:84|147:77,1,40,10|0,3:2|3:3,0:0:0:0:
97,128,35593,2,1,P|55:140|16:147,2,80,0|0|0,3:3|1:1|1:1,0:0:0:0:
258,35,36178,5,2,3:2:0:0:
389,84,36372,1,0,3:3:0:0:
196,176,36567,6,1,P|184:206|176:228,1,40,2|0,3:2|3:3,0:0:0:0:
111,248,36762,1,0,3:3:0:0:
241,332,36957,5,10,3:2:0:0:
300,384,37152,2,1,P|287:341|277:300,1,80,0|0,3:3|3:3,0:0:0:0:
294,282,37444,1,0,3:3:0:0:
294,282,37541,1,0,1:1:0:0:
391,304,37736,5,2,3:2:0:0:
391,304,38126,1,0,3:3:0:0:
433,242,38321,1,2,3:2:0:0:
507,263,38515,1,2,3:2:0:0:
509,340,38710,1,0,3:3:0:0:
435,364,38905,2,1,L|426:395,3,21.3333333333333,2|0|0|0,3:2|3:3|3:3|3:3,0:0:0:0:
305,107,39295,6,1,L|283:84,3,21.3333333333333,0|0|0|0,3:3|3:3|3:3|3:3,0:0:0:0:
412,166,39685,1,0,3:3:0:0:
379,97,39880,1,0,3:3:0:0:
357,219,40074,6,1,P|331:222|276:234,1,80,2|2,2:2|2:2,0:0:0:0:
278,233,40658,1,2,2:2:0:0:
74,322,40853,6,1,P|57:253|41:192,2,132.00000402832,2|2|2,2:2|2:2|2:2,0:0:0:0:
237,99,41632,6,1,P|225:153|214:191,2,96,2|2|2,2:2|2:2|2:2,0:0:0:0:
379,250,42411,6,1,P|372:220|362:192,2,60,2|2|2,2:2|2:2|2:2,0:0:0:0:
448,194,43191,5,2,2:2:0:0:
455,173,43483,1,2,2:2:0:0:
458,191,43775,1,2,2:2:0:0:
444,175,43970,6,1,P|429:123|414:82,1,96,2|0,3:2|0:0,0:0:0:0:
378,0,44359,6,1,P|321:41|320:100,1,132.00000402832,0|0,3:3|0:0,0:0:0:0:
303,125,44749,1,2,3:2:0:0:
41,222,45139,6,1,P|98:263|99:322,1,132.00000402832,0|0,3:3|0:0,0:0:0:0:
116,347,45529,1,2,3:2:0:0:
116,347,45723,1,0,0:0:0:0:
185,207,45918,6,1,P|233:214|268:222,1,80,0|2,3:3|2:2,0:0:0:0:
368,323,46308,1,2,3:2:0:0:
420,383,46502,2,1,P|468:376|503:368,2,80,0|2|0,0:0|3:2|0:0,0:0:0:0:
348,338,47087,5,8,2:2:0:0:
272,319,47282,1,2,2:2:0:0:
463,178,47476,5,8,2:2:0:0:
357,243,47671,2,1,P|342:185|330:146,1,80,2|10,2:2|2:2,0:0:0:0:
110,60,48061,5,0,0:0:0:0:
138,133,48255,1,10,2:2:0:0:
216,125,48450,2,1,P|231:67|243:28,1,80,0|8,0:0|2:2,0:0:0:0:
157,225,48840,6,1,P|64:242|-23:266,1,160,2|2,2:2|2:2,0:0:0:0:
0,258,49424,1,10,2:2:0:0:
57,204,49619,1,0,0:0:0:0:
127,353,49814,5,10,2:2:0:0:
127,353,50009,1,0,0:0:0:0:
60,180,50204,6,1,P|43:123|26:82,1,80,10|0,2:2|0:0,0:0:0:0:
207,48,50593,1,10,2:2:0:0:
0,33,50788,6,1,B|90:47|54:86|144:101,1,160,2|2,2:2|2:2,0:0:0:0:
141,100,51372,1,8,2:2:0:0:
94,43,51567,1,2,2:2:0:0:
236,184,51762,6,1,B|243:158|243:158|236:138,1,47.9999985351563,10|0,2:2|0:0,0:0:0:0:
357,249,51957,5,2,2:2:0:0:
357,249,52054,1,0,3:0:0:0:
357,249,52152,2,1,B|349:274|349:274|356:294,1,47.9999985351563,10|0,2:2|0:0,0:0:0:0:
472,94,52346,5,2,3:2:0:0:
466,73,52444,1,0,3:3:0:0:
509,61,52541,5,10,2:2:0:0:
490,127,52639,1,8,2:2:0:0:
471,194,52736,2,1,P|435:203|408:212,1,47.9999985351563,8|2,2:2|3:2,0:0:0:0:
257,106,52931,6,1,B|299:98|335:86|335:86|364:110|398:127,1,155.999992858887,10|0,2:2|0:0,0:0:0:0:
317,172,53321,6,1,P|302:101|284:50,1,111.999996582031,14|0,2:2|0:0,0:0:0:0:
223,20,53613,2,1,P|154:73|156:108,1,111.999996582031,2|0,2:2|0:0,0:0:0:0:
194,154,53905,1,2,2:2:0:0:
0,238,54100,6,1,P|70:224|126:203,1,111.999996582031,10|0,2:2|1:1,0:0:0:0:
198,306,54392,2,1,P|268:320|324:341,1,111.999996582031,2|0,2:2|0:0,0:0:0:0:
377,304,54684,1,2,1:2:0:0:
512,154,54879,6,1,P|475:98|430:90,1,111.999996582031,10|0,2:2|0:0,0:0:0:0:
259,84,55171,2,1,B|320:67|300:41|359:26,1,111.999996582031,2|0,2:2|0:0,0:0:0:0:
426,0,55463,1,2,2:2:0:0:
324,243,55658,6,1,P|331:187|346:133,1,111.999996582031,10|0,2:2|1:1,0:0:0:0:
489,312,55950,2,1,B|436:291|436:291|389:320,1,111.999996582031,2|0,2:2|0:0,0:0:0:0:
444,378,56243,1,2,1:2:0:0:
145,329,56437,6,1,P|133:274|101:168,1,167.999994873047,10|2,2:2|2:2,0:0:0:0:
29,66,56827,6,1,P|99:135|166:122,1,167.999994873047,10|0,2:2|0:0,0:0:0:0:
197,58,57217,1,10,2:2:0:0:
252,217,57411,5,0,1:1:0:0:
252,217,57509,1,2,1:2:0:0:
252,216,57606,2,1,P|278:167|329:146,1,111.999996582031,10|2,2:2|1:2,0:0:0:0:
430,225,57996,1,10,2:2:0:0:
278,315,58191,5,0,0:0:0:0:
348,352,58386,1,10,2:2:0:0:
137,217,58580,5,2,2:2:0:0:
137,217,58678,1,2,2:2:0:0:
137,217,58775,1,10,2:2:0:0:
174,352,58970,1,0,1:1:0:0:
263,295,59165,5,10,2:2:0:0:
263,295,59360,1,2,1:2:0:0:
191,106,59554,5,10,2:2:0:0:
14,153,59749,1,8,2:2:0:0:
242,201,59944,5,10,2:2:0:0:
76,103,60139,1,10,2:2:0:0:
68,94,60236,1,2,2:2:0:0:
77,88,60333,5,10,2:2:0:0:
112,275,60528,1,8,2:2:0:0:
209,0,60723,5,10,2:2:0:0:
83,179,60918,1,8,2:2:0:0:
359,118,61113,5,10,2:2:0:0:
144,45,61308,1,8,2:2:0:0:
383,7,61502,5,10,2:2:0:0:
427,220,61697,1,8,2:2:0:0:
236,277,61892,5,10,2:2:0:0:
366,137,62087,1,8,2:2:0:0:
144,145,62282,5,10,2:2:0:0:
327,275,62476,1,8,2:2:0:0:
77,88,62671,5,10,2:2:0:0:
114,63,62769,1,8,2:2:0:0:
158,61,62866,1,2,1:2:0:0:
199,78,62963,1,0,1:1:0:0:
226,120,63061,5,10,2:2:0:0:
271,137,63159,1,8,2:2:0:0:
319,126,63256,1,2,1:2:0:0:
358,96,63353,1,0,1:1:0:0:
371,43,63450,5,10,2:2:0:0:
339,92,63548,1,8,2:2:0:0:
340,150,63645,1,2,1:2:0:0:
365,204,63742,1,0,1:1:0:0:
435,239,63840,5,10,2:2:0:0:
441,307,63938,1,8,2:2:0:0:
395,357,64035,1,2,1:2:0:0:
329,353,64132,1,0,1:1:0:0:
288,291,64230,6,1,P|372:268|432:255,1,120.000004577637,2|0,2:2|0:0,0:0:0:0:
183,194,64522,6,1,P|115:178|49:159,1,136.000002593994,2|0,2:2|0:0,0:0:0:0:
275,57,64814,6,1,P|386:30|497:-1,1,227.999993911743,2|0,2:2|0:0,0:0:0:0:
417,40,65204,6,1,P|386:32|357:25,1,60.0000022888184,2|0,2:2|0:0,0:0:0:0:
68,190,65398,5,2,3:2:0:0:
95,183,65496,1,0,3:3:0:0:
121,175,65593,1,2,3:2:0:0:
146,164,65691,1,0,3:3:0:0:
169,149,65788,2,1,P|235:192|233:274,1,167.999994873047,6|0,1:2|0:0,0:0:0:0:
215,292,66178,1,10,3:2:0:0:
378,81,66372,5,2,3:2:0:0:
401,65,66470,1,0,3:3:0:0:
427,57,66567,1,0,3:3:0:0:
452,218,66762,5,0,1:1:0:0:
298,127,66957,2,1,P|275:62|251:12,1,111.999996582031,10|2,3:2|3:2,0:0:0:0:
470,202,67346,5,2,1:2:0:0:
490,127,67541,1,2,1:2:0:0:
512,301,67736,5,8,3:2:0:0:
324,384,67931,1,0,3:3:0:0:
300,368,68028,1,0,3:3:0:0:
274,355,68126,1,0,3:3:0:0:
247,346,68223,1,0,3:3:0:0:
219,342,68321,1,0,1:1:0:0:
387,203,68515,6,1,P|379:249|320:278,1,111.999996582031,8|0,3:2|3:3,0:0:0:0:
120,381,68808,5,0,3:3:0:0:
95,366,68905,2,1,P|68:277|38:190,1,167.999994873047,2|0,1:2|0:0,0:0:0:0:
59,177,69295,1,10,3:2:0:0:
134,200,69489,1,2,3:2:0:0:
84,52,69684,5,0,3:3:0:0:
58,64,69782,1,0,3:3:0:0:
35,79,69879,1,0,1:1:0:0:
233,256,70074,2,1,P|252:197|274:145,1,111.999996582031,10|2,3:2|3:2,0:0:0:0:
207,0,70463,5,2,1:2:0:0:
207,0,70658,1,2,1:2:0:0:
360,168,70853,2,1,P|420:157|443:114,1,111.999996582031,8|2,3:2|3:2,0:0:0:0:
511,27,71145,5,0,3:3:0:0:
490,0,71243,2,1,B|422:0|440:47|375:45,1,128,2|0,3:2|1:1,0:0:0:0:
285,130,71535,2,1,B|217:130|235:82|170:84,1,128,2|0,2:2|0:0,0:0:0:0:
126,18,71827,5,2,3:2:0:0:
126,18,71924,1,0,3:3:0:0:
126,18,72022,2,1,P|49:79|49:145,1,167.999994873047,6|0,1:2|0:0,0:0:0:0:
34,164,72411,1,10,3:2:0:0:
0,93,72606,1,2,3:2:0:0:
261,242,72801,5,0,3:3:0:0:
254,269,72898,1,0,3:3:0:0:
245,295,72996,1,0,1:1:0:0:
136,239,73191,1,10,3:2:0:0:
355,380,73385,5,2,3:2:0:0:
348,353,73482,1,0,3:3:0:0:
339,327,73580,1,2,1:2:0:0:
214,377,73775,1,2,1:2:0:0:
397,243,73970,6,1,P|420:184|444:134,1,111.999996582031,8|0,3:2|3:3,0:0:0:0:
434,110,74262,1,0,3:3:0:0:
434,110,74359,1,0,3:3:0:0:
511,98,74554,1,0,1:1:0:0:
299,0,74749,5,8,3:2:0:0:
282,79,74944,1,0,3:3:0:0:
282,79,75041,1,0,3:3:0:0:
282,79,75139,2,1,P|225:95|197:104,3,64,2|2|2|2,3:2|2:2|2:2|2:2,0:0:0:0:
234,179,76113,5,0,0:0:0:0:
234,179,76308,2,1,P|253:182|273:187,3,40,2|2|2|2,2:2|2:2|2:2|2:2,0:0:0:0:
256,264,77087,6,1,L|256:282,1,16,2|2,2:2|2:2,0:0:0:0:
256,280,78256,5,2,1:2:0:0:
256,280,78450,1,0,3:3:0:0:
185,249,78645,5,2,3:2:0:0:
133,306,78840,1,0,1:1:0:0:
62,275,79035,1,10,3:2:0:0:
69,197,79230,1,0,3:3:0:0:
145,179,79424,2,1,L|151:146,3,21.3333333333333,0|0|0|2,1:1|3:3|3:3|1:2,0:0:0:0:
249,358,79814,6,1,L|255:391,3,21.3333333333333,2|0|0|0,3:2|3:3|3:3|3:3,0:0:0:0:
256,280,80204,1,2,3:2:0:0:
256,280,80301,1,0,3:3:0:0:
256,280,80398,1,0,3:3:0:0:
332,262,80593,1,10,3:2:0:0:
332,262,81372,5,2,1:2:0:0:
332,262,81567,1,0,3:3:0:0:
342,137,81762,1,2,3:2:0:0:
292,196,81957,1,0,1:1:0:0:
407,242,82152,1,10,3:2:0:0:
413,166,82346,1,0,3:3:0:0:
332,262,82541,5,0,1:1:0:0:
449,307,82736,2,1,L|479:296,3,21.3333333333333,2|0|0|2,1:2|3:3|3:3|3:2,0:0:0:0:
327,338,83126,1,0,3:3:0:0:
407,242,83321,1,2,3:2:0:0:
407,242,83418,1,0,3:3:0:0:
407,242,83515,1,0,3:3:0:0:
400,367,83710,1,10,3:2:0:0:
332,262,83905,1,2,1:2:0:0:
319,247,84489,6,1,P|310:212|297:178,1,71.9999978027344,0|2,1:1|3:2,0:0:0:0:
297,178,84878,1,0,3:3:0:0:
232,141,85074,1,2,1:2:0:0:
143,273,85269,5,8,3:2:0:0:
143,273,85366,1,0,3:3:0:0:
143,273,85463,1,0,3:3:0:0:
69,302,85658,1,2,1:2:0:0:
133,151,85853,6,1,P|180:136|210:116,1,71.9999978027344,0|2,1:1|3:2,0:0:0:0:
348,25,86243,1,0,3:3:0:0:
425,46,86437,1,2,3:2:0:0:
425,46,86535,1,0,3:3:0:0:
425,46,86632,1,0,3:3:0:0:
474,108,86827,2,1,P|451:201|439:249,1,128,10|2,3:2|2:2,0:0:0:0:
463,89,87606,5,0,1:1:0:0:
463,89,87801,1,2,3:2:0:0:
387,74,87996,1,0,3:3:0:0:
339,265,88191,5,2,1:2:0:0:
285,209,88385,2,1,P|230:222|193:236,1,71.9999978027344,8|0,3:2|3:3,0:0:0:0:
265,304,88775,5,2,1:2:0:0:
282,380,88970,1,0,1:1:0:0:
140,281,89165,2,1,P|130:237|116:193,1,71.9999978027344,2|0,3:2|3:3,0:0:0:0:
45,341,89554,5,2,3:2:0:0:
45,341,89652,1,0,3:3:0:0:
45,341,89749,1,0,3:3:0:0:
0,273,89944,2,1,P|6:233|15:199,1,64,10|0,3:2|1:1,0:0:0:0:
13,287,90723,5,0,1:1:0:0:
199,191,90918,1,2,3:2:0:0:
183,115,91113,1,0,3:3:0:0:
199,191,91308,1,2,3:2:0:0:
289,20,91502,6,1,P|365:57|378:123,1,143.999995605469,8|2,3:2|1:2,0:0:0:0:
379,109,92087,1,0,1:1:0:0:
429,0,92282,5,2,3:2:0:0:
506,16,92476,1,0,3:3:0:0:
466,190,92671,5,2,3:2:0:0:
466,190,92769,1,0,3:3:0:0:
466,190,92866,1,0,3:3:0:0:
411,245,93061,2,1,P|324:255|264:264,1,128,10|2,3:2|2:2,0:0:0:0:
425,264,93840,5,0,1:1:0:0:
254,356,94035,2,1,P|200:343|156:335,1,71.9999978027344,2|0,3:2|3:3,0:0:0:0:
183,339,94424,1,2,1:2:0:0:
38,197,94619,6,1,P|66:222|69:267,1,71.9999978027344,8|0,3:2|3:3,0:0:0:0:
238,165,95009,5,2,1:2:0:0:
193,228,95204,1,0,1:1:0:0:
68,84,95398,2,1,P|114:75|154:67,1,71.9999978027344,2|0,3:2|3:3,0:0:0:0:
264,148,95788,5,2,3:2:0:0:
264,148,95885,1,0,3:3:0:0:
264,148,95983,1,0,3:3:0:0:
324,200,96178,1,10,3:2:0:0:
488,28,96957,6,1,P|430:41|371:51,1,120,2|0,1:2|0:0,0:0:0:0:
339,32,97346,1,0,3:3:0:0:
221,67,97541,5,2,1:2:0:0:
402,203,97736,2,1,P|415:150|424:119,1,80,10|0,3:2|3:3,0:0:0:0:
307,229,98126,5,2,1:2:0:0:
311,248,98223,1,2,2:2:0:0:
315,267,98321,1,2,1:2:0:0:
320,286,98418,1,2,2:2:0:0:
325,305,98515,2,1,P|385:318|420:328,1,80,2|0,3:2|3:3,0:0:0:0:
512,198,98905,5,2,3:2:0:0:
512,198,99002,1,0,3:3:0:0:
512,198,99100,1,0,3:3:0:0:
491,323,99295,5,10,3:2:0:0:
467,328,99489,1,2,2:2:0:0:
443,333,99684,1,2,2:2:0:0:
419,338,99879,1,0,0:0:0:0:
185,321,100074,5,2,1:2:0:0:
124,227,100269,1,0,3:3:0:0:
201,243,100463,1,2,3:2:0:0:
24,235,100658,5,0,1:1:0:0:
121,143,100853,2,1,P|113:103|104:64,1,80,10|0,3:2|3:3,0:0:0:0:
313,125,101243,5,2,1:2:0:0:
332,128,101340,1,2,2:2:0:0:
352,133,101438,1,2,1:2:0:0:
371,138,101535,1,2,2:2:0:0:
391,143,101632,2,1,P|398:103|407:64,1,80,2|0,3:2|3:3,0:0:0:0:
488,235,102022,5,2,3:2:0:0:
488,235,102119,1,0,3:3:0:0:
488,235,102217,1,0,3:3:0:0:
327,321,102411,5,10,3:2:0:0:
311,243,102606,1,2,2:2:0:0:
311,243,102704,1,2,2:2:0:0:
311,243,102800,1,2,2:2:0:0:
389,227,102996,1,0,1:1:0:0:
185,373,103191,6,1,B|96:349|144:315|42:289,1,160,2|0,1:2|3:3,0:0:0:0:
50,112,103775,5,2,1:2:0:0:
160,253,103970,2,1,P|206:237|227:198,1,80,10|0,3:2|3:3,0:0:0:0:
128,37,104359,5,2,1:2:0:0:
108,31,104457,1,2,2:2:0:0:
88,25,104554,1,2,1:2:0:0:
68,19,104652,1,2,2:2:0:0:
48,14,104749,2,1,P|36:68|29:110,1,80,2|0,3:2|3:3,0:0:0:0:
199,135,105139,5,2,3:2:0:0:
199,135,105236,1,0,3:3:0:0:
199,135,105333,1,0,3:3:0:0:
349,72,105528,5,10,3:2:0:0:
344,48,105723,1,2,2:2:0:0:
339,24,105918,1,2,2:2:0:0:
334,0,106112,1,0,0:0:0:0:
509,121,106308,5,2,1:2:0:0:
431,105,106502,1,0,3:3:0:0:
456,180,106697,1,2,3:2:0:0:
357,375,106892,5,0,1:1:0:0:
307,240,107087,2,1,P|361:224|398:207,1,80,10|0,3:2|3:3,0:0:0:0:
221,164,107476,5,2,1:2:0:0:
217,183,107574,1,2,2:2:0:0:
213,202,107671,1,2,1:2:0:0:
209,221,107769,1,2,2:2:0:0:
205,240,107866,2,1,P|151:224|114:207,1,80,2|0,3:2|3:3,0:0:0:0:
155,375,108256,5,2,3:2:0:0:
155,375,108353,1,0,3:3:0:0:
155,375,108450,1,0,3:3:0:0:
3,121,108645,5,10,3:2:0:0:
56,180,108839,1,10,2:2:0:0:
56,180,108937,1,8,2:2:0:0:
56,180,109035,1,10,2:2:0:0:
81,105,109230,1,0,1:1:0:0:
28,45,109424,5,2,1:2:0:0:
207,129,109717,5,0,1:1:0:0:
340,72,110009,5,2,1:2:0:0:
447,134,110204,1,10,3:2:0:0:
464,60,110398,1,0,3:3:0:0:
398,21,110593,2,1,L|393:-11,3,21.3333333333333,2|0|0|0,3:2|3:3|3:3|3:3,0:0:0:0:
277,250,110983,5,0,1:1:0:0:
313,275,111080,1,0,1:1:0:0:
357,280,111178,1,0,1:1:0:0:
397,260,111275,1,0,1:1:0:0:
417,220,111372,5,0,1:1:0:0:
375,181,111470,1,0,1:1:0:0:
319,182,111567,1,0,1:1:0:0:
273,214,111665,1,0,1:1:0:0:
246,264,111762,6,1,P|219:275|202:279,1,27.9999991455078,0|0,1:1|1:1,0:0:0:0:
199,292,111859,2,1,P|170:289|153:283,1,27.9999991455078,0|0,1:1|1:1,0:0:0:0:
145,293,111957,2,1,P|121:276|109:262,1,27.9999991455078,0|0,1:1|1:1,0:0:0:0:
96,266,112054,2,1,P|84:239|80:222,1,27.9999991455078,0|0,1:1|1:1,0:0:0:0:
68,220,112152,6,1,P|70:191|76:174,1,27.9999991455078,0|0,1:1|1:1,0:0:0:0:
65,163,112249,2,1,P|81:139|95:127,1,27.9999991455078,0|0,1:1|1:1,0:0:0:0:
91,114,112346,2,1,P|117:102|134:98,1,27.9999991455078,0|0,1:1|1:1,0:0:0:0:
140,88,112444,2,1,P|168:90|185:96,1,27.9999991455078,0|0,1:1|1:1,0:0:0:0:
195,89,112541,6,1,P|116:70|26:34,2,167.999994873047,14|0|2,3:2|3:3|3:2,0:0:0:0:
443,103,113321,5,8,3:2:0:0:
438,119,113418,1,0,3:3:0:0:
360,137,113613,1,0,3:3:0:0:
356,153,113710,1,10,3:2:0:0:
306,213,113905,1,2,3:2:0:0:
318,344,114100,6,1,P|396:313|477:294,2,167.999994873047,8|0|2,3:2|3:3|3:2,0:0:0:0:
150,332,114879,5,8,3:2:0:0:
225,307,115074,1,2,3:2:0:0:
225,307,115171,1,0,3:3:0:0:
225,307,115269,1,10,3:2:0:0:
236,384,115463,1,2,3:2:0:0:
56,353,115658,2,1,P|36:282|24:243,1,111.999996582031,8|2,3:2|3:2,0:0:0:0:
21,37,116048,6,1,P|88:62|104:99,1,111.999996582031,10|2,3:2|3:2,0:0:0:0:
181,98,116340,1,0,3:3:0:0:
193,122,116437,2,1,P|176:184|166:259,1,111.999996582031,8|2,3:2|3:2,0:0:0:0:
326,366,116827,6,1,P|393:341|409:304,1,111.999996582031,10|2,3:2|3:2,0:0:0:0:
486,305,117119,1,0,3:3:0:0:
498,281,117216,2,1,P|481:219|471:144,1,111.999996582031,8|2,3:2|3:2,0:0:0:0:
424,90,117509,5,0,3:3:0:0:
402,108,117606,2,1,P|392:147|385:177,1,55.9999982910157,10|0,3:2|3:3,0:0:0:0:
312,144,117801,2,1,P|322:105|329:75,1,55.9999982910157,2|0,3:2|3:3,0:0:0:0:
353,247,117996,6,1,P|363:286|370:316,1,55.9999982910157,8|0,3:2|3:3,0:0:0:0:
208,251,118191,1,2,3:2:0:0:
208,251,118288,1,0,3:3:0:0:
208,251,118385,2,1,P|236:222|259:201,1,55.9999982910157,10|0,3:2|3:3,0:0:0:0:
284,375,118580,2,1,P|245:364|215:355,1,55.9999982910157,2|0,3:2|3:3,0:0:0:0:
476,249,118775,5,10,3:2:0:0:
504,214,118872,1,0,3:3:0:0:
510,169,118970,1,10,3:2:0:0:
490,128,119067,1,0,3:3:0:0:
446,114,119165,2,1,P|434:156|430:186,1,55.9999982910157,10|0,3:2|3:3,0:0:0:0:
311,58,119359,2,1,P|299:16|295:-14,1,55.9999982910157,10|0,3:2|3:3,0:0:0:0:
262,187,119554,5,10,3:2:0:0:
247,211,119652,1,0,3:3:0:0:
238,237,119749,2,1,P|226:279|222:309,1,55.9999982910157,10|0,3:2|3:3,0:0:0:0:
72,159,119944,6,1,P|84:117|88:87,1,55.9999982910157,10|0,3:2|3:3,0:0:0:0:
148,55,120139,2,1,P|136:13|132:-17,1,55.9999982910157,10|0,3:2|3:3,0:0:0:0:
0,271,120333,5,10,3:2:0:0:
11,314,120431,1,0,3:3:0:0:
37,349,120528,1,10,3:2:0:0:
80,361,120626,1,0,3:3:0:0:
121,345,120723,2,1,P|155:350|189:362,1,55.9999982910157,10|0,3:2|3:3,0:0:0:0:
54,176,120918,2,1,P|20:181|-14:193,1,55.9999982910157,10|0,3:2|3:3,0:0:0:0:
152,16,121113,6,1,P|186:21|220:33,1,55.9999982910157,10|0,3:2|3:3,0:0:0:0:
333,234,121308,5,10,3:2:0:0:
307,244,121405,1,0,3:3:0:0:
279,248,121502,2,1,P|251:244|224:236,1,55.9999982910157,10|0,3:2|3:3,0:0:0:0:
392,147,121697,2,1,P|364:150|337:158,1,55.9999982910157,10|0,3:2|3:3,0:0:0:0:
419,325,121892,5,2,3:2:0:0:
376,311,121989,1,2,3:2:0:0:
344,278,122087,1,2,3:2:0:0:
333,234,122184,1,2,3:2:0:0:
355,194,122282,5,2,3:2:0:0:
367,248,122379,1,2,3:2:0:0:
342,298,122477,1,2,3:2:0:0:
293,325,122574,1,2,3:2:0:0:
237,325,122671,5,2,3:2:0:0:
185,281,122768,1,2,3:2:0:0:
182,213,122866,1,2,3:2:0:0:
221,158,122963,1,2,3:2:0:0:
236,92,123061,5,2,3:2:0:0:
197,24,123158,1,2,3:2:0:0:
121,1,123256,1,2,3:2:0:0:
52,38,123353,1,2,3:2:0:0:
31,113,123450,6,1,P|60:104|90:98,1,60.0000022888184,10|2,3:2|3:2,0:0:0:0:
74,313,123645,5,2,3:2:0:0:
74,313,123743,1,2,3:2:0:0:
74,313,123840,2,1,P|89:282|109:253,1,68.0000012969971,10|2,3:2|3:2,0:0:0:0:
333,383,124035,5,2,3:2:0:0:
333,383,124133,1,2,3:2:0:0:
333,383,124230,2,1,P|321:346|313:308,1,75.9999979705811,10|2,3:2|3:2,0:0:0:0:
460,158,124424,5,2,3:2:0:0:
455,180,124522,1,2,3:2:0:0:
449,204,124619,5,10,3:2:0:0:
390,212,124717,1,2,3:2:0:0:
332,221,124814,1,2,3:2:0:0:
274,230,124911,1,2,3:2:0:0:
216,239,125009,6,1,P|231:169|238:121,1,111.999996582031,14|0,3:2|0:0,0:0:0:0:
215,48,125301,1,2,2:2:0:0:
230,24,125398,2,1,P|210:6|180:0,1,55.9999982910157,10|0,2:2|0:0,0:0:0:0:
115,34,125594,1,2,2:2:0:0:
122,209,125788,6,1,P|137:279|144:327,1,111.999996582031,10|0,2:2|1:1,0:0:0:0:
43,376,126080,1,2,2:2:0:0:
26,350,126177,2,1,P|32:316|40:286,1,55.9999982910157,10|0,2:2|0:0,0:0:0:0:
0,225,126373,1,2,1:2:0:0:
236,127,126568,6,1,P|306:142|354:149,1,111.999996582031,10|0,2:2|0:0,0:0:0:0:
451,252,126859,1,2,2:2:0:0:
441,275,126957,2,1,B|431:284|421:297|421:297|409:292|394:289,1,55.9999982910157,10|0,2:2|0:0,0:0:0:0:
390,212,127152,1,2,2:2:0:0:
222,113,127347,5,10,2:2:0:0:
401,61,127541,1,0,1:1:0:0:
413,85,127639,2,1,P|454:96|481:102,1,55.9999982910157,2|10,2:2|2:2,0:0:0:0:
288,165,127833,1,2,2:2:0:0:
278,188,127931,2,1,P|235:198|209:207,1,55.9999982910157,2|0,1:2|0:0,0:0:0:0:
402,1,128126,6,1,P|502:18|557:33,1,111.999996582031,10|0,2:2|0:0,0:0:0:0:
472,239,128418,5,2,2:2:0:0:
451,260,128516,2,1,P|391:238|365:140,1,167.999994873047,10|0,2:2|0:0,0:0:0:0:
322,78,128905,1,10,2:2:0:0:
127,332,129100,5,0,1:1:0:0:
135,358,129197,1,2,1:2:0:0:
145,384,129295,2,1,P|205:363|225:322,1,111.999996582031,10|2,2:2|1:2,0:0:0:0:
127,191,129684,1,10,2:2:0:0:
8,236,129879,5,2,2:2:0:0:
0,208,129976,1,2,2:2:0:0:
6,180,130074,1,10,2:2:0:0:
57,120,130269,1,2,2:2:0:0:
292,255,130463,5,10,2:2:0:0:
244,79,130658,1,0,1:1:0:0:
325,38,130853,5,10,2:2:0:0:
285,151,131048,1,2,1:2:0:0:
460,178,131243,5,10,2:2:0:0:
199,140,131437,1,8,2:2:0:0:
412,79,131632,5,10,2:2:0:0:
122,137,131827,1,10,2:2:0:0:
115,121,131924,1,2,2:2:0:0:
127,109,132022,5,10,2:2:0:0:
224,341,132217,1,8,2:2:0:0:
331,95,132411,5,10,2:2:0:0:
108,258,132606,1,8,2:2:0:0:
219,8,132801,5,10,2:2:0:0:
287,272,132996,1,8,2:2:0:0:
20,167,133191,5,10,2:2:0:0:
341,202,133385,1,8,2:2:0:0:
104,375,133580,5,10,2:2:0:0:
199,126,133775,1,8,2:2:0:0:
272,384,133970,5,10,2:2:0:0:
256,192,134165,1,8,2:2:0:0:
240,0,134359,1,2,2:2:0:0:
256,192,135918,12,2,137087,1:2:0:0:
504,133,137476,6,1,P|445:146|388:164,1,120.000004577637,6|2,1:2|3:2,0:0:0:0:
266,87,137866,1,10,3:2:0:0:
68,231,138061,2,1,P|16:195|13:136,1,120.000004577637,2|0,3:2|3:3,0:0:0:0:
216,5,138450,5,0,1:1:0:0:
90,154,138645,2,1,P|108:227|113:278,1,120.000004577637,10|2,3:2|3:2,0:0:0:0:
32,66,139035,5,2,1:2:0:0:
192,109,139230,1,2,1:2:0:0:
315,236,139424,5,8,3:2:0:0:
470,169,139619,1,0,3:3:0:0:
456,141,139717,1,0,3:3:0:0:
446,112,139814,1,0,3:3:0:0:
441,82,139911,1,0,3:3:0:0:
441,52,140009,2,1,P|390:63|351:74,1,60.0000022888184,0|0,1:1|0:0,0:0:0:0:
292,224,140204,6,1,P|312:292|324:345,1,120.000004577637,8|0,3:2|3:3,0:0:0:0:
310,373,140496,1,0,3:3:0:0:
310,373,140593,1,2,1:2:0:0:
391,272,140788,1,2,3:2:0:0:
216,193,140983,1,10,3:2:0:0:
366,185,141178,5,2,3:2:0:0:
337,194,141275,1,0,3:3:0:0:
309,205,141372,1,0,3:3:0:0:
155,130,141567,5,0,1:1:0:0:
0,294,141762,2,1,P|77:315|124:326,1,120.000004577637,10|2,3:2|3:2,0:0:0:0:
319,284,142152,5,2,1:2:0:0:
257,127,142346,1,2,1:2:0:0:
423,366,142541,5,8,3:2:0:0:
454,179,142736,1,2,3:2:0:0:
479,162,142833,1,0,3:3:0:0:
507,157,142931,2,1,P|440:138|361:108,1,136.000002593994,2|0,3:2|1:1,0:0:0:0:
314,26,143223,2,1,P|247:45|168:75,1,136.000002593994,2|0,2:2|0:0,0:0:0:0:
0,240,143515,5,2,3:2:0:0:
10,211,143613,1,0,3:3:0:0:
30,188,143710,2,1,B|95:187|82:212|151:214,1,120.000004577637,6|2,1:2|3:2,0:0:0:0:
258,129,144100,1,10,3:2:0:0:
50,80,144295,5,2,3:2:0:0:
35,54,144392,1,0,3:3:0:0:
11,35,144489,1,0,3:3:0:0:
158,233,144684,5,0,1:1:0:0:
361,127,144879,2,1,P|344:184|328:242,1,120.000004577637,10|2,3:2|3:2,0:0:0:0:
190,65,145269,5,2,1:2:0:0:
238,248,145463,1,2,1:2:0:0:
274,116,145658,5,8,3:2:0:0:
116,346,145853,1,0,3:3:0:0:
145,339,145950,1,0,3:3:0:0:
174,334,146048,1,0,3:3:0:0:
203,330,146145,1,0,3:3:0:0:
233,328,146243,2,1,P|280:343|307:355,1,60.0000022888184,0|0,1:1|0:0,0:0:0:0:
501,342,146437,5,10,3:2:0:0:
453,346,146534,1,2,3:2:0:0:
412,324,146631,1,2,3:2:0:0:
389,282,146729,1,2,3:2:0:0:
393,235,146827,1,2,1:2:0:0:
441,73,147022,1,2,3:2:0:0:
503,264,147217,1,10,3:2:0:0:
327,86,147411,5,2,3:2:0:0:
312,59,147509,1,0,3:3:0:0:
292,36,147606,1,0,3:3:0:0:
454,52,147801,5,0,1:1:0:0:
292,175,147996,2,1,P|255:160|223:152,1,60.0000022888184,10|0,3:2|3:3,0:0:0:0:
178,101,148191,2,1,P|141:116|109:124,1,60.0000022888184,2|0,3:2|3:3,0:0:0:0:
220,28,148385,5,2,1:2:0:0:
85,225,148580,1,2,1:2:0:0:
63,203,148678,1,0,3:3:0:0:
40,183,148775,2,1,P|24:106|9:51,1,120.000004577637,8|2,3:2|3:2,0:0:0:0:
233,48,149067,5,0,0:0:0:0:
250,77,149165,2,1,B|231:145|231:145|233:150|233:150|216:213,1,136.000002593994,2|0,3:2|1:1,0:0:0:0:
366,332,149457,2,1,B|347:263|347:263|349:258|349:258|332:195,1,136.000002593994,2|0,2:2|0:0,0:0:0:0:
510,11,149749,5,2,3:2:0:0:
497,38,149846,1,0,3:3:0:0:
475,59,149944,2,1,P|413:82|338:103,1,120.000004577637,6|2,1:2|3:2,0:0:0:0:
140,146,150333,5,10,3:2:0:0:
103,1,150528,1,2,3:2:0:0:
249,4,150723,6,1,L|255:35,1,30.0000011444092,2|0,3:2|0:0,0:0:0:0:
248,47,150821,2,1,L|254:78,1,30.0000011444092,2|0,2:2|0:0,0:0:0:0:
247,90,150918,2,1,L|253:121,1,30.0000011444092,2|0,1:2|0:0,0:0:0:0:
246,133,151015,2,1,L|252:164,1,30.0000011444092,2|0,2:2|0:0,0:0:0:0:
245,176,151113,2,1,P|264:267|275:319,1,120.000004577637,10|2,3:2|3:2,0:0:0:0:
189,278,151405,5,0,3:3:0:0:
162,300,151502,2,1,P|96:283|25:260,1,136.000002593994,2|0,1:2|1:1,0:0:0:0:
305,225,151795,6,1,P|236:208|160:183,1,151.999995941162,2|0,2:2|0:0,0:0:0:0:
376,143,152087,6,1,P|337:133|294:119,1,83.9999974365235,2|0,3:2|0:0,0:0:0:0:
275,360,152282,5,2,3:2:0:0:
305,333,152379,1,2,3:2:0:0:
323,282,152476,1,2,1:2:0:0:
305,225,152574,1,2,3:2:0:0:
267,185,152671,1,10,3:2:0:0:
258,139,152769,1,2,3:2:0:0:
271,115,152866,1,2,3:2:0:0:
288,111,152963,1,2,3:2:0:0:
296,120,153061,5,2,1:2:0:0:
235,272,153256,1,2,3:2:0:0:
162,48,153450,1,10,3:2:0:0:
367,170,153645,5,2,3:2:0:0:
394,182,153743,1,0,3:3:0:0:
423,187,153840,1,0,3:3:0:0:
284,27,154035,5,0,1:1:0:0:
192,235,154230,2,1,P|134:250|71:270,1,120.000004577637,10|2,3:2|3:2,0:0:0:0:
0,45,154619,5,2,1:2:0:0:
178,107,154814,1,2,1:2:0:0:
63,286,155009,5,8,3:2:0:0:
129,43,155204,1,2,3:2:0:0:
154,28,155301,1,0,3:3:0:0:
183,23,155398,2,1,B|257:42|232:67|303:84,1,136.000002593994,2|0,3:2|1:1,0:0:0:0:
501,181,155691,2,1,B|427:200|452:225|381:242,1,136.000002593994,2|0,2:2|0:0,0:0:0:0:
358,0,155983,5,2,3:2:0:0:
380,19,156080,1,0,3:3:0:0:
395,44,156178,2,1,P|380:107|371:164,1,120.000004577637,6|2,1:2|3:2,0:0:0:0:
273,241,156567,1,10,3:2:0:0:
448,384,156762,2,1,P|499:354|508:283,1,120.000004577637,2|0,3:2|3:3,0:0:0:0:
193,243,157152,6,1,L|184:209,1,30.0000011444092,2|0,1:2|0:0,0:0:0:0:
174,205,157249,2,1,L|165:171,1,30.0000011444092,2|0,2:2|0:0,0:0:0:0:
154,166,157346,2,1,P|91:182|27:206,1,120.000004577637,10|2,3:2|3:2,0:0:0:0:
222,384,157736,5,2,1:2:0:0:
283,216,157931,1,2,1:2:0:0:
209,75,158126,5,8,3:2:0:0:
342,280,158321,1,0,3:3:0:0:
370,269,158418,1,0,3:3:0:0:
398,260,158515,1,0,3:3:0:0:
427,255,158613,1,0,3:3:0:0:
456,253,158710,2,1,P|463:215|473:175,1,60.0000022888184,0|0,1:1|0:0,0:0:0:0:
498,0,158905,5,10,3:2:0:0:
494,47,159002,1,2,3:2:0:0:
460,81,159100,1,2,3:2:0:0:
412,86,159197,1,2,3:2:0:0:
369,63,159295,1,2,1:2:0:0:
193,101,159489,1,2,3:2:0:0:
391,167,159684,1,10,3:2:0:0:
255,9,159879,5,2,3:2:0:0:
99,95,160074,1,0,3:3:0:0:
110,122,160171,1,0,3:3:0:0:
119,150,160269,1,0,1:1:0:0:
351,264,160464,5,10,3:2:0:0:
192,244,160659,1,2,3:2:0:0:
203,217,160756,1,0,3:3:0:0:
212,189,160854,1,2,1:2:0:0:
342,14,161048,5,2,1:2:0:0:
353,41,161145,1,0,3:3:0:0:
362,69,161243,1,8,3:2:0:0:
418,172,161437,5,0,3:3:0:0:
429,145,161534,1,0,3:3:0:0:
438,117,161632,2,1,P|348:100|271:84,1,151.999995941162,2|0,3:2|1:1,0:0:0:0:
64,198,161924,6,1,P|131:185|198:171,1,136.000002593994,2|0,2:2|0:0,0:0:0:0:
332,280,162217,6,1,P|296:273|265:266,1,60.0000022888184,2|0,3:2|0:0,0:0:0:0:
19,275,162411,6,1,P|8:324|0:373,1,96,2|2,1:2|2:2,0:0:0:0:
28,296,163580,6,1,P|22:320|18:345,1,48,2|2,2:2|2:2,0:0:0:0:
256,192,164262,12,2,168256,2:2:0:0:
