osu file format v14

[General]
AudioFilename: audio.mp3
AudioLeadIn: 0
PreviewTime: 71567
Countdown: 0
SampleSet: Soft
StackLeniency: 0.5
Mode: 0
LetterboxInBreaks: 0
EpilepsyWarning: 1
WidescreenStoryboard: 1

[Editor]
Bookmarks: 16796,115539
DistanceSpacing: 1.1
BeatDivisor: 4
GridSize: 4
TimelineZoom: 2.5

[Metadata]
Title:Arcana Force
TitleUnicode:아르카나 포스
Artist:mzet:-P
ArtistUnicode:mzet:-P
Creator:Down
Version:Easy
Source:PUMP IT UP – 2017 PRIME 2
Tags:andamiro piu dailycare morinaga
BeatmapID:1568700
BeatmapSetID:743357

[Difficulty]
HPDrainRate:2
CircleSize:3
OverallDifficulty:2
ApproachRate:3
SliderMultiplier:0.899999999999999
SliderTickRate:1

[Events]
//Background and Video events
0,0,"zw.jpg",0,0
//Break Periods
2,38739,48270
//Storyboard Layer 0 (Background)
//Storyboard Layer 1 (Fail)
//Storyboard Layer 2 (Pass)
//Storyboard Layer 3 (Foreground)
//Storyboard Sound Samples

[TimingPoints]
5825,342.857142857143,4,2,2,60,1,0
5825,-100,4,2,2,60,0,0
9939,-100,4,2,99,40,0,0
10282,-100,4,2,2,60,0,0
15425,-100,4,2,2,40,0,0
15596,-100,4,2,2,20,0,0
15767,-100,4,2,1,60,0,0
37367,-100,4,2,2,40,0,0
37710,-100,4,2,2,35,0,0
38053,-100,4,2,2,25,0,0
49710,-100,4,2,3,45,0,0
51082,-100,4,2,4,45,0,0
52453,-100,4,2,5,45,0,0
55025,-100,4,2,4,45,0,0
55196,-100,4,2,3,45,0,0
56567,-100,4,2,4,45,0,0
57939,-100,4,2,5,45,0,0
59310,-100,4,2,10,50,0,0
60339,-100,4,2,13,50,0,0
60682,-100,4,2,2,55,0,0
66167,-100,4,2,2,65,0,0
71653,-100,4,2,1,60,0,1
81253,-100,4,2,1,60,0,0
82967,-100,4,2,1,60,0,1
90510,-100,4,2,2,60,0,1
90853,-100,4,2,1,60,0,1
93596,-100,4,2,1,60,0,0
115539,-100,4,2,1,30,0,0
116910,-100,4,2,1,5,0,0

[Colours]
Combo1 : 240,111,114
Combo2 : 235,88,235
SliderTrackOverride : 40,40,40

[HitObjects]
83,159,5824,6,0,P|126:77|218:66,2,180,0|0|0,0:0|0:0|0:0,0:0:0:0:
182,157,7539,1,2,0:0:0:0:
279,136,7882,2,0,L|269:240,1,89.9999999999999,0|8,0:0|0:0,0:0:0:0:
202,297,8567,6,0,B|94:311|94:311|18:272,2,180,8|0|10,0:0|0:0|0:0,0:0:0:0:
270,225,10282,2,0,P|301:280|298:318,2,89.9999999999999,12|12|12,0:0|0:0|0:0,0:0:0:0:
175,195,11310,6,0,P|137:156|176:44,1,180,12|2,0:0|0:0,0:0:0:0:
364,85,12682,2,0,B|389:149|389:149|374:195|374:195|395:268,1,180,12|2,0:0|0:0,0:0:0:0:
199,306,14053,6,0,P|161:288|99:299,2,89.9999999999999,12|8|8,0:0|0:0|0:0,0:0:0:0:
275,369,15082,1,12,0:0:0:0:
293,271,15425,2,0,P|323:200|276:107,1,180,12|8,0:0|0:0,0:0:0:0:
202,52,16453,1,2,0:0:0:0:
118,104,16796,6,0,P|88:151|90:203,1,89.9999999999999,8|2,0:0|0:0,0:0:0:0:
149,260,17482,2,0,P|179:213|177:161,1,89.9999999999999,8|2,0:0|0:0,0:0:0:0:
219,88,18167,2,0,B|203:45|203:45|218:-9,2,89.9999999999999,8|2|8,0:0|0:0|0:0,0:0:0:0:
304,38,19196,1,2,0:0:0:0:
375,106,19539,6,0,P|390:154|380:211,1,89.9999999999999,8|2,0:0|0:0,0:0:0:0:
291,162,20225,2,0,P|288:206|302:248,1,89.9999999999999,8|2,0:0|0:0,0:0:0:0:
394,286,20910,2,0,L|489:274,2,89.9999999999999,8|2|8,0:0|0:0|0:0,0:0:0:0:
312,343,21939,1,2,0:0:0:0:
218,311,22282,6,0,P|194:266|206:209,1,89.9999999999999,8|2,0:0|0:0,0:0:0:0:
101,201,22967,2,0,P|127:157|183:139,1,89.9999999999999,8|2,0:0|0:0,0:0:0:0:
260,153,23653,2,0,L|273:62,2,89.9999999999999,8|2|8,0:0|0:0|0:0,0:0:0:0:
320,231,24682,1,2,0:0:0:0:
414,199,25025,6,0,P|421:242|404:284,1,89.9999999999999,8|2,0:0|0:0,0:0:0:0:
313,323,25710,2,0,L|219:311,1,89.9999999999999,8|2,0:0|0:0,0:0:0:0:
136,359,26396,2,0,B|104:291|159:233|159:233|173:153|100:107,1,270,8|8,0:0|0:0,0:0:0:0:
16,96,27767,6,0,P|47:42|168:35,1,180,0|8,0:0|0:0,0:0:0:0:
228,95,28796,1,2,0:0:0:0:
319,58,29139,2,0,P|328:103|305:157,1,89.9999999999999,8|2,0:0|0:0,0:0:0:0:
226,189,29825,2,0,P|217:234|240:288,1,89.9999999999999,8|2,0:0|0:0,0:0:0:0:
311,332,30510,6,0,P|375:306|391:201,1,180,8|8,0:0|0:0,0:0:0:0:
314,144,31539,1,2,0:0:0:0:
406,107,31882,2,0,L|426:20,2,89.9999999999999,8|2|8,0:0|0:0|0:0,0:0:0:0:
392,205,32910,1,2,0:0:0:0:
314,144,33253,6,0,B|210:114|210:114|137:146,1,180,8|8,0:0|0:0,0:0:0:0:
215,212,34282,1,0,0:0:0:0:
177,303,34625,2,0,B|238:321|281:282|281:282|296:318|340:339,1,180,8|8,0:0|0:0,0:0:0:0:
376,246,35653,1,0,0:0:0:0:
462,293,35996,6,0,B|477:252|477:252|466:201,2,89.9999999999999,8|2|8,0:0|0:0|0:0,0:0:0:0:
376,246,37025,1,2,0:0:0:0:
383,147,37367,2,0,B|301:179|301:179|280:217|280:217|235:209|235:209|150:245,1,270,2|8,0:0|0:0,0:0:0:0:
137,174,49710,6,0,L|41:190,2,89.9999999999999,8|8|8,0:0|0:0|0:0,0:0:0:0:
213,237,50739,1,0,0:0:0:0:
238,141,51082,2,0,P|261:99|252:43,2,89.9999999999999,8|8|8,0:0|0:0|0:0,0:0:0:0:
162,77,52110,1,0,0:0:0:0:
137,174,52453,6,0,L|151:268,1,89.9999999999999,8|8,0:0|0:0,0:0:0:0:
55,293,53139,2,0,L|41:203,1,89.9999999999999,8|0,0:0|0:0,0:0:0:0:
64,107,53825,2,0,P|178:47|238:61,1,180,8|8,0:0|0:0,0:0:0:0:
307,105,54853,1,8,0:0:0:0:
250,186,55196,6,0,L|144:175,2,89.9999999999999,8|8|8,0:0|0:0|0:0,0:0:0:0:
313,262,56225,1,0,0:0:0:0:
405,227,56567,2,0,P|412:275|392:322,2,89.9999999999999,8|8|8,0:0|0:0|0:0,0:0:0:0:
343,149,57596,1,0,0:0:0:0:
250,186,57939,6,0,P|210:189|161:169,1,89.9999999999999,8|8,0:0|0:0,0:0:0:0:
96,243,58625,2,0,P|73:209|66:157,1,89.9999999999999,8|8,0:0|0:0,0:0:0:0:
128,84,59310,2,0,P|277:59|341:151,1,270
250,186,60682,5,6,0:0:0:0:
250,186,63425,5,2,0:0:0:0:
250,186,66167,6,0,L|237:285,2,89.9999999999999,8|2|2,0:0|0:0|0:0,0:0:0:0:
330,127,67196,1,0,0:0:0:0:
409,186,67539,2,0,L|422:285,2,89.9999999999999,0|2|2,0:0|0:0|0:0,0:0:0:0:
330,127,68567,1,0,0:0:0:0:
371,36,68910,6,0,P|324:27|276:45,1,89.9999999999999,0|2,0:0|0:0,0:0:0:0:
204,98,69596,2,0,P|157:107|109:89,1,89.9999999999999,0|2,0:0|0:0,0:0:0:0:
46,24,70282,1,0,0:0:0:0:
309,319,71653,6,0,P|324:261|308:224,1,89.9999999999999,8|2,0:0|0:0,0:0:0:0:
227,186,72339,1,8,0:0:0:0:
315,141,72682,1,2,0:0:0:0:
228,92,73025,2,0,P|168:114|140:218,1,180,8|8,0:0|0:0,0:0:0:0:
67,285,74053,1,2,0:0:0:0:
160,316,74396,6,0,L|262:304,1,89.9999999999999,8|2,0:0|0:0,0:0:0:0:
326,368,75082,2,0,B|349:331|349:331|347:282,1,89.9999999999999,8|2,0:0|0:0,0:0:0:0:
276,215,75767,2,0,B|253:178|253:178|255:129,2,89.9999999999999,8|2|8,0:0|0:0|0:0,0:0:0:0:
353,153,76796,1,2,0:0:0:0:
438,202,77139,6,0,P|452:159|444:116,1,89.9999999999999,8|2,0:0|0:0,0:0:0:0:
365,54,77825,1,8,0:0:0:0:
353,153,78167,1,2,0:0:0:0:
254,149,78510,2,0,P|206:163|178:193,1,89.9999999999999,8|2,0:0|0:0,0:0:0:0:
87,154,79196,2,0,P|75:202|87:241,1,89.9999999999999,8|2,0:0|0:0,0:0:0:0:
173,288,79882,6,0,L|266:271,1,89.9999999999999,8|2,0:0|0:0,0:0:0:0:
331,341,80567,2,0,L|424:324,1,89.9999999999999,8|2,0:0|0:0,0:0:0:0:
500,267,81253,2,0,B|474:242|438:229|438:229|356:244|356:244|405:197|383:132,1,270,8|8,0:0|0:0,0:0:0:0:
290,169,82625,5,0,0:0:0:0:
203,121,82967,2,0,P|192:82|207:24,2,89.9999999999999,2|8|2,0:0|0:0|0:0,0:0:0:0:
198,220,83996,2,0,L|186:312,1,89.9999999999999,8|2,0:0|0:0,0:0:0:0:
87,309,84682,2,0,L|75:219,1,89.9999999999999,8|2,0:0|0:0,0:0:0:0:
2,153,85367,6,0,P|59:123|96:126,1,89.9999999999999,8|2,0:0|0:0,0:0:0:0:
167,176,86053,2,0,P|211:171|248:146,1,89.9999999999999,8|2,0:0|0:0,0:0:0:0:
301,62,86739,1,8,0:0:0:0:
389,105,87082,2,0,B|400:61|400:61|387:11,2,89.9999999999999,2|8|0,0:0|0:0|0:0,0:0:0:0:
346,194,88110,6,0,P|337:263|421:340,1,180,8|8,0:0|0:0,0:0:0:0:
432,241,89139,1,2,0:0:0:0:
432,141,89482,2,0,P|381:101|266:122,1,180,8|8,0:0|0:0,0:0:0:0:
215,196,90510,1,2,0:0:0:0:
116,182,90853,6,0,P|118:226|142:263,2,89.9999999999999,8|2|8,0:0|0:0|0:0,0:0:0:0:
174,101,91882,1,2,0:0:0:0:
272,116,92225,2,0,B|356:118|451:93|451:93|404:106|382:155,1,270,2|2,0:0|0:0,0:0:0:0:
476,187,93596,6,0,L|460:286,1,89.9999999999999,8|2,0:0|0:0,0:0:0:0:
368,242,94282,2,0,L|352:341,1,89.9999999999999,8|2,0:0|0:0,0:0:0:0:
261,294,94967,2,0,P|192:305|101:251,1,180,8|8,0:0|0:0,0:0:0:0:
73,155,95996,1,2,0:0:0:0:
154,98,96339,6,0,P|176:146|168:192,1,89.9999999999999,8|2,0:0|0:0,0:0:0:0:
100,250,97025,2,0,P|78:298|86:344,1,89.9999999999999,8|2,0:0|0:0,0:0:0:0:
178,309,97710,2,0,P|267:324|338:262,1,180,8|8,0:0|0:0,0:0:0:0:
419,222,98739,1,2,0:0:0:0:
331,174,99082,6,0,L|315:86,2,89.9999999999999,8|2|8,0:0|0:0|0:0,0:0:0:0:
419,222,100110,1,2,0:0:0:0:
442,125,100453,2,0,L|458:37,2,89.9999999999999,8|2|8,0:0|0:0|0:0,0:0:0:0:
347,154,101482,1,2,0:0:0:0:
419,222,101825,6,0,P|431:270|410:320,1,89.9999999999999,8|2,0:0|0:0,0:0:0:0:
331,354,102510,2,0,P|319:306|340:256,1,89.9999999999999,8|2,0:0|0:0,0:0:0:0:
252,206,103196,2,0,P|273:123|216:38,1,180,8|0,0:0|0:0,0:0:0:0:
131,23,104225,1,0,0:0:0:0:
59,90,104567,6,0,P|38:135|49:188,1,89.9999999999999,8|2,0:0|0:0,0:0:0:0:
19,270,105253,2,0,L|124:253,1,89.9999999999999,8|2,0:0|0:0,0:0:0:0:
185,317,105939,2,0,L|273:331,2,89.9999999999999,8|2|8,0:0|0:0|0:0,0:0:0:0:
199,219,106967,1,2,0:0:0:0:
147,134,107310,6,0,B|199:109|248:134|248:134|310:72,1,180,8|8,0:0|0:0,0:0:0:0:
216,28,108339,1,2,0:0:0:0:
118,43,108682,2,0,P|82:62|56:110,1,89.9999999999999,8|2,0:0|0:0,0:0:0:0:
72,201,109367,2,0,P|97:240|91:298,1,89.9999999999999,8|2,0:0|0:0,0:0:0:0:
13,336,110053,6,0,L|205:312,1,180,8|8,0:0|0:0,0:0:0:0:
266,248,111082,1,2,0:0:0:0:
336,317,111425,2,0,B|365:261|365:261|335:137,1,180,8|8,0:0|0:0,0:0:0:0:
398,69,112453,1,0,0:0:0:0:
299,57,112796,6,0,P|264:82|241:131,1,89.9999999999999,8|2,0:0|0:0,0:0:0:0:
144,108,113482,2,0,P|148:150|179:195,1,89.9999999999999,8|2,0:0|0:0,0:0:0:0:
112,268,114167,2,0,P|151:285|205:281,1,89.9999999999999,8|2,0:0|0:0,0:0:0:0:
236,374,114853,2,0,P|271:349|294:300,1,89.9999999999999,8|2,0:0|0:0,0:0:0:0:
256,192,115539,12,0,116910,0:0:0:0:
