osu file format v14

[General]
AudioFilename: audio.mp3
AudioLeadIn: 0
PreviewTime: 198347
Countdown: 0
SampleSet: Normal
StackLeniency: 0.7
Mode: 0
LetterboxInBreaks: 0
WidescreenStoryboard: 1

[Editor]
Bookmarks: 6442,12636,25023,37410,49797,62184,74571,96248,96345,96442,96539,96636,96732,96829,96926,97023,97119,97216,97313,97410,97507,97603,97700,97797,97894,97990,98087,98184,98281,98378,98474,98571,98668,98765,98861,98958,99055,99152,99248,99345,111732,124119,136507,158184,158281,158378,158474,158571,158668,158765,158861,158958,159055,159152,159248,159345,159442,159539,159636,159732,159829,159926,160023,160119,160216,160313,160410,160507,160603,160700,160797,160894,160990,161087,161184,161281,179861,186055,192248,198442,210829,220119,223216,235603,244894,244990,245087,245184,245281,245378,245474,245571,245668,245765,245861,245958,246055,246152,246248,246345,246442,246539,246636,246732,246829,246926,247023,247119,247216,247313,247410,247507,247603,247700,247797,247894,247990,260378,272765,285152
DistanceSpacing: 0.8
BeatDivisor: 4
GridSize: 4
TimelineZoom: 6.699995

[Metadata]
Title:yamisame
TitleUnicode:闇雨
Artist:my sound life
ArtistUnicode:my sound life
Creator:allein
Version:imsame
Source:
Tags:茶太 chata iyuna featured artist fa j-rock jrock japanese rock mappers' guild mpg mini pack marathon portal two
BeatmapID:3719000
BeatmapSetID:1812908

[Difficulty]
HPDrainRate:6
CircleSize:4
OverallDifficulty:8
ApproachRate:8.5
SliderMultiplier:1.8
SliderTickRate:0.5

[Events]
//Background and Video events
0,0,"bg.jpg",0,0
//Break Periods
2,186236,191423
2,211030,219362
//Storyboard Layer 0 (Background)
//Storyboard Layer 1 (Fail)
//Storyboard Layer 2 (Pass)
//Storyboard Layer 3 (Foreground)
//Storyboard Layer 4 (Overlay)
//Storyboard Sound Samples

[TimingPoints]
249,389.61038961039,4,2,1,70,1,0
1807,382.165605095541,4,2,1,70,1,0
3335,390.879478827362,4,2,1,70,1,0
4898,388.349514563107,4,2,1,70,1,0
6063,382.165605095541,4,2,1,70,1,0
6442,-100,4,3,0,70,0,0
6445,389.61038961039,4,3,0,70,1,0
7613,382.165605095541,4,3,0,70,1,0
7995,387.096774193548,4,3,0,70,1,0
9543,389.61038961039,4,3,0,70,1,0
10711,379.746835443038,4,3,0,70,1,0
11090,392.156862745098,4,3,0,70,1,0
12055,-100,4,1,1,80,0,0
12070,378.548895899054,4,1,1,80,1,0
12637,375,4,1,1,80,1,0
13012,397.350993377483,4,1,1,80,1,0
13806,370.37037037037,4,1,1,80,1,0
14176,389.61038961039,4,1,1,80,1,0
15344,376.175548589342,4,1,1,80,1,0
15720,392.156862745098,4,1,1,80,1,0
16504,400,4,1,1,80,1,0
16904,379.746835443038,4,1,1,80,1,0
17283,396.039603960396,4,1,1,80,1,0
18075,377.358490566038,4,1,1,80,1,0
18829,402.684563758389,4,1,1,80,1,0
19231,379.14691943128,4,1,1,80,1,0
20368,397.350993377483,4,1,1,80,1,0
21162,383.386581469649,4,1,1,80,1,0
21928,392.156862745098,4,1,1,80,1,0
22712,377.952755905512,4,1,1,80,1,0
23467,405.405405405405,4,1,1,80,1,0
23872,379.746835443038,4,1,1,80,1,0
24631,375,4,1,1,80,1,0
25006,404.040404040404,4,1,1,80,1,0
25814,378.548895899054,4,1,1,80,1,0
26571,397.350993377483,4,1,1,80,1,0
27365,377.358490566038,4,1,1,80,1,0
28119,393.44262295082,4,1,1,80,1,0
28905,377.358490566038,4,1,1,80,1,0
29659,400,4,1,1,80,1,0
30459,372.670807453416,4,1,1,80,1,0
30831,380.952380952381,4,1,1,80,1,0
31211,402.684563758389,4,1,1,80,1,0
31613,385.047328734157,4,1,1,80,1,0
32768,393.44262295082,4,1,1,80,1,0
33554,369.230769230769,4,1,1,80,1,0
34292,402.010050251256,4,1,1,80,1,0
35096,378.548895899054,4,1,1,80,1,0
35853,397.350993377483,4,1,1,80,1,0
36250,382.165605095541,4,1,1,80,1,0
37396,404.040404040404,4,2,1,60,1,0
37396,-133.333333333333,4,2,1,60,0,0
37800,390.243902439024,4,2,1,60,1,0
37800,-133.333333333333,4,2,1,60,0,0
38970,394.218134034166,4,2,1,60,1,0
38970,-133.333333333333,4,2,1,60,0,0
39758,380.952380952381,4,2,1,60,1,0
40519,388.978930307942,4,2,1,60,1,0
40519,-133.333333333333,4,2,1,60,0,0
43630,388.349514563107,4,2,1,60,1,0
43630,-133.333333333333,4,2,1,60,0,0
45183,378.548895899054,4,2,1,60,1,0
45183,-133.333333333333,4,2,1,60,0,0
45940,385.852090032154,4,2,1,60,1,0
46711,382.165605095541,4,2,1,60,1,0
46711,-133.333333333333,4,2,1,60,0,0
47093,392.798690671031,4,2,1,60,1,0
47289,-133.333333333333,4,2,1,60,0,0
48271,370.37037037037,4,2,1,60,1,0
48641,387.096774193548,4,2,1,60,1,0
49797,-133.333333333333,4,1,1,70,0,0
49802,385.852090032154,4,1,1,70,1,0
49823,-133.333333333333,4,1,1,70,0,0
52880,-133.333333333333,4,1,1,70,0,0
52888,388.349514563107,4,1,1,70,1,0
52888,-133.333333333333,4,1,1,70,0,0
55218,379.746835443038,4,1,1,70,1,0
55218,-133.333333333333,4,1,1,70,0,0
55977,391.517128874388,4,1,1,70,1,0
55977,-133.333333333333,4,1,1,70,0,0
57543,382.165605095541,4,1,1,70,1,0
57925,387.096774193548,4,1,1,70,1,0
58312,-133.333333333333,4,1,1,70,0,0
59086,398.671096345515,4,1,1,70,1,0
59484,377.358490566038,4,1,1,70,1,0
59672,-133.333333333333,4,1,1,70,0,0
60616,394.088669950739,4,1,1,70,1,0
60616,-133.333333333333,4,1,1,70,0,0
61404,379.746835443038,4,1,1,70,1,0
62163,409.556313993174,4,1,1,70,1,0
62184,-133.333333333333,4,1,1,70,0,0
62572,393.44262295082,4,1,1,70,1,0
62768,-133.333333333333,4,1,1,70,0,0
63358,377.358490566038,4,1,1,70,1,0
63735,400,4,1,1,70,1,0
63735,-133.333333333333,4,1,1,70,0,0
64135,384.615384615385,4,1,1,70,1,0
64327,-133.333333333333,4,1,1,70,0,0
65288,404.040404040404,4,1,1,70,1,0
65288,-133.333333333333,4,1,1,70,0,0
65692,380.952380952381,4,1,1,70,1,0
65697,-133.333333333333,4,1,1,70,0,0
66834,387.096774193548,4,1,1,70,1,0
68380,-133.333333333333,4,1,1,70,0,0
68382,392.156862745098,4,1,1,70,1,0
68382,-133.333333333333,4,1,1,70,0,0
68774,387.096774193548,4,1,1,70,1,0
68967,-133.333333333333,4,1,1,70,0,0
69935,389.61038961039,4,1,1,70,1,0
69935,-133.333333333333,4,1,1,70,0,0
70714,377.358490566038,4,1,1,70,1,0
71468,405.405405405405,4,1,1,70,1,0
71873,378.548895899054,4,1,1,70,1,0
72251,394.736842105263,4,1,1,70,1,0
72836,-100,4,1,1,80,0,0
72843,382.165605095541,4,1,1,80,1,0
73034,382.165605095541,4,1,1,80,1,0
73798,368.098159509202,4,1,1,80,1,0
74166,388.349514563107,4,1,1,80,1,0
74554,415.22491349481,4,1,1,80,1,0
74969,352.941176470588,4,1,1,80,1,0
75321,402.684563758389,4,1,1,80,1,0
75723,377.358490566038,4,1,1,80,1,0
76100,408.163265306122,4,1,1,80,1,0
76508,385.852090032154,4,1,1,80,1,0
77665,389.61038961039,4,1,1,80,1,0
78444,378.548895899054,4,1,1,80,1,0
79011,-102.564102564103,4,1,1,80,0,0
79201,397.350993377483,4,1,1,80,1,0
79995,375,4,1,1,80,1,0
80745,406.779661016949,4,1,1,80,1,0
81151,384.615384615385,4,1,1,80,1,0
82304,390.879478827362,4,1,1,80,1,0
83085,384.615384615385,4,1,1,80,1,0
83854,388.349514563107,4,1,1,80,1,0
85213,389.61038961039,4,1,1,80,1,0
85407,389.61038961039,4,1,1,80,1,0
86186,382.165605095541,4,1,1,80,1,0
86950,409.556313993174,4,1,1,80,1,0
87359,385.852090032154,4,1,1,80,1,0
88130,375,4,1,1,80,1,0
88505,392.156862745098,4,1,1,80,1,0
89289,368.098159509202,4,1,1,80,1,0
90025,394.736842105263,4,1,1,80,1,0
90814,377.358490566038,4,1,1,80,1,0
91191,392.156862745098,4,1,1,80,1,0
91583,392.156862745098,4,1,1,80,1,0
92759,377.358490566038,4,1,1,80,1,0
93136,405.405405405405,4,1,1,80,1,0
93946,372.670807453416,4,1,1,80,1,0
94691,387.596899224806,4,1,1,80,1,0
95853,379.746835443038,4,1,1,80,1,0
96232,384.615384615385,4,1,1,80,1,0
96808,428.571428571429,4,1,1,80,1,0
97022,374.414976599064,4,1,1,80,1,0
97396,394.218134034166,4,1,1,80,1,0
97790,394.218134034166,4,1,1,80,1,0
98578,382.165605095541,4,1,1,80,1,0
99342,389.61038961039,4,1,1,70,1,0
99342,-133.333333333333,4,1,1,70,0,0
100900,386.473429951691,4,1,1,70,1,0
100900,-133.333333333333,4,1,1,70,0,0
102445,392.156862745098,4,1,1,70,1,0
102445,-133.333333333333,4,1,1,70,0,0
103229,382.165605095541,4,1,1,70,1,0
103993,394.736842105263,4,1,1,70,1,0
104782,378.548895899054,4,1,1,70,1,0
105539,397.350993377483,4,1,1,70,1,0
105539,-133.333333333333,4,1,1,70,0,0
105936,386.100386100386,4,1,1,70,1,0
106129,-133.333333333333,4,1,1,70,0,0
107094,387.096774193548,4,1,1,70,1,0
107674,-133.333333333333,4,1,1,70,0,0
110190,394.736842105263,4,1,1,70,1,0
110190,-133.333333333333,4,1,1,70,0,0
110979,384.615384615385,4,1,1,70,1,0
110979,-133.333333333333,4,1,1,70,0,0
111748,382.165605095541,4,1,1,70,1,0
111748,-133.333333333333,4,1,1,70,0,0
112894,389.61038961039,4,1,1,70,1,0
113283,396.039603960396,4,1,1,70,1,0
113283,-133.333333333333,4,1,1,70,0,0
113872,-129.87012987013,4,1,1,70,0,0
114070,-133.333333333333,4,1,1,70,0,0
114075,372.670807453416,4,1,1,70,1,0
114447,387.096774193548,4,1,1,70,1,0
114834,385.232744783307,4,1,1,70,1,0
115411,-133.333333333333,4,1,1,70,0,0
116374,390.370852309694,4,1,1,70,1,0
116374,-133.333333333333,4,1,1,70,0,0
117545,378.548895899054,4,1,1,70,1,0
117923,390.243902439024,4,1,1,70,1,0
117923,-133.333333333333,4,1,1,70,0,0
119093,377.358490566038,4,1,1,70,1,0
119470,405.405405405405,4,1,1,70,1,0
119875,380.952380952381,4,1,1,70,1,0
120255,-133.333333333333,4,1,1,70,0,0
121017,392.156862745098,4,1,1,70,1,0
121605,-132.450331125828,4,1,1,70,0,0
121801,387.096774193548,4,1,1,70,1,0
122575,393.44262295082,4,1,1,70,1,0
123361,372.670807453416,4,1,1,70,1,0
124106,413.793103448276,4,1,1,80,1,0
124106,-133.333333333333,4,1,1,80,0,0
124519,379.746835443038,4,1,1,80,1,0
124708,-133.333333333333,4,1,1,80,0,0
125658,408.163265306122,4,1,1,80,1,0
125672,-133.333333333333,4,1,1,80,0,0
126066,380.952380952381,4,1,1,80,1,0
126256,-131.578947368421,4,1,1,80,0,0
127208,405.405405405405,4,1,1,80,1,0
127208,-133.333333333333,4,1,1,80,0,0
127613,389.61038961039,4,1,1,80,1,0
127807,-133.333333333333,4,1,1,80,0,0
128781,392.156862745098,4,1,1,80,1,0
129565,376.175548589342,4,1,1,80,1,0
129565,-133.333333333333,4,1,1,80,0,0
130317,402.684563758389,4,1,1,70,1,0
130719,384.615384615385,4,1,1,70,1,0
130911,-133.333333333333,4,1,1,70,0,0
131872,393.44262295082,4,1,1,70,1,0
132265,384.615384615385,4,1,1,70,1,0
132457,-133.333333333333,4,1,1,70,0,0
133418,397.350993377483,4,1,1,70,1,0
133815,377.358490566038,4,1,1,70,1,0
134192,-133.333333333333,4,1,1,70,0,0
134758,394.736842105263,4,1,1,80,1,0
134763,-100,4,1,1,80,0,0
134955,394.736842105263,4,1,1,80,1,0
135152,416.666666666667,4,1,1,80,1,0
135360,384.615384615385,4,1,1,80,1,0
136129,377.358490566038,4,1,1,80,1,0
136506,394.736842105263,4,1,1,80,1,0
136900,383.386581469649,4,1,1,80,1,0
138050,392.156862745098,4,1,1,80,1,0
138834,383.386581469649,4,1,1,80,1,0
139600,385.852090032154,4,1,1,80,1,0
140757,372.670807453416,4,1,1,80,1,0
140943,-104.166666666667,4,1,1,80,0,0
141129,405.405405405405,4,1,1,80,1,0
141534,386.473429951691,4,1,1,80,1,0
142306,370.37037037037,4,1,1,80,1,0
142676,397.350993377483,4,1,1,80,1,0
143470,389.61038961039,4,1,1,80,1,0
144249,394.736842105263,4,1,1,80,1,0
145038,370.37037037037,4,1,1,80,1,0
145408,382.165605095541,4,1,1,80,1,0
145790,388.349514563107,4,1,1,80,1,0
147149,390.243902439024,4,1,1,80,1,0
147344,390.243902439024,4,1,1,80,1,0
148124,375,4,1,1,80,1,0
148874,402.684563758389,4,1,1,80,1,0
149679,382.165605095541,4,1,1,80,1,0
150443,392.156862745098,4,1,1,80,1,0
151227,377.358490566038,4,1,1,80,1,0
151981,389.61038961039,4,1,1,80,1,0
152760,384.615384615385,4,1,1,80,1,0
153336,-101.522842639594,4,1,1,80,0,0
153529,393.44262295082,4,1,1,80,1,0
154315,382.165605095541,4,1,1,80,1,0
155079,402.684563758389,4,1,1,80,1,0
155481,382.165605095541,4,1,1,80,1,0
156627,387.096774193548,4,1,1,80,1,0
158175,400,4,1,1,80,1,0
158575,383.386581469649,4,1,1,80,1,0
159341,400,4,1,1,80,1,0
159541,389.61038961039,4,1,1,80,1,0
159735,389.61038961039,4,1,1,80,1,0
160124,379.746835443038,4,1,1,80,1,0
161263,410.958904109589,4,1,1,80,1,0
161673,382.165605095541,4,1,1,80,1,0
162437,372.670807453416,4,1,1,80,1,0
162809,405.405405405405,4,1,1,80,1,0
163214,394.736842105263,4,1,1,80,1,0
163608,380.952380952381,4,1,1,80,1,0
164369,404.040404040404,4,1,1,80,1,0
164773,380.952380952381,4,1,1,80,1,0
165915,400.667779632721,4,1,1,80,1,0
166315,379.746835443038,4,1,1,80,1,0
167454,410.958904109589,4,1,1,80,1,0
167864,377.358490566038,4,1,1,80,1,0
168618,382.165605095541,4,1,1,80,1,0
169000,400,4,1,1,80,1,0
169400,389.61038961039,4,1,1,80,1,0
170568,397.350993377483,4,1,1,80,1,0
170965,376.175548589342,4,1,1,80,1,0
171341,394.736842105263,4,1,1,80,1,0
171933,384.615384615385,4,1,1,80,1,0
172125,384.615384615385,4,1,1,80,1,0
172894,382.165605095541,4,1,1,80,1,0
173658,404.040404040404,4,1,1,80,1,0
174062,387.096774193548,4,1,1,80,1,0
174836,375,4,1,1,80,1,0
175211,389.61038961039,4,1,1,80,1,0
176379,372.670807453416,4,1,1,80,1,0
176751,405.405405405405,4,1,1,80,1,0
177156,385.852090032154,4,1,1,80,1,0
178313,396.039603960396,4,1,1,80,1,0
179105,377.358490566038,4,1,1,80,1,0
179859,401.33779264214,4,1,1,80,1,0
180260,383.386581469649,4,1,1,80,1,0
181026,375,4,1,1,80,1,0
181401,392.156862745098,4,1,1,80,1,0
181793,385.852090032154,4,1,1,80,1,0
182950,390.243902439024,4,1,1,80,1,0
185291,372.670807453416,4,1,1,80,1,0
186036,389.61038961039,4,1,1,80,1,0
189932,384.615384615385,4,1,1,80,1,0
190701,392.156862745098,4,1,1,80,1,0
191681,361.44578313253,4,1,1,80,1,0
191861,400,4,1,1,80,1,0
192254,-100,4,3,0,70,0,0
192261,383.386581469649,4,3,0,70,1,0
193794,388.349514563107,4,3,0,70,1,0
194959,378.548895899054,4,3,0,70,1,0
195337,382.165605095541,4,1,1,80,1,0
195345,-100,4,1,1,80,0,0
196101,397.350993377483,4,1,1,80,1,0
196895,383.386581469649,4,1,1,80,1,0
197470,388.349514563107,4,1,1,80,1,0
197664,388.349514563107,4,1,1,80,1,0
198440,389.61038961039,4,1,1,90,1,1
198440,-80,4,1,1,90,0,1
199024,377.358490566038,4,1,1,90,1,1
199024,-80,4,1,1,90,0,1
199212,377.358490566038,4,1,1,90,1,1
199778,-80,4,1,1,90,0,1
199966,377.358490566038,4,1,1,90,1,1
199966,-80,4,1,1,90,0,1
200909,416.666666666667,4,1,1,90,1,1
200909,-80,4,1,1,90,0,1
201115,-80,4,1,1,90,0,1
201117,394.736842105263,4,1,1,90,1,1
201117,-80,4,1,1,90,0,1
201511,394.736842105263,4,1,1,90,1,1
201511,-80,4,1,1,90,0,1
202103,392.156862745098,4,1,1,90,1,1
202103,-80,4,1,1,90,0,1
202299,392.156862745098,4,1,1,90,1,1
202495,-80,4,1,1,90,0,1
203083,397.350993377483,4,1,1,90,1,1
203083,-80,4,1,1,90,0,1
203679,375,4,1,1,90,1,1
203679,-80,4,1,1,90,0,1
204054,389.61038961039,4,1,1,90,1,1
204054,-80,4,1,1,90,0,1
204248,389.61038961039,4,1,1,90,1,1
204637,387.096774193548,4,1,1,90,1,1
204637,-80,4,1,1,90,0,1
205798,377.358490566038,4,1,1,90,1,1
206175,392.156862745098,4,1,1,90,1,1
206567,-80,4,1,1,90,0,1
206763,342.857142857143,4,1,1,90,1,1
206763,-80,4,1,1,90,0,1
206934,392.156862745098,4,1,1,90,1,1
207718,389.61038961039,4,1,1,90,1,1
207718,-80,4,1,1,90,0,1
208302,333.333333333333,4,1,1,90,1,1
208302,-80,4,1,1,90,0,1
208468,408.163265306122,4,1,1,90,1,1
208876,379.746835443038,4,1,1,90,1,1
209255,397.350993377483,4,1,1,90,1,1
209255,-80,4,1,1,90,0,1
209652,387.096774193548,4,1,1,90,1,1
209652,-80,4,1,1,90,0,1
210426,404.040404040404,4,1,1,90,1,1
210830,400,4,1,1,90,1,0
211430,383.386581469649,4,1,1,90,1,0
211621,383.386581469649,4,1,1,90,1,0
212387,384.615384615385,4,1,1,90,1,0
213925,394.088669950739,4,1,1,90,1,0
215107,382.165605095541,4,1,1,90,1,0
215489,387.096774193548,4,1,1,90,1,0
216263,410.958904109589,4,1,1,90,1,0
216673,365.853658536585,4,1,1,90,1,0
217038,388.349514563107,4,1,1,90,1,0
217620,384.615384615385,4,1,1,90,1,0
217812,384.615384615385,4,1,1,90,1,0
218581,386.473429951691,4,1,1,90,1,0
219740,384.615384615385,4,1,1,90,1,0
220124,363.636363636364,4,1,1,90,1,0
220487,379.746835443038,4,1,1,90,1,0
221246,413.793103448276,4,1,1,90,1,0
221659,382.165605095541,4,1,1,90,1,0
222232,480,4,1,1,90,1,0
222472,368.098159509202,4,1,1,90,1,0
222840,379.746835443038,4,1,1,80,1,0
222840,-133.333333333333,4,1,1,80,0,0
223216,-100,4,1,1,80,0,0
223219,385.852090032154,4,1,1,80,1,0
224376,379.746835443038,4,1,1,80,1,0
224755,405.405405405405,4,1,1,80,1,0
225160,378.250591016548,4,1,1,80,1,0
226294,408.163265306122,4,1,1,80,1,0
226702,382.165605095541,4,1,1,80,1,0
227657,-101.522842639594,4,1,1,80,0,0
227848,393.44262295082,4,1,1,80,1,0
228634,387.096774193548,4,1,1,80,1,0
229408,397.350993377483,4,1,1,80,1,0
229805,379.746835443038,4,1,1,80,1,0
230944,400,4,1,1,80,1,0
231344,383.386581469649,4,1,1,80,1,0
232110,372.093023255814,4,1,1,80,1,0
232482,397.350993377483,4,1,1,80,1,0
233276,387.096774193548,4,1,1,80,1,0
233856,390.879478827362,4,1,1,80,1,0
234051,390.879478827362,4,1,1,80,1,0
234441,388.349514563107,4,1,1,80,1,0
234829,378.548895899054,4,1,1,80,1,0
235586,401.33779264214,4,1,1,80,1,0
235987,372.670807453416,4,1,1,80,1,0
236359,405.405405405405,4,1,1,80,1,0
236764,384.615384615385,4,1,1,80,1,0
237148,384.615384615385,4,1,1,80,1,0
238301,371.517027863777,4,1,1,80,1,0
238672,394.736842105263,4,1,1,80,1,0
239461,384.615384615385,4,1,1,80,1,0
240037,-100.502512562814,4,1,1,80,0,0
240230,389.61038961039,4,1,1,80,1,0
241398,379.746835443038,4,1,1,80,1,0
241777,405.405405405405,4,1,1,80,1,0
242182,382.165605095541,4,1,1,80,1,0
243328,397.350993377483,4,1,1,80,1,0
244122,377.358490566038,4,1,1,80,1,0
244876,413.793103448276,4,1,1,80,1,0
244894,-80,4,1,1,80,0,0
245082,378.548895899054,4,1,1,80,1,0
245460,394.736842105263,4,1,1,80,1,0
245460,-80,4,1,1,80,0,0
245657,377.358490566038,4,1,1,80,1,0
246034,410.958904109589,4,1,1,80,1,0
246444,392.156862745098,4,1,1,80,1,0
246836,382.165605095541,4,1,1,80,1,0
247027,-80,4,1,1,80,0,0
247218,379.746835443038,4,1,1,80,1,0
247977,392.156862745098,4,1,1,80,1,0
247990,-100,4,1,1,80,0,0
249153,377.358490566038,4,1,1,80,1,0
249530,396.694214876033,4,1,1,80,1,0
250323,380.952380952381,4,1,1,80,1,0
251084,394.736842105263,4,1,1,80,1,0
251873,368.098159509202,4,1,1,80,1,0
252425,-106.382978723404,4,1,1,80,0,0
252609,394.736842105263,4,1,1,80,1,0
253398,389.61038961039,4,1,1,80,1,0
253787,370.37037037037,4,1,1,80,1,0
254157,410.958904109589,4,1,1,80,1,0
254567,383.386581469649,4,1,1,80,1,0
255717,394.736842105263,4,1,1,80,1,0
256506,381.558028616852,4,1,1,80,1,0
257269,400,4,1,1,80,1,0
257669,352.941176470588,4,1,1,80,1,0
257845,405.405405405405,4,1,1,80,1,0
258250,370.37037037037,4,1,1,80,1,0
258620,400,4,1,1,80,1,0
258820,400,4,1,1,80,1,0
259220,384.615384615385,4,1,1,80,1,0
259989,366.97247706422,4,1,1,80,1,0
260355,413.793103448276,4,1,1,80,1,0
260768,380.952380952381,4,1,1,80,1,0
261910,408.163265306122,4,1,1,80,1,0
262318,383.386581469649,4,1,1,80,1,0
263468,393.44262295082,4,1,1,80,1,0
264254,378.548895899054,4,1,1,80,1,0
264632,375,4,1,1,80,1,0
265007,405.405405405405,4,1,1,80,1,0
265412,377.358490566038,4,1,1,80,1,0
266544,408.163265306122,4,1,1,80,1,0
266952,379.746835443038,4,1,1,80,1,0
267331,394.736842105263,4,1,1,80,1,0
267725,377.358490566038,4,1,1,80,1,0
268102,405.405405405405,4,1,1,80,1,0
268507,382.165605095541,4,1,1,80,1,0
269653,400,4,1,1,80,1,0
270453,379.746835443038,4,1,1,80,1,0
271212,394.736842105263,4,1,1,80,1,0
271606,387.096774193548,4,1,1,80,1,0
271993,377.358490566038,4,1,1,80,1,0
272747,410.958904109589,4,1,1,80,1,0
273157,386.473429951691,4,1,1,80,1,0
274316,389.61038961039,4,1,1,80,1,0
274705,377.358490566038,4,1,1,80,1,0
275837,388.349514563107,4,1,1,80,1,0
277002,382.165605095541,4,1,1,80,1,0
277384,400,4,1,1,80,1,0
278184,378.548895899054,4,1,1,80,1,0
278941,397.350993377483,4,1,1,80,1,0
279735,379.746835443038,4,1,1,80,1,0
280494,394.736842105264,4,1,1,80,1,0
281283,378.548895899054,4,1,1,80,1,0
282040,397.350993377483,4,1,1,80,1,0
282437,384.615384615385,4,1,1,80,1,0
283590,385.852090032154,4,1,1,80,1,0
284168,422.535211267606,4,1,1,80,1,0
284379,382.165605095541,4,1,1,80,1,0
285143,387.096774193548,4,1,1,80,1,0
285248,-100,4,1,0,80,0,0
286691,-100,4,1,0,70,0,0
288240,-100,4,1,0,60,0,0
289788,-100,4,1,0,30,0,0
291336,-100,4,1,0,20,0,0
292885,-100,4,1,0,10,0,0
293659,-100,4,1,0,5,0,0

[Colours]
Combo1 : 150,164,177
Combo2 : 171,140,112
Combo3 : 159,150,145
Combo4 : 116,125,134

[HitObjects]
341,255,249,5,2,0:0:0:0:
476,289,443,1,0,0:0:0:0:
399,200,638,1,2,0:0:0:0:
399,322,833,1,0,0:0:0:0:
409,346,930,1,2,0:0:0:0:
265,331,1125,1,2,0:0:0:0:
275,307,1223,1,0,0:0:0:0:
332,357,1417,1,2,0:0:0:0:
181,350,1612,1,0,0:0:0:0:
181,350,1710,1,0,0:0:0:0:
181,350,1807,6,0,L|83:359,2,90,2|0|0,0:0|0:0|0:0,0:0:0:0:
247,289,2380,1,2,0:0:0:0:
242,271,2475,1,0,0:0:0:0:
237,253,2571,1,0,0:0:0:0:
232,235,2666,1,0,0:0:0:0:
227,217,2762,1,0,0:0:0:0:
294,157,2953,1,2,0:0:0:0:
145,202,3144,5,0,0:0:0:0:
145,202,3240,1,0,0:0:0:0:
145,202,3335,2,0,L|40:177,2,90,2|0|0,0:0|0:0|0:0,0:0:0:0:
212,132,3921,1,2,0:0:0:0:
217,114,4019,1,0,0:0:0:0:
222,96,4116,1,0,0:0:0:0:
227,78,4214,1,0,0:0:0:0:
232,60,4312,1,0,0:0:0:0:
165,0,4507,1,2,0:0:0:0:
310,13,4703,1,0,0:0:0:0:
310,13,4800,1,0,0:0:0:0:
310,13,4898,5,2,0:0:0:0:
476,55,5092,1,0,0:0:0:0:
345,108,5286,1,2,0:0:0:0:
399,4,5480,1,0,0:0:0:0:
390,39,5577,1,2,0:0:0:0:
457,228,5771,1,2,0:0:0:0:
448,193,5868,1,0,3:0:0:0:
437,158,5965,1,0,3:0:0:0:
428,122,6063,1,2,3:0:0:0:
428,122,6445,6,0,L|413:234,1,90,4|0,1:0|0:0,0:0:0:0:
278,216,6834,1,2,3:0:0:0:
355,271,7029,1,0,0:0:0:0:
348,254,7126,1,2,0:0:0:0:
192,244,7321,1,0,0:0:0:0:
199,227,7419,1,2,0:0:0:0:
270,322,7613,1,0,0:0:0:0:
252,323,7708,1,0,0:0:0:0:
234,325,7804,1,0,0:0:0:0:
216,327,7899,1,0,0:0:0:0:
198,329,7995,5,0,0:0:0:0:
106,303,8188,1,0,0:0:0:0:
16,273,8382,1,2,0:0:0:0:
79,225,8575,1,0,0:0:0:0:
79,225,8672,1,2,0:0:0:0:
41,359,8865,1,0,0:0:0:0:
41,359,8962,1,2,0:0:0:0:
198,329,9156,5,0,0:0:0:0:
193,311,9253,1,0,0:0:0:0:
187,293,9349,1,0,0:0:0:0:
182,275,9446,1,0,0:0:0:0:
177,257,9543,1,0,0:0:0:0:
249,222,9737,1,0,0:0:0:0:
131,122,9932,1,2,0:0:0:0:
91,196,10127,1,0,0:0:0:0:
91,196,10224,1,2,0:0:0:0:
216,135,10419,1,0,0:0:0:0:
216,135,10517,1,2,0:0:0:0:
330,179,10711,1,0,0:0:0:0:
330,179,10805,1,2,0:0:0:0:
496,146,10995,5,0,0:0:0:0:
496,146,11090,2,0,L|477:258,1,90,2|0,0:0|0:0,0:0:0:0:
480,234,11384,1,0,0:0:0:0:
480,234,11482,1,2,0:0:0:0:
420,102,11678,2,0,L|408:43,2,45,0|0|2,0:0|0:0|0:0,0:0:0:0:
401,267,12070,1,8,1:0:0:0:
361,288,12164,1,8,1:0:0:0:
317,285,12259,1,8,1:0:0:0:
280,260,12353,1,8,1:0:0:0:
240,238,12448,1,8,1:0:0:0:
196,241,12543,1,8,1:0:0:0:
196,241,12637,6,0,L|211:338,1,90,6|0,0:0|0:0,0:0:0:0:
6,270,13012,1,8,0:0:0:0:
115,211,13210,1,0,2:0:0:0:
94,296,13409,1,0,3:0:0:0:
94,296,13508,1,8,0:0:0:0:
94,296,13608,1,0,0:0:0:0:
28,175,13806,1,8,0:0:0:0:
170,148,13991,1,0,3:0:0:0:
170,148,14083,1,8,0:0:0:0:
170,148,14176,6,0,L|261:137,1,90,2|0,0:0|0:0,0:0:0:0:
383,103,14565,1,8,0:0:0:0:
456,142,14760,1,0,2:0:0:0:
345,176,14955,1,0,3:0:0:0:
345,176,15052,1,8,0:0:0:0:
345,176,15150,1,0,0:0:0:0:
309,65,15344,1,8,0:0:0:0:
420,31,15532,1,0,3:0:0:0:
420,31,15626,1,8,0:0:0:0:
420,31,15720,6,0,L|455:226,2,180,2|10|0,0:0|0:0|3:0,0:0:0:0:
420,31,16604,1,8,0:0:0:0:
420,31,16704,1,2,0:0:0:0:
316,16,16904,1,8,0:0:0:0:
233,93,17093,1,0,3:0:0:0:
176,14,17283,5,0,0:0:0:0:
327,98,17481,1,2,0:0:0:0:
276,171,17679,1,8,0:0:0:0:
125,87,17877,1,0,3:0:0:0:
233,93,18075,1,2,3:1:0:0:
233,93,18169,1,8,0:0:0:0:
233,93,18263,1,0,0:0:0:0:
211,221,18452,1,8,0:0:0:0:
363,242,18641,1,8,0:0:0:0:
363,242,18735,1,8,0:0:0:0:
363,242,18829,6,0,L|458:232,2,90,6|0|8,0:0|0:0|0:0,0:0:0:0:
307,310,19420,1,0,2:0:0:0:
246,258,19610,1,0,3:0:0:0:
246,258,19704,1,8,0:0:0:0:
246,258,19799,1,0,0:0:0:0:
259,376,19989,1,8,0:0:0:0:
378,361,20178,1,0,3:0:0:0:
378,361,20273,1,8,0:0:0:0:
378,361,20368,6,0,B|413:336|413:336|471:350,2,90,2|0|8,0:0|0:0|0:0,0:0:0:0:
307,310,20964,1,0,2:0:0:0:
259,376,21162,1,0,3:0:0:0:
259,376,21257,1,8,0:0:0:0:
259,376,21353,1,0,0:0:0:0:
152,289,21545,1,8,0:0:0:0:
27,321,21737,1,0,3:0:0:0:
27,321,21832,1,8,0:0:0:0:
27,321,21928,5,2,0:0:0:0:
73,257,22124,1,0,0:0:0:0:
234,283,22320,2,0,P|224:217|215:138,1,135,10|0,0:0|3:0,0:0:0:0:
184,147,22712,1,0,3:0:0:0:
161,169,22806,1,8,0:0:0:0:
140,192,22900,1,2,0:0:0:0:
346,192,23089,1,8,0:0:0:0:
290,135,23278,1,0,2:0:0:0:
470,118,23467,5,0,0:0:0:0:
461,205,23669,1,2,0:0:0:0:
441,134,23872,1,8,0:0:0:0:
356,39,24061,1,0,3:0:0:0:
333,43,24156,1,8,0:0:0:0:
311,47,24251,1,2,1:0:0:0:
288,51,24346,1,8,0:0:0:0:
265,55,24441,1,0,0:0:0:0:
88,141,24631,1,8,0:0:0:0:
118,135,24724,1,8,0:0:0:0:
151,129,24818,1,8,0:0:0:0:
183,124,24912,1,8,0:0:0:0:
183,124,25006,6,0,P|94:112|55:214,1,180,6|8,0:0|0:0,0:0:0:0:
105,232,25612,1,0,2:0:0:0:
270,262,25814,1,0,3:0:0:0:
270,262,25908,1,8,0:0:0:0:
270,262,26003,1,0,0:0:0:0:
185,284,26192,1,8,0:0:0:0:
254,165,26381,1,0,2:0:0:0:
185,284,26571,6,0,B|282:251|263:329|363:307,1,180,2|8,0:0|0:0,0:0:0:0:
381,234,27167,1,0,2:0:0:0:
508,318,27365,1,0,3:0:0:0:
508,318,27459,1,8,0:0:0:0:
508,318,27553,1,0,0:0:0:0:
472,234,27742,1,8,0:0:0:0:
443,366,27931,1,0,2:0:0:0:
472,234,28119,6,0,P|466:165|368:130,1,180,2|8,0:0|0:0,0:0:0:0:
302,158,28709,1,0,2:0:0:0:
204,79,28905,1,0,3:0:0:0:
204,79,28999,1,8,0:0:0:0:
204,79,29093,1,0,0:0:0:0:
295,66,29282,1,8,0:0:0:0:
166,156,29471,1,0,2:0:0:0:
109,48,29659,6,0,L|127:231,2,180,2|8|0,0:0|0:0|3:0,0:0:0:0:
109,48,30552,1,8,0:0:0:0:
109,48,30645,1,0,0:0:0:0:
28,96,30831,1,8,0:0:0:0:
260,4,31021,1,8,0:0:0:0:
260,4,31116,1,8,0:0:0:0:
260,4,31211,6,0,L|242:183,1,180,6|8,0:0|0:0,0:0:0:0:
300,236,31805,1,0,2:0:0:0:
464,216,31998,1,0,3:0:0:0:
464,216,32094,1,8,0:0:0:0:
464,216,32190,1,0,0:0:0:0:
369,181,32383,1,8,0:0:0:0:
484,297,32575,1,0,2:0:0:0:
512,160,32768,6,0,P|450:162|388:283,1,180,2|8,0:0|0:0,0:0:0:0:
336,326,33358,2,0,L|232:342,1,90,0|0,2:0|3:0,0:0:0:0:
247,339,33646,1,8,0:0:0:0:
247,339,33738,1,2,0:0:0:0:
125,250,33923,1,8,0:0:0:0:
213,236,34107,1,0,2:0:0:0:
115,365,34292,5,2,0:0:0:0:
42,312,34493,1,0,0:0:0:0:
178,306,34694,2,0,L|191:108,1,180,8|0,0:0|3:0,0:0:0:0:
189,126,35190,1,8,0:0:0:0:
189,126,35285,1,0,0:0:0:0:
61,158,35474,1,8,0:0:0:0:
435,190,35758,5,0,2:0:0:0:
435,190,35853,2,0,B|446:143|446:143|424:99,1,90,2|0,0:0|0:0,0:0:0:0:
510,217,36250,1,12,0:0:0:0:
347,227,36441,1,0,0:0:0:0:
347,227,36536,1,8,0:0:0:0:
452,288,36727,1,8,0:0:0:0:
452,288,36823,1,4,3:0:0:0:
279,312,37014,1,8,3:0:0:0:
248,306,37109,1,8,3:0:0:0:
216,300,37205,1,4,3:0:0:0:
184,294,37300,1,4,3:0:0:0:
167,310,37396,6,0,P|161:243|150:157,1,135.000005149842,4|8,0:1|0:0,0:0:0:0:
210,128,37995,2,0,P|249:127|288:122,1,67.5000025749208,2|8,0:0|0:0,0:0:0:0:
386,186,38385,2,0,P|347:187|308:192,1,67.5000025749208,2|8,0:0|0:0,0:0:0:0:
347,112,38775,1,0,0:0:0:0:
414,261,38970,6,0,P|480:254|510:174,2,135.000005149842,10|8|8,0:0|0:0|0:0,0:0:0:0:
269,319,39948,1,2,0:0:0:0:
334,359,40138,1,8,0:0:0:0:
341,278,40329,5,4,3:0:0:0:
188,341,40519,2,0,L|200:185,1,135.000005149842,10|8,0:0|0:0,0:0:0:0:
250,151,41102,2,0,L|241:64,1,67.5000025749208,2|8,0:0|0:0,0:0:0:0:
101,88,41491,2,0,L|92:1,1,67.5000025749208,2|8,0:0|0:0,0:0:0:0:
178,23,41880,1,0,0:0:0:0:
136,171,42074,6,0,B|52:146|71:206|-12:181,1,135.000005149842,4|8,3:0|0:0,0:0:0:0:
98,287,42658,1,4,3:0:0:0:
98,287,43047,2,0,L|180:275,1,67.5000025749208,4|8,3:0|0:0,0:0:0:0:
364,239,43436,1,4,3:0:0:0:
364,239,43533,1,0,3:0:0:0:
364,239,43630,6,0,P|343:192|245:176,1,135.000005149842,10|8,0:0|0:0,0:0:0:0:
237,253,44212,2,0,L|252:329,1,67.5000025749208,2|8,0:0|0:0,0:0:0:0:
338,380,44600,2,0,L|353:304,1,67.5000025749208,2|8,0:0|0:0,0:0:0:0:
444,299,44989,5,2,0:0:0:0:
508,331,45183,2,0,L|371:351,2,135.000005149842,8|8|8,0:0|0:0|0:0,0:0:0:0:
509,253,46132,1,2,0:0:0:0:
456,196,46325,1,8,0:0:0:0:
340,229,46518,5,4,3:0:0:0:
340,229,46711,2,0,B|280:199|280:199|217:224,1,135.000005149842,10|8,0:0|0:0,0:0:0:0:
139,208,47289,2,0,L|126:118,1,67.5000025749208,4|8,3:0|0:0,0:0:0:0:
48,275,47682,2,0,L|61:185,1,67.5000025749208,2|8,0:0|0:0,0:0:0:0:
139,331,48074,1,4,3:0:0:0:
139,331,48173,1,0,3:0:0:0:
139,331,48271,5,10,0:0:0:0:
213,301,48456,1,0,0:0:0:0:
277,349,48641,1,10,0:0:0:0:
203,379,48834,1,0,1:0:0:0:
344,270,49028,5,10,0:0:0:0:
451,363,49221,1,2,1:0:0:0:
419,224,49415,1,8,1:0:0:0:
363,354,49608,1,4,3:0:0:0:
363,354,49705,1,0,3:0:0:0:
363,354,49802,5,4,0:0:0:0:
485,282,49994,1,0,0:0:0:0:
344,270,50187,2,0,P|309:224|328:143,1,135.000005149842,8|0,1:0|3:0,0:0:0:0:
391,115,50766,1,2,0:0:0:0:
488,194,50959,1,8,0:0:0:0:
419,224,51152,1,0,0:0:0:0:
403,18,51345,5,0,0:0:0:0:
472,54,51538,1,0,0:0:0:0:
403,18,51731,1,8,0:0:0:0:
331,59,51924,2,0,L|246:68,1,67.5000025749208,2|0,0:0|0:0,0:0:0:0:
119,35,52310,2,0,L|204:26,1,67.5000025749208,2|8,0:1|0:0,0:0:0:0:
214,190,52695,1,0,3:0:0:0:
214,190,52792,1,0,3:0:0:0:
214,190,52888,5,2,0:0:0:0:
180,106,53082,1,0,0:0:0:0:
303,172,53276,1,8,0:0:0:0:
133,217,53470,2,0,P|75:212|19:274,1,135.000005149842,2|0,0:0|0:0,0:0:0:0:
74,319,54053,1,8,0:0:0:0:
216,284,54247,1,0,3:0:0:0:
216,284,54344,1,0,3:0:0:0:
216,284,54441,5,2,0:0:0:0:
346,327,54635,1,0,0:0:0:0:
212,370,54829,1,10,0:0:0:0:
293,256,55023,1,0,3:0:0:0:
306,236,55121,1,0,3:0:0:0:
320,217,55218,1,0,0:0:0:0:
250,163,55407,1,2,0:0:0:0:
402,228,55597,2,0,L|484:216,1,67.5000025749208,8|0,0:0|3:0,0:0:0:0:
468,218,55882,1,0,3:0:0:0:
468,218,55977,5,2,0:0:0:0:
479,301,56172,1,0,0:0:0:0:
507,137,56368,2,0,P|444:122|412:34,1,135.000005149842,8|0,0:0|0:0,0:0:0:0:
263,90,56955,2,0,L|275:180,1,67.5000025749208,2|8,0:0|0:0,0:0:0:0:
344,112,57347,1,0,0:0:0:0:
169,113,57543,5,2,0:0:0:0:
93,86,57734,1,0,0:0:0:0:
25,40,57925,1,8,0:0:0:0:
25,40,58215,1,0,3:0:0:0:
25,40,58312,2,0,L|40:125,1,67.5000025749208,2|2,3:0|0:0,0:0:0:0:
6,184,58699,1,8,0:0:0:0:
127,220,58892,1,0,3:0:0:0:
127,220,58989,1,0,3:0:0:0:
127,220,59086,5,2,0:0:0:0:
268,182,59285,1,0,0:0:0:0:
195,144,59484,1,8,0:0:0:0:
184,279,59672,2,0,B|256:263|243:303|323:298,1,135.000005149842,2|0,0:0|0:0,0:0:0:0:
458,242,60238,1,8,0:0:0:0:
408,364,60427,1,0,3:0:0:0:
408,364,60521,1,0,3:0:0:0:
408,364,60616,6,0,L|398:275,1,67.5000025749208,0|0,0:0|0:0,0:0:0:0:
351,140,61010,2,0,L|341:229,1,67.5000025749208,10|0,0:0|0:0,0:0:0:0:
224,252,61404,1,0,0:0:0:0:
232,175,61593,1,2,0:0:0:0:
442,194,61783,1,8,0:0:0:0:
437,163,61878,1,8,0:0:0:0:
432,133,61973,1,8,0:0:0:0:
427,102,62068,1,8,0:0:0:0:
417,72,62163,5,6,0:0:0:0:
502,70,62367,1,0,0:0:0:0:
359,0,62572,1,8,0:0:0:0:
306,52,62768,2,0,L|159:68,1,135.000005149842
30,41,63358,1,8,0:0:0:0:
108,13,63546,1,0,3:0:0:0:
108,13,63641,1,0,3:0:0:0:
108,13,63735,6,0,L|97:101,1,67.5000025749208,2|0,0:0|0:0,0:0:0:0:
19,144,64135,1,8,0:0:0:0:
136,150,64327,2,0,P|163:157|232:250,1,135.000005149842
137,331,64904,1,8,0:0:0:0:
66,284,65096,1,0,3:0:0:0:
66,284,65192,1,0,3:0:0:0:
66,284,65288,6,0,L|74:217,1,67.5000025749208,2|0,0:0|0:0,0:0:0:0:
147,237,65692,1,8,0:0:0:0:
234,332,65882,2,0,B|313:316|293:356|383:343,1,135.000005149842,2|0,0:0|0:0,0:0:0:0:
436,294,66453,2,0,P|440:255|420:220,1,67.5000025749208,8|0,0:0|0:0,0:0:0:0:
247,97,66834,5,2,0:0:0:0:
242,237,67027,1,0,0:0:0:0:
366,170,67221,1,8,0:0:0:0:
204,165,67414,5,2,0:0:0:0:
323,239,67608,1,0,0:0:0:0:
328,100,67801,1,0,3:0:0:0:
328,100,67898,1,0,3:0:0:0:
328,100,67995,1,10,0:0:0:0:
285,165,68188,1,0,0:0:0:0:
452,161,68382,6,0,L|445:90,1,67.5000025749208,2|0,0:0|0:0,0:0:0:0:
511,56,68774,1,8,0:0:0:0:
385,48,68967,2,0,P|338:50|268:-20,1,135.000005149842,2|0,0:0|0:0,0:0:0:0:
160,99,69548,1,8,0:0:0:0:
236,88,69741,1,0,0:0:0:0:
74,66,69935,6,0,L|88:154,1,67.5000025749208,2|0,0:0|0:0,0:0:0:0:
12,164,70324,1,8,0:0:0:0:
149,254,70519,2,0,L|163:166,1,67.5000025749208,2|0,0:0|0:0,0:0:0:0:
236,151,70902,1,0,0:0:0:0:
357,194,71091,1,10,0:0:0:0:
357,194,71280,1,0,0:0:0:0:
259,247,71468,5,2,0:0:0:0:
403,282,71670,1,0,0:0:0:0:
445,140,71873,1,10,0:0:0:0:
301,105,72062,1,0,0:0:0:0:
324,297,72251,5,8,0:0:0:0:
451,220,72448,1,2,0:0:0:0:
380,90,72645,1,8,0:0:0:0:
253,167,72843,2,0,P|184:156|149:49,1,180,6|0,0:0|0:0,0:0:0:0:
273,14,73416,1,10,0:0:0:0:
273,14,73607,1,0,0:0:0:0:
449,50,73798,1,10,0:0:0:0:
475,47,73890,1,8,0:0:0:0:
375,16,74074,1,8,0:0:0:0:
349,19,74166,1,10,0:0:0:0:
377,184,74360,1,8,0:0:0:0:
377,184,74457,1,8,0:0:0:0:
377,184,74554,6,0,L|473:169,1,90,6|0,0:0|0:0,0:0:0:0:
413,294,74969,1,10,0:0:0:0:
324,280,75145,1,0,0:0:0:0:
498,251,75321,1,0,0:0:0:0:
504,277,75421,1,8,0:0:0:0:
509,303,75522,1,0,0:0:0:0:
384,380,75723,1,10,0:0:0:0:
259,330,75911,1,0,0:0:0:0:
259,330,76006,1,0,0:0:0:0:
259,330,76100,6,0,L|265:235,1,90,2|0,0:0|0:0,0:0:0:0:
368,209,76508,1,8,0:0:0:0:
308,155,76700,1,0,0:0:0:0:
197,159,76893,1,2,0:0:0:0:
178,177,76990,1,8,0:0:0:0:
159,196,77086,1,0,0:0:0:0:
107,134,77279,1,10,0:0:0:0:
61,288,77472,1,0,0:0:0:0:
61,288,77569,1,8,0:0:0:0:
61,288,77665,6,0,L|162:282,1,90,2|0,0:0|0:0,0:0:0:0:
320,349,78054,1,10,0:0:0:0:
291,266,78249,1,0,0:0:0:0:
414,214,78444,1,0,0:0:0:0:
405,239,78538,1,8,0:0:0:0:
395,263,78633,1,0,0:0:0:0:
506,279,78822,5,8,0:0:0:0:
327,183,79011,2,0,P|399:171|455:73,1,180,2|2,0:0|0:0,0:0:0:0:
288,0,79598,1,8,0:0:0:0:
279,111,79797,1,0,0:0:0:0:
171,66,79995,1,2,0:0:0:0:
198,61,80088,1,8,0:0:0:0:
225,56,80182,1,0,0:0:0:0:
362,83,80370,1,10,0:0:0:0:
230,190,80557,1,8,0:0:0:0:
230,190,80651,1,8,0:0:0:0:
230,190,80745,6,0,L|141:173,1,90,6|0,0:0|0:0,0:0:0:0:
12,116,81151,1,10,0:0:0:0:
101,100,81343,1,0,0:0:0:0:
70,214,81535,1,0,0:0:0:0:
64,240,81631,1,8,0:0:0:0:
59,266,81727,1,0,0:0:0:0:
0,310,81920,1,8,0:0:0:0:
130,377,82112,1,0,0:0:0:0:
130,377,82208,1,8,0:0:0:0:
130,377,82304,6,0,L|232:361,1,90,2|0,0:0|0:0,0:0:0:0:
340,260,82694,1,10,0:0:0:0:
305,377,82890,1,0,0:0:0:0:
243,269,83085,1,0,0:0:0:0:
236,243,83181,1,8,0:0:0:0:
227,218,83277,1,0,0:0:0:0:
365,156,83469,1,10,0:0:0:0:
512,225,83661,1,0,0:0:0:0:
512,225,83758,1,8,0:0:0:0:
512,225,83854,6,0,L|422:218,1,90,6|0,0:0|0:0,0:0:0:0:
286,141,84242,1,8,0:0:0:0:
441,112,84436,1,0,0:0:0:0:
352,23,84630,1,0,0:0:0:0:
354,48,84727,1,8,0:0:0:0:
357,75,84824,1,0,0:0:0:0:
511,38,85019,1,8,0:0:0:0:
2,46,85213,1,14,0:0:0:0:
2,46,85504,5,8,0:0:0:0:
2,46,85601,1,0,0:0:0:0:
99,32,85796,1,8,0:0:0:0:
195,17,85991,1,0,0:0:0:0:
301,148,86186,1,4,3:0:0:0:
265,143,86281,1,8,0:0:0:0:
229,139,86377,1,8,0:0:0:0:
193,135,86472,1,8,0:0:0:0:
157,129,86568,1,8,0:0:0:0:
42,212,86759,1,4,3:0:0:0:
42,212,86854,1,8,0:0:0:0:
42,212,86950,5,6,0:0:0:0:
157,129,87154,1,0,0:0:0:0:
273,236,87359,2,0,P|343:229|388:117,1,180,10|0,0:0|0:0,0:0:0:0:
392,139,87841,1,8,0:0:0:0:
392,139,87937,1,0,0:0:0:0:
512,207,88130,1,10,0:0:0:0:
450,339,88317,1,0,0:0:0:0:
450,339,88411,1,8,0:0:0:0:
450,339,88505,6,0,L|437:245,1,90,2|0,0:0|0:0,0:0:0:0:
273,236,88897,1,8,0:0:0:0:
286,325,89093,1,0,0:0:0:0:
138,290,89289,1,2,0:0:0:0:
173,287,89381,1,8,0:0:0:0:
208,282,89473,1,0,0:0:0:0:
350,267,89657,1,10,0:0:0:0:
284,149,89841,1,0,0:0:0:0:
284,149,89933,1,8,0:0:0:0:
284,149,90025,6,0,L|169:161,1,90,2|0,0:0|0:0,0:0:0:0:
101,115,90419,1,10,0:0:0:0:
110,25,90617,1,0,0:0:0:0:
14,97,90814,1,0,0:0:0:0:
19,132,90908,1,8,0:0:0:0:
26,167,91002,1,0,0:0:0:0:
178,89,91191,5,8,0:0:0:0:
78,232,91387,2,0,B|187:202|157:282|267:258,1,180,2|2,0:0|0:0,0:0:0:0:
306,205,91975,1,8,0:0:0:0:
381,241,92171,1,0,0:0:0:0:
388,275,92269,1,8,0:0:0:0:
303,338,92465,1,8,0:0:0:0:
310,304,92563,1,0,0:0:0:0:
464,332,92759,1,10,0:0:0:0:
479,197,92947,1,0,0:0:0:0:
479,197,93042,1,0,0:0:0:0:
479,197,93136,6,0,L|471:103,1,90,6|0,0:0|0:0,0:0:0:0:
327,74,93541,1,10,0:0:0:0:
382,133,93744,1,0,0:0:0:0:
253,154,93946,1,0,0:0:0:0:
217,151,94039,1,8,0:0:0:0:
181,146,94132,1,0,0:0:0:0:
140,79,94318,1,8,0:0:0:0:
109,237,94505,1,0,0:0:0:0:
109,237,94598,1,8,0:0:0:0:
109,237,94691,6,0,L|199:230,1,90,2|0,0:0|0:0,0:0:0:0:
307,332,95078,1,10,0:0:0:0:
217,338,95272,1,0,0:0:0:0:
393,250,95466,1,0,0:0:0:0:
390,285,95563,1,8,0:0:0:0:
403,318,95659,1,0,0:0:0:0:
480,302,95853,1,10,0:0:0:0:
495,208,96042,5,0,0:0:0:0:
493,194,96137,1,8,0:0:0:0:
485,182,96232,2,0,L|407:192,1,45,6|0,0:0|0:0,0:0:0:0:
320,175,96424,1,8,0:0:0:0:
311,164,96520,1,8,0:0:0:0:
310,150,96616,1,8,0:0:0:0:
315,137,96712,1,8,0:0:0:0:
327,131,96808,2,0,L|371:136,1,45,6|0,0:0|0:0,0:0:0:0:
477,92,97022,1,8,0:0:0:0:
478,58,97115,1,8,0:0:0:0:
463,29,97209,1,8,0:0:0:0:
434,12,97302,1,8,0:0:0:0:
401,12,97396,1,4,0:0:0:0:
245,15,97593,5,10,0:0:0:0:
250,50,97691,1,8,0:0:0:0:
258,84,97790,1,0,0:0:0:0:
194,188,97987,1,8,0:0:0:0:
159,183,98085,1,8,0:0:0:0:
125,175,98184,1,8,0:0:0:0:
89,171,98282,1,8,0:0:0:0:
53,163,98381,1,6,0:0:0:0:
260,233,98578,1,8,0:0:0:0:
295,228,98673,1,8,0:0:0:0:
329,220,98769,1,8,0:0:0:0:
365,216,98864,1,8,0:0:0:0:
401,208,98960,1,4,3:0:0:0:
407,219,99055,1,4,3:0:0:0:
413,230,99151,1,4,3:0:0:0:
419,241,99246,1,4,3:0:0:0:
424,249,99342,6,0,L|520:230,2,67.5000025749208,4|0|8,0:0|0:0|0:0,0:0:0:0:
340,336,99926,2,0,L|190:302,1,135.000005149842,2|0,0:0|0:0,0:0:0:0:
120,288,100510,1,8,0:0:0:0:
103,364,100705,1,0,0:0:0:0:
31,290,100900,6,0,L|8:206,1,67.5000025749208,2|0,0:0|0:0,0:0:0:0:
52,159,101286,1,8,0:0:0:0:
169,206,101479,2,0,P|224:199|264:129,1,135.000005149842,2|0,0:0|0:0,0:0:0:0:
226,72,102059,1,8,0:0:0:0:
350,110,102252,1,0,3:0:0:0:
350,110,102349,1,0,3:0:0:0:
350,110,102445,6,0,B|413:82|413:82|481:112,1,135.000005149842,2|8,0:0|0:0,0:0:0:0:
505,195,103033,2,0,L|423:201,1,67.5000025749208,2|0,0:0|0:0,0:0:0:0:
342,216,103420,1,0,0:0:0:0:
374,287,103611,1,8,0:0:0:0:
206,287,103802,1,0,3:0:0:0:
206,287,103897,1,0,3:0:0:0:
206,287,103993,5,2,0:0:0:0:
286,304,104190,1,0,0:0:0:0:
170,357,104387,1,10,0:0:0:0:
39,258,104585,1,0,0:0:0:0:
116,237,104782,1,0,3:0:0:0:
39,234,104971,1,2,0:0:0:0:
116,255,105160,1,8,0:0:0:0:
218,178,105349,1,0,3:0:0:0:
218,178,105444,1,0,3:0:0:0:
218,178,105539,6,0,L|205:92,2,67.5000025749208,2|0|8,0:0|0:0|0:0,0:0:0:0:
309,204,106129,2,0,B|389:182|365:228|462:210,1,135.000005149842,2|0,0:0|0:0,0:0:0:0:
512,178,106708,1,8,0:0:0:0:
512,252,106901,1,0,0:0:0:0:
421,115,107094,5,2,0:0:0:0:
492,65,107287,1,0,0:0:0:0:
421,115,107481,1,8,0:0:0:0:
325,74,107674,2,0,L|169:91,1,135.000005149842,2|0,0:0|0:0,0:0:0:0:
41,88,108255,1,8,0:0:0:0:
120,136,108448,1,0,3:0:0:0:
120,136,108545,1,0,3:0:0:0:
120,136,108642,6,0,P|132:162|122:217,1,67.5000025749208,2|0,0:0|0:0,0:0:0:0:
62,234,109029,1,8,0:0:0:0:
206,288,109223,2,0,P|215:261|315:224,1,135.000005149842,2|0,0:0|0:0,0:0:0:0:
435,229,109803,1,8,0:0:0:0:
371,336,109997,1,0,3:0:0:0:
371,336,110094,1,0,3:0:0:0:
371,336,110190,6,0,L|358:249,1,67.5000025749208,2|0,0:0|0:0,0:0:0:0:
502,303,110584,2,0,L|515:216,1,67.5000025749208,10|0,0:0|0:0,0:0:0:0:
368,165,110979,1,0,0:0:0:0:
351,161,111075,1,8,0:0:0:0:
334,157,111171,1,2,0:0:0:0:
441,144,111363,1,8,0:0:0:0:
246,195,111555,1,8,0:0:0:0:
246,195,111652,1,8,0:0:0:0:
246,195,111748,6,0,L|252:106,1,67.5000025749208,6|0,0:0|0:0,0:0:0:0:
191,78,112130,1,8,0:0:0:0:
20,139,112321,2,0,P|113:149|143:193,1,135.000005149842,2|0,0:0|0:0,0:0:0:0:
95,296,112894,1,8,0:0:0:0:
23,265,113088,1,0,0:0:0:0:
175,244,113283,6,0,L|188:322,1,67.5000025749208,2|0,0:0|0:0,0:0:0:0:
141,370,113679,1,8,0:0:0:0:
273,330,113877,2,0,B|357:316|335:367|421:354,1,135.000005149842,2|0,0:0|0:0,0:0:0:0:
478,304,114447,1,8,0:0:0:0:
414,192,114640,1,0,3:0:0:0:
414,192,114737,1,0,3:0:0:0:
414,192,114834,5,2,0:0:0:0:
492,218,115026,1,0,0:0:0:0:
377,267,115219,1,8,0:0:0:0:
330,152,115411,2,0,L|344:7,1,135.000005149842,2|0,0:0|0:0,0:0:0:0:
418,58,115989,1,8,0:0:0:0:
250,24,116182,1,0,3:0:0:0:
250,24,116278,1,0,3:0:0:0:
250,24,116374,6,0,P|208:28|173:55,1,67.5000025749208,2|0,0:0|0:0,0:0:0:0:
51,84,116764,2,0,P|93:88|128:115,1,67.5000025749208,10|0,0:0|0:0,0:0:0:0:
167,185,117154,1,0,3:0:0:0:
305,163,117349,1,2,0:0:0:0:
239,118,117545,1,8,0:0:0:0:
231,253,117734,1,0,1:0:0:0:
231,253,117828,1,0,3:0:0:0:
231,253,117923,6,0,L|242:324,1,67.5000025749208,2|0,0:0|0:0,0:0:0:0:
172,353,118313,1,8,0:0:0:0:
319,370,118508,2,0,P|355:329|453:319,1,135.000005149842,2|0,0:0|0:0,0:0:0:0:
512,291,119093,1,8,0:0:0:0:
500,367,119281,1,0,0:0:0:0:
409,225,119470,5,2,0:0:0:0:
418,144,119672,1,0,0:0:0:0:
432,64,119875,1,8,0:0:0:0:
432,64,120160,1,0,3:0:0:0:
432,64,120255,2,0,L|345:74,1,67.5000025749208,2|2,3:0|0:0,0:0:0:0:
264,88,120636,1,8,0:0:0:0:
265,10,120827,1,0,0:0:0:0:
51,113,121017,5,2,0:0:0:0:
187,140,121213,1,0,0:0:0:0:
143,77,121409,1,8,0:0:0:0:
81,185,121605,2,0,L|99:341,1,135.000005149842,2|0,0:0|0:0,0:0:0:0:
240,357,122188,1,8,0:0:0:0:
229,274,122381,1,0,0:0:0:0:
393,252,122575,5,10,0:0:0:0:
379,341,122771,1,0,0:0:0:0:
317,281,122968,1,10,0:0:0:0:
456,306,123165,1,0,0:0:0:0:
507,221,123361,1,4,3:0:0:0:
500,191,123454,1,8,0:0:0:0:
491,161,123547,1,8,0:0:0:0:
482,131,123640,1,8,0:0:0:0:
471,102,123733,1,8,0:0:0:0:
339,149,123920,1,8,0:0:0:0:
339,149,124013,1,8,0:0:0:0:
339,149,124106,6,0,L|255:159,1,67.5000025749208,6|0,0:0|0:0,0:0:0:0:
212,209,124519,1,8,0:0:0:0:
66,137,124708,2,0,B|132:162|132:162|198:118,1,135.000005149842,2|0,0:0|0:0,0:0:0:0:
228,10,125278,1,8,0:0:0:0:
267,71,125468,1,0,0:0:0:0:
424,95,125658,5,2,0:0:0:0:
485,56,125862,1,0,0:0:0:0:
388,15,126066,1,8,0:0:0:0:
341,107,126256,2,0,L|359:265,1,136.799998330078,2|0,0:0|0:0,0:0:0:0:
431,268,126827,1,8,0:0:0:0:
311,322,127018,1,0,3:0:0:0:
311,322,127113,1,0,3:0:0:0:
311,322,127208,6,0,P|271:322|236:300,1,67.5000025749208,2|0,0:0|0:0,0:0:0:0:
217,235,127613,1,8,0:0:0:0:
95,271,127807,2,0,P|55:271|0:353,1,135.000005149842,2|0,0:0|0:0,0:0:0:0:
169,375,128392,2,0,L|162:290,1,67.5000025749208,10|0,0:0|0:0,0:0:0:0:
146,139,128781,5,2,0:0:0:0:
264,106,128977,1,0,0:0:0:0:
287,229,129173,1,8,0:0:0:0:
225,179,129369,1,2,0:0:0:0:
343,146,129565,1,0,0:0:0:0:
366,269,129753,1,0,1:0:0:0:
366,269,129847,1,0,3:0:0:0:
366,269,129941,2,0,L|459:256,1,67.5000025749208,10|0,0:0|0:0,0:0:0:0:
512,96,130317,5,2,0:0:0:0:
447,137,130518,1,0,0:0:0:0:
343,40,130719,1,8,0:0:0:0:
278,81,130911,2,0,L|131:95,1,135.000005149842,2|0,0:0|0:0,0:0:0:0:
37,13,131488,1,8,0:0:0:0:
116,22,131680,1,0,0:0:0:0:
110,189,131872,5,2,0:0:0:0:
64,127,132068,1,0,0:0:0:0:
186,171,132265,1,8,0:0:0:0:
38,222,132457,2,0,L|59:377,1,135.000005149842,2|0,0:0|0:0,0:0:0:0:
135,377,133034,1,10,0:0:0:0:
263,326,133226,1,0,3:0:0:0:
263,326,133322,1,0,3:0:0:0:
263,326,133418,5,2,0:0:0:0:
141,271,133616,1,0,0:0:0:0:
280,214,133815,1,10,0:0:0:0:
417,273,134003,1,0,0:0:0:0:
350,367,134192,2,0,L|336:279,1,67.5000025749208,0|8,0:0|0:0,0:0:0:0:
339,300,134475,1,8,0:0:0:0:
339,300,134569,1,8,0:0:0:0:
392,162,134758,6,0,B|284:135|314:217|202:197,1,180,6|0,0:0|0:0,0:0:0:0:
31,126,135360,1,8,0:0:0:0:
58,146,135456,1,0,3:0:0:0:
91,148,135552,1,8,3:0:0:0:
121,132,135648,1,8,3:0:0:0:
138,104,135744,1,4,3:0:0:0:
156,76,135840,1,8,3:0:0:0:
185,61,135936,1,8,1:0:0:0:
219,63,136033,1,8,1:0:0:0:
246,82,136129,1,8,1:0:0:0:
362,114,136317,5,8,0:0:0:0:
401,106,136412,1,8,0:0:0:0:
441,99,136506,1,6,0:0:0:0:
502,52,136703,1,0,0:0:0:0:
337,28,136900,2,0,L|328:226,1,180,10|0,0:0|0:0,0:0:0:0:
328,207,137379,1,8,0:0:0:0:
328,207,137475,1,0,0:0:0:0:
481,280,137666,5,10,0:0:0:0:
425,220,137858,1,0,0:0:0:0:
359,377,138050,1,2,0:0:0:0:
438,358,138246,1,0,0:0:0:0:
271,286,138442,1,8,0:0:0:0:
271,286,138638,1,0,0:0:0:0:
123,311,138834,1,2,0:0:0:0:
91,317,138929,1,8,0:0:0:0:
60,326,139025,1,0,0:0:0:0:
190,372,139217,1,10,0:0:0:0:
188,232,139409,1,0,0:0:0:0:
188,232,139504,1,8,0:0:0:0:
188,232,139600,6,0,L|175:131,1,90,2|0,0:0|0:0,0:0:0:0:
229,35,139985,1,10,0:0:0:0:
313,127,140178,1,0,0:0:0:0:
433,79,140371,1,0,0:0:0:0:
428,45,140468,1,8,0:0:0:0:
424,12,140564,1,0,0:0:0:0:
347,54,140757,5,8,0:0:0:0:
512,116,140943,2,0,P|428:121|369:203,1,180,2|2,0:0|0:0,0:0:0:0:
331,300,141534,1,8,0:0:0:0:
473,259,141727,1,0,0:0:0:0:
427,368,141920,1,2,0:0:0:0:
419,337,142017,1,8,0:0:0:0:
411,306,142113,1,0,0:0:0:0:
304,225,142306,1,10,0:0:0:0:
205,310,142491,1,0,0:0:0:0:
205,310,142583,1,8,0:0:0:0:
205,310,142676,6,0,L|113:297,1,90,6|0,0:0|0:0,0:0:0:0:
116,158,143073,1,10,0:0:0:0:
175,208,143272,1,0,0:0:0:0:
32,306,143470,1,0,0:0:0:0:
35,272,143567,1,8,0:0:0:0:
41,239,143664,1,0,0:0:0:0:
0,135,143859,1,8,0:0:0:0:
186,101,144054,1,0,0:0:0:0:
186,101,144151,1,8,0:0:0:0:
186,101,144249,6,0,L|278:114,1,90,2|0,0:0|0:0,0:0:0:0:
490,111,144643,1,10,0:0:0:0:
425,44,144841,1,0,0:0:0:0:
349,148,145038,1,0,0:0:0:0:
353,178,145130,1,8,0:0:0:0:
357,209,145223,1,0,0:0:0:0:
384,328,145408,5,10,0:0:0:0:
504,305,145599,1,0,0:0:0:0:
445,259,145790,1,2,0:0:0:0:
481,377,145984,1,0,0:0:0:0:
329,249,146178,1,8,0:0:0:0:
290,366,146372,1,0,0:0:0:0:
225,191,146566,1,8,0:0:0:0:
125,264,146760,1,0,0:0:0:0:
0,209,146955,5,8,0:0:0:0:
512,173,147149,1,6,0:0:0:0:
512,173,147441,1,8,0:0:0:0:
512,173,147539,1,2,0:0:0:0:
436,191,147734,1,8,0:0:0:0:
359,208,147929,1,0,0:0:0:0:
142,180,148124,1,4,3:0:0:0:
141,146,148217,1,8,0:0:0:0:
157,117,148311,1,8,0:0:0:0:
186,100,148405,1,8,0:0:0:0:
219,100,148499,5,8,0:0:0:0:
227,148,148592,1,8,0:0:0:0:
235,196,148686,1,8,0:0:0:0:
245,244,148780,1,8,0:0:0:0:
258,291,148874,1,6,0:0:0:0:
384,309,149075,1,0,0:0:0:0:
187,350,149276,2,0,P|111:328|97:213,1,180,10|0,0:0|0:0,0:0:0:0:
85,238,149774,1,8,0:0:0:0:
85,238,149870,1,0,0:0:0:0:
248,42,150061,5,10,0:0:0:0:
262,201,150252,1,0,0:0:0:0:
116,135,150443,1,2,0:0:0:0:
192,123,150639,1,0,0:0:0:0:
139,56,150835,5,8,0:0:0:0:
172,203,151031,1,0,0:0:0:0:
308,117,151227,1,2,0:0:0:0:
338,110,151321,1,8,0:0:0:0:
368,103,151415,1,0,0:0:0:0:
463,161,151604,1,8,0:0:0:0:
452,0,151793,1,0,0:0:0:0:
452,0,151887,1,8,0:0:0:0:
452,0,151981,6,0,L|437:108,1,90,2|0,0:0|0:0,0:0:0:0:
378,208,152370,1,10,0:0:0:0:
511,232,152565,1,0,0:0:0:0:
442,324,152760,1,0,0:0:0:0:
436,293,152856,1,8,0:0:0:0:
430,261,152952,1,0,0:0:0:0:
454,179,153144,5,8,0:0:0:0:
284,265,153336,2,0,P|224:247|201:143,1,180,2|2,0:0|0:0,0:0:0:0:
335,38,153922,1,8,0:0:0:0:
357,131,154119,1,0,0:0:0:0:
465,91,154315,1,2,0:0:0:0:
435,80,154410,1,8,0:0:0:0:
405,69,154506,1,0,0:0:0:0:
276,132,154697,1,10,0:0:0:0:
136,83,154888,1,0,0:0:0:0:
160,159,155079,5,6,0:0:0:0:
233,62,155280,1,0,0:0:0:0:
78,41,155481,2,0,L|117:253,1,180,10|0,0:0|0:0,0:0:0:0:
110,218,155958,1,8,0:0:0:0:
110,218,156054,1,0,0:0:0:0:
269,285,156245,1,8,0:0:0:0:
205,231,156436,1,0,0:0:0:0:
168,306,156627,5,2,0:0:0:0:
284,209,156820,1,0,0:0:0:0:
339,343,157014,2,0,L|441:329,1,90,10|0,0:0|0:0,0:0:0:0:
478,241,157401,1,0,0:0:0:0:
454,220,157497,1,8,0:0:0:0:
422,219,157594,1,0,0:0:0:0:
357,251,157788,5,10,0:0:0:0:
502,311,157981,1,0,0:0:0:0:
478,151,158175,1,2,0:0:0:0:
333,91,158375,1,0,0:0:0:0:
225,210,158575,1,8,0:0:0:0:
312,222,158766,1,0,0:0:0:0:
306,194,158862,1,8,0:0:0:0:
301,165,158958,1,4,3:0:0:0:
47,177,159150,5,8,0:0:0:0:
45,226,159245,1,8,0:0:0:0:
43,275,159341,1,8,0:0:0:0:
45,324,159441,1,8,0:0:0:0:
45,324,159541,2,0,L|145:310,1,90,6|0,0:0|0:0,0:0:0:0:
443,350,159929,1,2,0:0:0:0:
312,372,160124,1,8,0:0:0:0:
272,245,160313,1,8,0:0:0:0:
442,43,160503,1,4,3:0:0:0:
439,78,160598,1,8,0:0:0:0:
436,113,160693,1,8,0:0:0:0:
433,148,160788,1,8,0:0:0:0:
430,184,160883,1,8,0:0:0:0:
427,219,160978,1,8,0:0:0:0:
423,254,161073,1,8,0:0:0:0:
421,290,161168,1,8,0:0:0:0:
418,325,161263,5,6,0:0:0:0:
508,254,161468,1,0,0:0:0:0:
314,300,161673,2,0,L|130:323,1,180,8|0,0:0|0:0,0:0:0:0:
135,322,162150,1,8,0:0:0:0:
135,322,162246,1,0,0:0:0:0:
25,256,162437,1,8,0:0:0:0:
185,69,162623,6,0,L|209:190,1,90,2|0,0:0|0:0,0:0:0:0:
173,224,163011,1,2,0:0:0:0:
113,174,163214,1,8,0:0:0:0:
315,105,163411,1,2,0:0:0:0:
387,152,163608,1,0,0:0:0:0:
380,182,163703,1,8,0:0:0:0:
374,213,163798,1,0,0:0:0:0:
309,266,163988,5,10,0:0:0:0:
284,197,164179,1,0,0:0:0:0:
488,262,164369,1,2,0:0:0:0:
463,331,164571,1,0,0:0:0:0:
399,287,164773,2,0,L|416:102,1,180,10|0,0:0|0:0,0:0:0:0:
416,108,165249,1,8,0:0:0:0:
416,108,165344,1,0,0:0:0:0:
512,86,165534,1,8,0:0:0:0:
373,11,165725,1,0,0:0:0:0:
247,108,165915,5,0,0:0:0:0:
179,157,166115,1,2,0:0:0:0:
109,111,166315,2,0,L|125:6,1,90,8|0,0:0|0:0,0:0:0:0:
258,189,166694,1,2,0:0:0:0:
264,219,166789,1,8,0:0:0:0:
270,249,166884,1,0,0:0:0:0:
322,326,167074,1,10,0:0:0:0:
342,199,167264,1,0,0:0:0:0:
216,314,167454,5,6,0:0:0:0:
399,264,167659,1,0,0:0:0:0:
216,314,167864,2,0,P|134:288|110:180,1,180,10|0,0:0|0:0,0:0:0:0:
103,205,168335,1,8,0:0:0:0:
103,205,168430,1,0,0:0:0:0:
29,278,168618,1,8,0:0:0:0:
56,130,168809,1,0,0:0:0:0:
56,130,168904,1,8,0:0:0:0:
56,130,169000,6,0,L|87:31,1,90,0|2,0:0|0:0,0:0:0:0:
283,104,169400,2,0,L|252:203,1,90,8|0,0:0|0:0,0:0:0:0:
459,248,169789,1,0,0:0:0:0:
449,219,169887,1,8,0:0:0:0:
440,191,169984,1,2,0:0:0:0:
512,164,170179,1,8,0:0:0:0:
410,323,170374,1,2,0:0:0:0:
266,261,170568,5,4,3:0:0:0:
343,246,170766,1,4,3:0:0:0:
261,229,170965,1,8,0:0:0:0:
133,278,171153,1,0,0:0:0:0:
133,278,171247,1,8,0:0:0:0:
133,278,171341,1,8,3:0:0:0:
239,356,171538,1,4,3:0:0:0:
166,201,171735,1,4,3:0:0:0:
0,280,171933,1,4,0:0:0:0:
0,280,172317,5,0,0:0:0:0:
12,202,172509,1,8,0:0:0:0:
37,125,172701,1,0,0:0:0:0:
261,183,172894,1,4,3:0:0:0:
305,177,172989,1,8,0:0:0:0:
349,171,173085,1,8,0:0:0:0:
393,166,173180,1,8,0:0:0:0:
437,162,173276,1,8,0:0:0:0:
419,156,173371,1,8,0:0:0:0:
402,150,173467,1,8,0:0:0:0:
384,144,173562,1,8,0:0:0:0:
366,138,173658,5,6,0:0:0:0:
512,145,173860,1,0,0:0:0:0:
418,65,174062,2,0,L|395:275,1,180,8|0,0:0|0:0,0:0:0:0:
398,243,174545,1,8,0:0:0:0:
398,243,174642,1,0,0:0:0:0:
461,361,174836,1,8,0:0:0:0:
290,349,175023,6,0,P|342:346|381:305,1,90,2|0,0:0|0:0,0:0:0:0:
316,225,175405,1,2,0:0:0:0:
131,296,175600,2,0,L|152:404,1,90,8|0,0:0|0:0,0:0:0:0:
216,288,175990,1,0,0:0:0:0:
223,254,176087,1,8,0:0:0:0:
229,220,176185,1,0,0:0:0:0:
99,115,176379,5,10,0:0:0:0:
116,193,176565,1,0,0:0:0:0:
26,160,176751,1,2,0:0:0:0:
190,99,176953,1,0,0:0:0:0:
303,167,177156,2,0,P|359:155|382:36,1,180,10|0,0:0|0:0,0:0:0:0:
389,48,177638,1,8,0:0:0:0:
389,48,177734,1,0,0:0:0:0:
487,119,177927,1,8,0:0:0:0:
417,219,178120,6,0,L|433:321,1,90,2|0,0:0|0:0,0:0:0:0:
245,266,178511,1,2,0:0:0:0:
301,384,178709,2,0,L|317:282,1,90,8|0,0:0|0:0,0:0:0:0:
85,280,179105,1,2,0:0:0:0:
53,285,179199,1,8,0:0:0:0:
21,290,179293,1,0,0:0:0:0:
168,363,179482,1,10,0:0:0:0:
113,176,179671,1,8,0:0:0:0:
118,144,179765,1,8,0:0:0:0:
123,112,179859,5,6,0:0:0:0:
37,171,180059,1,0,0:0:0:0:
197,194,180260,2,0,P|268:205|314:299,1,180,10|0,0:0|0:0,0:0:0:0:
314,294,180739,1,8,0:0:0:0:
314,294,180835,1,0,0:0:0:0:
244,329,181026,1,8,0:0:0:0:
403,374,181213,2,0,L|499:349,1,90,2|0,0:0|0:0,0:0:0:0:
377,178,181597,5,2,0:0:0:0:
305,202,181793,1,8,0:0:0:0:
466,273,181985,1,0,0:0:0:0:
473,131,182178,1,2,0:0:0:0:
465,161,182275,1,8,0:0:0:0:
457,191,182371,1,0,0:0:0:0:
358,262,182564,1,10,0:0:0:0:
229,198,182757,1,0,0:0:0:0:
103,231,182950,5,6,0:0:0:0:
103,231,183340,1,2,0:0:0:0:
134,306,183535,1,8,0:0:0:0:
352,375,183730,5,2,0:0:0:0:
321,300,183925,1,8,3:0:0:0:
0,214,184120,5,4,3:0:0:0:
31,280,184315,2,0,L|240:253,1,180,6|2,0:0|0:0,0:0:0:0:
266,169,184901,1,8,0:0:0:0:
512,197,185096,1,4,3:0:0:0:
470,180,185193,1,8,0:0:0:0:
425,183,185291,1,8,0:0:0:0:
386,203,185384,1,8,0:0:0:0:
359,239,185477,1,8,3:0:0:0:
348,282,185570,5,8,3:0:0:0:
364,290,185663,1,4,3:0:0:0:
348,299,185756,1,4,3:0:0:0:
363,306,185850,1,4,3:0:0:0:
348,315,185943,1,4,3:0:0:0:
372,337,186036,1,4,0:0:0:0:
58,187,192261,5,4,1:0:0:0:
144,166,192452,1,0,0:0:0:0:
203,227,192644,1,2,0:0:0:0:
123,257,192836,1,0,0:0:0:0:
119,239,192931,1,2,0:0:0:0:
144,166,193123,1,0,0:0:0:0:
148,148,193219,1,2,0:0:0:0:
87,70,193411,1,0,0:0:0:0:
83,88,193507,1,2,0:0:0:0:
223,95,193698,5,0,0:0:0:0:
240,92,193794,1,2,0:0:0:0:
257,90,193891,1,0,0:0:0:0:
274,88,193988,1,0,0:0:0:0:
333,42,194182,1,2,0:0:0:0:
449,105,194376,1,0,0:0:0:0:
432,103,194473,1,2,0:0:0:0:
354,153,194667,1,0,0:0:0:0:
371,151,194764,1,2,0:0:0:0:
445,187,194959,1,2,0:0:0:0:
319,236,195148,1,2,0:0:0:0:
319,236,195242,1,0,0:0:0:0:
319,236,195337,6,0,L|325:280,1,45,4|0,0:0|0:0,0:0:0:0:
394,350,195528,1,8,0:0:0:0:
432,360,195623,1,8,0:0:0:0:
469,351,195719,1,8,0:0:0:0:
497,326,195814,1,8,0:0:0:0:
510,290,195910,1,4,3:0:0:0:
325,280,196101,1,8,0:0:0:0:
293,284,196200,1,8,0:0:0:0:
261,289,196299,1,8,0:0:0:0:
229,294,196399,1,8,0:0:0:0:
198,299,196498,1,4,0:0:0:0:
75,379,196697,1,8,0:0:0:0:
107,374,196796,1,8,0:0:0:0:
138,369,196895,1,4,0:0:0:0:
84,257,197086,5,8,0:0:0:0:
91,226,197182,1,8,0:0:0:0:
96,194,197278,1,8,0:0:0:0:
101,162,197374,1,8,0:0:0:0:
108,131,197470,1,4,0:0:0:0:
303,66,197664,1,8,0:0:0:0:
345,54,197761,1,8,0:0:0:0:
388,66,197858,1,8,3:0:0:0:
417,99,197955,1,8,3:0:0:0:
425,143,198052,1,4,3:0:0:0:
408,149,198149,1,4,3:0:0:0:
391,155,198246,1,4,3:0:0:0:
374,162,198343,1,4,3:0:0:0:
327,155,198440,6,0,L|313:309,1,112.5,6|0,0:0|3:0,0:0:0:0:
385,310,198732,1,8,3:0:0:0:
385,310,198829,1,4,3:0:0:0:
265,331,199024,2,0,B|217:296|217:296|122:323,1,112.5,14|8,0:0|3:0,0:0:0:0:
130,327,199306,1,8,3:0:0:0:
90,323,199400,1,4,3:0:0:0:
63,295,199495,1,4,3:0:0:0:
62,255,199589,1,10,0:0:0:0:
138,182,199778,2,0,L|149:252,1,56.25,4|4,3:0|3:0,0:0:0:0:
225,171,199966,6,0,L|245:26,1,112.5,6|0,0:0|3:0,0:0:0:0:
181,21,200249,1,8,3:0:0:0:
181,21,200343,1,4,3:0:0:0:
336,93,200532,2,0,B|363:100|363:100|417:84|417:84|452:95,1,112.5,6|8,0:0|3:0,0:0:0:0:
474,174,200815,1,8,3:0:0:0:
474,174,200909,2,0,L|381:156,1,56.25,4|0,3:0|3:0,0:0:0:0:
352,199,201117,2,0,L|370:286,2,56.25,4|0|8,0:0|3:0|0:0,0:0:0:0:
476,335,201511,6,0,B|456:299|421:288|421:288|364:279|302:335,1,168.75,6|8,0:0|0:0,0:0:0:0:
316,350,201905,1,8,0:0:0:0:
212,307,202103,6,0,B|194:291|194:291|108:334|108:334|86:359|86:359|34:365,1,168.75,6|8,0:0|3:0,0:0:0:0:
40,297,202495,2,0,L|49:239,1,56.25,8|0,0:0|3:0,0:0:0:0:
106,196,202691,2,0,B|126:205|126:205|184:185|184:185|196:148,1,112.5,6|0,0:0|3:0,0:0:0:0:
269,196,202985,1,4,3:0:0:0:
269,196,203083,6,0,B|362:177|362:177|398:195,1,112.5,6|0,0:0|3:0,0:0:0:0:
436,240,203381,1,8,3:0:0:0:
436,240,203480,1,4,3:0:0:0:
512,133,203679,2,0,B|502:155|502:155|426:87|426:87|440:40,1,168.75,14|8,0:0|0:0,0:0:0:0:
373,8,204054,2,0,L|350:84,1,56.25,8|8,3:0|3:0,0:0:0:0:
288,101,204248,5,4,3:0:0:0:
254,99,204345,1,4,3:0:0:0:
228,76,204442,5,4,3:0:0:0:
194,74,204540,1,4,3:0:0:0:
162,62,204637,6,0,B|106:65|106:65|157:89,1,112.5,6|0,0:0|3:0,0:0:0:0:
201,155,204927,1,8,3:0:0:0:
201,155,205024,1,4,3:0:0:0:
112,194,205217,2,0,B|153:184|153:184|250:219|250:219|303:210,1,168.75,14|4,0:0|3:0,0:0:0:0:
292,190,205604,1,8,3:0:0:0:
491,237,205798,1,10,0:0:0:0:
460,214,205892,1,8,3:0:0:0:
424,209,205986,1,4,3:0:0:0:
389,222,206081,1,4,3:0:0:0:
364,249,206175,1,6,0:0:0:0:
450,374,206371,5,0,3:0:0:0:
446,357,206469,1,8,0:0:0:0:
442,340,206567,2,0,L|428:264,1,56.25,8|0,3:0|3:0,0:0:0:0:
366,346,206763,2,0,B|348:329|348:329|257:385,1,112.5,14|0,0:0|1:0,0:0:0:0:
256,373,207032,1,8,0:0:0:0:
239,369,207130,1,8,3:0:0:0:
222,365,207228,1,8,0:0:0:0:
183,374,207326,1,8,3:0:0:0:
183,334,207424,1,8,3:0:0:0:
202,299,207522,1,4,3:0:0:0:
205,259,207620,1,4,3:0:0:0:
191,222,207718,6,0,B|111:247|111:247|49:237,1,112.5,6|0,0:0|3:0,0:0:0:0:
18,216,208010,1,8,3:0:0:0:
18,216,208107,2,0,B|0:198|0:198|44:185,1,56.25,4|0,3:0|3:0,0:0:0:0:
101,158,208302,2,0,B|125:63|125:63|106:23,1,112.5,14|0,0:0|3:0,0:0:0:0:
54,14,208570,1,8,3:0:0:0:
54,14,208672,1,4,3:0:0:0:
229,37,208876,1,10,0:0:0:0:
237,63,208970,1,0,3:0:0:0:
245,89,209065,1,4,3:0:0:0:
255,115,209160,1,0,3:0:0:0:
262,142,209255,6,0,L|348:122,1,56.25,6|0,0:0|3:0,0:0:0:0:
377,170,209453,1,0,0:0:0:0:
367,196,209553,1,8,0:0:0:0:
360,223,209652,2,0,L|274:203,1,56.25,8|0,0:0|3:0,0:0:0:0:
232,270,209845,1,8,0:0:0:0:
239,297,209942,2,0,L|325:277,1,56.25,8|0,0:0|3:0,0:0:0:0:
369,347,210135,1,8,0:0:0:0:
362,374,210232,2,0,L|276:354,1,56.25,8|0,0:0|3:0,0:0:0:0:
140,344,210426,1,4,3:0:0:0:
130,338,210527,1,4,3:0:0:0:
119,332,210628,1,4,3:0:0:0:
109,325,210729,1,4,3:0:0:0:
99,319,210830,1,4,0:0:0:0:
220,210,220124,5,0,3:0:0:0:
220,210,220487,1,8,3:0:0:0:
345,173,220676,1,8,3:0:0:0:
406,290,220866,1,8,3:0:0:0:
281,327,221056,1,8,3:0:0:0:
481,361,221246,5,4,3:0:0:0:
55,256,221452,1,8,0:0:0:0:
55,256,222656,1,0,0:0:0:0:
55,256,222748,1,0,0:0:0:0:
55,256,222840,2,0,L|63:172,1,67.5000025749208,8|0,0:0|0:0,0:0:0:0:
209,75,223219,5,6,0:0:0:0:
271,121,223411,1,0,0:0:0:0:
304,41,223604,2,0,P|218:39|143:139,1,180,10|0,0:0|0:0,0:0:0:0:
152,100,224087,1,8,0:0:0:0:
152,100,224183,1,0,0:0:0:0:
166,266,224376,5,10,0:0:0:0:
233,297,224565,1,0,0:0:0:0:
362,225,224755,1,2,0:0:0:0:
295,194,224957,1,0,0:0:0:0:
348,263,225160,2,0,L|368:358,1,90,8|0,0:0|0:0,0:0:0:0:
461,240,225538,1,2,0:0:0:0:
468,204,225632,1,8,0:0:0:0:
475,169,225727,1,0,0:0:0:0:
422,45,225916,1,10,0:0:0:0:
501,84,226105,1,0,0:0:0:0:
501,84,226200,1,8,0:0:0:0:
501,84,226294,5,2,0:0:0:0:
378,132,226498,1,0,0:0:0:0:
255,90,226702,2,0,L|271:-8,1,90,10|0,0:0|0:0,0:0:0:0:
124,116,227084,1,0,0:0:0:0:
129,149,227179,1,8,0:0:0:0:
135,183,227275,1,0,0:0:0:0:
214,174,227466,1,8,0:0:0:0:
77,287,227657,6,0,B|182:243|160:337|270:328,1,180,2|2,0:0|0:0,0:0:0:0:
384,226,228241,1,8,0:0:0:0:
457,314,228438,1,0,0:0:0:0:
327,367,228634,1,0,3:0:0:0:
330,335,228730,1,8,0:0:0:0:
334,303,228827,1,4,3:0:0:0:
338,271,228924,1,4,3:0:0:0:
342,239,229021,1,8,0:0:0:0:
345,208,229117,1,8,0:0:0:0:
348,176,229214,1,8,0:0:0:0:
352,144,229311,1,8,0:0:0:0:
354,112,229408,5,6,0:0:0:0:
466,163,229606,1,0,0:0:0:0:
264,163,229805,2,0,P|197:134|200:26,1,180,10|0,0:0|0:0,0:0:0:0:
191,36,230279,1,8,0:0:0:0:
191,36,230374,1,0,0:0:0:0:
276,54,230564,1,10,0:0:0:0:
51,102,230754,1,0,0:0:0:0:
51,102,230849,1,8,0:0:0:0:
51,102,230944,5,2,0:0:0:0:
111,20,231144,1,0,0:0:0:0:
96,170,231344,2,0,L|114:274,1,90,10|0,0:0|0:0,0:0:0:0:
274,320,231727,1,0,0:0:0:0:
267,285,231823,1,8,0:0:0:0:
261,250,231919,1,0,0:0:0:0:
192,322,232110,1,10,0:0:0:0:
345,257,232296,1,0,0:0:0:0:
346,376,232482,5,2,0:0:0:0:
237,239,232680,1,0,0:0:0:0:
367,157,232879,1,10,0:0:0:0:
476,294,233078,1,0,0:0:0:0:
476,294,233177,1,8,0:0:0:0:
476,294,233276,1,8,3:0:0:0:
389,260,233469,1,4,3:0:0:0:
512,163,233663,5,8,0:0:0:0:
2,206,233856,1,6,0:0:0:0:
2,206,234148,1,8,1:0:0:0:
2,206,234246,1,2,0:0:0:0:
98,170,234441,1,8,0:0:0:0:
47,115,234635,1,0,0:0:0:0:
0,321,234829,1,8,0:0:0:0:
40,315,234923,1,8,0:0:0:0:
80,310,235018,1,0,3:0:0:0:
120,304,235112,1,8,0:0:0:0:
160,299,235207,1,8,3:0:0:0:
200,294,235302,1,8,3:0:0:0:
240,289,235396,1,4,3:0:0:0:
280,281,235491,1,4,3:0:0:0:
320,279,235586,5,6,0:0:0:0:
297,196,235786,1,0,0:0:0:0:
468,301,235987,1,10,0:0:0:0:
491,218,236173,1,0,0:0:0:0:
385,160,236359,1,0,0:0:0:0:
395,194,236460,1,8,0:0:0:0:
404,230,236561,1,0,0:0:0:0:
512,139,236764,1,10,0:0:0:0:
489,56,236956,1,0,0:0:0:0:
277,95,237148,5,2,0:0:0:0:
300,12,237340,1,0,0:0:0:0:
294,112,237532,1,10,0:0:0:0:
317,29,237724,1,0,0:0:0:0:
101,54,237917,1,2,0:0:0:0:
108,86,238013,1,8,0:0:0:0:
118,118,238109,1,0,0:0:0:0:
48,157,238301,1,8,0:0:0:0:
198,120,238486,1,0,0:0:0:0:
104,272,238672,5,2,0:0:0:0:
104,272,238869,1,0,0:0:0:0:
179,244,239066,1,10,0:0:0:0:
264,306,239264,1,0,0:0:0:0:
398,276,239461,1,0,0:0:0:0:
416,244,239557,1,8,0:0:0:0:
435,213,239653,1,0,0:0:0:0:
331,220,239845,1,8,0:0:0:0:
494,300,240037,6,0,L|462:93,1,180,2|2,0:0|0:0,0:0:0:0:
330,30,240619,1,8,0:0:0:0:
346,104,240814,1,0,0:0:0:0:
180,167,241009,1,2,0:0:0:0:
188,130,241106,1,8,0:0:0:0:
196,93,241204,1,0,0:0:0:0:
286,265,241398,1,8,0:0:0:0:
245,258,241492,1,8,0:0:0:0:
205,251,241587,1,8,0:0:0:0:
164,245,241682,1,8,0:0:0:0:
123,239,241777,5,6,0:0:0:0:
31,279,241979,1,0,0:0:0:0:
137,151,242182,1,10,0:0:0:0:
45,191,242373,1,0,0:0:0:0:
140,58,242564,5,0,0:0:0:0:
101,75,242659,1,8,0:0:0:0:
61,92,242755,1,0,0:0:0:0:
304,68,242946,1,10,0:0:0:0:
223,8,243137,1,0,0:0:0:0:
186,232,243328,1,2,0:0:0:0:
278,191,243526,1,0,0:0:0:0:
193,130,243725,1,10,0:0:0:0:
193,130,243924,1,0,0:0:0:0:
70,214,244122,1,0,0:0:0:0:
76,249,244216,1,8,0:0:0:0:
82,284,244310,1,0,0:0:0:0:
268,369,244499,1,10,0:0:0:0:
262,334,244593,1,8,0:0:0:0:
256,299,244688,1,4,3:0:0:0:
415,256,244876,6,0,L|474:248,1,45,4|0,0:0|3:0,0:0:0:0:
509,178,245082,1,8,0:0:0:0:
502,136,245176,1,8,0:0:0:0:
475,105,245271,1,8,0:0:0:0:
435,93,245365,1,8,0:0:0:0:
395,104,245460,2,0,L|384:171,1,56.25,4|0,0:0|3:0,0:0:0:0:
327,209,245657,1,8,0:0:0:0:
331,231,245751,1,8,0:0:0:0:
335,252,245845,1,8,0:0:0:0:
339,274,245940,1,8,0:0:0:0:
343,296,246034,1,4,0:0:0:0:
491,326,246239,1,8,0:0:0:0:
480,287,246342,1,8,0:0:0:0:
470,248,246444,1,4,0:0:0:0:
174,208,246640,5,8,0:0:0:0:
185,247,246738,1,8,0:0:0:0:
195,286,246836,1,8,0:0:0:0:
207,323,246931,1,8,0:0:0:0:
220,360,247027,2,0,L|291:346,1,56.25,4|0,0:0|3:0,0:0:0:0:
388,311,247218,1,8,0:0:0:0:
343,304,247312,1,8,0:0:0:0:
298,297,247407,1,8,3:0:0:0:
253,288,247502,1,8,3:0:0:0:
208,280,247597,5,4,3:0:0:0:
163,273,247692,5,4,3:0:0:0:
118,266,247787,5,4,3:0:0:0:
73,261,247882,5,4,3:0:0:0:
28,254,247977,5,6,0:0:0:0:
86,131,248173,1,0,0:0:0:0:
3,174,248369,1,10,0:0:0:0:
63,51,248565,1,0,0:0:0:0:
253,119,248761,1,0,0:0:0:0:
236,86,248859,1,8,0:0:0:0:
220,52,248957,1,0,0:0:0:0:
177,140,249153,1,10,0:0:0:0:
322,84,249341,1,0,0:0:0:0:
451,156,249530,5,2,0:0:0:0:
504,215,249728,1,0,0:0:0:0:
396,235,249926,1,10,0:0:0:0:
405,313,250125,1,0,0:0:0:0:
284,267,250323,1,0,0:0:0:0:
263,300,250418,1,8,0:0:0:0:
246,336,250513,1,0,0:0:0:0:
194,262,250703,1,10,0:0:0:0:
332,344,250894,1,0,0:0:0:0:
106,347,251084,5,2,0:0:0:0:
106,347,251281,1,0,0:0:0:0:
27,229,251478,1,10,0:0:0:0:
129,151,251676,1,0,0:0:0:0:
38,135,251873,1,0,0:0:0:0:
38,135,251965,1,8,0:0:0:0:
38,135,252057,1,0,0:0:0:0:
131,229,252241,1,8,0:0:0:0:
260,123,252425,6,0,P|270:202|287:321,1,175.500000669479,2|2,0:0|0:0,0:0:0:0:
497,322,253003,1,8,0:0:0:0:
476,249,253201,1,0,0:0:0:0:
352,180,253398,1,2,0:0:0:0:
361,217,253495,1,8,0:0:0:0:
373,253,253592,1,0,0:0:0:0:
432,174,253787,1,10,0:0:0:0:
185,189,253972,1,0,0:0:0:0:
185,189,254064,1,8,0:0:0:0:
185,189,254157,5,6,0:0:0:0:
257,217,254362,1,0,0:0:0:0:
89,261,254567,2,0,P|21:218|48:102,1,180,8|0,0:0|0:0,0:0:0:0:
23,126,255046,1,8,0:0:0:0:
23,126,255142,1,0,0:0:0:0:
148,30,255333,1,10,0:0:0:0:
135,106,255525,1,0,0:0:0:0:
320,125,255717,5,2,0:0:0:0:
307,49,255914,1,0,0:0:0:0:
283,138,256111,2,0,L|266:238,1,90,8|0,0:0|0:0,0:0:0:0:
384,280,256506,1,0,0:0:0:0:
419,273,256601,1,8,0:0:0:0:
454,267,256696,1,0,0:0:0:0:
432,189,256887,1,8,0:0:0:0:
324,336,257078,1,0,0:0:0:0:
324,336,257173,1,8,0:0:0:0:
324,336,257269,6,0,L|224:319,1,90,6|0,0:0|0:0,0:0:0:0:
76,211,257669,1,14,0:0:0:0:
127,359,257845,1,0,0:0:0:0:
26,278,258047,1,8,0:0:0:0:
170,217,258250,1,4,3:0:0:0:
214,214,258342,1,8,0:0:0:0:
252,190,258435,1,8,0:0:0:0:
273,151,258527,1,8,0:0:0:0:
273,107,258620,2,0,L|252:-2,1,90,4|0,0:0|0:0,0:0:0:0:
171,110,259020,5,0,0:0:0:0:
348,69,259220,1,10,0:0:0:0:
373,231,259412,1,0,0:0:0:0:
510,184,259604,1,8,0:0:0:0:
510,184,259700,1,8,0:0:0:0:
455,253,259893,1,8,0:0:0:0:
419,250,259989,1,8,0:0:0:0:
383,246,260080,1,8,0:0:0:0:
347,242,260172,1,8,0:0:0:0:
311,238,260264,1,8,0:0:0:0:
275,235,260355,6,0,L|264:336,1,90,6|0,0:0|0:0,0:0:0:0:
343,339,260768,1,8,0:0:0:0:
184,319,260958,1,0,3:0:0:0:
166,322,261053,1,8,0:0:0:0:
148,325,261148,1,0,3:0:0:0:
130,328,261244,1,8,0:0:0:0:
112,331,261339,1,0,0:0:0:0:
0,309,261529,1,8,0:0:0:0:
33,380,261720,1,0,3:0:0:0:
75,245,261910,6,0,L|90:131,1,90,2|0,0:0|0:0,0:0:0:0:
157,128,262318,1,8,0:0:0:0:
253,213,262509,1,0,3:0:0:0:
270,210,262605,1,8,0:0:0:0:
287,207,262701,1,0,3:0:0:0:
304,204,262797,1,8,0:0:0:0:
321,202,262893,1,0,0:0:0:0:
481,141,263084,1,8,0:0:0:0:
411,94,263276,1,0,3:0:0:0:
481,141,263468,6,0,L|512:330,2,180,2|10|0,0:0|0:0|3:0,0:0:0:0:
481,141,264348,1,8,0:0:0:0:
481,141,264443,1,2,0:0:0:0:
376,121,264632,1,8,0:0:0:0:
274,161,264819,1,0,3:0:0:0:
385,195,265007,5,0,0:0:0:0:
311,81,265209,1,2,0:0:0:0:
189,142,265412,1,8,0:0:0:0:
263,256,265600,1,0,3:0:0:0:
291,170,265789,1,2,3:1:0:0:
291,170,265883,1,8,0:0:0:0:
291,170,265978,1,0,0:0:0:0:
170,243,266166,1,8,0:0:0:0:
343,299,266355,1,0,3:0:0:0:
360,319,266449,1,8,0:0:0:0:
376,340,266544,6,0,P|455:325|478:210,1,180,6|8,0:0|0:0,0:0:0:0:
407,144,267141,1,0,3:0:0:0:
389,145,267236,1,8,0:0:0:0:
371,146,267331,1,0,3:0:0:0:
353,148,267429,1,8,0:0:0:0:
335,150,267528,1,0,0:0:0:0:
221,106,267725,1,8,0:0:0:0:
289,65,267913,1,0,3:0:0:0:
140,44,268102,6,0,L|129:143,1,90,2|0,0:0|0:0,0:0:0:0:
26,212,268507,1,8,0:0:0:0:
35,122,268698,1,0,3:0:0:0:
197,182,268889,1,0,3:0:0:0:
202,216,268984,1,8,0:0:0:0:
204,253,269080,1,0,0:0:0:0:
137,298,269271,1,8,0:0:0:0:
292,271,269462,1,0,3:0:0:0:
292,271,269557,1,8,0:0:0:0:
292,271,269653,5,2,0:0:0:0:
234,359,269853,1,0,0:0:0:0:
364,370,270053,2,0,L|473:354,1,90,10|0,0:0|3:0,0:0:0:0:
449,339,270353,1,8,0:0:0:0:
445,321,270453,1,0,3:0:0:0:
441,303,270547,1,8,0:0:0:0:
437,285,270642,1,2,0:0:0:0:
447,151,270832,1,8,0:0:0:0:
504,205,271022,1,0,3:0:0:0:
338,124,271212,5,0,0:0:0:0:
281,178,271409,1,2,0:0:0:0:
510,196,271606,1,8,0:0:0:0:
453,142,271799,1,0,0:0:0:0:
357,229,271993,1,10,0:0:0:0:
357,229,272087,1,8,0:0:0:0:
224,115,272276,1,8,0:0:0:0:
224,115,272370,1,8,0:0:0:0:
58,185,272559,1,8,0:0:0:0:
58,185,272653,1,8,0:0:0:0:
58,185,272747,6,0,B|42:226|42:226|68:276,1,90,6|0,0:0|0:0,0:0:0:0:
163,225,273157,1,12,0:0:0:0:
244,358,273350,1,0,3:0:0:0:
224,330,273446,1,8,0:0:0:0:
196,312,273543,1,0,3:0:0:0:
163,305,273640,1,8,0:0:0:0:
130,311,273736,1,0,0:0:0:0:
251,250,273929,1,12,0:0:0:0:
358,337,274123,1,0,3:0:0:0:
358,337,274219,1,8,0:0:0:0:
358,337,274316,6,0,L|455:326,1,90,2|0,0:0|0:0,0:0:0:0:
502,200,274705,1,12,0:0:0:0:
379,209,274893,1,0,3:0:0:0:
362,203,274988,1,8,0:0:0:0:
345,196,275082,1,0,3:0:0:0:
328,189,275176,1,8,0:0:0:0:
310,183,275271,1,0,0:0:0:0:
247,221,275459,1,12,0:0:0:0:
140,179,275648,1,0,3:0:0:0:
140,179,275742,1,8,0:0:0:0:
140,179,275837,5,2,0:0:0:0:
254,99,276031,1,0,0:0:0:0:
178,8,276225,2,0,L|161:103,1,90,8|0,0:0|3:0,0:0:0:0:
144,94,276516,1,8,0:0:0:0:
126,92,276613,1,0,3:0:0:0:
108,90,276710,1,8,0:0:0:0:
89,88,276807,1,0,0:0:0:0:
30,34,277002,1,8,0:0:0:0:
21,191,277193,1,0,3:0:0:0:
21,191,277288,1,8,0:0:0:0:
21,191,277384,6,0,L|119:176,1,90,2|0,0:0|0:0,0:0:0:0:
216,310,277784,2,0,L|118:295,1,90,8|0,0:0|3:0,0:0:0:0:
352,225,278184,1,0,3:0:0:0:
382,218,278278,1,8,0:0:0:0:
412,211,278373,1,0,0:0:0:0:
481,243,278562,1,8,0:0:0:0:
338,147,278751,1,0,3:0:0:0:
345,117,278846,1,8,0:0:0:0:
352,87,278941,5,6,0:0:0:0:
451,70,279139,1,0,0:0:0:0:
239,0,279338,2,0,L|260:87,1,90,8|0,0:0|3:0,0:0:0:0:
138,157,279735,1,0,3:0:0:0:
131,127,279829,1,8,0:0:0:0:
124,97,279924,1,0,0:0:0:0:
57,174,280114,1,8,0:0:0:0:
199,230,280304,1,0,3:0:0:0:
199,230,280399,1,8,0:0:0:0:
199,230,280494,6,0,P|244:226|285:195,1,90,2|0,0:0|0:0,0:0:0:0:
410,167,280888,1,8,0:0:0:0:
478,249,281086,1,2,3:1:0:0:
344,301,281283,1,0,3:0:0:0:
348,269,281377,1,8,0:0:0:0:
352,238,281472,1,0,0:0:0:0:
422,308,281661,1,8,0:0:0:0:
295,361,281850,1,0,3:0:0:0:
163,311,282040,5,2,0:0:0:0:
245,276,282238,1,0,0:0:0:0:
72,262,282437,1,10,0:0:0:0:
154,227,282629,1,0,0:0:0:0:
86,116,282821,1,0,3:0:0:0:
83,147,282917,1,8,0:0:0:0:
80,178,283013,1,0,0:0:0:0:
9,135,283206,1,8,0:0:0:0:
263,49,283398,1,14,0:0:0:0:
263,49,283782,5,8,0:0:0:0:
269,84,283879,1,8,0:0:0:0:
275,119,283975,1,0,0:0:0:0:
281,154,284072,1,8,0:0:0:0:
287,189,284168,1,0,0:0:0:0:
164,261,284379,5,8,0:0:0:0:
129,255,284474,1,8,0:0:0:0:
94,249,284570,1,8,3:0:0:0:
59,243,284665,1,8,3:0:0:0:
24,237,284761,1,4,3:0:0:0:
58,228,284856,1,4,3:0:0:0:
93,219,284952,1,4,3:0:0:0:
128,210,285047,1,4,3:0:0:0:
95,194,285143,1,4,0:0:0:0:
256,192,285239,12,0,293659,0:0:0:0:
