osu file format v14

[General]
AudioFilename: audio.mp3
AudioLeadIn: 0
PreviewTime: 55277
Countdown: 0
SampleSet: Soft
StackLeniency: 0.7
Mode: 0
LetterboxInBreaks: 0
WidescreenStoryboard: 1

[Editor]
Bookmarks: 10436,20649,30862,41075,56394,66606,76819,84479,94691,104904,115117,130436,140649,150861,158521,168733,178946,189159,204478,214691,224903,232563,242775,252988
DistanceSpacing: 1.9
BeatDivisor: 4
GridSize: 4
TimelineZoom: 2.099998

[Metadata]
Title:hello
TitleUnicode:hello
Artist:my sound life
ArtistUnicode:my sound life
Creator:Hinsvar
Version:insane
Source:
Tags:Japanese Pop J-Pop JPop Rock JRock J-Rock solfa iyuna 茶太 Chata Featured Artist FA Mappers' Guild MPG
BeatmapID:3551007
BeatmapSetID:1734686

[Difficulty]
HPDrainRate:5
CircleSize:4
OverallDifficulty:8
ApproachRate:9
SliderMultiplier:1.44
SliderTickRate:1

[Events]
//Background and Video events
0,0,"hello there.jpg",0,0
//Break Periods
2,87232,93453
2,161274,167974
2,235316,241537
//Storyboard Layer 0 (Background)
//Storyboard Layer 1 (Fail)
//Storyboard Layer 2 (Pass)
//Storyboard Layer 3 (Foreground)
//Storyboard Layer 4 (Overlay)
//Storyboard Sound Samples

[TimingPoints]
224,319.148936170213,4,2,1,70,1,0
25755,-133.333333333333,4,2,1,65,0,0
28309,-100,4,2,1,70,0,0
30862,-133.333333333333,4,2,1,50,0,0
41075,-114.942528735632,4,2,1,60,0,0
50170,-88.4955752212389,4,2,1,65,0,0
51287,-133.333333333333,4,2,1,55,0,0
54319,-100,4,2,1,70,0,0
56394,-88.4955752212389,4,2,1,80,0,1
64053,-100,4,2,1,80,0,1
64372,-80,4,2,1,80,0,1
64692,-100,4,2,1,80,0,1
65011,-80,4,2,1,80,0,1
66606,-88.4955752212389,4,2,1,80,0,1
74266,-100,4,2,1,80,0,1
74585,-80,4,2,1,80,0,1
74904,-100,4,2,1,80,0,1
75224,-80,4,2,1,80,0,1
76819,-133.333333333333,4,2,1,70,0,0
81926,-88.4955752212389,4,2,1,80,0,1
83521,-100,4,2,1,80,0,0
84000,-100,4,2,1,70,0,0
84479,319.148936170213,4,2,1,70,1,0
99798,-133.333333333333,4,2,1,65,0,0
102351,-100,4,2,1,70,0,0
104904,-114.942528735632,4,2,1,55,0,0
115117,-100,4,2,1,60,0,0
125330,-133.333333333333,4,2,1,55,0,0
128361,-100,4,2,1,70,0,0
130436,-88.4955752212389,4,2,1,80,0,1
138096,-100,4,2,1,80,0,1
138415,-80,4,2,1,80,0,1
138734,-100,4,2,1,80,0,1
139053,-80,4,2,1,80,0,1
140649,-88.4955752212389,4,2,1,80,0,1
148308,-100,4,2,1,80,0,1
148627,-80,4,2,1,80,0,1
148947,-100,4,2,1,80,0,1
149266,-80,4,2,1,80,0,1
150861,-133.333333333333,4,2,1,70,0,0
155968,-88.4955752212389,4,2,1,80,0,1
157564,-100,4,2,1,80,0,0
158042,-100,4,2,1,70,0,0
158521,319.148936170213,4,2,1,70,1,0
168574,-100,4,2,1,60,0,0
168733,-114.942528735632,4,2,1,60,0,0
178467,-100,4,2,1,70,0,0
204797,-133.333333333333,4,2,1,70,0,0
209106,-100,4,2,1,80,0,0
209584,-88.4955752212389,4,2,1,80,0,1
212138,-100,4,2,1,80,0,1
212457,-80,4,2,1,80,0,1
212776,-100,4,2,1,80,0,1
213095,-80,4,2,1,80,0,1
214691,-88.4955752212389,4,2,1,80,0,1
222350,-100,4,2,1,80,0,1
222669,-80,4,2,1,80,0,1
222989,-100,4,2,1,80,0,1
223308,-80,4,2,1,80,0,1
224903,-133.333333333333,4,2,1,70,0,0
230010,-88.4955752212389,4,2,1,80,0,1
231606,-100,4,2,1,80,0,0
232084,-100,4,2,1,70,0,0
232563,319.148936170213,4,2,1,70,1,0
247882,-133.333333333333,4,2,1,65,0,0
250435,-100,4,2,1,70,0,0

[Colours]
Combo1 : 152,230,66
Combo2 : 248,103,226
Combo3 : 196,133,214
Combo4 : 227,158,102

[HitObjects]
37,339,9958,5,8,0:0:0:0:
37,339,10037,1,8,0:0:0:0:
37,339,10117,2,0,L|76:326,3,36,8|8|8|8,0:0|0:0|0:0|0:0,0:0:0:0:
132,281,10436,6,0,L|202:301,1,72,14|0,0:0|0:0,0:0:0:0:
361,352,10755,1,10,0:0:0:0:
330,233,10915,2,0,L|312:162,1,72,2|8,0:0|0:0,0:0:0:0:
411,36,11234,2,0,L|393:106,1,72,2|8,3:2|0:0,0:0:0:0:
221,142,11553,5,2,3:2:0:0:
98,130,11713,1,8,0:0:0:0:
109,9,11872,1,2,0:0:0:0:
230,19,12032,1,8,0:0:0:0:
349,96,12192,5,2,0:0:0:0:
423,121,12351,1,8,0:0:0:0:
492,82,12511,1,2,3:2:0:0:
425,205,12670,2,0,P|423:258|430:316,1,108,8|0,0:0|0:0,0:0:0:0:
429,312,12989,6,0,P|428:348|422:384,1,72,10|0,0:0|0:0,0:0:0:0:
504,244,13309,1,10,0:0:0:0:
332,278,13468,2,0,P|313:308|289:336,1,72,2|8,0:0|0:0,0:0:0:0:
270,200,13787,2,0,P|234:208|198:211,1,72,2|8,3:2|0:0,0:0:0:0:
149,37,14106,5,2,3:2:0:0:
31,11,14266,1,8,0:0:0:0:
45,149,14426,2,0,P|63:119|79:75,1,72,2|8,0:0|0:0,0:0:0:0:
236,14,14745,2,0,P|248:70|275:126,1,108,2|0,0:0|0:0,0:0:0:0:
268,115,15064,1,2,3:2:0:0:
434,24,15224,1,8,0:0:0:0:
415,100,15383,1,2,3:2:0:0:
326,246,15543,6,0,L|408:262,1,72,14|0,0:0|0:0,0:0:0:0:
156,260,15862,1,10,0:0:0:0:
301,327,16021,2,0,L|231:341,1,72,2|8,0:0|0:0,0:0:0:0:
224,153,16340,2,0,L|306:169,1,72,2|8,3:2|0:0,0:0:0:0:
324,23,16660,6,0,P|267:43|182:37,1,144,2|2,0:0|0:0,0:0:0:0:
51,136,17138,1,8,0:0:0:0:
143,275,17298,2,0,P|189:250|250:251,1,108,2|0,0:0|0:0,0:0:0:0:
243,249,17617,1,0,3:0:0:0:
86,338,17777,2,0,P|66:309|65:259,1,72,10|0,0:0|3:0,0:0:0:0:
190,73,18096,6,0,P|193:125|166:180,1,108,14|0,0:0|0:0,0:0:0:0:
97,154,18415,2,0,P|93:100|116:51,1,108,10|0,0:0|0:0,0:0:0:0:
115,52,18734,1,8,0:0:0:0:
274,30,18894,1,2,3:2:0:0:
350,48,19053,1,8,0:0:0:0:
482,187,19213,6,0,P|468:155|461:111,1,72,2|8,3:2|0:0,0:0:0:0:
301,166,19532,2,0,P|294:201|280:234,2,72,2|8|2,0:0|0:0|0:0,0:0:0:0:
458,270,20011,2,0,L|417:267,1,36,2|8,3:2|0:0,0:0:0:0:
362,366,20170,1,8,0:0:0:0:
379,364,20250,1,8,0:0:0:0:
396,362,20330,1,8,0:0:0:0:
413,360,20410,1,8,0:0:0:0:
430,358,20489,1,2,3:2:0:0:
265,341,20649,6,0,P|238:331|209:291,1,72,14|0,0:0|0:0,0:0:0:0:
35,364,20968,1,10,0:0:0:0:
129,153,21128,2,0,P|133:181|113:226,1,72,2|8,0:0|0:0,0:0:0:0:
35,364,21447,2,0,P|57:345|106:340,1,72,2|8,3:2|0:0,0:0:0:0:
220,231,21766,5,2,3:2:0:0:
253,128,21926,1,8,0:0:0:0:
88,91,22085,1,2,0:0:0:0:
98,199,22245,1,8,0:0:0:0:
28,297,22404,5,2,0:0:0:0:
106,284,22564,1,8,0:0:0:0:
182,305,22724,1,2,3:2:0:0:
249,357,22883,2,0,P|267:312|277:244,1,108,8|0,0:0|0:0,0:0:0:0:
277,253,23202,6,0,P|272:214|259:181,1,72,10|0,0:0|0:0,0:0:0:0:
147,20,23521,1,10,0:0:0:0:
343,68,23681,2,0,P|337:107|341:142,1,72,2|8,0:0|0:0,0:0:0:0:
163,174,24001,2,0,P|178:137|183:102,1,72,2|8,3:2|0:0,0:0:0:0:
431,187,24319,5,2,3:2:0:0:
376,244,24479,1,8,0:0:0:0:
394,325,24638,2,0,L|456:379,1,72,2|8,0:0|0:0,0:0:0:0:
313,298,24958,2,0,L|165:329,1,144,2|8,0:0|0:0,0:0:0:0:
172,327,25356,1,8,0:0:0:0:
172,327,25436,1,10,0:0:0:0:
16,306,25596,1,8,0:0:0:0:
106,247,25755,6,0,L|100:187,2,54.0000020599366,6|0|2,3:2|0:0|3:2,0:0:0:0:
186,240,26234,2,0,L|176:132,1,108.000004119873,2|2,0:0|0:0,0:0:0:0:
433,27,26872,2,0,L|427:87,1,54.0000020599366,10|0,0:0|3:0,0:0:0:0:
340,127,27192,2,0,L|345:180,1,54.0000020599366,10|0,0:0|3:0,0:0:0:0:
422,252,27511,2,0,L|341:348,1,108.000004119873,2|0,0:0|3:0,0:0:0:0:
279,369,27989,1,2,3:2:0:0:
234,301,28149,1,2,0:0:0:0:
160,334,28309,5,10,0:0:0:0:
352,50,28628,1,10,0:0:0:0:
197,237,28947,5,10,0:0:0:0:
315,147,29106,1,10,0:0:0:0:
315,147,29426,5,10,0:0:0:0:
256,15,29745,1,2,0:0:0:0:
197,147,30064,1,2,0:0:0:0:
255,312,30383,5,10,0:0:0:0:
255,312,30463,1,8,0:0:0:0:
255,312,30543,2,0,L|256:277,3,36,8|8|8|8,0:0|0:0|0:0|0:0,0:0:0:0:
256,204,30862,1,6,3:2:0:0:
419,55,31181,6,0,P|446:52|483:31,2,54.0000020599366,2|0|0,3:2|0:0|3:0,0:0:0:0:
360,111,31660,2,0,P|333:105|309:92,1,54.0000020599366,2|0,0:0|3:0,0:0:0:0:
241,48,31979,2,0,L|236:14,2,27.0000010299683,2|0|0,0:0|0:0|3:0,0:0:0:0:
177,98,32298,2,0,P|152:108|125:111,2,54.0000020599366,2|0|0,0:0|3:0|0:0,0:0:0:0:
214,295,32936,2,0,P|187:298|162:308,1,54.0000020599366,2|0,0:0|3:0,0:0:0:0:
112,373,33255,5,2,0:0:0:0:
112,373,33335,1,2,0:0:0:0:
112,373,33415,1,2,3:2:0:0:
96,265,33575,1,2,0:0:0:0:
74,187,33734,6,0,P|52:174|15:168,2,54.0000020599366,0|0|0,3:0|0:0|3:0,0:0:0:0:
134,133,34213,1,2,0:0:0:0:
273,50,34532,2,0,P|272:34|267:18,2,27.0000010299683,2|0|0,0:0|0:0|3:0,0:0:0:0:
326,110,34851,1,2,0:0:0:0:
366,180,35011,2,0,P|354:231|347:301,1,108.000004119873,0|0,3:0|3:0,0:0:0:0:
416,328,35489,2,0,P|423:356|439:381,1,54.0000020599366,2|0,0:0|3:0,0:0:0:0:
503,329,35809,5,2,0:0:0:0:
503,329,35888,1,2,0:0:0:0:
503,329,35968,1,2,3:2:0:0:
482,222,36128,1,2,0:0:0:0:
500,143,36287,6,0,L|441:137,2,54.0000020599366,0|0|0,3:0|0:0|3:0,0:0:0:0:
505,61,36766,2,0,L|451:55,1,54.0000020599366,2|0,0:0|3:0,0:0:0:0:
377,21,37085,2,0,L|340:29,2,27.0000010299683,2|0|0,0:0|0:0|3:0,0:0:0:0:
162,83,37564,5,2,3:2:0:0:
229,127,37724,1,0,0:0:0:0:
253,203,37883,2,0,P|280:203|319:212,2,54.0000020599366,0|0|2,3:0|0:0|3:2,0:0:0:0:
232,286,38362,5,2,0:0:0:0:
232,286,38442,1,2,0:0:0:0:
232,286,38521,1,2,3:2:0:0:
186,383,38681,1,2,0:0:0:0:
150,310,38841,6,0,L|95:317,1,54.0000020599366,0|2,3:0|0:0,0:0:0:0:
175,172,39319,2,0,L|120:179,1,54.0000020599366,2|0,0:0|3:0,0:0:0:0:
67,118,39638,2,0,L|37:111,2,27.0000010299683,2|0|0,0:0|0:0|3:0,0:0:0:0:
150,91,39958,2,0,L|80:6,2,108.000004119873,2|2|2,0:0|0:0|0:0,0:0:0:0:
205,32,40755,1,0,3:0:0:0:
263,102,40915,1,2,0:0:0:0:
263,102,40995,1,2,0:0:0:0:
263,102,41075,1,2,3:2:0:0:
338,302,41394,5,2,0:3:0:0:
444,289,41553,1,0,0:0:0:0:
475,213,41713,2,0,P|474:184|486:149,2,62.6400005256958,2|0|2,3:2|0:0|0:3,0:0:0:0:
394,202,42192,2,0,P|386:218|379:241,2,31.3200002628479,2|2|0,0:0|0:0|3:0,0:0:0:0:
340,138,42511,2,0,P|340:106|330:77,1,62.6400005256958,2|2,0:0|0:3,0:0:0:0:
250,93,42830,2,0,P|202:48|146:12,1,125.280001051392,2|2,0:0|0:0,0:0:0:0:
74,43,43309,1,2,0:3:0:0:
92,130,43468,1,2,0:0:0:0:
92,130,43548,1,2,0:0:0:0:
92,130,43628,1,0,3:0:0:0:
227,296,43947,6,0,P|225:329|219:369,2,62.6400005256958,2|0|0,0:3|0:0|3:0,0:0:0:0:
79,359,44426,2,0,P|74:327|72:296,1,62.6400005256958,2|2,0:0|0:3,0:0:0:0:
147,214,44745,2,0,P|150:231|151:254,2,31.3200002628479,2|2|0,0:0|0:0|3:0,0:0:0:0:
185,141,45064,1,2,0:0:0:0:
250,92,45224,2,0,P|276:148|292:224,1,125.280001051392,2|0,0:3|3:0,0:0:0:0:
281,290,45702,1,2,0:0:0:0:
401,303,45862,1,2,0:3:0:0:
410,222,46022,1,2,0:0:0:0:
410,222,46101,1,2,0:0:0:0:
410,222,46181,1,0,3:0:0:0:
294,40,46500,6,0,P|266:52|236:49,2,62.6400005256958,2|0|0,0:3|0:0|3:0,0:0:0:0:
453,41,46979,2,0,P|481:53|512:50,1,62.6400005256958,2|2,0:0|0:3,0:0:0:0:
374,76,47298,2,0,L|374:43,2,31.3200002628479,2|2|2,0:0|0:0|3:2,0:0:0:0:
372,157,47617,2,0,L|370:221,1,62.6400005256958,2|2,0:0|0:3,0:0:0:0:
458,267,47936,1,2,0:0:0:0:
458,267,48096,2,0,L|456:203,2,62.6400005256958,0|0|2,3:0|0:0|0:3,0:0:0:0:
366,316,48575,5,2,0:0:0:0:
366,316,48654,1,2,0:0:0:0:
366,316,48734,2,0,P|302:317|234:351,1,125.280001051392,2|2,3:2|0:3,0:0:0:0:
184,288,49213,2,0,P|190:269|189:251,2,31.3200002628479,2|2|0,0:0|0:0|3:0,0:0:0:0:
102,288,49532,2,0,P|94:253|83:228,1,62.6400005256958,2|0,0:0|3:0,0:0:0:0:
11,255,49851,1,2,0:0:0:0:
11,255,49931,1,2,0:0:0:0:
11,255,50011,1,2,3:2:0:0:
24,373,50170,6,0,L|197:365,1,162.720000496582,10|2,0:0|3:2,0:0:0:0:
329,344,50649,1,0,3:0:0:0:
409,358,50809,1,2,3:2:0:0:
488,373,50968,1,0,3:0:0:0:
466,294,51128,5,2,3:2:0:0:
466,294,51208,1,2,3:2:0:0:
466,294,51287,2,0,P|457:237|457:170,1,108.000004119873,6|0,3:2|3:0,0:0:0:0:
274,161,51926,2,0,P|283:218|283:285,1,108.000004119873,8|0,0:0|0:0,0:0:0:0:
379,216,52404,5,10,0:0:0:0:
379,216,52484,1,8,0:0:0:0:
379,216,52564,1,0,3:0:0:0:
423,117,52724,1,10,0:0:0:0:
387,44,52883,1,2,3:2:0:0:
341,109,53043,1,2,3:2:0:0:
244,60,53202,6,0,P|197:47|121:34,1,108.000004119873,8|0,0:0|3:0,0:0:0:0:
138,36,53681,1,0,3:0:0:0:
184,158,53841,6,0,P|231:171|307:184,1,108.000004119873,6|0,3:2|3:0,0:0:0:0:
395,96,54319,5,10,0:0:0:0:
401,182,54479,1,8,0:0:0:0:
408,267,54638,1,8,0:0:0:0:
415,353,54798,1,8,0:0:0:0:
506,313,54958,5,8,0:0:0:0:
408,267,55117,1,10,0:0:0:0:
321,330,55277,1,8,0:0:0:0:
214,315,55436,1,10,0:0:0:0:
116,361,55595,1,8,0:0:0:0:
29,298,55755,1,10,0:0:0:0:
29,298,56075,1,8,0:0:0:0:
46,294,56154,1,8,0:0:0:0:
63,290,56234,1,8,0:0:0:0:
80,286,56314,1,8,0:0:0:0:
97,284,56394,6,0,P|94:232|106:156,1,122.040000372437,6|0,3:2|0:0,0:0:0:0:
193,189,56713,2,0,P|191:229|173:279,1,81.360000248291,8|0,0:0|0:0,0:0:0:0:
234,358,57032,1,2,3:2:0:0:
327,308,57192,2,0,P|329:268|347:218,1,81.360000248291,0|8,3:0|0:0,0:0:0:0:
492,325,57511,5,2,0:0:0:0:
492,325,57591,1,2,0:0:0:0:
492,325,57670,2,0,P|485:266|468:199,1,122.040000372437,2|0,3:2|0:0,0:0:0:0:
501,138,57989,2,0,P|478:109|441:78,1,81.360000248291,8|0,0:0|0:0,0:0:0:0:
319,169,58309,1,2,3:2:0:0:
398,153,58468,1,0,3:0:0:0:
305,46,58628,1,8,0:0:0:0:
226,30,58787,5,2,0:0:0:0:
226,30,58867,1,2,0:0:0:0:
226,30,58947,2,0,L|212:156,1,122.040000372437,2|0,3:2|0:0,0:0:0:0:
138,138,59266,2,0,L|126:53,1,81.360000248291,8|0,0:0|0:0,0:0:0:0:
21,18,59585,1,2,3:2:0:0:
32,123,59745,2,0,L|44:208,1,81.360000248291,0|8,3:0|0:0,0:0:0:0:
179,316,60064,5,2,0:0:0:0:
179,316,60144,1,2,0:0:0:0:
179,316,60224,2,0,P|243:318|298:292,1,122.040000372437,2|0,3:2|0:0,0:0:0:0:
284,216,60543,2,0,P|323:223|367:257,1,81.360000248291,8|0,0:0|0:0,0:0:0:0:
446,139,60862,1,2,3:2:0:0:
475,273,61021,1,0,3:0:0:0:
386,379,61181,1,8,0:0:0:0:
357,245,61341,5,2,0:0:0:0:
357,245,61420,1,2,0:0:0:0:
357,245,61500,2,0,P|346:182|320:125,1,122.040000372437,2|0,3:2|0:0,0:0:0:0:
322,129,61819,1,8,0:0:0:0:
183,89,61979,2,0,P|188:50|210:12,2,81.360000248291,2|0|0,0:0|3:0|3:0,0:0:0:0:
103,23,62458,1,8,0:0:0:0:
171,229,62617,5,2,0:0:0:0:
171,229,62697,1,2,0:0:0:0:
171,229,62777,2,0,P|161:292|127:345,1,122.040000372437,2|0,3:2|0:0,0:0:0:0:
130,340,63096,1,8,0:0:0:0:
257,306,63255,2,0,L|338:295,2,81.360000248291,2|0|0,0:0|3:0|3:0,0:0:0:0:
438,235,63734,1,8,0:0:0:0:
426,362,63894,1,8,0:0:0:0:
319,210,64053,6,0,P|304:178|307:136,1,72,0|2,3:0|3:2,0:0:0:0:
467,23,64372,2,0,B|491:86|491:86|464:148,1,135,14|0,0:0|0:0,0:0:0:0:
464,148,64692,6,0,L|393:127,1,72,0|2,3:0|3:2,0:0:0:0:
236,72,65011,2,0,B|170:57|170:57|110:93,1,135,14|0,0:0|0:0,0:0:0:0:
112,91,65330,5,0,3:0:0:0:
190,158,65489,1,2,3:2:0:0:
90,265,65649,2,0,L|79:362,1,90,14|0,0:0|0:0,0:0:0:0:
247,351,65968,2,0,L|239:304,1,45,0|8,3:0|0:0,0:0:0:0:
303,197,66128,1,8,0:0:0:0:
320,201,66208,1,8,0:0:0:0:
337,205,66287,1,8,0:0:0:0:
354,209,66367,1,8,0:0:0:0:
371,213,66447,1,8,0:0:0:0:
388,217,66527,1,8,0:0:0:0:
405,221,66606,6,0,P|441:270|504:276,1,122.040000372437,6|0,3:2|0:0,0:0:0:0:
496,362,66926,2,0,P|456:355|417:365,1,81.360000248291,8|0,0:0|0:0,0:0:0:0:
326,290,67245,1,2,3:2:0:0:
142,355,67404,2,0,P|182:362|221:352,1,81.360000248291,0|8,3:0|0:0,0:0:0:0:
186,260,67724,5,2,0:0:0:0:
186,260,67803,1,2,0:0:0:0:
186,260,67883,2,0,L|205:137,1,122.040000372437,2|0,3:2|0:0,0:0:0:0:
142,42,68202,2,0,L|128:125,1,81.360000248291,8|0,0:0|0:0,0:0:0:0:
289,196,68521,1,2,3:2:0:0:
279,66,68681,1,0,3:0:0:0:
368,160,68841,1,8,0:0:0:0:
358,30,69001,5,2,0:0:0:0:
358,30,69080,1,2,0:0:0:0:
358,30,69160,2,0,P|411:49|461:6,1,122.040000372437,2|0,3:2|0:0,0:0:0:0:
500,111,69479,2,0,P|462:112|446:156,1,81.360000248291,8|0,0:0|0:0,0:0:0:0:
358,262,69798,1,2,3:2:0:0:
269,319,69958,2,0,P|231:318|215:274,1,81.360000248291,0|8,3:0|0:0,0:0:0:0:
234,150,70277,5,2,0:0:0:0:
234,150,70356,1,2,0:0:0:0:
234,150,70436,2,0,P|248:95|254:21,1,122.040000372437,2|0,3:2|0:0,0:0:0:0:
156,10,70755,2,0,P|163:48|169:94,1,81.360000248291,8|0,0:0|0:0,0:0:0:0:
180,211,71075,1,2,3:2:0:0:
44,227,71234,1,0,3:0:0:0:
21,363,71394,1,8,0:0:0:0:
123,272,71553,5,2,0:0:0:0:
123,272,71633,1,2,0:0:0:0:
123,272,71713,2,0,P|169:306|221:364,1,122.040000372437,6|0,3:2|0:0,0:0:0:0:
213,353,72032,1,8,0:0:0:0:
343,251,72192,2,0,P|331:288|331:332,2,81.360000248291,2|0|0,0:0|3:0|3:0,0:0:0:0:
444,344,72670,1,8,0:0:0:0:
445,207,72830,5,2,0:0:0:0:
445,207,72910,1,2,0:0:0:0:
445,207,72989,2,0,P|452:152|469:78,1,122.040000372437,0|0,3:0|0:0,0:0:0:0:
466,87,73309,1,8,0:0:0:0:
283,60,73468,2,0,P|307:35|353:17,2,81.360000248291,2|0|0,0:0|3:0|3:0,0:0:0:0:
349,165,73947,1,8,0:0:0:0:
258,244,74106,5,8,0:0:0:0:
257,264,74186,1,8,0:0:0:0:
256,284,74266,2,0,L|265:358,1,72,0|2,3:0|3:2,0:0:0:0:
59,346,74585,2,0,P|122:361|178:316,1,135,14|0,0:0|0:0,0:0:0:0:
175,321,74904,6,0,P|147:312|119:272,1,72,0|2,3:0|3:2,0:0:0:0:
203,165,75224,2,0,L|215:16,1,135,14|0,0:0|0:0,0:0:0:0:
213,30,75543,5,0,3:0:0:0:
124,130,75702,1,2,3:2:0:0:
288,142,75862,2,0,L|381:130,1,90,14|0,0:0|0:0,0:0:0:0:
504,272,76181,2,0,L|460:258,1,45,0|8,3:0|0:0,0:0:0:0:
367,226,76341,1,8,0:0:0:0:
364,243,76420,1,8,0:0:0:0:
361,260,76500,1,8,0:0:0:0:
358,277,76580,1,8,0:0:0:0:
355,294,76660,1,8,0:0:0:0:
352,311,76739,1,8,0:0:0:0:
349,328,76819,6,0,P|293:264|224:223,1,162.00000617981,6|2,3:2|0:0,0:0:0:0:
162,109,77458,2,0,P|170:55|197:9,1,108.000004119873,8|0,0:0|3:0,0:0:0:0:
351,97,77936,2,0,P|347:124|325:155,1,54.0000020599366,8|2,0:0|3:2,0:0:0:0:
259,114,78255,2,0,P|262:86|284:55,2,54.0000020599366,8|0|2,0:0|3:0|0:0,0:0:0:0:
274,220,78734,2,0,L|291:333,1,108.000004119873,8|0,0:0|3:0,0:0:0:0:
409,362,79213,1,8,0:0:0:0:
487,341,79372,6,0,L|503:234,1,108.000004119873,2|0,3:2|3:0,0:0:0:0:
470,34,80011,2,0,P|421:62|353:59,1,108.000004119873,8|2,0:0|3:2,0:0:0:0:
288,116,80489,2,0,P|261:107|237:81,1,54.0000020599366,8|2,0:0|3:2,0:0:0:0:
145,103,80809,2,0,P|124:83|113:50,1,54.0000020599366,8|2,0:0|3:2,0:0:0:0:
21,21,81128,5,8,0:0:0:0:
21,21,81208,1,8,0:0:0:0:
21,21,81287,1,8,0:0:0:0:
28,101,81447,1,8,3:0:0:0:
36,181,81606,1,2,3:2:0:0:
44,261,81766,1,0,3:0:0:0:
145,367,81926,5,14,0:0:0:0:
431,303,82245,1,10,0:0:0:0:
367,17,82564,1,10,0:0:0:0:
81,81,82883,5,10,0:0:0:0:
202,94,83043,1,10,0:0:0:0:
431,303,83362,1,10,0:0:0:0:
310,290,83521,1,10,0:0:0:0:
310,290,84000,5,8,0:0:0:0:
311,272,84079,1,8,0:0:0:0:
313,254,84159,1,8,0:0:0:0:
315,236,84239,1,8,0:0:0:0:
317,218,84319,1,8,0:0:0:0:
319,200,84398,1,8,0:0:0:0:
321,182,84478,1,6,3:2:0:0:
256,192,84638,12,10,87032,0:0:0:0:
83,361,94053,6,0,L|89:314,1,36,0|8,3:0|0:0,0:0:0:0:
143,249,94213,1,8,0:0:0:0:
142,231,94292,1,8,0:0:0:0:
141,212,94372,1,8,0:0:0:0:
140,193,94452,1,8,0:0:0:0:
139,174,94532,1,2,3:2:0:0:
53,23,94691,6,0,P|75:50|115:64,1,72,14|0,0:0|0:0,0:0:0:0:
239,125,95010,1,10,0:0:0:0:
377,83,95170,2,0,P|404:61|418:21,1,72,2|8,0:0|0:0,0:0:0:0:
504,90,95489,2,0,P|477:112|463:152,1,72,2|8,3:2|0:0,0:0:0:0:
491,347,95808,5,2,3:2:0:0:
370,362,95968,1,8,0:0:0:0:
355,241,96127,1,2,0:0:0:0:
477,227,96287,1,8,0:0:0:0:
293,312,96447,5,2,0:0:0:0:
221,346,96606,1,8,0:0:0:0:
151,308,96766,1,2,3:2:0:0:
77,336,96925,2,0,P|56:293|54:228,1,108,8|0,0:0|0:0,0:0:0:0:
52,233,97244,6,0,P|86:233|126:218,1,72,10|0,0:0|0:0,0:0:0:0:
109,42,97564,1,10,0:0:0:0:
53,127,97723,2,0,P|86:127|126:142,1,72,2|8,0:0|0:0,0:0:0:0:
251,71,98042,2,0,P|230:42|202:21,1,72,2|8,3:2|0:0,0:0:0:0:
247,206,98361,5,2,3:2:0:0:
322,181,98521,1,8,0:0:0:0:
368,116,98681,2,0,L|374:43,1,72,2|8,0:0|0:0,0:0:0:0:
392,243,99000,1,10,0:0:0:0:
392,243,99080,1,10,0:0:0:0:
392,243,99159,2,0,L|386:316,1,72,10|0,0:0|3:0,0:0:0:0:
465,325,99479,1,2,3:2:0:0:
474,246,99638,1,0,3:0:0:0:
465,127,99798,6,0,P|437:132|409:121,2,54.0000020599366,6|0|2,3:2|0:0|3:2,0:0:0:0:
485,12,100276,2,0,P|437:34|377:38,1,108.000004119873,2|2,0:0|0:0,0:0:0:0:
190,78,100915,2,0,P|171:67|150:40,1,54.0000020599366,10|0,0:0|3:0,0:0:0:0:
77,76,101234,2,0,P|66:57|61:23,1,54.0000020599366,10|0,0:0|3:0,0:0:0:0:
62,199,101553,5,10,0:0:0:0:
62,199,101633,1,10,0:0:0:0:
62,199,101713,2,0,L|121:177,1,54.0000020599366,10|0,0:0|3:0,0:0:0:0:
229,186,102032,2,0,L|288:164,1,54.0000020599366,2|2,3:2|0:0,0:0:0:0:
432,45,102351,5,10,0:0:0:0:
456,339,102670,1,10,0:0:0:0:
373,125,102989,5,10,0:0:0:0:
505,258,103149,1,10,0:0:0:0:
505,258,103468,5,10,0:0:0:0:
370,206,103787,1,2,0:0:0:0:
244,275,104106,1,2,0:0:0:0:
137,193,104425,5,10,0:0:0:0:
137,193,104505,1,8,0:0:0:0:
137,193,104585,2,0,L|87:198,3,36,8|8|8|8,0:0|0:0|0:0|0:0,0:0:0:0:
28,206,104904,1,6,3:2:0:0:
181,28,105223,6,0,P|199:84|210:161,1,125.280001051392,10|0,0:0|3:0,0:0:0:0:
250,219,105702,1,2,3:2:0:0:
330,232,105861,1,8,0:0:0:0:
371,302,106021,2,0,L|496:283,1,125.280001051392,2|0,3:2|3:0,0:0:0:0:
482,170,106500,1,8,0:0:0:0:
469,89,106659,2,0,L|344:108,1,125.280001051392,2|0,0:0|3:0,0:0:0:0:
260,34,107138,1,8,0:0:0:0:
191,78,107298,5,2,0:0:0:0:
191,78,107377,1,2,0:0:0:0:
191,78,107457,1,2,3:2:0:0:
276,151,107617,1,2,0:0:0:0:
329,212,107776,6,0,P|336:243|339:284,2,62.6400005256958,8|2|0,0:0|0:0|3:0,0:0:0:0:
248,227,108255,2,0,P|235:256|214:291,1,62.6400005256958,2|8,3:2|0:0,0:0:0:0:
138,287,108574,2,0,P|129:270|126:247,2,31.3200002628479,2|2|2,3:2|0:0|0:0,0:0:0:0:
185,353,108893,1,0,3:0:0:0:
265,364,109053,2,0,P|326:364|390:372,1,125.280001051392,8|2,0:0|3:2,0:0:0:0:
459,329,109532,2,0,P|451:301|449:263,1,62.6400005256958,0|8,3:0|0:0,0:0:0:0:
422,191,109851,5,2,0:0:0:0:
422,191,109931,1,2,0:0:0:0:
422,191,110010,1,2,3:2:0:0:
316,227,110170,1,2,0:0:0:0:
267,161,110330,6,0,P|296:147|334:151,2,62.6400005256958,8|2|0,0:0|0:0|3:0,0:0:0:0:
192,129,110808,2,0,P|160:128|133:141,1,62.6400005256958,2|8,3:2|0:0,0:0:0:0:
133,49,111127,2,0,P|152:48|170:39,2,31.3200002628479,2|2|2,3:2|0:0|0:0,0:0:0:0:
51,43,111447,1,0,3:0:0:0:
14,115,111606,1,8,0:0:0:0:
61,181,111766,2,0,P|48:242|44:310,1,125.280001051392,2|0,0:0|3:0,0:0:0:0:
105,358,112244,1,8,0:0:0:0:
176,313,112404,5,2,0:0:0:0:
176,313,112484,1,2,0:0:0:0:
176,313,112564,1,2,3:2:0:0:
285,344,112723,1,2,0:0:0:0:
297,263,112883,5,8,0:0:0:0:
214,235,113042,2,0,P|189:186|227:125,1,125.280001051392,2|0,0:0|3:0,0:0:0:0:
344,161,113521,1,8,0:0:0:0:
418,121,113681,1,2,3:2:0:0:
418,121,113760,1,2,0:0:0:0:
418,121,113840,2,0,P|422:87|409:56,1,62.6400005256958,2|0,0:0|3:0,0:0:0:0:
338,25,114159,5,10,0:0:0:0:
263,59,114319,1,0,3:0:0:0:
137,68,114479,5,10,0:0:0:0:
203,115,114639,1,0,3:0:0:0:
278,228,114798,5,10,0:0:0:0:
286,148,114958,1,2,0:0:0:0:
286,148,115037,1,2,0:0:0:0:
286,148,115117,2,0,P|358:145|435:119,1,144,6|8,3:2|0:0,0:0:0:0:
488,172,115596,5,2,0:0:0:0:
454,243,115755,2,0,L|464:322,2,72,0|0|8,3:0|3:0|0:0,0:0:0:0:
382,293,116234,1,2,3:2:0:0:
382,293,116314,1,2,0:0:0:0:
382,293,116393,1,2,0:0:0:0:
290,317,116553,2,0,L|299:245,1,72,0|8,3:0|0:0,0:0:0:0:
376,205,116872,2,0,L|364:61,1,144,2|0,0:0|3:0,0:0:0:0:
290,30,117351,1,8,0:0:0:0:
191,56,117510,1,2,0:0:0:0:
191,56,117590,1,2,0:0:0:0:
191,56,117670,1,2,3:2:0:0:
94,245,117989,6,0,P|129:259|163:289,2,72,8|0|0,0:0|0:0|3:0,0:0:0:0:
220,365,118468,2,0,P|255:351|289:321,1,72,2|8,3:2|0:0,0:0:0:0:
289,251,118787,1,2,3:2:0:0:
289,251,118867,1,2,0:0:0:0:
289,251,118947,1,2,0:0:0:0:
367,243,119106,1,0,3:0:0:0:
394,168,119266,2,0,L|405:18,1,144,8|0,0:0|3:0,0:0:0:0:
483,28,119744,1,0,3:0:0:0:
325,19,119904,1,8,0:0:0:0:
321,104,120063,1,2,0:0:0:0:
321,104,120143,1,2,0:0:0:0:
321,104,120223,1,0,3:0:0:0:
101,26,120542,6,0,P|140:31|173:53,2,72,8|0|2,0:0|0:0|3:2,0:0:0:0:
37,72,121021,2,0,P|37:107|50:140,1,72,0|8,3:0|0:0,0:0:0:0:
133,125,121340,1,2,3:2:0:0:
133,125,121420,1,2,0:0:0:0:
133,125,121500,1,2,0:0:0:0:
209,144,121659,2,0,L|199:219,1,72,0|8,3:0|0:0,0:0:0:0:
143,272,121979,1,2,0:0:0:0:
71,306,122138,2,0,L|81:381,2,72,0|0|8,3:0|3:0|0:0,0:0:0:0:
26,240,122617,5,2,0:0:0:0:
26,240,122697,1,2,0:0:0:0:
26,240,122776,2,0,P|80:214|130:139,1,144,2|8,3:2|0:0,0:0:0:0:
187,94,123255,2,0,L|191:48,2,36,2|2|0,0:0|0:0|3:0,0:0:0:0:
282,105,123574,2,0,L|273:33,1,72,0|8,3:0|0:0,0:0:0:0:
379,41,123893,1,2,3:2:0:0:
379,41,123973,1,2,0:0:0:0:
379,41,124053,2,0,L|370:113,1,72,2|0,3:2|3:0,0:0:0:0:
507,163,124372,5,10,0:0:0:0:
430,184,124532,1,0,3:0:0:0:
312,240,124691,5,10,0:0:0:0:
389,261,124851,1,0,3:0:0:0:
512,324,125010,5,10,0:0:0:0:
436,345,125170,1,2,0:0:0:0:
436,345,125250,1,2,0:0:0:0:
436,345,125330,2,0,P|380:362|327:384,1,108.000004119873,6|0,3:2|3:0,0:0:0:0:
267,172,125968,2,0,P|323:155|376:133,1,108.000004119873,8|0,0:0|0:0,0:0:0:0:
320,31,126447,6,0,P|308:53|294:96,1,54.0000020599366,10|0,0:0|3:0,0:0:0:0:
190,140,126766,1,10,0:0:0:0:
157,66,126925,1,2,3:2:0:0:
81,35,127085,1,2,3:2:0:0:
21,81,127244,2,0,P|32:133|38:208,1,108.000004119873,8|0,0:0|0:0,0:0:0:0:
192,372,127883,6,0,P|203:320|209:245,1,108.000004119873,14|0,0:0|3:0,0:0:0:0:
149,200,128361,5,10,0:0:0:0:
135,114,128521,1,8,0:0:0:0:
219,100,128681,1,8,0:0:0:0:
235,185,128840,1,8,0:0:0:0:
318,265,129000,5,8,0:0:0:0:
347,153,129159,1,10,0:0:0:0:
459,183,129319,1,8,0:0:0:0:
429,294,129479,5,10,0:0:0:0:
383,37,129798,1,10,0:0:0:0:
383,37,130117,1,8,0:0:0:0:
365,34,130197,1,8,0:0:0:0:
347,31,130276,1,8,0:0:0:0:
329,29,130356,1,8,0:0:0:0:
311,27,130436,6,0,P|258:46|203:17,1,122.040000372437,6|0,3:2|0:0,0:0:0:0:
130,12,130755,2,0,P|118:51|130:96,1,81.360000248291,8|0,0:0|0:0,0:0:0:0:
133,231,131074,1,2,3:2:0:0:
212,273,131234,2,0,P|224:234|212:189,1,81.360000248291,0|8,3:0|0:0,0:0:0:0:
93,330,131553,5,2,0:0:0:0:
93,330,131633,1,2,0:0:0:0:
93,330,131713,2,0,P|36:308|14:244,1,122.040000372437,2|0,3:2|0:0,0:0:0:0:
40,186,132032,2,0,P|59:151|104:137,1,81.360000248291,8|0,0:0|0:0,0:0:0:0:
25,5,132351,1,2,3:2:0:0:
208,40,132510,1,0,3:0:0:0:
119,52,132670,1,8,0:0:0:0:
302,87,132830,5,2,0:0:0:0:
302,87,132909,1,2,0:0:0:0:
302,87,132989,2,0,P|287:144|287:212,1,122.040000372437,2|0,3:2|0:0,0:0:0:0:
332,264,133308,2,0,L|416:275,1,81.360000248291,8|0,0:0|0:0,0:0:0:0:
244,359,133627,1,2,3:2:0:0:
143,326,133787,2,0,L|62:315,1,81.360000248291,0|8,3:0|0:0,0:0:0:0:
133,141,134106,5,2,0:0:0:0:
133,141,134186,1,2,0:0:0:0:
133,141,134266,2,0,P|77:168|37:131,1,122.040000372437,2|0,3:2|0:0,0:0:0:0:
20,42,134585,2,0,P|60:38|89:70,1,81.360000248291,8|0,0:0|0:0,0:0:0:0:
42,243,134904,1,2,3:2:0:0:
131,248,135064,1,0,3:0:0:0:
228,373,135223,1,8,0:0:0:0:
223,284,135383,5,2,0:0:0:0:
223,284,135463,1,2,0:0:0:0:
223,284,135542,2,0,P|236:223|267:157,1,122.040000372437,2|0,3:2|0:0,0:0:0:0:
260,168,135861,1,8,0:0:0:0:
405,208,136021,2,0,P|434:182|478:158,2,81.360000248291,2|0|0,0:0|3:0|3:0,0:0:0:0:
315,301,136500,1,8,0:0:0:0:
489,343,136659,5,2,0:0:0:0:
489,343,136739,1,2,0:0:0:0:
489,343,136819,2,0,P|452:313|391:344,1,122.040000372437,2|0,3:2|0:0,0:0:0:0:
391,342,137138,1,8,0:0:0:0:
241,359,137298,2,0,P|208:337|162:348,2,81.360000248291,2|0|0,0:0|3:0|3:0,0:0:0:0:
145,257,137776,1,8,0:0:0:0:
125,136,137936,1,0,3:0:0:0:
21,171,138096,6,0,L|14:250,1,72,0|2,3:0|3:2,0:0:0:0:
201,184,138415,2,0,B|271:175|271:175|332:222,1,135,14|0,0:0|0:0,0:0:0:0:
322,214,138734,6,0,P|354:221|396:205,1,72,0|2,3:0|3:2,0:0:0:0:
475,67,139053,2,0,B|432:12|432:12|388:64,1,135,14|0,0:0|0:0,0:0:0:0:
389,61,139372,5,0,3:0:0:0:
272,91,139532,1,2,3:2:0:0:
140,16,139691,2,0,B|159:56|159:56|152:102,1,90,14|0,0:0|0:0,0:0:0:0:
115,277,140010,6,0,L|69:285,1,45,0|8,3:0|0:0,0:0:0:0:
38,173,140170,1,8,0:0:0:0:
55,176,140250,1,8,0:0:0:0:
72,179,140330,1,8,0:0:0:0:
89,182,140409,1,8,0:0:0:0:
106,185,140489,1,8,0:0:0:0:
123,188,140569,1,8,0:0:0:0:
140,191,140649,6,0,P|203:183|265:177,1,122.040000372437,6|0,3:2|0:0,0:0:0:0:
285,107,140968,2,0,P|325:111|361:150,1,81.360000248291,8|0,0:0|0:0,0:0:0:0:
320,335,141287,1,2,3:2:0:0:
332,246,141447,2,0,P|292:250|256:289,1,81.360000248291,0|8,3:0|0:0,0:0:0:0:
149,321,141766,5,2,0:0:0:0:
149,321,141846,1,2,0:0:0:0:
149,321,141925,2,0,P|89:297|8:274,1,122.040000372437,2|0,3:2|0:0,0:0:0:0:
89,202,142244,2,0,P|123:224|171:234,1,81.360000248291,8|0,0:0|0:0,0:0:0:0:
319,129,142564,1,2,3:2:0:0:
338,42,142723,1,0,3:0:0:0:
199,157,142883,1,8,0:0:0:0:
218,70,143042,5,2,0:0:0:0:
218,70,143122,1,2,0:0:0:0:
218,70,143202,2,0,P|163:65|143:3,1,122.040000372437,2|0,3:2|0:0,0:0:0:0:
49,29,143521,2,0,P|66:60|52:113,1,81.360000248291,8|0,0:0|0:0,0:0:0:0:
21,237,143840,1,2,3:2:0:0:
159,263,144000,2,0,P|141:227|149:188,1,81.360000248291,0|8,3:0|0:0,0:0:0:0:
306,208,144319,5,2,0:0:0:0:
306,208,144399,1,2,0:0:0:0:
306,208,144479,2,0,P|370:202|438:200,1,122.040000372437,2|0,3:2|0:0,0:0:0:0:
447,288,144798,2,0,P|410:288|366:281,1,81.360000248291,8|0,0:0|0:0,0:0:0:0:
235,374,145117,1,2,3:2:0:0:
198,292,145276,1,0,3:0:0:0:
233,160,145436,1,8,0:0:0:0:
196,78,145596,5,2,0:0:0:0:
196,78,145675,1,2,0:0:0:0:
196,78,145755,2,0,P|254:72|298:17,1,122.040000372437,6|0,3:2|0:0,0:0:0:0:
294,26,146074,1,8,0:0:0:0:
450,91,146234,2,0,P|410:98|376:128,2,81.360000248291,2|0|0,0:0|3:0|3:0,0:0:0:0:
396,234,146713,1,8,0:0:0:0:
242,285,146873,5,2,0:0:0:0:
242,285,146952,1,2,0:0:0:0:
242,285,147032,2,0,L|262:158,1,122.040000372437,2|0,3:2|0:0,0:0:0:0:
261,164,147351,1,8,0:0:0:0:
130,104,147510,2,0,L|49:124,2,81.360000248291,2|0|0,0:0|3:0|3:0,0:0:0:0:
113,259,147989,1,8,0:0:0:0:
160,373,148149,1,8,0:0:0:0:
262,355,148308,6,0,P|268:318|270:277,1,72,0|2,3:0|3:2,0:0:0:0:
364,161,148627,2,0,B|414:210|414:210|491:200,1,135,14|0,0:0|0:0,0:0:0:0:
478,201,148947,6,0,P|490:236|479:282,1,72,0|2,3:0|3:2,0:0:0:0:
335,329,149266,2,0,B|269:306|269:306|193:309,1,135,14|0,0:0|0:0,0:0:0:0:
203,308,149585,5,0,3:0:0:0:
270,192,149744,1,2,3:2:0:0:
388,254,149904,2,0,B|383:207|383:207|399:161,1,90,14|0,0:0|0:0,0:0:0:0:
477,30,150223,2,0,L|463:81,1,45,0|8,3:0|0:0,0:0:0:0:
329,80,150383,1,8,0:0:0:0:
316,72,150463,1,8,0:0:0:0:
303,64,150542,1,8,0:0:0:0:
290,56,150622,1,8,0:0:0:0:
277,48,150702,1,8,0:0:0:0:
264,40,150782,1,8,0:0:0:0:
251,32,150861,6,0,P|258:112|249:209,1,162.00000617981,6|2,3:2|0:0,0:0:0:0:
197,360,151500,2,0,P|183:309|176:249,1,108.000004119873,8|0,0:0|3:0,0:0:0:0:
274,324,151979,2,0,L|332:332,1,54.0000020599366,8|2,0:0|3:2,0:0:0:0:
361,241,152298,2,0,L|303:249,2,54.0000020599366,8|0|2,0:0|3:0|0:0,0:0:0:0:
366,137,152776,2,0,P|416:156|454:202,1,108.000004119873,8|0,0:0|3:0,0:0:0:0:
471,320,153255,1,8,0:0:0:0:
417,381,153415,6,0,P|367:362|329:316,1,108.000004119873,2|0,3:2|3:0,0:0:0:0:
162,223,154053,2,0,L|179:112,1,108.000004119873,8|2,0:0|0:0,0:0:0:0:
101,75,154532,2,0,L|61:115,1,54.0000020599366,8|2,0:0|3:0,0:0:0:0:
43,234,154851,5,8,0:0:0:0:
89,319,155010,1,8,0:0:0:0:
182,348,155170,1,8,0:0:0:0:
274,316,155330,5,8,0:0:0:0:
266,235,155489,1,8,3:0:0:0:
346,226,155649,1,2,3:2:0:0:
354,307,155808,1,0,3:0:0:0:
439,259,155968,5,14,0:0:0:0:
323,9,156287,1,10,0:0:0:0:
73,125,156606,1,10,0:0:0:0:
189,375,156925,5,10,0:0:0:0:
205,253,157085,1,10,0:0:0:0:
323,9,157404,1,10,0:0:0:0:
307,131,157564,1,10,0:0:0:0:
307,131,158042,5,8,0:0:0:0:
312,148,158122,1,8,0:0:0:0:
317,165,158202,1,8,0:0:0:0:
323,182,158282,1,8,0:0:0:0:
328,198,158361,1,8,0:0:0:0:
334,214,158441,1,8,0:0:0:0:
340,230,158521,1,6,3:2:0:0:
256,192,158680,12,2,161074,3:2:0:0:
76,295,168574,5,2,0:0:0:0:
76,295,168653,1,2,0:0:0:0:
76,295,168733,1,6,3:2:0:0:
188,280,168893,1,2,0:0:0:0:
269,317,169052,6,0,P|268:288|274:255,1,62.6400005256958,0|2,3:0|0:0,0:0:0:0:
355,265,169372,2,0,P|356:294|350:327,2,62.6400005256958,0|0|0,3:0|0:0|3:0,0:0:0:0:
326,192,169850,2,0,L|291:173,2,31.3200002628479,2|2|0,0:0|0:0|3:0,0:0:0:0:
376,128,170169,2,0,L|439:117,1,62.6400005256958,2|0,0:0|3:0,0:0:0:0:
426,35,170489,1,2,0:0:0:0:
246,89,170808,2,0,L|183:78,1,62.6400005256958,2|0,0:0|3:0,0:0:0:0:
131,20,171127,5,2,0:0:0:0:
131,20,171207,1,2,0:0:0:0:
131,20,171286,1,2,3:2:0:0:
29,69,171446,1,2,0:0:0:0:
102,104,171606,6,0,P|110:134|111:169,1,62.6400005256958,0|2,3:0|0:0,0:0:0:0:
41,208,171925,2,0,P|33:178|32:143,2,62.6400005256958,0|0|0,3:0|0:0|3:0,0:0:0:0:
114,242,172403,2,0,P|111:257|115:283,2,31.3200002628479,2|2|0,0:0|0:0|3:0,0:0:0:0:
192,266,172723,2,0,P|190:297|182:327,1,62.6400005256958,2|0,0:0|3:0,0:0:0:0:
110,367,173042,1,2,0:0:0:0:
110,367,173361,2,0,L|44:350,1,62.6400005256958,2|0,0:0|3:0,0:0:0:0:
30,276,173680,5,2,0:0:0:0:
30,276,173760,1,2,0:0:0:0:
30,276,173840,1,2,3:2:0:0:
143,261,173999,1,2,0:0:0:0:
189,193,174159,5,0,3:0:0:0:
163,115,174318,2,0,L|158:78,2,31.3200002628479,2|0|0,0:0|0:0|3:0,0:0:0:0:
242,94,174638,2,0,L|248:29,2,62.6400005256958,2|0|0,0:0|3:0|0:0,0:0:0:0:
286,161,175116,1,0,3:0:0:0:
366,147,175276,1,2,0:0:0:0:
486,317,175595,2,0,P|490:300|489:282,2,31.3200002628479,2|2|0,0:0|0:0|3:0,0:0:0:0:
424,370,175914,2,0,P|389:369|357:350,1,62.6400005256958,2|0,0:0|3:0,0:0:0:0:
338,279,176233,5,2,0:0:0:0:
338,279,176313,1,2,0:0:0:0:
338,279,176393,1,2,3:2:0:0:
355,167,176552,1,2,0:0:0:0:
301,105,176712,5,0,3:0:0:0:
221,84,176872,2,0,P|207:75|195:64,2,31.3200002628479,2|0|0,0:0|0:0|3:0,0:0:0:0:
244,162,177191,2,0,P|220:192|206:235,2,62.6400005256958,2|0|0,0:0|3:0|0:0,0:0:0:0:
155,138,177669,5,6,3:2:0:0:
155,138,178467,1,8,0:0:0:0:
137,136,178547,1,8,0:0:0:0:
119,134,178627,1,8,0:0:0:0:
100,132,178707,1,8,0:0:0:0:
82,130,178786,1,8,0:0:0:0:
63,129,178866,1,8,0:0:0:0:
44,128,178946,6,0,P|57:205|58:271,1,144,6|10,3:2|0:0,0:0:0:0:
215,315,179425,2,0,P|202:350|172:394,1,72,0|2,3:0|0:0,0:0:0:0:
165,238,179744,1,0,3:0:0:0:
165,238,179824,1,0,3:0:0:0:
165,238,179903,2,0,P|178:203|208:159,2,72,8|0|2,0:0|0:0|3:2,0:0:0:0:
463,293,180542,5,8,0:0:0:0:
379,370,180701,1,2,3:2:0:0:
379,370,180781,1,2,0:0:0:0:
379,370,180860,1,2,0:0:0:0:
258,335,181021,1,0,3:0:0:0:
350,266,181180,1,8,0:0:0:0:
350,266,181499,6,0,P|315:249|291:214,2,72,2|0|8,3:2|0:0|0:0,0:0:0:0:
334,144,181978,2,0,P|311:116|278:101,1,72,0|2,3:0|0:0,0:0:0:0:
158,185,182297,1,0,3:0:0:0:
158,185,182377,1,0,3:0:0:0:
158,185,182457,2,0,L|234:168,1,72,8|0,0:0|0:0,0:0:0:0:
408,198,182776,6,0,P|431:156|438:82,1,108,2|0,3:2|0:0,0:0:0:0:
439,97,183095,1,8,0:0:0:0:
318,34,183255,1,2,3:2:0:0:
318,34,183334,1,2,0:0:0:0:
318,34,183414,2,0,P|317:67|334:106,1,72,0|0,0:0|3:0,0:0:0:0:
245,169,183733,2,0,L|134:149,1,108,8|0,0:0|0:0,0:0:0:0:
138,149,184052,5,4,3:2:0:0:
44,165,184212,1,2,0:0:0:0:
29,72,184372,1,10,0:0:0:0:
120,56,184531,1,2,3:2:0:0:
232,96,184691,5,2,0:0:0:0:
325,19,184850,1,2,3:2:0:0:
402,112,185010,1,10,0:0:0:0:
308,189,185169,5,2,0:0:0:0:
308,189,185249,1,2,0:0:0:0:
308,189,185329,2,0,P|315:223|317:273,2,72,2|0|8,3:2|0:0|0:0,0:0:0:0:
232,289,185808,2,0,P|225:255|223:205,2,72,0|2|0,3:0|0:0|3:0,0:0:0:0:
341,350,186286,1,10,0:0:0:0:
461,300,186446,5,2,0:0:0:0:
461,300,186526,1,2,0:0:0:0:
461,300,186606,2,0,P|462:242|473:189,1,108,2|0,3:2|0:0,0:0:0:0:
471,193,186925,1,10,0:0:0:0:
328,192,187084,2,0,P|345:137|406:68,1,144,2|0,3:2|3:0,0:0:0:0:
285,4,187563,1,8,0:0:0:0:
213,61,187723,5,2,0:0:0:0:
213,61,187802,1,2,0:0:0:0:
213,61,187882,1,2,3:2:0:0:
173,190,188042,2,0,P|172:207|177:225,1,36,0|0,3:0|0:0,0:0:0:0:
249,235,188201,2,0,P|259:198|258:162,1,72,8|0,0:0|3:0,0:0:0:0:
153,331,188521,1,10,0:0:0:0:
60,344,188680,1,0,3:0:0:0:
19,178,188840,1,8,0:0:0:0:
36,181,188919,1,8,0:0:0:0:
53,184,188999,1,8,0:0:0:0:
70,187,189079,1,8,0:0:0:0:
87,190,189159,6,0,P|77:136|81:83,1,108,6|0,3:2|0:0,0:0:0:0:
159,15,189478,2,0,P|164:51|156:93,1,72,8|0,0:0|3:0,0:0:0:0:
273,128,189797,2,0,P|259:161|231:194,1,72,2|0,0:0|3:0,0:0:0:0:
347,243,190116,1,8,0:0:0:0:
420,342,190276,5,2,0:0:0:0:
420,342,190356,1,2,0:0:0:0:
420,342,190435,2,0,P|368:361|301:355,1,108,2|0,3:2|0:0,0:0:0:0:
316,359,190755,1,8,0:0:0:0:
264,273,190914,1,0,3:0:0:0:
148,380,191074,2,0,P|143:344|132:310,1,72,2|0,0:0|3:0,0:0:0:0:
77,143,191393,1,8,0:0:0:0:
26,254,191552,5,2,3:2:0:0:
26,254,191632,1,2,3:2:0:0:
26,254,191712,2,0,P|72:233|142:221,1,108,2|0,3:2|0:0,0:0:0:0:
174,161,192031,2,0,P|209:165|249:188,1,72,8|0,0:0|3:0,0:0:0:0:
310,308,192350,1,2,0:0:0:0:
416,290,192510,1,0,3:0:0:0:
491,167,192669,1,8,0:0:0:0:
385,149,192829,5,2,0:0:0:0:
385,149,192909,1,2,0:0:0:0:
385,149,192989,2,0,P|363:109|360:47,1,108,2|0,3:2|0:0,0:0:0:0:
359,47,193308,1,8,0:0:0:0:
244,119,193467,1,0,3:0:0:0:
174,80,193627,2,0,P|179:49|177:9,1,72,2|0,0:0|3:0,0:0:0:0:
250,200,193946,2,0,P|239:259|240:312,1,108,8|0,0:0|0:0,0:0:0:0:
182,357,194265,6,0,P|150:343|107:347,2,72,6|2|8,3:2|0:0|0:0,0:0:0:0:
87,255,194744,1,2,3:2:0:0:
87,255,194824,1,2,0:0:0:0:
87,255,194903,2,0,P|116:235|152:231,1,72,2|0,0:0|3:0,0:0:0:0:
88,96,195223,1,8,0:0:0:0:
198,138,195382,5,2,0:0:0:0:
198,138,195462,1,2,0:0:0:0:
198,138,195542,2,0,L|193:61,1,72,2|2,3:2|0:0,0:0:0:0:
351,27,195861,2,0,L|356:104,1,72,8|2,0:0|3:2,0:0:0:0:
289,165,196180,1,2,0:0:0:0:
214,271,196340,1,0,3:0:0:0:
320,346,196499,1,8,0:0:0:0:
394,239,196659,1,2,0:0:0:0:
495,157,196818,6,0,L|496:116,3,36,0|2|2|2,3:0|0:0|0:0|0:0,0:0:0:0:
454,44,197138,1,8,0:0:0:0:
436,46,197217,1,2,0:0:0:0:
417,48,197297,1,2,3:2:0:0:
398,49,197377,1,2,0:0:0:0:
379,50,197457,2,0,L|378:9,3,36,0|2|2|2,3:0|0:0|0:0|0:0,0:0:0:0:
297,57,197776,1,8,0:0:0:0:
279,55,197855,1,2,0:0:0:0:
260,53,197935,1,2,0:0:0:0:
241,52,198015,1,2,0:0:0:0:
222,51,198095,6,0,L|140:74,1,72,2|0,3:2|3:0,0:0:0:0:
280,166,198414,2,0,L|237:149,2,36,10|10|2,0:0|0:0|3:2,0:0:0:0:
369,256,198733,5,10,0:0:0:0:
351,257,198812,1,8,0:0:0:0:
333,259,198892,1,8,0:0:0:0:
315,261,198972,1,8,0:0:0:0:
297,262,199052,1,8,0:0:0:0:
279,264,199131,1,8,0:0:0:0:
261,266,199211,1,8,0:0:0:0:
243,267,199291,1,8,0:0:0:0:
225,269,199372,6,0,P|222:327|232:383,1,108,6|0,3:2|0:0,0:0:0:0:
230,376,199691,1,8,0:0:0:0:
126,319,199850,1,2,3:2:0:0:
17,358,200010,2,0,P|31:326|34:283,1,72,2|0,0:0|3:0,0:0:0:0:
136,227,200329,1,8,0:0:0:0:
209,91,200489,6,0,P|193:59|183:23,2,72,2|0|0,0:0|3:0|3:0,0:0:0:0:
93,9,200967,2,0,P|77:61|48:114,1,108,10|0,0:0|0:0,0:0:0:0:
51,108,201286,1,0,3:0:0:0:
179,191,201446,1,2,3:2:0:0:
179,191,201526,1,2,3:2:0:0:
179,191,201606,2,0,L|100:199,1,72,8|0,0:0|3:0,0:0:0:0:
284,355,201925,5,2,3:2:0:0:
306,216,202084,1,2,3:2:0:0:
419,305,202244,5,8,0:0:0:0:
503,298,202403,1,8,0:0:0:0:
503,298,202483,1,8,0:0:0:0:
503,298,202563,1,8,0:0:0:0:
504,377,202723,1,0,3:0:0:0:
420,384,202882,1,0,3:0:0:0:
419,305,203042,1,0,3:0:0:0:
460,166,203201,5,8,0:0:0:0:
460,166,203999,1,8,0:0:0:0:
462,148,204079,1,8,0:0:0:0:
464,130,204159,1,8,0:0:0:0:
466,112,204239,1,8,0:0:0:0:
468,94,204318,1,8,0:0:0:0:
470,76,204398,1,8,0:0:0:0:
472,58,204478,1,0,3:0:0:0:
383,27,204638,1,0,3:0:0:0:
297,59,204797,6,0,P|249:108|174:58,1,162.00000617981,14|0,0:0|3:0,0:0:0:0:
112,19,205435,1,2,3:2:0:0:
32,34,205594,1,0,3:0:0:0:
8,112,205755,2,0,P|6:139|19:164,1,54.0000020599366,0|0,3:0|3:0,0:0:0:0:
143,199,206074,6,0,P|121:245|113:357,1,162.00000617981,14|0,0:0|3:0,0:0:0:0:
191,375,206712,1,2,3:2:0:0:
270,357,206872,1,0,3:0:0:0:
344,326,207031,2,0,P|374:327|397:338,1,54.0000020599366,0|0,3:0|3:0,0:0:0:0:
445,178,207350,6,0,P|379:209|285:216,1,162.00000617981,14|0,0:0|3:0,0:0:0:0:
238,153,207989,1,2,3:2:0:0:
310,116,208148,1,0,3:0:0:0:
289,37,208308,2,0,L|233:24,1,54.0000020599366,0|0,3:0|3:0,0:0:0:0:
399,60,208627,6,0,L|509:24,1,108.000004119873,14|0,0:0|3:0,0:0:0:0:
416,174,209106,1,8,0:0:0:0:
414,191,209185,1,8,0:0:0:0:
412,208,209265,1,8,0:0:0:0:
410,225,209345,1,8,0:0:0:0:
408,242,209425,1,8,0:0:0:0:
406,259,209505,1,8,0:0:0:0:
404,276,209584,6,0,P|458:296|470:364,1,122.040000372437,6|0,3:2|0:0,0:0:0:0:
473,353,209903,1,8,0:0:0:0:
335,354,210063,2,0,P|296:340|256:336,2,81.360000248291,2|0|0,0:0|3:0|3:0,0:0:0:0:
323,199,210542,1,8,0:0:0:0:
158,288,210701,5,2,0:0:0:0:
158,288,210781,1,2,0:0:0:0:
158,288,210861,2,0,P|199:250|211:178,1,122.040000372437,2|0,3:2|0:0,0:0:0:0:
212,187,211180,1,8,0:0:0:0:
281,105,211340,2,0,P|298:67|337:46,2,81.360000248291,2|0|0,0:0|3:0|3:0,0:0:0:0:
146,42,211818,1,8,0:0:0:0:
39,147,211978,5,8,0:0:0:0:
45,166,212058,1,8,0:0:0:0:
51,185,212138,2,0,P|83:201|120:207,1,72,8|2,0:0|3:2,0:0:0:0:
168,360,212457,2,0,B|228:334|228:334|299:352,1,135,14|0,0:0|0:0,0:0:0:0:
295,351,212776,6,0,L|318:273,1,72,0|2,3:0|3:2,0:0:0:0:
253,149,213095,2,0,B|234:85|234:85|250:18,1,135,14|0,0:0|0:0,0:0:0:0:
249,18,213414,5,0,3:0:0:0:
153,87,213574,1,2,3:2:0:0:
325,84,213733,2,0,B|366:66|366:66|413:77,1,90,14|0,0:0|0:0,0:0:0:0:
479,251,214052,6,0,L|436:235,1,45,0|8,3:0|0:0,0:0:0:0:
309,235,214212,1,8,0:0:0:0:
307,252,214292,1,8,0:0:0:0:
305,269,214372,1,8,0:0:0:0:
303,286,214451,1,8,0:0:0:0:
301,303,214531,1,8,0:0:0:0:
299,320,214611,1,8,0:0:0:0:
297,337,214691,6,0,P|255:291|221:325,1,122.040000372437,6|0,3:2|0:0,0:0:0:0:
153,350,215010,2,0,P|116:341|86:368,1,81.360000248291,8|0,0:0|0:0,0:0:0:0:
44,253,215329,1,2,3:2:0:0:
26,147,215489,2,0,P|54:173|92:164,1,81.360000248291,0|8,3:0|0:0,0:0:0:0:
248,166,215808,5,2,0:0:0:0:
248,166,215888,1,2,0:0:0:0:
248,166,215967,2,0,L|263:42,1,122.040000372437,2|0,3:2|0:0,0:0:0:0:
348,105,216286,2,0,L|337:20,1,81.360000248291,8|0,0:0|0:0,0:0:0:0:
188,21,216606,1,2,3:2:0:0:
67,40,216765,1,0,3:0:0:0:
144,134,216925,1,8,0:0:0:0:
100,254,217084,5,2,0:0:0:0:
100,254,217164,1,2,0:0:0:0:
100,254,217244,2,0,P|151:228|230:241,1,122.040000372437,2|0,3:2|0:0,0:0:0:0:
173,301,217563,2,0,P|212:309|255:296,1,81.360000248291,8|0,0:0|0:0,0:0:0:0:
416,330,217882,1,2,3:2:0:0:
483,358,218042,2,0,P|491:319|478:276,1,81.360000248291,0|8,3:0|0:0,0:0:0:0:
355,195,218361,5,2,0:0:0:0:
355,195,218441,1,2,0:0:0:0:
355,195,218521,2,0,P|349:120|362:72,1,122.040000372437,2|0,3:2|0:0,0:0:0:0:
253,25,218840,2,0,P|266:63|272:104,1,81.360000248291,8|0,0:0|0:0,0:0:0:0:
456,22,219159,1,2,3:2:0:0:
434,108,219318,1,0,3:0:0:0:
507,205,219478,1,10,0:0:0:0:
385,220,219638,5,2,0:0:0:0:
385,220,219717,1,2,0:0:0:0:
385,220,219797,2,0,L|256:197,1,122.040000372437,6|0,3:2|0:0,0:0:0:0:
264,198,220116,1,8,0:0:0:0:
286,364,220276,2,0,L|376:336,2,81.360000248291,2|0|0,0:0|3:0|3:0,0:0:0:0:
168,296,220755,1,8,0:0:0:0:
21,360,220914,5,2,0:0:0:0:
21,360,220994,1,2,0:0:0:0:
21,360,221074,2,0,P|43:306|42:231,1,122.040000372437,2|0,3:2|0:0,0:0:0:0:
44,242,221393,1,8,0:0:0:0:
164,117,221552,2,0,P|147:153|147:204,2,81.360000248291,2|0|0,0:0|3:0|3:0,0:0:0:0:
55,43,222031,1,8,0:0:0:0:
199,23,222191,5,8,0:0:0:0:
219,22,222271,1,8,0:0:0:0:
239,21,222350,2,0,L|324:50,1,72,0|2,3:0|3:2,0:0:0:0:
469,150,222669,2,0,B|401:138|401:138|325:169,1,135,14|0,0:0|0:0,0:0:0:0:
339,162,222989,6,0,P|340:199|356:234,1,72,0|2,3:0|3:2,0:0:0:0:
208,257,223308,2,0,B|249:309|249:309|210:365,1,135,14|0,0:0|0:0,0:0:0:0:
210,366,223627,5,0,3:0:0:0:
323,364,223786,1,2,3:2:0:0:
339,162,223945,5,14,0:0:0:0:
190,180,224105,1,8,0:0:0:0:
190,180,224185,1,8,0:0:0:0:
190,180,224265,1,8,0:0:0:0:
273,214,224425,1,0,3:0:0:0:
342,163,224584,1,0,3:0:0:0:
261,125,224744,1,0,3:0:0:0:
125,113,224903,6,0,P|115:74|207:62,1,162.00000617981,6|2,3:2|0:0,0:0:0:0:
347,75,225542,2,0,P|399:69|408:120,1,108.000004119873,8|0,0:0|3:0,0:0:0:0:
503,224,226021,2,0,L|442:231,1,54.0000020599366,8|2,0:0|0:0,0:0:0:0:
410,301,226340,2,0,L|349:308,2,54.0000020599366,8|0|2,0:0|3:0|0:0,0:0:0:0:
282,371,226818,2,0,L|266:255,1,108.000004119873,8|0,0:0|3:0,0:0:0:0:
375,205,227297,1,8,0:0:0:0:
437,152,227457,6,0,L|421:36,1,108.000004119873,2|0,3:2|3:0,0:0:0:0:
217,18,228095,2,0,P|182:65|114:60,1,108.000004119873,8|2,0:0|3:2,0:0:0:0:
65,151,228574,2,0,P|45:139|30:110,1,54.0000020599366,8|2,0:0|3:2,0:0:0:0:
166,165,228893,2,0,P|186:177|201:206,1,54.0000020599366,8|2,0:0|3:2,0:0:0:0:
327,132,229212,5,8,0:0:0:0:
349,11,229372,1,8,0:0:0:0:
471,36,229531,5,8,3:0:0:0:
478,116,229691,1,2,3:2:0:0:
405,83,229850,1,0,3:0:0:0:
446,233,230010,5,14,0:0:0:0:
215,382,230329,1,10,0:0:0:0:
66,151,230648,1,10,0:0:0:0:
297,2,230967,5,10,0:0:0:0:
333,118,231127,1,10,0:0:0:0:
215,382,231446,1,10,0:0:0:0:
179,266,231606,1,10,0:0:0:0:
179,266,232084,5,8,0:0:0:0:
196,268,232164,1,8,0:0:0:0:
213,270,232244,1,8,0:0:0:0:
230,272,232324,1,8,0:0:0:0:
247,274,232403,1,8,0:0:0:0:
264,276,232483,1,8,0:0:0:0:
281,278,232563,1,6,3:2:0:0:
256,192,232722,12,10,235116,0:0:0:0:
370,330,242137,6,0,L|377:286,1,36,2|8,3:2|0:0,0:0:0:0:
458,222,242297,1,8,0:0:0:0:
456,204,242376,1,8,0:0:0:0:
454,186,242456,1,8,0:0:0:0:
452,168,242536,1,8,0:0:0:0:
450,150,242616,1,2,3:2:0:0:
291,214,242775,6,0,P|261:222|222:204,1,72,14|0,0:0|0:0,0:0:0:0:
158,102,243094,1,10,0:0:0:0:
333,135,243254,2,0,P|303:126|278:91,1,72,2|8,0:0|0:0,0:0:0:0:
409,81,243574,2,0,P|387:59|383:16,1,72,2|8,3:2|0:0,0:0:0:0:
493,195,243892,5,2,3:2:0:0:
509,316,244052,1,8,0:0:0:0:
388,332,244211,1,2,0:0:0:0:
371,210,244371,1,8,0:0:0:0:
302,283,244531,5,2,0:0:0:0:
245,340,244690,1,8,0:0:0:0:
189,283,244850,1,2,3:2:0:0:
245,227,245009,2,0,P|246:173|240:109,1,108,8|0,0:0|0:0,0:0:0:0:
245,123,245328,6,0,P|249:90|275:56,1,72,10|0,0:0|0:0,0:0:0:0:
163,27,245648,1,10,0:0:0:0:
122,146,245807,2,0,P|148:165|164:205,1,72,2|8,0:0|0:0,0:0:0:0:
163,27,246126,2,0,P|132:39|90:34,1,72,2|8,3:2|0:0,0:0:0:0:
13,190,246445,5,2,3:2:0:0:
58,280,246605,1,8,0:0:0:0:
158,291,246765,2,0,L|156:377,1,72,2|8,0:0|0:0,0:0:0:0:
264,261,247084,5,10,0:0:0:0:
264,261,247164,1,10,0:0:0:0:
264,261,247243,1,10,0:0:0:0:
302,190,247403,1,0,3:0:0:0:
380,206,247563,1,2,3:2:0:0:
389,284,247722,1,0,3:0:0:0:
497,160,247882,6,0,L|502:105,2,54.0000020599366,6|0|2,3:2|0:0|0:0,0:0:0:0:
493,240,248360,1,2,0:0:0:0:
423,120,248520,1,12,0:0:0:0:
419,200,248680,1,2,0:0:0:0:
326,363,248999,6,0,P|315:339|293:315,1,54.0000020599366,10|0,0:0|3:0,0:0:0:0:
214,318,249318,2,0,P|197:338|186:363,1,54.0000020599366,10|0,0:0|3:0,0:0:0:0:
105,373,249637,1,10,0:0:0:0:
16,266,249797,5,8,0:0:0:0:
92,291,249956,1,2,3:2:0:0:
164,255,250116,1,0,3:0:0:0:
189,179,250275,1,0,3:0:0:0:
74,143,250435,5,10,0:0:0:0:
334,51,250754,1,10,0:0:0:0:
443,292,251073,5,10,0:0:0:0:
316,256,251233,1,10,0:0:0:0:
29,371,251552,5,10,0:0:0:0:
88,239,251871,1,2,0:0:0:0:
175,361,252190,1,2,0:0:0:0:
175,361,252509,5,8,0:0:0:0:
193,360,252589,1,8,0:0:0:0:
211,359,252669,1,8,0:0:0:0:
229,358,252749,1,8,0:0:0:0:
246,357,252828,1,8,0:0:0:0:
264,357,252908,1,8,0:0:0:0:
282,357,252988,6,0,P|303:286|353:215,1,144,6|8,3:2|0:0,0:0:0:0:
186,241,253467,2,0,P|179:207|164:169,1,72,2|0,3:2|0:0,0:0:0:0:
111,65,253786,1,2,3:2:0:0:
256,111,253945,1,8,0:0:0:0:
401,65,254105,1,14,0:0:0:0:
