osu file format v14

[General]
AudioFilename: audio.mp3
AudioLeadIn: 0
PreviewTime: 55277
Countdown: 0
SampleSet: Soft
StackLeniency: 0.7
Mode: 0
LetterboxInBreaks: 0
WidescreenStoryboard: 1

[Editor]
Bookmarks: 10436,20649,30862,41075,56394,66606,76819,84479,94691,104904,115117,130436,140649,150861,158521,168733,178946,189159,204478,214691,224903,232563,242775,252988
DistanceSpacing: 1.6
BeatDivisor: 4
GridSize: 16
TimelineZoom: 2.199998

[Metadata]
Title:hello
TitleUnicode:hello
Artist:my sound life
ArtistUnicode:my sound life
Creator:Hinsvar
Version:hard
Source:
Tags:Japanese Pop J-Pop JPop Rock JRock J-Rock solfa iyuna 茶太 Chata Featured Artist FA Mappers' Guild MPG
BeatmapID:3553988
BeatmapSetID:1734686

[Difficulty]
HPDrainRate:4
CircleSize:3.6
OverallDifficulty:6
ApproachRate:8
SliderMultiplier:1.28
SliderTickRate:1

[Events]
//Background and Video events
0,0,"hello there.jpg",0,0
//Break Periods
2,87232,93303
2,161274,167824
2,235316,241387
//Storyboard Layer 0 (Background)
//Storyboard Layer 1 (Fail)
//Storyboard Layer 2 (Pass)
//Storyboard Layer 3 (Foreground)
//Storyboard Layer 4 (Overlay)
//Storyboard Sound Samples

[TimingPoints]
224,319.148936170213,4,2,1,70,1,0
25755,-125,4,2,1,65,0,0
28309,-100,4,2,1,70,0,0
30862,-125,4,2,1,50,0,0
41075,-111.111111111111,4,2,1,60,0,0
50170,-90.9090909090909,4,2,1,65,0,0
51287,-125,4,2,1,55,0,0
54319,-100,4,2,1,70,0,0
56394,-90.9090909090909,4,2,1,80,0,1
76819,-125,4,2,1,70,0,0
81926,-90.9090909090909,4,2,1,80,0,1
83521,-100,4,2,1,80,0,0
84000,-100,4,2,1,70,0,0
84479,319.148936170213,4,2,1,70,1,0
99798,-125,4,2,1,65,0,0
102351,-100,4,2,1,70,0,0
104904,-111.111111111111,4,2,1,55,0,0
115117,-100,4,2,1,60,0,0
125330,-125,4,2,1,55,0,0
128361,-100,4,2,1,70,0,0
130436,-90.9090909090909,4,2,1,80,0,1
150861,-125,4,2,1,70,0,0
155968,-90.9090909090909,4,2,1,80,0,1
157564,-100,4,2,1,80,0,0
158042,-100,4,2,1,70,0,0
158521,319.148936170213,4,2,1,70,1,0
168574,-100,4,2,1,60,0,0
168733,-111.111111111111,4,2,1,60,0,0
178467,-111.111111111111,4,2,1,70,0,0
178946,-100,4,2,1,70,0,0
204797,-125,4,2,1,70,0,0
209106,-100,4,2,1,80,0,0
209584,-90.9090909090909,4,2,1,80,0,1
224903,-125,4,2,1,70,0,0
230010,-90.9090909090909,4,2,1,80,0,1
231606,-100,4,2,1,80,0,0
232084,-100,4,2,1,70,0,0
232563,319.148936170213,4,2,1,70,1,0
247882,-125,4,2,1,65,0,0
250435,-100,4,2,1,70,0,0

[Colours]
Combo1 : 152,230,66
Combo2 : 248,103,226
Combo3 : 196,133,214
Combo4 : 227,158,102

[HitObjects]
457,58,9958,5,8,0:0:0:0:
457,58,10037,1,8,0:0:0:0:
457,58,10117,2,0,L|451:106,3,32,8|8|8|8,0:0|0:0|0:0|0:0,0:0:0:0:
439,118,10436,6,0,L|456:186,2,64,14|0|10,0:0|0:0|0:0,0:0:0:0:
355,118,10915,2,0,L|337:179,1,64,2|8,0:0|0:0,0:0:0:0:
283,75,11234,2,0,L|232:123,1,64,2|8,3:2|0:0,0:0:0:0:
172,172,11553,2,0,P|111:157|66:197,1,128,2|2,3:2|0:0,0:0:0:0:
44,277,12032,1,8,0:0:0:0:
98,340,12192,2,0,P|159:355|204:315,1,128,2|2,0:0|3:2,0:0:0:0:
226,235,12671,1,8,0:0:0:0:
400,105,12989,6,0,L|466:136,2,64,10|0|10,0:0|0:0|0:0,0:0:0:0:
467,215,13468,2,0,L|407:256,1,64,2|8,0:0|0:0,0:0:0:0:
338,218,13787,2,0,L|331:145,1,64,2|8,3:2|0:0,0:0:0:0:
261,65,14106,2,0,L|241:196,1,128,2|2,3:2|0:0,0:0:0:0:
159,204,14585,1,8,0:0:0:0:
80,175,14745,2,0,L|60:48,1,128,2|2,0:0|3:2,0:0:0:0:
134,10,15224,2,0,L|199:12,1,64,8|2,0:0|3:2,0:0:0:0:
305,67,15543,6,0,P|335:55|355:22,2,64,14|0|10,0:0|0:0|0:0,0:0:0:0:
251,130,16021,2,0,P|221:118|203:92,1,64,2|8,0:0|0:0,0:0:0:0:
305,193,16341,2,0,P|334:181|352:155,1,64,2|8,3:2|0:0,0:0:0:0:
435,166,16660,2,0,P|473:215|488:286,1,128,2|2,0:0|0:0,0:0:0:0:
473,359,17138,1,8,0:0:0:0:
392,380,17298,2,0,P|354:331|339:260,1,128,2|0,0:0|3:0,0:0:0:0:
349,184,17777,2,0,P|345:150|327:118,1,64,10|0,0:0|3:0,0:0:0:0:
287,53,18096,5,14,0:0:0:0:
72,85,18415,1,10,0:0:0:0:
212,215,18734,1,8,0:0:0:0:
279,264,18894,1,2,3:2:0:0:
230,331,19053,1,8,0:0:0:0:
164,282,19213,2,0,P|100:272|31:271,1,128,2|2,3:2|0:0,0:0:0:0:
61,180,19692,2,0,P|95:190|126:183,1,64,8|2,0:0|0:0,0:0:0:0:
179,125,20011,1,2,3:2:0:0:
179,125,20091,1,8,0:0:0:0:
179,125,20170,2,0,L|220:115,4,32,8|8|8|8|2,0:0|0:0|0:0|0:0|3:2,0:0:0:0:
68,88,20649,6,0,L|64:22,2,64,14|0|10,0:0|0:0|0:0,0:0:0:0:
42,167,21128,2,0,L|45:230,1,64,2|8,0:0|0:0,0:0:0:0:
121,334,21447,2,0,L|117:270,1,64,2|8,3:2|0:0,0:0:0:0:
193,235,21766,2,0,P|246:258|305:225,1,128,2|2,3:2|0:0,0:0:0:0:
280,146,22245,1,8,0:0:0:0:
326,77,22404,2,0,P|379:54|438:87,1,128,2|2,0:0|3:2,0:0:0:0:
413,166,22883,1,8,0:0:0:0:
456,369,23202,6,0,P|468:341|478:302,2,64,10|0|10,0:0|0:0|0:0,0:0:0:0:
378,286,23681,2,0,P|377:317|373:349,1,64,2|8,0:0|0:0,0:0:0:0:
290,355,24000,2,0,P|286:323|277:292,1,64,2|8,3:2|0:0,0:0:0:0:
211,241,24319,2,0,P|214:179|230:108,1,128,2|2,3:2|0:0,0:0:0:0:
250,34,24798,1,8,0:0:0:0:
169,53,24958,1,2,0:0:0:0:
347,170,25277,1,8,0:0:0:0:
347,170,25356,1,8,0:0:0:0:
347,170,25436,1,10,0:0:0:0:
428,189,25596,1,8,0:0:0:0:
496,127,25755,6,0,P|498:98|496:74,2,51.2,6|0|2,3:2|0:0|3:2,0:0:0:0:
411,106,26234,2,0,P|398:61|398:5,1,102.4,2|2,0:0|0:0,0:0:0:0:
220,87,26872,1,10,0:0:0:0:
35,23,27192,1,10,0:0:0:0:
105,182,27511,2,0,P|118:227|118:283,1,102.4,2|0,0:0|3:0,0:0:0:0:
70,354,27989,2,0,P|42:356|19:366,1,51.2,2|2,3:2|0:0,0:0:0:0:
152,356,28309,5,10,0:0:0:0:
360,356,28628,1,10,0:0:0:0:
456,175,28947,5,10,0:0:0:0:
456,72,29106,1,10,0:0:0:0:
256,26,29426,5,10,0:0:0:0:
256,192,29745,1,2,0:0:0:0:
256,358,30064,1,2,0:0:0:0:
112,273,30383,5,10,0:0:0:0:
112,273,30463,1,8,0:0:0:0:
112,273,30543,2,0,L|65:273,3,32,8|8|8|8,0:0|0:0|0:0|0:0,0:0:0:0:
48,273,30862,1,6,3:2:0:0:
94,82,31181,6,0,P|94:52|83:27,2,51.2,2|0|0,3:2|0:0|3:0,0:0:0:0:
173,118,31660,2,0,P|168:143|154:164,1,51.2,2|0,0:0|3:0,0:0:0:0:
69,187,31979,2,0,L|31:181,2,25.6,2|0|0,0:0|0:0|3:0,0:0:0:0:
82,273,32298,2,0,L|21:288,2,51.2,2|0|0,0:0|3:0|0:0,0:0:0:0:
241,341,32936,2,0,L|302:356,1,51.2,2|0,0:0|3:0,0:0:0:0:
369,316,33255,5,2,0:0:0:0:
369,316,33335,1,2,0:0:0:0:
369,316,33415,2,0,L|367:252,1,51.2,2|2,3:2|0:0,0:0:0:0:
333,184,33734,6,0,L|335:120,2,51.2,0|0|0,3:0|0:0|3:0,0:0:0:0:
419,196,34213,1,2,0:0:0:0:
499,41,34532,2,0,L|494:10,2,25.6,2|0|0,0:0|0:0|3:0,0:0:0:0:
416,70,34851,1,2,0:0:0:0:
336,35,35011,2,0,P|287:23|228:50,1,102.4,0|0,3:0|3:0,0:0:0:0:
154,21,35489,2,0,P|125:37|111:66,1,51.2,2|0,0:0|3:0,0:0:0:0:
47,104,35809,5,2,0:0:0:0:
47,104,35888,1,2,0:0:0:0:
47,104,35968,2,0,L|38:156,1,51.2,2|2,3:2|0:0,0:0:0:0:
112,228,36287,6,0,L|164:237,2,51.2,0|0|0,3:0|0:0|3:0,0:0:0:0:
129,142,36766,2,0,L|179:150,1,51.2,2|0,0:0|3:0,0:0:0:0:
244,92,37085,2,0,L|236:56,2,25.6,2|0|0,0:0|0:0|3:0,0:0:0:0:
382,198,37564,2,0,L|375:253,1,51.2,2|0,3:2|0:0,0:0:0:0:
316,312,37883,2,0,L|322:362,2,51.2,0|0|2,3:0|0:0|3:2,0:0:0:0:
243,263,38362,5,2,0:0:0:0:
243,263,38442,1,2,0:0:0:0:
243,263,38521,2,0,L|188:258,1,51.2,2|2,3:2|0:0,0:0:0:0:
146,333,38841,6,0,L|91:328,1,51.2,0|2,3:0|0:0,0:0:0:0:
163,168,39319,2,0,L|218:173,1,51.2,2|0,0:0|3:0,0:0:0:0:
297,198,39638,2,0,L|337:191,2,25.6,2|0|0,0:0|0:0|3:0,0:0:0:0:
278,106,39958,2,0,L|354:21,2,102.4,2|2|2,0:0|0:0|0:0,0:0:0:0:
193,87,40755,1,0,3:0:0:0:
137,20,40915,1,2,0:0:0:0:
137,20,40995,1,2,0:0:0:0:
137,20,41075,1,2,3:2:0:0:
35,187,41394,5,2,0:3:0:0:
109,143,41553,1,0,0:0:0:0:
165,208,41713,2,0,P|179:234|182:268,2,57.5999982421876,2|0|2,3:2|0:0|0:3,0:0:0:0:
233,155,42192,2,0,L|274:160,2,28.7999991210938,2|2|0,0:0|0:0|3:0,0:0:0:0:
199,75,42511,2,0,P|213:49|216:15,2,57.5999982421876,2|2|2,0:0|0:3|0:0,0:0:0:0:
394,63,43149,2,0,P|397:91|411:116,1,57.5999982421876,2|2,0:0|0:3,0:0:0:0:
492,171,43468,1,2,0:0:0:0:
492,171,43548,1,2,0:0:0:0:
492,171,43628,1,0,3:0:0:0:
441,336,43947,6,0,P|412:336|383:345,2,57.5999982421876,2|0|0,0:3|0:0|3:0,0:0:0:0:
405,250,44426,2,0,P|376:250|348:241,1,57.5999982421876,2|2,0:0|0:3,0:0:0:0:
277,290,44745,2,0,L|283:333,2,28.7999991210938,2|2|0,0:0|0:0|3:0,0:0:0:0:
209,235,45064,1,2,0:0:0:0:
159,163,45224,2,0,L|174:45,1,115.199996484375,2|0,0:3|3:0,0:0:0:0:
97,8,45702,2,0,L|36:42,1,57.5999982421876,2|2,0:0|0:3,0:0:0:0:
82,125,46021,1,2,0:0:0:0:
82,125,46101,1,2,0:0:0:0:
82,125,46181,1,0,3:0:0:0:
73,320,46500,6,0,L|123:348,2,57.5999982421876,2|0|0,0:3|0:0|3:0,0:0:0:0:
116,244,46979,2,0,L|166:272,1,57.5999982421876,2|2,0:0|0:3,0:0:0:0:
246,238,47298,2,0,L|243:195,2,28.7999991210938,2|2|2,0:0|0:0|3:2,0:0:0:0:
329,260,47617,2,0,P|344:288|357:373,1,115.199996484375,2|2,0:0|0:0,0:0:0:0:
439,341,48096,2,0,P|443:312|457:287,2,57.5999982421876,0|0|2,3:0|0:0|0:3,0:0:0:0:
412,217,48575,1,2,0:0:0:0:
412,217,48654,1,2,0:0:0:0:
412,217,48734,1,2,3:2:0:0:
473,31,49053,5,2,0:3:0:0:
395,68,49213,2,0,L|404:105,2,28.7999991210938,2|2|0,0:0|0:0|3:0,0:0:0:0:
313,39,49532,2,0,L|248:30,1,57.5999982421876,2|0,0:0|3:0,0:0:0:0:
181,65,49851,1,2,0:0:0:0:
181,65,49931,1,2,0:0:0:0:
181,65,50011,1,2,3:2:0:0:
70,21,50170,6,0,L|78:179,1,140.800004296875,10|2,0:0|3:2,0:0:0:0:
150,203,50649,2,0,L|138:280,1,70.4000021484376,0|2,3:0|3:2,0:0:0:0:
195,336,50968,1,0,3:0:0:0:
119,374,51128,5,2,3:2:0:0:
119,374,51208,1,2,3:2:0:0:
119,374,51287,2,0,P|71:356|41:312,1,102.4,6|0,3:2|3:0,0:0:0:0:
144,161,51926,2,0,P|192:179|222:223,1,102.4,8|0,0:0|0:0,0:0:0:0:
300,265,52404,5,10,0:0:0:0:
300,265,52484,1,8,0:0:0:0:
300,265,52564,1,0,3:0:0:0:
365,216,52724,2,0,P|391:197|426:192,2,51.2,10|2|2,0:0|3:2|3:2,0:0:0:0:
292,176,53202,2,0,L|281:72,1,102.4,8|0,0:0|3:0,0:0:0:0:
355,38,53681,1,0,3:0:0:0:
433,14,53841,6,0,L|444:118,1,102.4,6|0,3:2|3:0,0:0:0:0:
502,199,54319,2,0,L|489:277,1,64,10|8,0:0|0:0,0:0:0:0:
395,297,54638,2,0,L|362:368,1,64,8|8,0:0|0:0,0:0:0:0:
265,365,54958,5,8,0:0:0:0:
182,370,55117,1,10,0:0:0:0:
135,300,55277,1,8,0:0:0:0:
171,227,55436,1,10,0:0:0:0:
255,219,55596,1,8,0:0:0:0:
305,293,55755,1,10,0:0:0:0:
305,293,56075,2,0,L|343:270,3,32,8|8|8|8,0:0|0:0|0:0|0:0,0:0:0:0:
356,250,56394,6,0,L|495:298,2,140.800004296875,6|8|2,3:2|0:0|3:2,0:0:0:0:
305,173,57192,1,0,3:0:0:0:
384,127,57351,2,0,P|394:93|393:57,1,70.4000021484376,8|2,0:0|0:0,0:0:0:0:
291,10,57670,2,0,P|236:59|240:133,1,140.800004296875,2|8,3:2|0:0,0:0:0:0:
159,173,58149,2,0,P|132:151|90:138,1,70.4000021484376,2|0,0:0|3:0,0:0:0:0:
30,78,58468,1,0,3:0:0:0:
101,20,58628,1,8,0:0:0:0:
184,79,58787,5,2,0:0:0:0:
184,79,58867,1,2,0:0:0:0:
184,79,58947,2,0,P|255:71|291:15,2,140.800004296875,2|8|2,3:2|0:0|3:2,0:0:0:0:
131,154,59745,1,0,3:0:0:0:
178,231,59904,2,0,P|209:248|227:281,1,70.4000021484376,8|2,0:0|0:0,0:0:0:0:
301,359,60224,2,0,P|316:297|388:263,1,140.800004296875,2|8,3:2|0:0,0:0:0:0:
397,173,60702,2,0,L|330:149,1,70.4000021484376,2|0,0:0|3:0,0:0:0:0:
320,58,61021,1,0,3:0:0:0:
410,40,61181,1,8,0:0:0:0:
481,113,61341,5,2,0:0:0:0:
481,113,61420,1,2,0:0:0:0:
481,113,61500,2,0,L|493:255,1,140.800004296875,2|8,3:2|0:0,0:0:0:0:
411,341,61979,2,0,L|399:199,1,140.800004296875,2|0,0:0|3:0,0:0:0:0:
320,153,62458,2,0,L|310:226,1,70.4000021484376,8|2,0:0|0:0,0:0:0:0:
322,322,62777,2,0,P|256:293|170:296,1,140.800004296875,2|8,3:2|0:0,0:0:0:0:
216,183,63255,2,0,P|148:209|90:272,1,140.800004296875,2|0,0:0|3:0,0:0:0:0:
25,308,63734,1,8,0:0:0:0:
35,195,63894,1,8,0:0:0:0:
44,83,64053,6,0,L|34:11,1,70.4000021484376,0|2,3:0|3:2,0:0:0:0:
125,121,64372,1,14,0:0:0:0:
346,165,64692,6,0,L|356:93,1,70.4000021484376,0|2,3:0|3:2,0:0:0:0:
265,203,65011,1,14,0:0:0:0:
87,339,65330,6,0,L|77:267,1,70.4000021484376,0|2,3:0|3:2,0:0:0:0:
168,377,65649,1,14,0:0:0:0:
368,268,65968,5,0,3:0:0:0:
368,268,66048,1,8,0:0:0:0:
368,268,66128,2,0,L|361:307,5,35.2000010742188,8|8|8|8|8|8,0:0|0:0|0:0|0:0|0:0|0:0,0:0:0:0:
353,336,66606,6,0,L|258:214,2,140.800004296875,6|8|2,3:2|0:0|3:2,0:0:0:0:
443,350,67404,1,0,3:0:0:0:
490,271,67564,2,0,L|493:196,1,70.4000021484376,8|2,0:0|0:0,0:0:0:0:
495,87,67883,2,0,P|440:49|362:40,1,140.800004296875,2|8,3:2|0:0,0:0:0:0:
279,12,68362,2,0,P|252:34|240:67,1,70.4000021484376,2|0,0:0|3:0,0:0:0:0:
218,156,68681,1,0,3:0:0:0:
127,163,68841,1,8,0:0:0:0:
75,240,69000,5,2,0:0:0:0:
75,240,69080,1,2,0:0:0:0:
75,240,69160,2,0,P|71:310|48:376,2,140.800004296875,2|8|2,3:2|0:0|3:2,0:0:0:0:
169,288,69958,1,0,3:0:0:0:
271,313,70117,2,0,P|261:279|261:235,1,70.4000021484376,8|2,0:0|0:0,0:0:0:0:
186,162,70436,2,0,P|220:94|284:95,1,140.800004296875,2|8,3:2|0:0,0:0:0:0:
327,14,70915,2,0,P|362:22|394:49,1,70.4000021484376,2|0,0:0|3:0,0:0:0:0:
409,134,71234,1,0,3:0:0:0:
500,128,71394,1,8,0:0:0:0:
468,218,71553,5,2,0:0:0:0:
468,218,71633,1,2,0:0:0:0:
468,218,71713,2,0,P|446:293|445:366,1,140.800004296875,6|8,3:2|0:0,0:0:0:0:
353,373,72192,2,0,P|349:302|328:235,1,140.800004296875,2|0,0:0|3:0,0:0:0:0:
367,153,72670,2,0,L|293:146,1,70.4000021484376,8|2,0:0|0:0,0:0:0:0:
230,81,72989,2,0,P|179:121|211:178,1,140.800004296875,0|8,3:0|0:0,0:0:0:0:
220,269,73468,2,0,P|252:322|198:365,1,140.800004296875,2|0,0:0|3:0,0:0:0:0:
107,299,73947,1,8,0:0:0:0:
19,365,74106,5,8,0:0:0:0:
19,365,74186,1,8,0:0:0:0:
19,365,74266,2,0,L|5:288,1,70.4000021484376,0|2,3:0|3:2,0:0:0:0:
103,215,74585,1,14,0:0:0:0:
291,338,74904,6,0,L|317:264,1,70.4000021484376,0|2,3:0|3:2,0:0:0:0:
438,250,75223,1,14,0:0:0:0:
282,86,75543,6,0,L|222:35,1,70.4000021484376,0|2,3:0|3:2,0:0:0:0:
111,83,75862,1,14,0:0:0:0:
20,293,76181,5,0,3:0:0:0:
20,293,76261,1,8,0:0:0:0:
20,293,76341,2,0,L|73:302,5,35.2000010742188,8|8|8|8|8|8,0:0|0:0|0:0|0:0|0:0|0:0,0:0:0:0:
70,325,76819,6,0,L|235:314,1,153.6,6|2,3:2|0:0,0:0:0:0:
198,235,77458,2,0,L|93:216,1,102.4,8|0,0:0|3:0,0:0:0:0:
111,136,77936,2,0,L|136:83,1,51.2,8|2,0:0|3:2,0:0:0:0:
212,109,78255,2,0,L|233:155,2,51.2,8|0|2,0:0|3:0|0:0,0:0:0:0:
281,64,78734,2,0,L|374:124,1,102.4,8|0,0:0|3:0,0:0:0:0:
434,166,79213,1,8,0:0:0:0:
390,235,79372,6,0,L|413:343,1,102.4,2|0,3:2|3:0,0:0:0:0:
219,368,80011,2,0,L|240:267,1,102.4,8|2,0:0|3:2,0:0:0:0:
190,202,80489,2,0,P|181:174|183:147,1,51.2,8|2,0:0|3:2,0:0:0:0:
253,111,80809,2,0,P|262:139|260:166,1,51.2,8|2,0:0|3:2,0:0:0:0:
319,232,81128,5,8,0:0:0:0:
319,232,81208,1,8,0:0:0:0:
319,232,81287,1,8,0:0:0:0:
401,227,81447,2,0,L|458:224,2,51.2,8|2|0,3:0|3:2|3:0,0:0:0:0:
367,312,81926,5,14,0:0:0:0:
136,303,82245,1,10,0:0:0:0:
145,72,82564,1,10,0:0:0:0:
376,81,82883,1,10,0:0:0:0:
376,81,83043,1,10,0:0:0:0:
367,312,83362,1,10,0:0:0:0:
367,312,83521,1,10,0:0:0:0:
138,190,84000,5,8,0:0:0:0:
138,190,84080,1,8,0:0:0:0:
138,190,84160,2,0,L|87:195,3,32,8|8|8|8,0:0|0:0|0:0|0:0,0:0:0:0:
74,196,84479,1,6,3:2:0:0:
256,192,84638,12,10,87032,0:0:0:0:
279,338,94053,5,0,3:0:0:0:
279,338,94133,1,8,0:0:0:0:
279,338,94213,2,0,L|227:326,4,32,8|8|8|8|2,0:0|0:0|0:0|0:0|3:2,0:0:0:0:
258,237,94691,6,0,L|194:248,2,64,14|0|10,0:0|0:0|0:0,0:0:0:0:
151,176,95170,2,0,L|173:115,1,64,2|8,0:0|0:0,0:0:0:0:
257,114,95490,2,0,L|298:163,1,64,2|8,3:2|0:0,0:0:0:0:
365,244,95808,2,0,L|398:105,1,128,2|2,3:2|0:0,0:0:0:0:
471,150,96287,1,8,0:0:0:0:
505,225,96447,2,0,L|472:364,1,128,2|2,0:0|3:2,0:0:0:0:
399,319,96926,1,8,0:0:0:0:
198,357,97244,6,0,P|165:360|132:342,2,64,10|0|10,0:0|0:0|0:0,0:0:0:0:
185,227,97723,2,0,P|196:257|220:276,1,64,2|8,0:0|0:0,0:0:0:0:
292,235,98042,2,0,P|289:204|302:175,1,64,2|8,3:2|0:0,0:0:0:0:
381,149,98361,2,0,L|332:28,1,128,2|2,3:2|0:0,0:0:0:0:
256,64,98840,1,8,0:0:0:0:
179,30,99000,1,10,0:0:0:0:
179,30,99080,1,10,0:0:0:0:
179,30,99159,2,0,L|107:37,1,64,10|0,0:0|3:0,0:0:0:0:
121,119,99479,2,0,L|193:112,1,64,2|0,3:2|3:0,0:0:0:0:
210,190,99798,6,0,L|204:253,2,51.2,6|0|2,3:2|0:0|3:2,0:0:0:0:
290,200,100276,2,0,L|278:308,1,102.4,2|2,0:0|0:0,0:0:0:0:
80,354,100915,1,10,0:0:0:0:
47,151,101234,1,10,0:0:0:0:
250,118,101553,1,10,0:0:0:0:
250,118,101633,1,10,0:0:0:0:
250,118,101713,2,0,L|253:66,1,51.2,10|0,0:0|3:0,0:0:0:0:
334,73,102032,2,0,L|331:125,1,51.2,2|2,3:2|0:0,0:0:0:0:
286,194,102351,5,10,0:0:0:0:
421,349,102670,1,10,0:0:0:0:
474,151,102989,5,10,0:0:0:0:
372,137,103149,1,10,0:0:0:0:
178,202,103468,5,10,0:0:0:0:
37,112,103787,1,2,0:0:0:0:
188,43,104106,1,2,0:0:0:0:
329,133,104425,5,10,0:0:0:0:
329,133,104505,1,8,0:0:0:0:
329,133,104585,2,0,L|365:129,3,32,8|8|8|8,0:0|0:0|0:0|0:0,0:0:0:0:
393,127,104904,1,6,3:2:0:0:
478,289,105223,6,0,P|427:311|390:376,1,115.199996484375,10|0,0:0|3:0,0:0:0:0:
313,354,105702,1,2,3:2:0:0:
311,273,105861,1,8,0:0:0:0:
252,217,106021,2,0,L|273:96,1,115.199996484375,2|0,3:2|3:0,0:0:0:0:
216,44,106500,1,8,0:0:0:0:
138,65,106659,2,0,L|117:186,1,115.199996484375,2|0,0:0|3:0,0:0:0:0:
174,238,107138,1,8,0:0:0:0:
161,324,107298,5,2,0:0:0:0:
161,324,107377,1,2,0:0:0:0:
161,324,107457,2,0,L|101:334,1,57.5999982421876,2|2,3:2|0:0,0:0:0:0:
62,263,107776,6,0,L|5:253,2,57.5999982421876,8|2|0,0:0|0:0|3:0,0:0:0:0:
75,183,108255,1,2,3:2:0:0:
244,110,108574,2,0,L|250:72,2,28.7999991210938,2|2|2,3:2|0:0|0:0,0:0:0:0:
293,173,108893,1,0,3:0:0:0:
370,150,109053,2,0,L|366:19,1,115.199996484375,8|2,0:0|3:2,0:0:0:0:
446,24,109532,2,0,L|501:50,1,57.5999982421876,0|8,3:0|0:0,0:0:0:0:
506,137,109851,5,2,0:0:0:0:
506,137,109931,1,2,0:0:0:0:
506,137,110010,2,0,L|451:163,1,57.5999982421876,2|2,3:2|0:0,0:0:0:0:
427,238,110330,6,0,P|423:269|425:296,2,57.5999982421876,8|2|0,0:0|0:0|3:0,0:0:0:0:
338,262,110808,2,0,P|342:231|340:204,1,57.5999982421876,2|8,3:2|0:0,0:0:0:0:
274,157,111127,2,0,L|268:122,2,28.7999991210938,2|2|2,3:2|0:0|0:0,0:0:0:0:
208,205,111447,2,0,L|147:212,1,57.5999982421876,0|8,3:0|0:0,0:0:0:0:
97,272,111766,1,2,0:0:0:0:
235,353,112085,2,0,L|296:346,1,57.5999982421876,0|8,3:0|0:0,0:0:0:0:
337,282,112404,5,2,0:0:0:0:
337,282,112484,1,2,0:0:0:0:
337,282,112564,2,0,P|336:249|344:218,1,57.5999982421876,2|2,3:2|0:0,0:0:0:0:
365,148,112883,5,8,0:0:0:0:
287,169,113042,2,0,P|256:125|264:62,1,115.199996484375,2|0,0:0|3:0,0:0:0:0:
192,24,113521,1,8,0:0:0:0:
113,47,113681,2,0,L|76:40,2,28.7999991210938,2|2|2,3:2|0:0|0:0,0:0:0:0:
120,127,114000,1,0,3:0:0:0:
155,199,114159,6,0,L|179:260,1,57.5999982421876,10|0,0:0|3:0,0:0:0:0:
36,235,114479,2,0,L|71:189,1,57.5999982421876,10|0,0:0|3:0,0:0:0:0:
127,317,114798,2,0,L|70:308,1,57.5999982421876,10|2,0:0|0:0,0:0:0:0:
17,373,115117,5,6,3:2:0:0:
232,344,115436,2,0,P|235:314|227:277,2,64,8|2|0,0:0|0:0|3:0,0:0:0:0:
313,359,115915,2,0,P|330:334|342:298,1,64,0|8,3:0|0:0,0:0:0:0:
297,231,116234,2,0,L|292:197,2,32,2|2|2,3:2|0:0|0:0,0:0:0:0:
377,208,116553,2,0,L|447:195,1,64,0|8,3:0|0:0,0:0:0:0:
471,119,116872,2,0,L|347:85,1,128,2|0,0:0|3:0,0:0:0:0:
286,28,117351,1,8,0:0:0:0:
248,105,117510,1,2,0:0:0:0:
248,105,117590,1,2,0:0:0:0:
248,105,117670,1,2,3:2:0:0:
308,300,117989,6,0,P|317:334|314:366,2,64,8|0|0,0:0|0:0|3:0,0:0:0:0:
226,280,118468,2,0,P|205:304|193:333,1,64,2|8,3:2|0:0,0:0:0:0:
119,361,118787,1,2,3:2:0:0:
119,361,118867,1,2,0:0:0:0:
119,361,118947,2,0,L|43:350,1,64,2|0,0:0|3:0,0:0:0:0:
18,277,119266,2,0,L|149:248,1,128,8|0,0:0|3:0,0:0:0:0:
187,179,119744,2,0,P|198:146|192:115,1,64,0|8,3:0|0:0,0:0:0:0:
142,56,120064,1,2,0:0:0:0:
142,56,120143,1,2,0:0:0:0:
142,56,120223,1,0,3:0:0:0:
344,24,120542,6,0,L|410:37,2,64,8|0|2,0:0|0:0|3:2,0:0:0:0:
327,105,121021,2,0,L|393:118,1,64,0|8,3:0|0:0,0:0:0:0:
400,208,121340,1,2,3:2:0:0:
400,208,121420,1,2,0:0:0:0:
400,208,121500,2,0,P|404:239|418:271,2,64,2|0|8,0:0|3:0|0:0,0:0:0:0:
310,219,121979,2,0,P|302:284|281:348,1,128,2|0,0:0|3:0,0:0:0:0:
367,370,122457,1,8,0:0:0:0:
454,352,122617,1,2,0:0:0:0:
454,352,122697,1,2,0:0:0:0:
454,352,122776,1,2,3:2:0:0:
472,147,123096,5,8,0:0:0:0:
462,64,123255,2,0,P|477:47|489:35,2,32,2|2|0,0:0|0:0|3:0,0:0:0:0:
378,71,123574,2,0,P|347:60|319:36,1,64,0|8,3:0|0:0,0:0:0:0:
248,117,123893,2,0,P|312:138|366:182,1,128,2|0,3:2|3:0,0:0:0:0:
337,281,124372,6,0,L|257:292,1,64,10|0,0:0|3:0,0:0:0:0:
200,370,124691,2,0,L|120:359,1,64,10|0,0:0|3:0,0:0:0:0:
94,260,125010,2,0,L|14:271,1,64,10|2,0:0|0:0,0:0:0:0:
22,150,125330,6,0,P|65:173|120:153,1,102.4,6|0,3:2|3:0,0:0:0:0:
254,39,125968,2,0,P|297:16|352:36,1,102.4,8|0,0:0|0:0,0:0:0:0:
408,84,126447,2,0,L|468:87,1,51.2,10|0,0:0|3:2,0:0:0:0:
405,165,126766,2,0,L|465:168,2,51.2,10|2|2,0:0|3:2|3:2,0:0:0:0:
358,232,127244,2,0,P|342:281|339:347,1,102.4,8|0,0:0|0:0,0:0:0:0:
174,331,127883,6,0,P|169:280|154:232,1,102.4,14|0,0:0|3:0,0:0:0:0:
88,142,128361,2,0,P|115:138|147:121,1,64,10|8,0:0|0:0,0:0:0:0:
228,57,128681,2,0,P|255:72|287:78,1,64,8|8,0:0|0:0,0:0:0:0:
386,50,129000,5,8,0:0:0:0:
468,62,129159,1,10,0:0:0:0:
457,144,129319,1,8,0:0:0:0:
374,132,129479,1,10,0:0:0:0:
400,339,129798,1,10,0:0:0:0:
400,339,130117,2,0,L|404:295,3,32,8|8|8|8,0:0|0:0|0:0|0:0,0:0:0:0:
405,271,130436,6,0,P|336:270|261:311,2,140.800004296875,6|8|2,3:2|0:0|3:2,0:0:0:0:
452,192,131234,1,0,3:0:0:0:
363,170,131393,2,0,P|354:135|352:97,1,70.4000021484376,8|2,0:0|0:0,0:0:0:0:
262,30,131713,2,0,P|258:94|244:186,1,140.800004296875,2|8,3:2|0:0,0:0:0:0:
195,244,132191,2,0,P|202:280|221:317,1,70.4000021484376,2|2,0:0|3:2,0:0:0:0:
289,366,132510,1,0,3:0:0:0:
379,352,132670,1,8,0:0:0:0:
427,273,132830,5,2,0:0:0:0:
427,273,132909,1,2,0:0:0:0:
427,273,132989,2,0,P|436:207|467:125,2,140.800004296875,2|8|2,3:2|0:0|3:2,0:0:0:0:
340,243,133787,1,0,3:0:0:0:
257,283,133947,2,0,P|246:249|228:210,1,70.4000021484376,8|2,0:0|0:0,0:0:0:0:
317,147,134266,2,0,L|180:105,1,140.800004296875,2|8,3:2|0:0,0:0:0:0:
142,23,134744,2,0,L|71:42,1,70.4000021484376,2|0,0:0|3:0,0:0:0:0:
42,128,135064,1,0,3:0:0:0:
100,197,135223,1,8,0:0:0:0:
197,225,135383,5,2,0:0:0:0:
197,225,135463,1,2,0:0:0:0:
197,225,135542,2,0,P|215:290|206:369,1,140.800004296875,2|8,3:2|0:0,0:0:0:0:
320,356,136021,2,0,P|302:291|311:212,1,140.800004296875,2|0,0:0|3:0,0:0:0:0:
250,148,136500,2,0,L|243:75,1,70.4000021484376,8|2,0:0|0:0,0:0:0:0:
313,18,136819,2,0,P|371:62|433:35,1,140.800004296875,2|8,3:2|0:0,0:0:0:0:
461,142,137298,2,0,P|394:155|371:218,1,140.800004296875,2|0,0:0|3:0,0:0:0:0:
390,306,137776,1,8,0:0:0:0:
298,294,137936,1,0,3:0:0:0:
220,342,138096,6,0,L|148:358,1,70.4000021484376,0|2,3:0|3:2,0:0:0:0:
32,311,138415,1,14,0:0:0:0:
240,225,138734,6,0,L|168:241,1,70.4000021484376,0|2,3:0|3:2,0:0:0:0:
52,194,139053,1,14,0:0:0:0:
260,108,139372,6,0,L|188:124,1,70.4000021484376,0|2,3:0|3:2,0:0:0:0:
72,77,139691,1,14,0:0:0:0:
310,20,140010,5,0,3:0:0:0:
310,20,140090,1,8,0:0:0:0:
310,20,140170,2,0,L|355:33,5,35.2000010742188,8|8|8|8|8|8,0:0|0:0|0:0|0:0|0:0|0:0,0:0:0:0:
379,28,140649,6,0,P|370:93|392:175,2,140.800004296875,6|8|2,3:2|0:0|3:2,0:0:0:0:
465,57,141447,1,0,3:0:0:0:
505,138,141606,2,0,P|501:185|484:225,1,70.4000021484376,8|2,0:0|0:0,0:0:0:0:
512,330,141925,2,0,P|450:287|385:265,1,140.800004296875,2|8,3:2|0:0,0:0:0:0:
302,234,142404,2,0,P|272:253|251:289,1,70.4000021484376,2|0,0:0|3:0,0:0:0:0:
195,353,142723,1,0,3:0:0:0:
137,281,142883,1,8,0:0:0:0:
147,197,143042,5,2,0:0:0:0:
147,197,143122,1,2,0:0:0:0:
147,197,143202,2,0,P|173:132|178:58,2,140.800004296875,2|8|2,3:2|0:0|3:2,0:0:0:0:
55,200,144000,1,0,3:0:0:0:
26,286,144159,2,0,P|41:324|81:358,1,70.4000021484376,8|2,0:0|0:0,0:0:0:0:
180,358,144479,2,0,L|319:339,1,140.800004296875,2|8,3:2|0:0,0:0:0:0:
279,256,144957,2,0,L|208:227,1,70.4000021484376,2|0,0:0|3:2,0:0:0:0:
160,154,145276,1,0,3:0:0:0:
248,128,145436,1,8,0:0:0:0:
344,111,145596,5,2,0:0:0:0:
344,111,145675,1,2,0:0:0:0:
344,111,145755,2,0,P|359:67|285:27,1,140.800004296875,6|8,3:2|0:0,0:0:0:0:
171,41,146234,2,0,P|109:62|116:126,1,140.800004296875,2|0,0:0|3:0,0:0:0:0:
192,178,146713,2,0,L|271:163,1,70.4000021484376,8|2,0:0|0:0,0:0:0:0:
311,241,147032,2,0,L|453:270,1,140.800004296875,2|8,3:2|0:0,0:0:0:0:
360,339,147510,2,0,L|222:367,1,140.800004296875,2|0,0:0|3:0,0:0:0:0:
149,280,147989,1,8,0:0:0:0:
69,361,148149,1,8,0:0:0:0:
27,279,148308,6,0,P|29:245|51:212,1,70.4000021484376,0|2,3:0|3:2,0:0:0:0:
131,118,148627,1,14,0:0:0:0:
275,291,148947,6,0,P|258:262|256:222,1,70.4000021484376,0|2,3:0|3:2,0:0:0:0:
268,100,149266,1,14,0:0:0:0:
483,163,149585,6,0,P|452:148|428:117,1,70.4000021484376,0|2,3:0|3:2,0:0:0:0:
368,11,149904,1,14,0:0:0:0:
144,11,150223,5,0,3:2:0:0:
144,11,150303,1,8,0:0:0:0:
144,11,150383,2,0,L|135:59,5,35.2000010742188,8|8|8|8|8|8,0:0|0:0|0:0|0:0|0:0|0:0,0:0:0:0:
125,73,150861,6,0,L|163:230,1,153.6,6|2,3:2|0:0,0:0:0:0:
243,174,151500,2,0,L|241:285,1,102.4,8|0,0:0|3:0,0:0:0:0:
320,297,151979,2,0,L|299:357,1,51.2,8|2,0:0|3:2,0:0:0:0:
377,379,152298,2,0,L|398:319,2,51.2,8|0|2,0:0|3:0|0:0,0:0:0:0:
473,366,152776,2,0,L|475:255,1,102.4,8|0,0:0|3:0,0:0:0:0:
416,205,153255,1,8,0:0:0:0:
339,175,153415,6,0,L|341:64,1,102.4,2|0,3:2|3:0,0:0:0:0:
173,175,154053,2,0,L|171:64,1,102.4,8|2,0:0|0:0,0:0:0:0:
100,29,154532,2,0,P|79:41|46:45,1,51.2,8|2,0:0|3:2,0:0:0:0:
13,117,154851,2,0,P|28:136|34:161,1,51.2,8|8,0:0|0:0,0:0:0:0:
98,245,155170,5,8,0:0:0:0:
22,276,155330,1,8,0:0:0:0:
88,323,155489,2,0,L|97:379,2,51.2,8|2|0,3:0|3:2|3:0,0:0:0:0:
179,334,155968,5,14,0:0:0:0:
398,269,156287,1,10,0:0:0:0:
333,50,156606,1,10,0:0:0:0:
114,115,156925,1,10,0:0:0:0:
114,115,157085,1,10,0:0:0:0:
179,334,157404,1,10,0:0:0:0:
179,334,157564,1,10,0:0:0:0:
249,84,158042,5,8,0:0:0:0:
249,84,158122,1,8,0:0:0:0:
249,84,158202,2,0,L|253:39,3,32,8|8|8|8,0:0|0:0|0:0|0:0,0:0:0:0:
260,21,158521,1,6,3:2:0:0:
256,192,158680,12,2,161074,3:2:0:0:
440,60,168574,5,2,0:0:0:0:
440,60,168653,1,2,0:0:0:0:
440,60,168733,2,0,P|448:84|448:131,1,57.5999982421876,6|2,3:2|0:0,0:0:0:0:
493,191,169052,6,0,P|469:199|422:199,1,57.5999982421876,0|2,3:0|0:0,0:0:0:0:
361,245,169372,2,0,P|353:221|353:174,2,57.5999982421876,0|0|0,3:0|0:0|3:0,0:0:0:0:
290,294,169850,2,0,L|257:284,2,28.7999991210938,2|2|0,0:0|0:0|3:0,0:0:0:0:
341,363,170169,2,0,L|402:341,2,57.5999982421876,2|0|2,0:0|3:0|0:0,0:0:0:0:
146,335,170808,2,0,L|85:313,1,57.5999982421876,2|0,0:0|3:0,0:0:0:0:
64,233,171127,5,2,0:0:0:0:
64,233,171207,1,2,0:0:0:0:
64,233,171286,2,0,L|58:164,1,57.5999982421876,2|2,3:2|0:0,0:0:0:0:
84,92,171606,6,0,L|90:23,1,57.5999982421876,0|2,3:0|0:0,0:0:0:0:
175,44,171925,2,0,L|169:113,2,57.5999982421876,0|0|0,3:0|0:0|3:0,0:0:0:0:
261,44,172403,2,0,L|258:13,2,28.7999991210938,2|2|0,0:0|0:0|3:0,0:0:0:0:
329,98,172723,2,0,L|398:104,2,57.5999982421876,2|0|2,0:0|3:0|0:0,0:0:0:0:
199,244,173361,2,0,L|141:248,1,57.5999982421876,2|0,0:0|3:0,0:0:0:0:
109,328,173680,5,2,0:0:0:0:
109,328,173760,1,2,0:0:0:0:
109,328,173840,2,0,P|116:357|146:370,1,57.5999982421876,2|2,3:2|0:0,0:0:0:0:
217,333,174159,5,0,3:0:0:0:
297,363,174318,2,0,L|334:360,2,28.7999991210938,2|0|0,0:0|0:0|3:0,0:0:0:0:
287,276,174638,2,0,L|307:222,2,57.5999982421876,2|0|0,0:0|3:0|0:0,0:0:0:0:
205,247,175116,1,0,3:0:0:0:
195,160,175276,1,2,0:0:0:0:
342,31,175595,2,0,L|369:19,2,28.7999991210938,2|2|0,0:0|0:0|3:0,0:0:0:0:
371,112,175914,2,0,L|431:126,1,57.5999982421876,2|0,0:0|3:0,0:0:0:0:
482,205,176233,5,2,0:0:0:0:
482,205,176313,1,2,0:0:0:0:
482,205,176393,2,0,L|468:265,1,57.5999982421876,2|2,3:2|0:0,0:0:0:0:
404,319,176712,5,0,3:0:0:0:
327,277,176872,2,0,L|320:241,2,28.7999991210938,2|0|0,0:0|0:0|3:0,0:0:0:0:
247,312,177191,2,0,L|230:381,2,57.5999982421876,2|0|0,0:0|3:0|0:0,0:0:0:0:
151,274,177669,5,6,3:2:0:0:
159,282,178467,1,8,0:0:0:0:
159,282,178547,1,8,0:0:0:0:
159,282,178627,2,0,L|124:301,3,28.7999991210938,8|8|8|8,0:0|0:0|0:0|0:0,0:0:0:0:
106,313,178946,6,0,P|68:264|4:228,1,128,6|10,3:2|0:0,0:0:0:0:
55,144,179425,2,0,P|80:164|115:174,1,64,0|2,3:0|0:0,0:0:0:0:
177,123,179744,1,0,3:0:0:0:
177,123,179824,1,0,3:0:0:0:
177,123,179903,2,0,L|190:47,2,64,8|0|2,0:0|0:0|3:2,0:0:0:0:
309,279,180542,5,8,0:0:0:0:
369,350,180701,1,2,3:2:0:0:
369,350,180781,1,2,0:0:0:0:
369,350,180861,2,0,L|437:345,1,64,2|0,0:0|3:0,0:0:0:0:
471,264,181180,1,8,0:0:0:0:
379,104,181499,6,0,P|371:78|372:38,2,64,2|0|8,3:2|0:0|0:0,0:0:0:0:
286,85,181978,2,0,P|286:116|278:147,1,64,0|2,3:0|0:0,0:0:0:0:
207,184,182297,1,0,3:0:0:0:
207,184,182377,1,0,3:0:0:0:
207,184,182457,2,0,L|136:172,1,64,8|0,0:0|0:0,0:0:0:0:
102,257,182776,2,0,L|229:278,1,128,2|8,3:2|0:0,0:0:0:0:
318,296,183255,1,2,3:2:0:0:
318,296,183334,1,2,0:0:0:0:
318,296,183414,2,0,L|323:368,2,64,0|0|8,0:0|3:0|0:0,0:0:0:0:
240,106,184052,5,4,3:2:0:0:
263,25,184212,1,2,0:0:0:0:
346,23,184372,1,10,0:0:0:0:
375,100,184531,1,2,3:2:0:0:
309,151,184691,2,0,P|330:178|362:191,2,64,2|2|10,0:0|3:2|0:0,0:0:0:0:
295,264,185169,1,2,0:0:0:0:
295,264,185249,1,2,0:0:0:0:
295,264,185329,2,0,P|274:237|179:216,1,128,2|8,3:2|0:0,0:0:0:0:
130,275,185808,2,0,P|101:291|62:289,2,64,0|2|0,3:0|0:0|3:0,0:0:0:0:
82,206,186286,1,10,0:0:0:0:
45,112,186446,5,2,0:0:0:0:
45,112,186526,1,2,0:0:0:0:
45,112,186606,2,0,L|173:131,1,128,2|10,3:2|0:0,0:0:0:0:
204,234,187084,2,0,L|332:215,1,128,2|0,3:2|3:0,0:0:0:0:
340,132,187563,1,8,0:0:0:0:
427,73,187723,5,2,0:0:0:0:
427,73,187802,1,2,0:0:0:0:
427,73,187882,2,0,P|461:76|499:88,1,64,2|0,3:2|3:0,0:0:0:0:
492,167,188201,2,0,P|461:175|429:178,1,64,8|0,0:0|3:0,0:0:0:0:
427,262,188521,2,0,P|461:265|499:277,1,64,10|0,0:0|3:0,0:0:0:0:
492,356,188840,2,0,L|462:367,3,32,8|8|8|8,0:0|0:0|0:0|0:0,0:0:0:0:
430,372,189159,6,0,L|297:334,1,128,6|8,3:2|0:0,0:0:0:0:
237,291,189638,1,0,3:0:0:0:
154,294,189797,2,0,L|138:360,2,64,2|0|8,0:0|3:0|0:0,0:0:0:0:
64,307,190276,1,2,0:0:0:0:
64,307,190356,1,2,0:0:0:0:
64,307,190435,2,0,L|55:176,1,128,2|8,3:2|0:0,0:0:0:0:
109,116,190914,1,0,3:0:0:0:
184,151,191074,2,0,P|215:159|250:144,2,64,2|0|8,0:0|3:0|0:0,0:0:0:0:
187,68,191552,5,2,3:2:0:0:
187,68,191632,1,2,3:2:0:0:
187,68,191712,2,0,P|232:33|283:76,1,128,2|8,3:2|0:0,0:0:0:0:
354,111,192191,1,0,3:0:0:0:
434,90,192350,2,0,L|452:19,2,64,2|0|8,0:0|3:0|0:0,0:0:0:0:
473,174,192829,1,2,0:0:0:0:
473,174,192909,1,2,0:0:0:0:
473,174,192989,2,0,L|499:311,1,128,2|8,3:2|0:0,0:0:0:0:
446,365,193467,2,0,P|419:349|377:341,1,64,0|2,3:0|0:0,0:0:0:0:
325,285,193786,1,0,3:0:0:0:
404,261,193946,1,8,0:0:0:0:
307,76,194265,6,0,L|311:13,2,64,6|2|8,3:2|0:0|0:0,0:0:0:0:
235,111,194744,1,2,3:2:0:0:
235,111,194824,1,2,0:0:0:0:
235,111,194903,2,0,P|222:88|193:63,1,64,2|0,0:0|3:0,0:0:0:0:
116,29,195223,2,0,P|88:45|68:70,1,64,8|2,0:0|0:0,0:0:0:0:
58,152,195542,2,0,P|75:216|85:287,2,128,2|8|2,3:2|0:0|0:0,0:0:0:0:
139,132,196340,1,0,3:0:0:0:
210,174,196499,2,0,P|205:204|191:241,1,64,8|2,0:0|0:0,0:0:0:0:
160,311,196818,6,0,L|192:318,3,32,0|2|2|2,3:0|0:0|0:0|0:0,0:0:0:0:
214,340,197138,2,0,L|287:326,1,64,8|2,0:0|3:2,0:0:0:0:
358,343,197457,2,0,L|365:311,3,32,0|2|2|2,3:0|0:0|0:0|0:0,0:0:0:0:
387,289,197777,2,0,L|373:216,1,64,8|2,0:0|0:0,0:0:0:0:
298,179,198095,2,0,L|284:252,1,64,2|0,3:2|3:0,0:0:0:0:
223,296,198414,2,0,L|190:304,2,32,10|10|2,0:0|0:0|3:2,0:0:0:0:
204,217,198733,1,10,0:0:0:0:
204,217,198813,1,8,0:0:0:0:
204,217,198893,2,0,L|171:225,5,32,8|8|8|8|8|8,0:0|0:0|0:0|0:0|0:0|0:0,0:0:0:0:
148,203,199372,6,0,P|122:144|55:118,1,128,6|8,3:2|0:0,0:0:0:0:
40,196,199850,1,2,3:2:0:0:
38,279,200010,2,0,P|43:315|57:346,2,64,2|0|8,0:0|3:0|0:0,0:0:0:0:
120,289,200489,6,0,P|177:324|249:327,1,128,2|0,0:0|3:0,0:0:0:0:
239,246,200967,2,0,P|244:210|258:179,2,64,10|0|0,0:0|0:0|3:0,0:0:0:0:
320,292,201446,1,2,3:2:0:0:
320,292,201526,1,2,3:2:0:0:
320,292,201606,2,0,P|331:262|335:230,1,64,8|0,0:0|3:0,0:0:0:0:
335,146,201925,5,2,3:2:0:0:
390,84,202085,1,2,3:2:0:0:
473,102,202245,1,8,0:0:0:0:
506,189,202404,5,8,0:0:0:0:
506,189,202483,1,8,0:0:0:0:
506,189,202563,2,0,P|472:201|448:218,1,64,8|0,0:0|3:0,0:0:0:0:
437,299,202882,2,0,P|449:333|466:357,1,64,0|0,3:0|3:0,0:0:0:0:
372,242,203201,5,8,0:0:0:0:
380,250,203999,1,8,0:0:0:0:
380,250,204079,1,8,0:0:0:0:
380,250,204159,2,0,L|339:254,3,32,8|8|8|8,0:0|0:0|0:0|0:0,0:0:0:0:
321,270,204478,5,0,3:0:0:0:
239,252,204638,1,0,3:0:0:0:
157,234,204797,2,0,P|144:134|128:69,1,153.6,14|0,0:0|3:0,0:0:0:0:
198,33,205435,1,2,3:2:0:0:
198,33,205595,1,0,3:0:0:0:
264,81,205755,2,0,P|257:109|254:141,1,51.2,0|0,3:0|3:0,0:0:0:0:
307,193,206074,6,0,P|385:194|467:207,1,153.6,14|0,0:0|3:0,0:0:0:0:
494,285,206712,1,2,3:2:0:0:
494,285,206872,1,0,3:0:0:0:
441,347,207031,2,0,P|412:355|384:368,1,51.2,0|0,3:0|3:0,0:0:0:0:
315,337,207350,6,0,P|291:281|307:191,1,153.6,14|0,0:0|3:0,0:0:0:0:
347,122,207989,1,2,3:2:0:0:
347,122,208148,1,0,3:0:0:0:
413,74,208308,2,0,P|419:49|416:11,1,51.2,0|0,3:0|3:0,0:0:0:0:
337,10,208627,6,0,P|284:47|230:54,1,102.4,14|0,0:0|3:0,0:0:0:0:
169,37,209106,1,8,0:0:0:0:
169,37,209185,1,8,0:0:0:0:
169,37,209265,2,0,L|129:21,3,32,8|8|8|8,0:0|0:0|0:0|0:0,0:0:0:0:
108,42,209584,6,0,P|91:108|101:196,1,140.800004296875,6|8,3:2|0:0,0:0:0:0:
182,118,210063,2,0,P|199:184|189:272,1,140.800004296875,2|0,0:0|3:0,0:0:0:0:
150,337,210542,2,0,L|69:344,1,70.4000021484376,8|2,0:0|0:0,0:0:0:0:
238,354,210861,2,0,L|392:365,1,140.800004296875,2|8,3:2|0:0,0:0:0:0:
455,272,211340,2,0,L|301:261,1,140.800004296875,2|0,0:0|3:0,0:0:0:0:
286,175,211818,1,8,0:0:0:0:
385,184,211978,5,8,0:0:0:0:
385,184,212058,1,8,0:0:0:0:
385,184,212138,2,0,P|416:174|439:138,1,70.4000021484376,8|2,0:0|3:2,0:0:0:0:
458,18,212457,1,14,0:0:0:0:
283,160,212776,6,0,P|276:191|295:229,1,70.4000021484376,0|2,3:0|3:2,0:0:0:0:
390,306,213095,1,14,0:0:0:0:
352,83,213414,6,0,P|327:61|285:59,1,70.4000021484376,0|2,3:0|3:2,0:0:0:0:
172,103,213733,1,14,0:0:0:0:
58,297,214052,5,0,3:0:0:0:
58,297,214132,1,8,0:0:0:0:
58,297,214212,2,0,L|93:305,5,35.2000010742188,8|8|8|8|8|8,0:0|0:0|0:0|0:0|0:0|0:0,0:0:0:0:
109,273,214691,6,0,P|164:302|148:375,2,140.800004296875,6|8|2,3:2|0:0|3:2,0:0:0:0:
57,197,215489,1,0,3:0:0:0:
68,106,215648,2,0,P|76:70|102:42,1,70.4000021484376,8|2,0:0|0:0,0:0:0:0:
208,13,215967,2,0,P|232:74|245:175,1,140.800004296875,2|8,3:2|0:0,0:0:0:0:
358,140,216446,2,0,P|341:171|321:218,1,70.4000021484376,2|0,0:0|3:0,0:0:0:0:
326,294,216765,1,0,3:0:0:0:
407,336,216925,1,8,0:0:0:0:
493,298,217084,5,2,0:0:0:0:
493,298,217164,1,2,0:0:0:0:
493,298,217244,2,0,P|505:231|494:156,2,140.800004296875,2|8|2,3:2|0:0|3:2,0:0:0:0:
418,223,218042,1,0,3:0:0:0:
340,271,218201,2,0,P|334:241|309:196,1,70.4000021484376,8|2,0:0|0:0,0:0:0:0:
249,112,218521,2,0,L|404:128,1,140.800004296875,2|8,3:2|0:0,0:0:0:0:
442,52,218999,2,0,L|378:14,1,70.4000021484376,2|0,0:0|3:0,0:0:0:0:
290,6,219318,1,0,3:0:0:0:
203,37,219478,1,10,0:0:0:0:
92,28,219638,5,2,0:0:0:0:
92,28,219717,1,2,0:0:0:0:
92,28,219797,2,0,P|121:82|113:160,1,140.800004296875,6|8,3:2|0:0,0:0:0:0:
75,272,220276,2,0,P|129:243|207:251,1,140.800004296875,2|0,0:0|3:0,0:0:0:0:
284,202,220755,2,0,L|279:127,1,70.4000021484376,8|2,0:0|0:0,0:0:0:0:
381,178,221074,2,0,L|356:333,1,140.800004296875,2|8,3:2|0:0,0:0:0:0:
282,367,221552,2,0,L|127:342,1,140.800004296875,2|0,0:0|3:0,0:0:0:0:
69,290,222031,1,8,0:0:0:0:
177,261,222191,5,8,0:0:0:0:
177,261,222271,1,8,0:0:0:0:
177,261,222350,2,0,P|175:224|184:189,1,70.4000021484376,0|2,3:0|3:2,0:0:0:0:
282,281,222669,1,14,0:0:0:0:
314,14,222989,6,0,P|347:30|372:56,1,70.4000021484376,0|2,3:0|3:2,0:0:0:0:
244,94,223308,1,14,0:0:0:0:
455,257,223627,6,0,P|423:277|389:286,1,70.4000021484376,0|2,3:0|3:2,0:0:0:0:
421,156,223946,1,14,0:0:0:0:
319,183,224106,5,8,0:0:0:0:
319,183,224185,1,8,0:0:0:0:
319,183,224265,1,8,0:0:0:0:
230,160,224425,1,0,3:0:0:0:
165,224,224584,1,0,3:0:0:0:
254,247,224744,1,0,3:0:0:0:
247,328,224903,6,0,P|178:360|102:344,1,153.6,6|2,3:2|0:0,0:0:0:0:
89,264,225542,2,0,P|45:243|23:193,1,102.4,8|0,0:0|3:0,0:0:0:0:
68,127,226021,2,0,L|60:77,1,51.2,8|2,0:0|0:0,0:0:0:0:
140,63,226340,2,0,L|148:113,2,51.2,8|0|2,0:0|3:0|0:0,0:0:0:0:
220,48,226818,2,0,L|240:156,1,102.4,8|0,0:0|3:0,0:0:0:0:
320,139,227297,1,8,0:0:0:0:
379,195,227457,6,0,L|359:303,1,102.4,2|0,3:2|3:0,0:0:0:0:
502,376,228095,2,0,L|483:275,1,102.4,8|0,0:0|3:0,0:0:0:0:
451,199,228574,2,0,P|465:171|468:140,1,51.2,8|2,0:0|3:2,0:0:0:0:
493,73,228893,2,0,P|480:50|475:25,1,51.2,8|2,0:0|3:2,0:0:0:0:
404,92,229212,5,8,0:0:0:0:
404,92,229292,1,0,0:0:0:0:
404,92,229372,1,8,0:0:0:0:
310,68,229531,2,0,P|322:45|327:20,2,51.2,8|2|0,3:0|3:2|3:0,0:0:0:0:
232,18,230010,5,14,0:0:0:0:
82,216,230329,1,10,0:0:0:0:
280,366,230648,1,10,0:0:0:0:
430,168,230967,1,10,0:0:0:0:
430,168,231127,1,10,0:0:0:0:
232,18,231446,1,10,0:0:0:0:
232,18,231606,1,10,0:0:0:0:
228,288,232084,5,8,0:0:0:0:
228,288,232164,1,8,0:0:0:0:
228,288,232244,2,0,L|265:277,3,32,8|8|8|8,0:0|0:0|0:0|0:0,0:0:0:0:
290,274,232563,1,6,3:2:0:0:
256,192,232722,12,10,235116,0:0:0:0:
492,113,242137,5,2,3:2:0:0:
492,113,242217,1,8,0:0:0:0:
492,113,242297,2,0,L|476:157,4,32,8|8|8|8|2,0:0|0:0|0:0|0:0|3:2,0:0:0:0:
444,37,242775,6,0,L|371:25,2,64,14|0|10,0:0|0:0|0:0,0:0:0:0:
404,110,243254,2,0,L|330:117,1,64,2|8,0:0|0:0,0:0:0:0:
309,216,243573,2,0,L|369:194,1,64,2|8,3:2|0:0,0:0:0:0:
447,222,243892,2,0,P|440:292|442:360,1,128,2|2,3:2|0:0,0:0:0:0:
363,380,244371,1,8,0:0:0:0:
279,376,244531,2,0,P|247:320|210:268,1,128,2|2,0:0|3:2,0:0:0:0:
135,305,245009,1,8,0:0:0:0:
68,97,245328,6,0,P|101:100|129:89,2,64,10|0|10,0:0|0:0|0:0,0:0:0:0:
80,192,245807,2,0,P|109:180|141:183,1,64,2|8,0:0|0:0,0:0:0:0:
267,121,246126,2,0,P|237:132|205:129,1,64,2|8,3:2|0:0,0:0:0:0:
221,211,246445,2,0,P|235:271|244:344,1,128,2|2,3:2|0:0,0:0:0:0:
322,362,246924,1,8,0:0:0:0:
407,340,247084,1,10,0:0:0:0:
407,340,247164,1,10,0:0:0:0:
407,340,247243,1,10,0:0:0:0:
440,263,247403,2,0,P|472:255|518:268,1,64,0|2,3:0|3:2,0:0:0:0:
466,177,247722,1,0,3:0:0:0:
481,90,247882,6,0,P|459:97|422:94,2,51.2,6|0|2,3:2|0:0|0:0,0:0:0:0:
442,18,248360,1,2,0:0:0:0:
442,18,248520,2,0,P|416:16|392:25,1,51.2,12|2,0:0|0:0,0:0:0:0:
201,66,248999,1,10,0:0:0:0:
369,162,249318,1,10,0:0:0:0:
301,344,249637,2,0,P|294:295|277:237,1,102.4,10|2,0:0|3:2,0:0:0:0:
198,232,250116,2,0,P|190:255|182:290,1,51.2,0|0,3:0|3:0,0:0:0:0:
218,357,250435,5,10,0:0:0:0:
18,310,250754,1,10,0:0:0:0:
116,130,251073,5,10,0:0:0:0:
216,154,251233,1,10,0:0:0:0:
409,7,251552,5,10,0:0:0:0:
243,23,251871,1,2,0:0:0:0:
77,39,252190,1,2,0:0:0:0:
173,174,252509,5,8,0:0:0:0:
173,174,252589,1,8,0:0:0:0:
173,174,252669,2,0,L|168:218,3,32,8|8|8|8,0:0|0:0|0:0|0:0,0:0:0:0:
166,237,252988,6,0,P|106:234|42:274,1,128,6|8,3:2|0:0,0:0:0:0:
71,346,253467,2,0,P|103:359|137:351,1,64,2|0,3:2|0:0,0:0:0:0:
206,317,253786,5,2,3:2:0:0:
295,245,253945,1,8,0:0:0:0:
313,358,254105,1,14,0:0:0:0:
