osu file format v14

[General]
AudioFilename: audio.mp3
AudioLeadIn: 0
PreviewTime: 55277
Countdown: 0
SampleSet: Soft
StackLeniency: 0.7
Mode: 0
LetterboxInBreaks: 0
WidescreenStoryboard: 0

[Editor]
Bookmarks: 10436,20649,30862,41075,56394,66606,76819,84479,94691,104904,115117,130436,140649,150861,158521,168733,178946,189159,204478,214691,224903,232563,242775,252988
DistanceSpacing: 0.9
BeatDivisor: 4
GridSize: 16
TimelineZoom: 1.999998

[Metadata]
Title:hello
TitleUnicode:hello
Artist:my sound life
ArtistUnicode:my sound life
Creator:Hinsvar
Version:expert
Source:
Tags:Japanese Pop J-Pop JPop Rock JRock J-Rock solfa iyuna 茶太 Chata Featured Artist FA Mappers' Guild MPG
BeatmapID:3545487
BeatmapSetID:1734686

[Difficulty]
HPDrainRate:6
CircleSize:4.2
OverallDifficulty:8.5
ApproachRate:9.2
SliderMultiplier:1.6
SliderTickRate:1

[Events]
//Background and Video events
0,0,"hello there.jpg",0,0
//Break Periods
2,87232,93483
2,161274,168004
2,235316,241567
//Storyboard Layer 0 (Background)
//Storyboard Layer 1 (Fail)
//Storyboard Layer 2 (Pass)
//Storyboard Layer 3 (Foreground)
//Storyboard Layer 4 (Overlay)
//Storyboard Sound Samples

[TimingPoints]
224,319.148936170213,4,2,1,70,1,0
25755,-133.333333333333,4,2,1,65,0,0
28309,-100,4,2,1,70,0,0
30862,-133.333333333333,4,2,1,50,0,0
41075,-114.942528735632,4,2,1,60,0,0
50170,-88.4955752212389,4,2,1,65,0,0
51287,-133.333333333333,4,2,1,55,0,0
54319,-100,4,2,1,70,0,0
56394,-88.4955752212389,4,2,1,80,0,1
64053,-66.6666666666667,4,2,1,80,0,1
66606,-88.4955752212389,4,2,1,80,0,1
74266,-66.6666666666667,4,2,1,80,0,1
76819,-133.333333333333,4,2,1,70,0,0
81926,-88.4955752212389,4,2,1,80,0,1
83521,-100,4,2,1,80,0,0
84000,-100,4,2,1,70,0,0
84479,319.148936170213,4,2,1,70,1,0
99798,-133.333333333333,4,2,1,65,0,0
102351,-100,4,2,1,70,0,0
104904,-114.942528735632,4,2,1,55,0,0
115117,-100,4,2,1,60,0,0
125330,-133.333333333333,4,2,1,55,0,0
128361,-100,4,2,1,70,0,0
130436,-88.4955752212389,4,2,1,80,0,1
138096,-66.6666666666667,4,2,1,80,0,1
140649,-88.4955752212389,4,2,1,80,0,1
148308,-66.6666666666667,4,2,1,80,0,1
150861,-133.333333333333,4,2,1,70,0,0
155968,-88.4955752212389,4,2,1,80,0,1
157564,-100,4,2,1,80,0,0
158042,-100,4,2,1,70,0,0
158521,319.148936170213,4,2,1,70,1,0
168574,-114.942528735632,4,2,1,60,0,0
178467,-100,4,2,1,70,0,0
204797,-133.333333333333,4,2,1,70,0,0
209106,-100,4,2,1,80,0,0
209584,-88.4955752212389,4,2,1,80,0,1
212138,-66.6666666666667,4,2,1,80,0,1
214691,-88.4955752212389,4,2,1,80,0,1
222350,-66.6666666666667,4,2,1,80,0,1
224903,-133.333333333333,4,2,1,70,0,0
230010,-88.4955752212389,4,2,1,80,0,1
231606,-100,4,2,1,80,0,0
232084,-100,4,2,1,70,0,0
232563,319.148936170213,4,2,1,70,1,0
247882,-133.333333333333,4,2,1,65,0,0
250435,-100,4,2,1,70,0,0

[Colours]
Combo1 : 152,230,66
Combo2 : 248,103,226
Combo3 : 196,133,214
Combo4 : 227,158,102

[HitObjects]
338,71,9958,5,8,0:0:0:0:
335,90,10037,1,8,0:0:0:0:
332,109,10117,1,8,0:0:0:0:
330,128,10197,1,8,0:0:0:0:
328,147,10277,1,8,0:0:0:0:
326,166,10356,1,8,0:0:0:0:
324,185,10436,6,0,L|405:166,1,80,14|0,0:0|0:0,0:0:0:0:
338,382,10755,1,10,0:0:0:0:
502,273,10915,2,0,L|478:349,1,80,2|8,0:0|0:0,0:0:0:0:
338,382,11234,2,0,L|283:323,1,80,2|8,3:2|0:0,0:0:0:0:
130,88,11553,5,2,3:2:0:0:
92,277,11713,1,8,0:0:0:0:
234,144,11873,1,2,0:0:0:0:
41,169,12032,1,8,0:0:0:0:
211,262,12192,5,2,0:0:0:0:
286,289,12352,1,8,0:0:0:0:
259,365,12511,1,2,3:2:0:0:
188,341,12670,2,0,P|128:351|71:368,1,120,8|0,0:0|0:0,0:0:0:0:
71,367,12989,6,0,P|81:326|79:281,1,80,10|0,0:0|0:0,0:0:0:0:
47,49,13309,1,10,0:0:0:0:
165,162,13468,2,0,P|185:196|197:235,1,80,2|8,0:0|0:0,0:0:0:0:
254,69,13787,2,0,P|222:39|182:18,1,80,2|8,3:2|0:0,0:0:0:0:
333,186,14106,5,2,3:2:0:0:
455,199,14266,1,8,0:0:0:0:
502,134,14426,2,0,L|509:54,1,80,2|8,0:0|0:0,0:0:0:0:
286,251,14745,2,0,L|274:373,1,120,2|0,0:0|0:0,0:0:0:0:
274,370,15064,1,2,3:2:0:0:
368,262,15224,1,8,0:0:0:0:
297,136,15383,1,2,3:2:0:0:
203,244,15543,6,0,P|167:259|125:260,1,80,14|0,0:0|0:0,0:0:0:0:
22,77,15862,1,10,0:0:0:0:
72,14,16021,2,0,P|111:15|148:30,1,80,2|8,0:0|0:0,0:0:0:0:
253,181,16341,2,0,P|213:179|176:164,1,80,2|8,3:2|0:0,0:0:0:0:
42,371,16660,6,0,P|117:339|195:320,1,160,2|2,0:0|0:0,0:0:0:0:
104,243,17138,1,8,0:0:0:0:
278,379,17298,2,0,P|277:327|301:243,1,120,2|0,0:0|0:0,0:0:0:0:
292,261,17617,1,0,3:0:0:0:
488,279,17777,1,10,0:0:0:0:
389,326,17936,1,0,3:0:0:0:
368,135,18096,6,0,L|375:15,1,120,14|0,0:0|0:0,0:0:0:0:
447,20,18415,2,0,L|438:147,1,120,10|0,0:0|0:0,0:0:0:0:
438,139,18734,1,8,0:0:0:0:
295,129,18894,1,2,3:2:0:0:
303,10,19053,1,8,0:0:0:0:
129,43,19213,6,0,P|163:61|217:58,1,80,2|8,3:2|0:0,0:0:0:0:
270,234,19532,2,0,P|237:254|213:302,1,80,2|8,0:0|0:0,0:0:0:0:
33,261,19851,1,2,0:0:0:0:
11,186,20011,1,2,3:2:0:0:
11,186,20091,1,8,0:0:0:0:
11,186,20170,1,8,0:0:0:0:
43,163,20249,1,8,0:0:0:0:
62,128,20329,1,8,0:0:0:0:
64,88,20409,1,8,0:0:0:0:
49,52,20489,1,2,3:2:0:0:
280,99,20649,6,0,P|273:138|287:180,1,80,14|0,0:0|0:0,0:0:0:0:
371,365,20968,1,10,0:0:0:0:
231,301,21128,2,0,P|204:330|167:344,1,80,2|8,0:0|0:0,0:0:0:0:
367,283,21447,2,0,P|405:292|436:318,1,80,2|8,3:2|0:0,0:0:0:0:
175,226,21766,5,2,3:2:0:0:
137,103,21926,1,8,0:0:0:0:
312,13,22085,1,2,0:0:0:0:
283,138,22245,1,8,0:0:0:0:
396,208,22404,5,2,0:0:0:0:
445,144,22564,1,8,0:0:0:0:
508,194,22724,1,2,3:2:0:0:
463,261,22883,2,0,L|477:380,1,120,8|0,0:0|0:0,0:0:0:0:
477,380,23202,6,0,P|441:367|389:366,1,80,10|0,0:0|0:0,0:0:0:0:
222,252,23521,1,10,0:0:0:0:
206,332,23681,2,0,P|243:325|289:300,1,80,2|8,0:0|0:0,0:0:0:0:
455,147,24000,2,0,P|425:171|398:216,1,80,2|8,3:2|0:0,0:0:0:0:
231,157,24319,5,2,3:2:0:0:
213,26,24479,1,8,0:0:0:0:
266,84,24638,2,0,L|352:75,1,80,2|8,0:0|0:0,0:0:0:0:
178,215,24958,2,0,L|55:202,1,120,2|0,0:0|0:0,0:0:0:0:
66,284,25277,1,8,0:0:0:0:
66,284,25356,1,8,0:0:0:0:
66,284,25436,1,10,0:0:0:0:
256,258,25596,1,8,0:0:0:0:
445,233,25755,6,0,P|446:200|454:169,2,60.0000022888184,6|0|2,3:2|0:0|3:2,0:0:0:0:
345,193,26234,2,0,P|344:163|318:73,1,120.000004577637,2|2,0:0|0:0,0:0:0:0:
52,25,26872,6,0,L|127:36,1,60.0000022888184,10|0,0:0|3:0,0:0:0:0:
225,111,27192,2,0,L|150:122,1,60.0000022888184,10|0,0:0|3:0,0:0:0:0:
93,200,27511,2,0,L|158:324,1,120.000004577637,2|0,0:0|3:0,0:0:0:0:
226,310,27989,1,2,3:2:0:0:
185,376,28149,1,2,0:0:0:0:
41,285,28309,5,10,0:0:0:0:
471,329,28628,1,10,0:0:0:0:
182,174,28947,5,10,0:0:0:0:
330,143,29106,1,10,0:0:0:0:
256,20,29426,5,10,0:0:0:0:
256,99,29745,1,2,0:0:0:0:
256,178,30064,1,2,0:0:0:0:
256,257,30383,5,10,0:0:0:0:
256,277,30462,1,8,0:0:0:0:
256,297,30542,1,8,0:0:0:0:
256,317,30622,1,8,0:0:0:0:
256,337,30702,1,8,0:0:0:0:
256,357,30781,1,8,0:0:0:0:
256,377,30861,1,6,3:2:0:0:
44,241,31181,6,0,P|76:237|105:215,2,60.0000022888184,2|0|0,3:2|0:0|3:0,0:0:0:0:
22,165,31660,2,0,P|47:149|76:146,1,60.0000022888184,2|0,0:0|3:0,0:0:0:0:
146,106,31979,2,0,L|133:67,2,30.0000011444092,2|0|0,0:0|0:0|3:0,0:0:0:0:
222,87,32298,2,0,L|226:21,2,60.0000022888184,2|0|0,0:0|3:0|0:0,0:0:0:0:
293,316,32936,2,0,L|296:375,1,60.0000022888184,2|0,0:0|3:0,0:0:0:0:
379,360,33255,5,2,0:0:0:0:
379,360,33335,1,2,0:0:0:0:
379,360,33415,1,2,3:2:0:0:
498,376,33575,1,2,0:0:0:0:
492,298,33734,6,0,L|432:301,2,60.0000022888184,0|0|0,3:0|0:0|3:0,0:0:0:0:
461,225,34213,1,2,0:0:0:0:
389,40,34532,2,0,L|424:40,2,30.0000011444092,2|0|0,0:0|0:0|3:0,0:0:0:0:
323,81,34851,1,2,0:0:0:0:
260,34,35011,2,0,P|201:25|131:42,1,120.000004577637,0|0,3:0|3:0,0:0:0:0:
98,101,35489,2,0,P|113:126|116:160,1,60.0000022888184,2|0,0:0|3:0,0:0:0:0:
129,243,35809,5,2,0:0:0:0:
129,243,35888,1,2,0:0:0:0:
129,243,35968,1,2,3:2:0:0:
101,360,36128,1,2,0:0:0:0:
60,293,36287,6,0,L|2:306,2,60.0000022888184,0|0|0,3:0|0:0|3:0,0:0:0:0:
170,316,36766,2,0,L|228:303,1,60.0000022888184,2|0,0:0|3:0,0:0:0:0:
289,351,37085,2,0,L|329:363,2,30.0000011444092,2|0|0,0:0|0:0|3:0,0:0:0:0:
275,193,37564,5,2,3:2:0:0:
352,182,37724,1,0,0:0:0:0:
303,121,37883,2,0,L|292:56,1,60.0000022888184,0|0,3:0|0:0,0:0:0:0:
352,10,38202,1,2,3:2:0:0:
435,33,38362,5,2,0:0:0:0:
435,33,38442,1,2,0:0:0:0:
435,33,38521,1,2,3:2:0:0:
457,152,38681,1,2,0:0:0:0:
421,227,38841,6,0,P|451:228|480:238,1,60.0000022888184,0|2,3:0|0:0,0:0:0:0:
291,358,39319,2,0,P|261:357|232:347,1,60.0000022888184,2|0,0:0|3:0,0:0:0:0:
177,291,39638,2,0,P|166:295|146:308,2,30.0000011444092,2|0|0,0:0|0:0|3:0,0:0:0:0:
125,223,39958,2,0,P|66:228|7:256,2,120.000004577637,2|2|2,0:0|0:0|0:0,0:0:0:0:
176,164,40755,1,0,3:0:0:0:
221,96,40915,1,2,0:0:0:0:
221,96,40995,1,2,0:0:0:0:
221,96,41075,1,2,3:2:0:0:
444,18,41394,5,2,0:3:0:0:
501,121,41553,1,0,0:0:0:0:
466,197,41713,2,0,P|431:198|388:183,2,69.6000005841065,2|0|2,3:2|0:0|0:3,0:0:0:0:
429,286,42192,1,2,0:0:0:0:
429,286,42271,1,2,0:0:0:0:
429,286,42351,1,0,3:0:0:0:
448,377,42511,2,0,P|414:367|380:368,1,69.6000005841065,2|2,0:0|0:3,0:0:0:0:
321,308,42830,2,0,P|255:336|186:328,1,139.200001168213,2|2,0:0|0:0,0:0:0:0:
154,253,43309,1,2,0:3:0:0:
119,378,43468,1,2,0:0:0:0:
119,378,43548,1,2,0:0:0:0:
119,378,43628,1,0,3:0:0:0:
71,126,43947,6,0,P|60:88|40:60,1,69.6000005841065,2|0,0:3|0:0,0:0:0:0:
252,30,44266,1,0,3:0:0:0:
200,96,44426,2,0,P|181:125|172:158,1,69.6000005841065,2|2,0:0|0:3,0:0:0:0:
72,223,44745,1,2,0:0:0:0:
72,223,44825,1,2,0:0:0:0:
72,223,44905,1,0,3:0:0:0:
124,287,45064,1,2,0:0:0:0:
195,243,45224,2,0,P|260:223|340:227,1,139.200001168213,2|0,0:3|3:0,0:0:0:0:
456,246,45702,1,2,0:0:0:0:
437,370,45861,1,2,0:3:0:0:
314,350,46021,1,2,0:0:0:0:
314,350,46101,1,2,0:0:0:0:
314,350,46181,1,0,3:0:0:0:
397,90,46500,6,0,L|392:20,1,69.6000005841065,2|0,0:3|0:0,0:0:0:0:
401,172,46819,1,0,3:0:0:0:
313,92,46979,2,0,L|308:22,1,69.6000005841065,2|2,0:0|0:3,0:0:0:0:
325,182,47298,1,2,0:0:0:0:
325,182,47378,1,2,0:0:0:0:
325,182,47458,1,2,3:2:0:0:
255,228,47617,2,0,L|196:267,1,69.6000005841065,2|2,0:0|0:3,0:0:0:0:
407,213,47936,1,2,0:0:0:0:
407,213,48096,2,0,L|470:243,1,69.6000005841065,0|0,3:0|0:0,0:0:0:0:
345,300,48415,1,2,0:3:0:0:
249,366,48575,5,2,0:0:0:0:
249,366,48654,1,2,0:0:0:0:
249,366,48734,2,0,L|104:379,1,139.200001168213,2|2,3:2|0:3,0:0:0:0:
78,300,49213,2,0,L|43:285,2,34.8000002920532,2|2|0,0:0|0:0|3:0,0:0:0:0:
169,216,49532,2,0,L|190:282,1,69.6000005841065,2|0,0:0|3:0,0:0:0:0:
303,294,49851,1,2,0:0:0:0:
303,294,49931,1,2,0:0:0:0:
303,294,50011,1,2,3:2:0:0:
389,382,50170,6,0,L|436:241,1,135.600000413818,10|0,0:0|0:0,0:0:0:0:
431,253,50489,1,2,3:2:0:0:
449,118,50649,1,0,3:0:0:0:
343,32,50809,1,2,3:2:0:0:
325,167,50968,1,0,3:0:0:0:
217,83,51128,5,2,3:2:0:0:
217,83,51208,1,2,3:2:0:0:
217,83,51287,2,0,L|91:101,1,120.000004577637,6|0,3:2|3:0,0:0:0:0:
233,262,51926,2,0,L|107:280,1,120.000004577637,8|0,0:0|0:0,0:0:0:0:
23,199,52404,5,10,0:0:0:0:
23,199,52484,1,8,0:0:0:0:
23,199,52564,1,0,3:0:0:0:
162,182,52724,1,10,0:0:0:0:
237,162,52883,1,2,3:2:0:0:
303,202,53043,1,2,3:2:0:0:
397,265,53202,2,0,P|405:205|404:141,1,120.000004577637,8|0,0:0|3:0,0:0:0:0:
404,145,53681,1,0,3:0:0:0:
315,4,53841,6,0,P|307:64|308:128,1,120.000004577637,6|0,3:2|3:0,0:0:0:0:
319,282,54319,5,10,0:0:0:0:
426,335,54479,1,8,0:0:0:0:
311,367,54638,1,8,0:0:0:0:
203,313,54798,1,8,0:0:0:0:
249,247,54958,5,8,0:0:0:0:
259,103,55117,1,10,0:0:0:0:
139,22,55277,1,8,0:0:0:0:
12,86,55436,1,10,0:0:0:0:
4,230,55596,1,8,0:0:0:0:
124,313,55755,1,10,0:0:0:0:
124,313,56075,1,8,0:0:0:0:
124,293,56154,1,8,0:0:0:0:
125,273,56234,1,8,0:0:0:0:
126,253,56314,1,8,0:0:0:0:
127,233,56394,6,0,L|116:98,1,135.600000413818,6|0,3:2|0:0,0:0:0:0:
218,69,56713,2,0,L|207:158,1,90.4000002758789,8|0,0:0|0:0,0:0:0:0:
44,254,57032,1,2,3:2:0:0:
215,237,57192,1,0,3:0:0:0:
461,211,57351,1,8,0:0:0:0:
290,194,57511,5,2,0:0:0:0:
290,194,57591,1,2,0:0:0:0:
290,194,57670,2,0,P|327:251|336:328,1,135.600000413818,2|0,3:2|0:0,0:0:0:0:
404,368,57989,2,0,P|418:323|449:288,1,90.4000002758789,8|0,0:0|0:0,0:0:0:0:
252,364,58309,1,2,3:2:0:0:
175,221,58468,1,0,3:0:0:0:
22,162,58628,1,8,0:0:0:0:
32,251,58787,5,2,0:0:0:0:
32,251,58867,1,2,0:0:0:0:
32,251,58947,2,0,P|74:226|110:149,1,135.600000413818,2|0,3:2|0:0,0:0:0:0:
177,114,59266,2,0,P|175:70|158:22,1,90.4000002758789,8|0,0:0|0:0,0:0:0:0:
413,13,59585,1,2,3:2:0:0:
340,152,59745,1,0,3:0:0:0:
376,285,59904,1,8,0:0:0:0:
478,362,60064,5,2,0:0:0:0:
478,362,60144,1,2,0:0:0:0:
478,362,60224,2,0,P|475:296|496:220,1,135.600000413818,2|0,3:2|0:0,0:0:0:0:
413,183,60543,2,0,P|454:163|477:126,1,90.4000002758789,8|0,0:0|0:0,0:0:0:0:
270,17,60862,1,2,3:2:0:0:
398,105,61021,1,0,3:0:0:0:
260,178,61181,1,8,0:0:0:0:
132,90,61340,5,2,0:0:0:0:
132,90,61420,1,2,0:0:0:0:
132,90,61500,2,0,L|15:158,1,135.600000413818,2|0,3:2|0:0,0:0:0:0:
14,158,61819,1,8,0:0:0:0:
161,261,61979,2,0,L|170:169,1,90.4000002758789,2|0,0:0|3:0,0:0:0:0:
26,303,62298,1,0,3:0:0:0:
196,367,62458,1,8,0:0:0:0:
367,296,62617,5,2,0:0:0:0:
367,296,62697,1,2,0:0:0:0:
367,296,62777,2,0,P|437:283|505:277,1,135.600000413818,2|0,3:2|0:0,0:0:0:0:
501,277,63096,1,8,0:0:0:0:
413,371,63255,2,0,P|372:376|310:367,1,90.4000002758789,2|0,0:0|3:0,0:0:0:0:
252,277,63575,1,0,3:0:0:0:
296,37,63734,1,8,0:0:0:0:
484,195,63894,1,8,0:0:0:0:
316,194,64053,5,0,3:0:0:0:
387,180,64213,1,2,3:2:0:0:
511,342,64372,2,0,B|448:332|448:332|404:307|404:307|334:294,1,180.000006866455,14|0,0:0|0:0,0:0:0:0:
339,295,64692,5,0,3:0:0:0:
323,369,64851,1,2,3:2:0:0:
110,366,65011,2,0,B|100:273|100:273|70:181,1,180.000006866455,14|0,0:0|0:0,0:0:0:0:
74,191,65330,5,0,3:0:0:0:
27,340,65489,1,2,3:2:0:0:
183,303,65649,2,0,B|188:246|188:246|211:186,1,120.000004577637,14|0,0:0|0:0,0:0:0:0:
341,12,65968,5,0,3:0:0:0:
341,12,66048,1,8,0:0:0:0:
341,12,66128,1,8,0:0:0:0:
379,21,66207,1,8,0:0:0:0:
406,50,66287,1,8,0:0:0:0:
414,89,66367,1,8,0:0:0:0:
400,126,66447,1,8,0:0:0:0:
368,149,66526,1,8,0:0:0:0:
330,155,66606,6,0,P|320:226|322:299,1,135.600000413818,6|0,3:2|0:0,0:0:0:0:
390,383,66926,2,0,P|393:339|395:292,1,90.4000002758789,8|0,0:0|0:0,0:0:0:0:
178,243,67245,1,2,3:2:0:0:
308,377,67404,1,0,3:0:0:0:
486,318,67564,1,8,0:0:0:0:
463,227,67724,5,2,0:0:0:0:
463,227,67803,1,2,0:0:0:0:
463,227,67883,2,0,L|492:136,1,90.4000002758789,2|0,3:2|3:0,0:0:0:0:
292,23,68202,2,0,L|322:112,1,90.4000002758789,8|0,0:0|0:0,0:0:0:0:
384,269,68521,1,2,3:2:0:0:
231,352,68681,1,0,3:0:0:0:
61,320,68841,1,8,0:0:0:0:
167,249,69000,5,2,0:0:0:0:
167,249,69080,1,2,0:0:0:0:
167,249,69160,2,0,P|227:265|286:228,1,135.600000413818,2|0,3:2|0:0,0:0:0:0:
259,156,69479,2,0,P|215:148|173:164,1,90.4000002758789,8|0,0:0|0:0,0:0:0:0:
66,16,69798,1,2,3:2:0:0:
93,187,69958,1,0,3:0:0:0:
313,338,70117,1,8,0:0:0:0:
348,175,70277,5,2,0:0:0:0:
348,175,70356,1,2,0:0:0:0:
348,175,70436,2,0,P|368:110|411:36,1,135.600000413818,2|0,3:2|0:0,0:0:0:0:
458,101,70755,2,0,P|464:145|478:188,1,90.4000002758789,8|0,0:0|0:0,0:0:0:0:
402,328,71075,1,2,3:2:0:0:
222,247,71234,1,0,3:0:0:0:
231,47,71394,1,8,0:0:0:0:
411,128,71553,5,2,0:0:0:0:
411,128,71633,1,2,0:0:0:0:
411,128,71713,2,0,P|427:79|401:0,1,135.600000413818,6|0,3:2|0:0,0:0:0:0:
402,1,72032,1,8,0:0:0:0:
320,184,72192,2,0,P|317:229|333:285,1,90.4000002758789,2|0,0:0|3:0,0:0:0:0:
187,368,72511,1,0,3:0:0:0:
19,313,72670,1,8,0:0:0:0:
159,217,72830,5,2,0:0:0:0:
159,217,72910,1,2,0:0:0:0:
159,217,72989,2,0,P|170:174|175:122,1,90.4000002758789,0|0,3:0|3:0,0:0:0:0:
59,0,73309,1,8,0:0:0:0:
247,68,73468,2,0,P|258:111|263:163,1,90.4000002758789,2|0,0:0|3:0,0:0:0:0:
79,170,73787,1,0,3:0:0:0:
153,34,73947,1,8,0:0:0:0:
354,102,74106,5,8,0:0:0:0:
399,99,74186,1,8,0:0:0:0:
444,96,74266,1,0,3:0:0:0:
449,169,74426,1,2,3:2:0:0:
278,330,74585,2,0,B|300:245|300:245|361:166,1,180.000006866455,14|0,0:0|0:0,0:0:0:0:
357,173,74904,5,0,3:0:0:0:
408,233,75064,1,2,3:2:0:0:
144,187,75224,2,0,B|232:169|232:169|267:77,1,180.000006866455,14|0,0:0|0:0,0:0:0:0:
265,85,75543,5,0,3:0:0:0:
98,104,75702,1,2,3:2:0:0:
117,271,75862,2,0,B|74:313|74:313|23:283,1,120.000004577637,14|0,0:0|0:0,0:0:0:0:
284,252,76181,5,0,3:0:0:0:
284,252,76261,1,8,0:0:0:0:
284,252,76341,1,8,0:0:0:0:
316,275,76420,1,8,0:0:0:0:
354,286,76500,1,8,0:0:0:0:
394,283,76580,1,8,0:0:0:0:
430,268,76660,1,8,0:0:0:0:
459,241,76739,1,8,0:0:0:0:
478,205,76819,6,0,P|453:116|480:23,1,180.000006866455,6|2,3:2|0:0,0:0:0:0:
310,15,77458,2,0,P|332:72|314:128,1,120.000004577637,8|0,0:0|3:0,0:0:0:0:
133,38,77936,2,0,P|159:29|198:37,1,60.0000022888184,8|2,0:0|3:2,0:0:0:0:
191,111,78255,2,0,P|164:119|123:111,2,60.0000022888184,8|0|2,0:0|3:0|0:0,0:0:0:0:
111,220,78734,2,0,P|167:200|231:215,1,120.000004577637,8|0,0:0|3:0,0:0:0:0:
319,317,79213,1,8,0:0:0:0:
389,355,79372,6,0,P|445:375|509:360,1,120.000004577637,2|0,3:2|3:0,0:0:0:0:
498,149,80011,2,0,L|480:29,1,120.000004577637,8|2,0:0|3:2,0:0:0:0:
373,72,80489,2,0,L|409:123,1,60.0000022888184,8|2,0:0|3:2,0:0:0:0:
364,187,80809,2,0,L|303:170,1,60.0000022888184,8|2,0:0|3:2,0:0:0:0:
179,50,81128,5,8,0:0:0:0:
179,50,81208,1,8,0:0:0:0:
179,50,81287,1,8,0:0:0:0:
100,59,81447,1,8,3:0:0:0:
110,136,81606,1,2,3:2:0:0:
188,127,81766,1,0,3:0:0:0:
48,336,81926,5,14,0:0:0:0:
464,336,82245,1,10,0:0:0:0:
464,48,82564,1,10,0:0:0:0:
48,48,82883,5,10,0:0:0:0:
48,192,83043,1,10,0:0:0:0:
464,336,83362,1,10,0:0:0:0:
464,192,83522,1,10,0:0:0:0:
464,192,84000,5,8,0:0:0:0:
443,192,84080,1,8,0:0:0:0:
422,192,84160,1,8,0:0:0:0:
402,192,84239,1,8,0:0:0:0:
381,192,84319,1,8,0:0:0:0:
360,192,84399,1,8,0:0:0:0:
339,192,84479,1,6,3:2:0:0:
256,192,84638,12,10,87032,0:0:0:0:
470,357,94053,5,0,3:0:0:0:
470,357,94133,1,8,0:0:0:0:
470,357,94213,1,8,0:0:0:0:
435,337,94292,1,8,0:0:0:0:
400,317,94372,1,8,0:0:0:0:
388,278,94452,1,8,0:0:0:0:
378,239,94532,1,2,3:2:0:0:
246,105,94691,6,0,L|266:25,1,80,14|0,0:0|0:0,0:0:0:0:
404,95,95010,1,10,0:0:0:0:
199,233,95170,2,0,L|176:153,1,80,2|8,0:0|0:0,0:0:0:0:
219,368,95489,2,0,L|159:310,1,80,2|8,3:2|0:0,0:0:0:0:
56,148,95808,5,2,3:2:0:0:
96,17,95968,1,8,0:0:0:0:
310,22,96127,1,2,0:0:0:0:
270,153,96287,1,8,0:0:0:0:
487,209,96447,5,2,0:0:0:0:
386,180,96606,1,8,0:0:0:0:
295,232,96766,1,2,3:2:0:0:
400,265,96925,2,0,P|397:325|380:390,1,120,8|0,0:0|0:0,0:0:0:0:
382,382,97244,6,0,P|418:367|463:373,1,80,10|0,0:0|0:0,0:0:0:0:
211,278,97564,1,10,0:0:0:0:
386,180,97723,2,0,P|355:156|337:114,1,80,2|8,0:0|0:0,0:0:0:0:
211,278,98042,2,0,P|205:316|178:352,1,80,2|8,3:2|0:0,0:0:0:0:
84,142,98361,6,0,P|89:103|116:67,2,80,2|8|2,3:2|0:0|0:0,0:0:0:0:
209,199,98840,1,8,0:0:0:0:
338,155,99000,1,10,0:0:0:0:
338,155,99080,1,10,0:0:0:0:
338,155,99159,2,0,L|421:164,1,80,10|0,0:0|3:0,0:0:0:0:
407,243,99479,1,2,3:2:0:0:
327,234,99638,1,0,3:0:0:0:
360,311,99798,6,0,L|377:376,2,60.0000022888184,6|0|2,3:2|0:0|3:2,0:0:0:0:
243,192,100276,2,0,L|196:304,1,120.000004577637,2|2,0:0|0:0,0:0:0:0:
55,91,100915,6,0,P|43:58|48:32,1,60.0000022888184,10|0,0:0|3:0,0:0:0:0:
124,24,101234,2,0,P|136:57|131:83,1,60.0000022888184,10|0,0:0|3:0,0:0:0:0:
119,236,101553,1,10,0:0:0:0:
119,236,101633,1,10,0:0:0:0:
119,236,101713,2,0,L|107:174,1,60.0000022888184,10|0,0:0|3:0,0:0:0:0:
175,373,102032,2,0,L|187:311,1,60.0000022888184,2|2,3:2|0:0,0:0:0:0:
57,111,102351,5,10,0:0:0:0:
455,154,102670,1,10,0:0:0:0:
160,47,102989,5,10,0:0:0:0:
352,22,103149,1,10,0:0:0:0:
256,364,103468,5,10,0:0:0:0:
256,285,103787,1,2,0:0:0:0:
256,206,104106,1,2,0:0:0:0:
256,127,104425,5,10,0:0:0:0:
256,107,104504,1,8,0:0:0:0:
256,87,104584,1,8,0:0:0:0:
256,67,104664,1,8,0:0:0:0:
256,47,104744,1,8,0:0:0:0:
256,27,104823,1,8,0:0:0:0:
256,7,104903,1,6,3:2:0:0:
435,115,105223,6,0,P|398:164|375:241,1,139.200001168213,10|0,0:0|3:0,0:0:0:0:
369,321,105702,1,2,3:2:0:0:
440,366,105861,1,8,0:0:0:0:
297,365,106021,2,0,L|150:374,1,139.200001168213,2|0,3:2|3:0,0:0:0:0:
77,265,106500,1,8,0:0:0:0:
115,191,106659,2,0,L|253:199,1,139.200001168213,2|0,0:0|3:0,0:0:0:0:
335,291,107138,1,8,0:0:0:0:
413,260,107298,5,2,0:0:0:0:
413,260,107377,1,2,0:0:0:0:
413,260,107457,1,2,3:2:0:0:
401,133,107617,1,2,0:0:0:0:
338,78,107776,6,0,P|337:46|350:7,2,69.6000005841065,8|2|0,0:0|0:0|3:0,0:0:0:0:
258,104,108255,2,0,P|247:71|247:36,1,69.6000005841065,2|8,3:2|0:0,0:0:0:0:
173,24,108574,1,2,3:2:0:0:
173,24,108654,1,2,0:0:0:0:
173,24,108734,2,0,L|90:30,1,69.6000005841065,2|0,0:0|3:0,0:0:0:0:
77,155,109053,2,0,L|214:175,1,139.200001168213,8|2,0:0|3:2,0:0:0:0:
141,247,109532,2,0,L|129:321,1,69.6000005841065,0|8,3:0|0:0,0:0:0:0:
207,368,109851,5,2,0:0:0:0:
207,368,109931,1,2,0:0:0:0:
207,368,110010,1,2,3:2:0:0:
61,359,110170,1,2,0:0:0:0:
54,275,110330,6,0,P|36:243|13:216,2,69.6000005841065,8|2|0,0:0|0:0|3:0,0:0:0:0:
168,211,110808,2,0,P|158:175|143:143,1,69.6000005841065,2|8,3:2|0:0,0:0:0:0:
68,153,111127,1,2,3:2:0:0:
68,153,111207,1,2,0:0:0:0:
68,153,111287,2,0,P|67:116|74:81,1,69.6000005841065,2|0,0:0|3:0,0:0:0:0:
223,23,111606,1,8,0:0:0:0:
218,107,111766,2,0,L|286:241,1,139.200001168213,2|0,0:0|3:0,0:0:0:0:
363,244,112244,1,8,0:0:0:0:
317,316,112404,5,2,0:0:0:0:
317,316,112484,1,2,0:0:0:0:
317,316,112564,1,2,3:2:0:0:
337,164,112723,1,2,0:0:0:0:
412,128,112883,5,8,0:0:0:0:
268,109,113042,2,0,P|226:83|223:-3,1,139.200001168213,2|0,0:0|3:0,0:0:0:0:
343,88,113521,1,8,0:0:0:0:
258,207,113681,1,2,3:2:0:0:
258,207,113760,1,2,0:0:0:0:
258,207,113840,2,0,L|179:200,1,69.6000005841065,2|0,0:0|3:0,0:0:0:0:
85,297,114159,5,10,0:0:0:0:
188,282,114319,1,0,3:0:0:0:
72,126,114479,5,10,0:0:0:0:
33,222,114639,1,0,3:0:0:0:
226,201,114798,5,10,0:0:0:0:
163,119,114958,1,2,0:0:0:0:
163,119,115037,1,2,0:0:0:0:
163,119,115117,2,0,P|174:72|270:29,1,160,6|8,3:2|0:0,0:0:0:0:
338,68,115596,5,2,0:0:0:0:
408,30,115755,2,0,L|493:24,2,80,0|0|8,3:0|3:0|0:0,0:0:0:0:
392,141,116234,1,2,3:2:0:0:
392,141,116314,1,2,0:0:0:0:
392,141,116393,1,2,0:0:0:0:
323,183,116553,2,0,L|312:270,1,80,0|8,3:0|0:0,0:0:0:0:
403,224,116872,2,0,L|432:390,1,160,2|0,0:0|3:0,0:0:0:0:
503,347,117351,1,8,0:0:0:0:
491,250,117510,1,2,0:0:0:0:
491,250,117590,1,2,0:0:0:0:
491,250,117670,1,2,3:2:0:0:
299,370,117989,6,0,P|266:366|222:342,1,80,8|0,0:0|0:0,0:0:0:0:
180,277,118308,1,0,3:0:0:0:
71,384,118468,2,0,P|44:364|18:321,1,80,2|8,3:2|0:0,0:0:0:0:
96,292,118787,1,2,3:2:0:0:
96,292,118867,1,2,0:0:0:0:
96,292,118947,1,2,0:0:0:0:
115,214,119106,1,0,3:0:0:0:
45,174,119266,2,0,L|30:6,1,160,8|0,0:0|3:0,0:0:0:0:
109,29,119744,1,0,3:0:0:0:
228,102,119904,1,8,0:0:0:0:
155,120,120064,1,2,0:0:0:0:
155,120,120143,1,2,0:0:0:0:
155,120,120223,1,0,3:0:0:0:
408,30,120542,6,0,P|376:41|346:79,1,80,8|0,0:0|0:0,0:0:0:0:
435,195,120861,1,2,3:2:0:0:
277,134,121021,2,0,P|302:156|350:163,1,80,0|8,3:0|0:0,0:0:0:0:
362,268,121340,1,2,3:2:0:0:
362,268,121420,1,2,0:0:0:0:
362,268,121500,1,2,0:0:0:0:
435,195,121659,2,0,P|441:161|423:116,1,80,0|8,3:0|0:0,0:0:0:0:
262,240,121979,1,2,0:0:0:0:
262,240,122138,2,0,P|255:273|273:318,1,80,0|0,3:0|3:0,0:0:0:0:
446,358,122457,1,8,0:0:0:0:
355,350,122617,5,2,0:0:0:0:
355,350,122697,1,2,0:0:0:0:
355,350,122776,2,0,L|192:356,1,160,2|8,3:2|0:0,0:0:0:0:
111,375,123255,2,0,L|108:324,2,40,2|2|0,0:0|0:0|3:0,0:0:0:0:
180,274,123574,2,0,L|196:191,1,80,0|8,3:0|0:0,0:0:0:0:
28,191,123893,1,2,3:2:0:0:
28,191,123973,1,2,0:0:0:0:
28,191,124053,2,0,L|44:270,1,80,2|0,3:2|3:0,3:0:0:0:
265,272,124372,5,10,0:0:0:0:
397,233,124532,1,0,3:0:0:0:
397,152,124691,5,10,0:0:0:0:
262,143,124851,1,0,3:0:0:0:
302,23,125010,5,10,0:0:0:0:
428,77,125170,1,2,0:0:0:0:
428,77,125250,1,2,0:0:0:0:
428,77,125330,2,0,P|483:61|498:4,1,120.000004577637,6|0,3:2|3:0,0:0:0:0:
329,167,125968,2,0,P|274:151|259:94,1,120.000004577637,8|0,0:0|0:0,0:0:0:0:
336,14,126447,6,0,P|343:40|345:81,1,60.0000022888184,10|0,0:0|3:0,0:0:0:0:
180,40,126766,1,10,0:0:0:0:
151,112,126925,1,2,3:2:0:0:
169,187,127085,1,2,3:2:0:0:
210,252,127244,2,0,P|201:313|173:378,1,120.000004577637,8|0,0:0|0:0,0:0:0:0:
61,144,127883,6,0,P|38:88|30:29,1,120.000004577637,14|0,0:0|3:0,0:0:0:0:
228,14,128361,5,10,0:0:0:0:
303,107,128521,1,8,0:0:0:0:
197,164,128681,1,8,0:0:0:0:
122,71,128841,1,8,0:0:0:0:
197,164,129000,5,8,0:0:0:0:
179,337,129159,1,10,0:0:0:0:
4,319,129319,1,8,0:0:0:0:
21,143,129479,5,10,0:0:0:0:
363,278,129798,1,10,0:0:0:0:
363,278,130117,1,8,0:0:0:0:
343,281,130197,1,8,0:0:0:0:
323,284,130276,1,8,0:0:0:0:
303,287,130356,1,8,0:0:0:0:
283,290,130436,6,0,P|217:272|143:257,1,135.600000413818,6|0,3:2|0:0,0:0:0:0:
102,373,130755,2,0,P|144:356|190:344,1,90.4000002758789,8|0,0:0|0:0,0:0:0:0:
441,210,131074,1,2,3:2:0:0:
330,365,131234,1,0,3:0:0:0:
236,199,131393,1,8,0:0:0:0:
314,38,131553,5,2,0:0:0:0:
314,38,131633,1,2,0:0:0:0:
314,38,131713,2,0,P|288:97|237:66,1,135.600000413818,2|0,3:2|0:0,0:0:0:0:
172,109,132032,2,0,P|128:108|111:67,1,90.4000002758789,8|0,0:0|0:0,0:0:0:0:
2,15,132351,1,2,3:2:0:0:
64,184,132510,1,0,3:0:0:0:
244,201,132670,1,8,0:0:0:0:
306,32,132829,5,2,0:0:0:0:
306,32,132909,1,2,0:0:0:0:
306,32,132989,2,0,P|376:30|409:90,1,135.600000413818,2|0,3:2|0:0,0:0:0:0:
496,148,133308,2,0,P|453:149|425:190,1,90.4000002758789,8|0,0:0|0:0,0:0:0:0:
320,357,133627,1,2,3:2:0:0:
344,205,133787,1,0,3:0:0:0:
495,229,133947,1,8,0:0:0:0:
471,381,134106,5,2,0:0:0:0:
471,381,134186,1,2,0:0:0:0:
471,381,134266,2,0,P|432:330|413:245,1,135.600000413818,2|0,3:2|0:0,0:0:0:0:
388,153,134585,2,0,P|350:190|340:235,1,90.4000002758789,8|0,0:0|0:0,0:0:0:0:
139,260,134904,1,2,3:2:0:0:
338,306,135064,1,0,3:0:0:0:
338,93,135223,1,8,0:0:0:0:
138,140,135383,5,2,0:0:0:0:
138,140,135463,1,2,0:0:0:0:
138,140,135542,2,0,P|154:81|161:4,1,135.600000413818,2|0,3:2|0:0,0:0:0:0:
160,7,135861,1,8,0:0:0:0:
7,36,136021,2,0,P|9:78|32:128,1,90.4000002758789,2|0,0:0|3:0,0:0:0:0:
226,206,136340,1,0,3:0:0:0:
115,248,136500,1,8,0:0:0:0:
60,354,136659,5,2,0:0:0:0:
60,354,136739,1,2,0:0:0:0:
60,354,136819,2,0,P|123:351|194:379,1,135.600000413818,2|0,3:2|0:0,0:0:0:0:
189,376,137138,1,8,0:0:0:0:
376,231,137298,2,0,P|394:269|404:317,1,90.4000002758789,2|0,0:0|3:0,0:0:0:0:
312,374,137617,1,0,3:0:0:0:
331,134,137776,1,8,0:0:0:0:
195,239,137936,1,0,3:0:0:0:
27,331,138096,5,0,3:0:0:0:
98,324,138255,1,2,3:2:0:0:
112,144,138415,2,0,B|115:56|115:56|21:5,1,180.000006866455,14|0,0:0|0:0,0:0:0:0:
34,12,138734,5,0,3:0:0:0:
18,86,138893,1,2,3:2:0:0:
228,196,139053,2,0,B|227:106|227:106|206:10,1,180.000006866455,14|0,0:0|0:0,0:0:0:0:
208,19,139372,5,0,3:0:0:0:
347,136,139532,1,2,3:2:0:0:
485,51,139691,2,0,B|465:107|465:107|480:171,1,120.000004577637,14|0,0:0|0:0,0:0:0:0:
303,358,140010,5,0,3:0:0:0:
303,358,140090,1,8,0:0:0:0:
303,358,140170,1,8,0:0:0:0:
290,320,140249,1,8,0:0:0:0:
286,280,140329,1,8,0:0:0:0:
289,240,140409,1,8,0:0:0:0:
300,202,140489,1,8,0:0:0:0:
318,166,140568,1,8,0:0:0:0:
343,136,140649,6,0,P|373:80|358:8,1,135.600000413818,6|0,3:2|0:0,0:0:0:0:
244,29,140968,2,0,P|243:74|281:109,1,90.4000002758789,8|0,0:0|0:0,0:0:0:0:
471,214,141287,1,2,3:2:0:0:
302,253,141447,1,0,3:0:0:0:
473,374,141606,1,8,0:0:0:0:
295,378,141766,5,2,0:0:0:0:
295,378,141846,1,2,0:0:0:0:
295,378,141925,2,0,P|238:347|148:336,1,135.600000413818,2|0,3:2|0:0,0:0:0:0:
13,338,142244,2,0,P|52:361|98:361,1,90.4000002758789,8|0,0:0|0:0,0:0:0:0:
210,225,142564,1,2,3:2:0:0:
230,83,142723,1,0,3:0:0:0:
72,279,142883,1,8,0:0:0:0:
37,156,143042,5,2,0:0:0:0:
37,156,143122,1,2,0:0:0:0:
37,156,143202,2,0,P|21:86|3:24,1,135.600000413818,2|0,3:2|0:0,0:0:0:0:
126,44,143521,2,0,P|114:85|107:152,1,90.4000002758789,8|0,0:0|0:0,0:0:0:0:
195,351,143840,1,2,3:2:0:0:
319,325,144000,1,0,3:0:0:0:
315,128,144159,1,8,0:0:0:0:
191,154,144319,5,2,0:0:0:0:
191,154,144399,1,2,0:0:0:0:
191,154,144479,2,0,P|225:198|300:227,1,135.600000413818,2|0,3:2|0:0,0:0:0:0:
366,252,144798,2,0,P|408:236|431:198,1,90.4000002758789,8|0,0:0|0:0,0:0:0:0:
184,261,145117,1,2,3:2:0:0:
332,377,145276,1,0,3:0:0:0:
354,177,145436,1,8,0:0:0:0:
503,293,145596,5,2,0:0:0:0:
503,293,145675,1,2,0:0:0:0:
503,293,145755,2,0,L|486:144,1,135.600000413818,6|0,3:2|0:0,0:0:0:0:
487,158,146074,1,8,0:0:0:0:
291,113,146234,2,0,L|305:22,1,90.4000002758789,2|0,0:0|3:0,0:0:0:0:
422,40,146553,1,0,3:0:0:0:
278,191,146713,1,8,0:0:0:0:
160,32,146872,5,2,0:0:0:0:
160,32,146952,1,2,0:0:0:0:
160,32,147032,2,0,P|95:40|54:54,1,90.4000002758789,2|0,3:2|3:0,0:0:0:0:
291,113,147351,1,8,0:0:0:0:
147,194,147510,2,0,P|175:159|195:112,1,90.4000002758789,2|0,0:0|3:0,0:0:0:0:
29,173,147830,1,0,3:0:0:0:
141,368,147989,1,8,0:0:0:0:
105,121,148149,1,8,0:0:0:0:
230,292,148308,5,0,3:0:0:0:
301,302,148468,1,2,3:2:0:0:
452,161,148627,2,0,B|369:209|369:209|270:193,1,180.000006866455,14|0,0:0|0:0,0:0:0:0:
286,196,148947,5,0,3:0:0:0:
282,125,149106,1,2,3:2:0:0:
74,33,149266,2,0,B|47:114|47:114|61:207,1,180.000006866455,14|0,0:0|0:0,0:0:0:0:
61,207,149585,5,0,3:0:0:0:
199,178,149744,1,2,3:2:0:0:
475,48,149904,2,0,B|422:21|422:21|349:38,1,120.000004577637,14|0,0:0|0:0,0:0:0:0:
293,194,150223,5,0,3:0:0:0:
293,194,150303,1,8,0:0:0:0:
293,194,150383,1,8,0:0:0:0:
303,232,150462,1,8,0:0:0:0:
320,268,150542,1,8,0:0:0:0:
343,301,150622,1,8,0:0:0:0:
372,329,150702,1,8,0:0:0:0:
405,351,150781,1,8,0:0:0:0:
442,369,150861,6,0,P|361:337|252:338,1,180.000006866455,6|2,3:2|0:0,0:0:0:0:
110,239,151500,2,0,P|52:249|13:300,1,120.000004577637,8|0,0:0|3:0,0:0:0:0:
178,360,151979,2,0,L|187:296,1,60.0000022888184,8|2,0:0|3:2,0:0:0:0:
221,230,152298,2,0,L|212:170,2,60.0000022888184,8|0|2,0:0|3:0|0:0,0:0:0:0:
135,107,152776,2,0,L|255:76,1,120.000004577637,8|0,0:0|3:0,0:0:0:0:
407,141,153255,1,8,0:0:0:0:
414,222,153415,6,0,L|294:191,1,120.000004577637,2|0,3:2|3:0,0:0:0:0:
59,220,154053,2,0,P|57:160|79:105,1,120.000004577637,8|2,0:0|3:2,0:0:0:0:
139,19,154532,2,0,P|152:49|159:89,1,60.0000022888184,8|2,0:0|3:2,3:0:0:0:
265,239,154851,5,8,0:0:0:0:
387,164,155010,1,8,0:0:0:0:
267,83,155170,1,8,0:0:0:0:
145,158,155330,5,8,0:0:0:0:
79,202,155489,1,12,3:0:0:0:
36,136,155648,1,2,3:2:0:0:
100,93,155808,1,0,3:0:0:0:
96,352,155968,5,14,0:0:0:0:
416,352,156287,1,10,0:0:0:0:
96,32,156606,1,10,0:0:0:0:
416,32,156925,5,10,0:0:0:0:
256,32,157085,1,10,0:0:0:0:
96,352,157404,1,10,0:0:0:0:
256,352,157564,1,10,0:0:0:0:
256,352,158042,5,8,0:0:0:0:
256,331,158122,1,8,0:0:0:0:
256,310,158202,1,8,0:0:0:0:
256,290,158281,1,8,0:0:0:0:
256,269,158361,1,8,0:0:0:0:
256,248,158441,1,8,0:0:0:0:
256,227,158521,1,6,3:2:0:0:
256,192,158680,12,2,161074,3:2:0:0:
213,29,168574,5,2,0:0:0:0:
213,29,168653,1,2,0:0:0:0:
213,29,168733,1,6,3:2:0:0:
305,119,168893,1,2,0:0:0:0:
352,194,169052,6,0,P|317:199|282:210,1,69.6000005841065,0|2,3:0|0:0,0:0:0:0:
199,303,169372,2,0,P|233:298|266:287,2,69.6000005841065,0|0|0,3:0|0:0|3:0,0:0:0:0:
143,364,169850,1,2,0:0:0:0:
143,364,169930,1,2,0:0:0:0:
143,364,170010,1,0,3:0:0:0:
98,285,170169,2,0,P|63:280|30:269,1,69.6000005841065,2|0,0:0|3:0,0:0:0:0:
21,187,170489,1,2,0:0:0:0:
160,19,170808,2,0,P|186:50|191:93,1,69.6000005841065,2|0,0:0|3:0,0:0:0:0:
198,167,171127,5,2,0:0:0:0:
198,167,171207,1,2,0:0:0:0:
198,167,171286,1,2,3:2:0:0:
321,157,171446,1,2,0:0:0:0:
276,72,171606,6,0,P|315:76|343:64,1,69.6000005841065,0|2,3:0|0:0,0:0:0:0:
416,25,171925,2,0,P|447:47|478:51,2,69.6000005841065,0|0|0,3:0|0:0|3:0,0:0:0:0:
410,121,172403,1,2,0:0:0:0:
410,121,172483,1,2,0:0:0:0:
410,121,172563,1,0,3:0:0:0:
348,180,172723,2,0,P|338:216|351:245,1,69.6000005841065,2|0,0:0|3:0,0:0:0:0:
470,239,173042,1,2,0:0:0:0:
470,239,173361,2,0,P|480:203|467:174,1,69.6000005841065,2|0,0:0|3:0,0:0:0:0:
506,105,173680,5,2,0:0:0:0:
506,105,173760,1,2,0:0:0:0:
506,105,173840,1,2,3:2:0:0:
410,22,173999,1,2,0:0:0:0:
342,70,174159,5,0,3:0:0:0:
270,27,174318,2,0,L|223:19,2,34.8000002920532,2|0|0,0:0|0:0|3:0,0:0:0:0:
205,96,174638,2,0,L|130:109,2,69.6000005841065,2|0|0,0:0|3:0|0:0,0:0:0:0:
157,22,175116,1,0,3:0:0:0:
74,8,175276,1,2,0:0:0:0:
35,253,175595,1,2,0:0:0:0:
35,253,175675,1,2,0:0:0:0:
35,253,175755,1,0,3:0:0:0:
105,222,175914,2,0,L|116:145,1,69.6000005841065,2|0,0:0|3:0,0:0:0:0:
176,278,176233,5,2,0:0:0:0:
176,278,176313,1,2,0:0:0:0:
176,278,176393,1,2,3:2:0:0:
285,339,176552,1,2,0:0:0:0:
212,381,176712,5,0,3:0:0:0:
129,367,176872,2,0,L|117:332,2,34.8000002920532,2|0|0,0:0|0:0|3:0,0:0:0:0:
49,294,177191,2,0,L|43:223,2,69.6000005841065,2|0|0,0:0|3:0|0:0,0:0:0:0:
137,181,177669,5,6,3:2:0:0:
137,181,178467,1,8,0:0:0:0:
142,161,178547,1,8,0:0:0:0:
147,141,178627,1,8,0:0:0:0:
152,121,178707,1,8,0:0:0:0:
157,102,178786,1,8,0:0:0:0:
162,82,178866,1,8,0:0:0:0:
168,62,178946,6,0,P|89:69|34:-4,1,160,6|10,3:2|0:0,0:0:0:0:
253,95,179425,2,0,P|293:89|322:50,1,80,0|2,3:0|0:0,0:0:0:0:
366,162,179744,1,0,3:0:0:0:
366,162,179824,1,0,3:0:0:0:
366,162,179903,2,0,P|326:168|297:207,1,80,8|0,0:0|0:0,0:0:0:0:
356,359,180223,6,0,L|372:235,1,120,2|0,3:2|0:0,0:0:0:0:
371,239,180542,1,8,0:0:0:0:
281,300,180701,1,2,3:2:0:0:
281,300,180781,1,2,0:0:0:0:
281,300,180861,1,2,0:0:0:0:
447,320,181021,1,0,3:0:0:0:
383,164,181180,1,8,0:0:0:0:
383,164,181499,6,0,P|379:125|377:77,2,80,2|0|8,3:2|0:0|0:0,0:0:0:0:
280,19,181978,2,0,P|278:58|274:98,1,80,0|2,3:0|0:0,0:0:0:0:
159,183,182297,1,0,3:0:0:0:
159,183,182377,1,0,3:0:0:0:
159,183,182457,2,0,P|119:181|79:177,1,80,8|0,0:0|0:0,0:0:0:0:
82,28,182776,6,0,P|131:74|190:87,1,120,2|0,3:2|0:0,0:0:0:0:
180,86,183095,1,8,0:0:0:0:
300,186,183255,1,2,3:2:0:0:
300,186,183334,1,2,0:0:0:0:
300,186,183414,2,0,P|288:227|283:275,1,80,0|0,0:0|3:0,0:0:0:0:
144,371,183733,2,0,P|136:315|113:248,1,120,8|0,0:0|0:0,0:0:0:0:
116,254,184052,5,4,3:2:0:0:
14,279,184212,1,2,0:0:0:0:
50,96,184372,1,10,0:0:0:0:
152,71,184532,1,2,3:2:0:0:
369,116,184691,5,2,0:0:0:0:
348,258,184850,1,2,3:2:0:0:
207,315,185010,1,10,0:0:0:0:
186,173,185169,5,2,0:0:0:0:
186,173,185249,1,2,0:0:0:0:
186,173,185329,2,0,L|105:164,2,80,2|0|8,3:2|0:0|0:0,0:0:0:0:
318,276,185808,1,0,3:0:0:0:
304,376,185967,1,2,0:0:0:0:
465,203,186127,1,0,3:0:0:0:
446,336,186286,1,10,0:0:0:0:
167,333,186446,5,2,0:0:0:0:
167,333,186526,1,2,0:0:0:0:
167,333,186606,2,0,P|147:262|146:213,1,120,2|0,3:2|0:0,0:0:0:0:
145,216,186925,2,0,P|166:216|188:209,1,40,10|0,0:0|0:0,0:0:0:0:
235,38,187084,2,0,P|164:18|74:23,1,160,2|0,3:2|3:0,0:0:0:0:
155,120,187563,1,8,0:0:0:0:
342,26,187723,5,2,0:0:0:0:
342,26,187802,1,2,0:0:0:0:
342,26,187882,1,2,3:2:0:0:
372,264,188042,2,0,P|389:257|405:237,1,40,0|0,3:0|0:0,0:0:0:0:
481,230,188201,2,0,P|496:191|504:148,1,80,8|0,0:0|3:0,0:0:0:0:
257,83,188521,1,10,0:0:0:0:
275,229,188680,1,0,3:0:0:0:
500,37,188840,1,8,0:0:0:0:
480,34,188919,1,8,0:0:0:0:
460,31,188999,1,8,0:0:0:0:
440,29,189079,1,8,0:0:0:0:
420,27,189159,6,0,L|302:49,1,120,6|0,3:2|0:0,0:0:0:0:
297,124,189478,2,0,L|286:217,1,80,8|0,0:0|3:0,0:0:0:0:
79,100,189797,2,0,L|69:20,1,80,2|0,0:0|3:0,0:0:0:0:
181,169,190116,1,8,0:0:0:0:
84,238,190276,5,2,0:0:0:0:
84,238,190356,1,2,0:0:0:0:
84,238,190435,2,0,P|63:301|54:359,1,120,2|0,3:2|0:0,0:0:0:0:
54,353,190755,1,8,0:0:0:0:
220,329,190914,1,0,3:0:0:0:
275,222,191074,5,2,0:0:0:0:
196,209,191233,1,0,3:0:0:0:
383,374,191393,1,8,0:0:0:0:
471,189,191552,5,2,3:2:0:0:
471,189,191632,1,2,3:2:0:0:
471,189,191712,2,0,L|456:54,1,120,2|0,3:2|0:0,0:0:0:0:
457,69,192031,1,8,0:0:0:0:
384,243,192191,1,0,3:0:0:0:
262,23,192350,5,2,0:0:0:0:
373,77,192510,1,0,3:0:0:0:
259,113,192669,1,8,0:0:0:0:
148,59,192829,5,2,0:0:0:0:
148,59,192909,1,2,0:0:0:0:
148,59,192989,2,0,P|90:35|19:50,1,120,2|0,3:2|0:0,0:0:0:0:
34,42,193308,1,8,0:0:0:0:
52,256,193467,1,0,3:0:0:0:
108,168,193627,5,2,0:0:0:0:
208,144,193786,1,0,3:0:0:0:
317,236,193946,2,0,L|442:255,1,120,8|0,0:0|0:0,0:0:0:0:
435,254,194265,5,6,3:2:0:0:
374,83,194425,2,0,P|388:119|387:175,1,80,2|8,0:0|0:0,0:0:0:0:
231,314,194744,1,2,3:2:0:0:
231,314,194824,1,2,0:0:0:0:
231,314,194903,2,0,P|229:274|215:237,1,80,2|0,0:0|3:0,0:0:0:0:
122,73,195223,1,8,0:0:0:0:
38,164,195382,5,2,0:0:0:0:
38,164,195462,1,2,0:0:0:0:
38,164,195542,1,2,3:2:0:0:
116,175,195701,1,2,0:0:0:0:
261,51,195861,5,8,0:0:0:0:
394,30,196021,1,2,3:2:0:0:
178,260,196180,5,2,0:0:0:0:
208,125,196340,1,0,3:0:0:0:
387,191,196499,1,8,0:0:0:0:
417,326,196659,1,2,0:0:0:0:
271,372,196818,5,0,3:0:0:0:
275,352,196898,1,2,0:0:0:0:
279,332,196978,1,2,0:0:0:0:
283,312,197058,1,2,0:0:0:0:
287,292,197138,1,8,0:0:0:0:
291,272,197217,1,2,0:0:0:0:
295,252,197297,1,2,3:2:0:0:
299,232,197377,1,2,0:0:0:0:
307,192,197457,5,0,3:0:0:0:
267,199,197536,1,2,0:0:0:0:
227,196,197616,1,2,0:0:0:0:
190,183,197696,1,2,0:0:0:0:
156,162,197776,1,8,0:0:0:0:
128,133,197855,1,2,0:0:0:0:
109,98,197935,1,2,0:0:0:0:
99,60,198015,1,2,0:0:0:0:
98,20,198095,6,0,P|139:13|182:11,1,80,2|0,3:2|3:0,0:0:0:0:
304,94,198414,1,10,0:0:0:0:
289,106,198494,1,10,0:0:0:0:
274,118,198574,1,2,3:2:0:0:
22,288,198733,5,10,0:0:0:0:
61,295,198813,1,8,0:0:0:0:
100,303,198893,1,8,0:0:0:0:
139,311,198973,1,8,0:0:0:0:
177,318,199052,1,8,0:0:0:0:
216,326,199132,1,8,0:0:0:0:
255,334,199212,1,8,0:0:0:0:
294,342,199292,1,8,0:0:0:0:
333,350,199372,6,0,P|322:293|322:227,1,120,6|0,3:2|0:0,0:0:0:0:
321,231,199691,1,8,0:0:0:0:
414,27,199850,1,2,3:2:0:0:
504,99,200010,2,0,P|469:99|418:108,1,80,2|0,0:0|3:0,0:0:0:0:
260,170,200329,1,8,0:0:0:0:
269,90,200489,6,0,P|234:90|183:81,1,80,2|0,0:0|3:0,0:0:0:0:
377,207,200808,1,0,3:0:0:0:
505,259,200967,2,0,P|517:319|489:383,1,120,10|0,0:0|0:0,0:0:0:0:
497,372,201286,1,0,3:0:0:0:
316,295,201446,1,2,3:2:0:0:
316,295,201526,1,2,3:2:0:0:
316,295,201606,2,0,P|293:327|256:340,1,80,8|0,0:0|3:0,0:0:0:0:
53,252,201925,5,2,3:2:0:0:
90,113,202084,1,2,3:2:0:0:
296,204,202244,5,8,0:0:0:0:
265,32,202403,1,8,0:0:0:0:
265,32,202483,1,8,0:0:0:0:
265,32,202563,1,8,0:0:0:0:
202,81,202723,1,0,3:0:0:0:
277,105,202882,1,0,3:0:0:0:
339,54,203042,1,0,3:0:0:0:
176,191,203201,5,8,0:0:0:0:
176,191,203999,1,8,0:0:0:0:
175,211,204079,1,8,0:0:0:0:
174,231,204159,1,8,0:0:0:0:
174,251,204239,1,8,0:0:0:0:
174,270,204318,1,8,0:0:0:0:
174,290,204398,1,8,0:0:0:0:
174,310,204478,1,0,3:0:0:0:
277,321,204638,1,0,3:0:0:0:
379,333,204797,6,0,P|443:299|446:189,1,180.000006866455,14|0,0:0|3:0,0:0:0:0:
476,125,205435,1,2,3:2:0:0:
421,69,205595,1,0,3:0:0:0:
342,72,205755,2,0,P|330:99|322:137,1,60.0000022888184,0|0,3:0|3:0,0:0:0:0:
185,200,206074,6,0,P|181:119|153:12,1,180.000006866455,14|0,0:0|3:0,0:0:0:0:
89,63,206712,1,2,3:2:0:0:
16,33,206872,1,0,3:0:0:0:
3,109,207031,2,0,P|23:137|60:149,1,60.0000022888184,0|0,3:0|3:0,0:0:0:0:
75,299,207350,6,0,P|171:294|266:260,1,180.000006866455,14|0,0:0|3:0,0:0:0:0:
301,208,207989,1,2,3:2:0:0:
224,193,208148,1,0,3:0:0:0:
277,136,208308,2,0,P|275:104|270:73,1,60.0000022888184,0|0,3:0|3:0,0:0:0:0:
469,27,208627,6,0,P|456:80|451:147,1,120.000004577637,14|0,0:0|3:0,0:0:0:0:
281,293,209106,1,8,0:0:0:0:
290,310,209185,1,8,0:0:0:0:
303,326,209265,1,8,0:0:0:0:
317,339,209345,1,8,0:0:0:0:
333,351,209425,1,8,0:0:0:0:
351,360,209504,1,8,0:0:0:0:
370,366,209584,6,0,P|412:328|487:300,1,135.600000413818,6|0,3:2|0:0,0:0:0:0:
485,300,209903,1,8,0:0:0:0:
359,154,210063,2,0,P|366:197|361:247,1,90.4000002758789,2|0,0:0|3:0,0:0:0:0:
219,364,210382,1,0,3:0:0:0:
31,320,210542,1,8,0:0:0:0:
146,286,210701,5,2,0:0:0:0:
146,286,210781,1,2,0:0:0:0:
146,286,210861,2,0,P|131:224|141:145,1,135.600000413818,2|0,3:2|0:0,0:0:0:0:
138,153,211180,1,8,0:0:0:0:
91,8,211340,2,0,P|47:17|15:48,1,90.4000002758789,2|0,0:0|3:0,0:0:0:0:
35,183,211659,1,0,3:0:0:0:
196,43,211818,1,8,0:0:0:0:
236,278,211978,5,8,0:0:0:0:
228,234,212058,1,8,0:0:0:0:
220,190,212138,1,8,0:0:0:0:
292,197,212297,1,2,3:2:0:0:
387,292,212457,2,0,B|431:215|431:215|525:158,1,180.000006866455,14|0,0:0|0:0,0:0:0:0:
509,167,212776,5,0,3:0:0:0:
454,117,212935,1,2,3:2:0:0:
285,212,213095,2,0,B|269:126|269:126|287:19,1,180.000006866455,14|0,0:0|0:0,0:0:0:0:
284,34,213414,5,0,3:0:0:0:
149,92,213574,1,2,3:2:0:0:
7,25,213733,2,0,B|30:77|30:77|13:146,1,120.000004577637,14|0,0:0|0:0,0:0:0:0:
216,244,214052,5,0,3:0:0:0:
216,244,214132,1,8,0:0:0:0:
216,244,214212,1,8,0:0:0:0:
176,250,214291,1,8,0:0:0:0:
138,263,214371,1,8,0:0:0:0:
104,283,214451,1,8,0:0:0:0:
74,309,214531,1,8,0:0:0:0:
49,340,214610,1,8,0:0:0:0:
31,376,214691,6,0,P|16:309|29:240,1,135.600000413818,6|0,3:2|0:0,0:0:0:0:
9,173,215010,2,0,P|42:144|91:155,1,90.4000002758789,8|0,0:0|0:0,0:0:0:0:
266,200,215329,1,2,3:2:0:0:
290,110,215489,1,0,3:0:0:0:
109,231,215648,1,8,0:0:0:0:
302,370,215808,5,2,0:0:0:0:
302,370,215888,1,2,0:0:0:0:
302,370,215967,2,0,P|354:367|412:307,1,135.600000413818,2|0,3:2|0:0,0:0:0:0:
494,260,216286,2,0,P|451:242|425:187,1,90.4000002758789,8|0,0:0|0:0,0:0:0:0:
380,31,216606,1,2,3:2:0:0:
361,250,216765,1,0,3:0:0:0:
477,149,216925,1,8,0:0:0:0:
263,132,217084,5,2,0:0:0:0:
263,132,217164,1,2,0:0:0:0:
263,132,217244,2,0,P|227:189|210:266,1,135.600000413818,2|0,3:2|0:0,0:0:0:0:
268,368,217563,2,0,P|279:327|282:272,1,90.4000002758789,8|0,0:0|0:0,0:0:0:0:
112,196,217882,1,2,3:2:0:0:
5,280,218042,1,0,3:0:0:0:
120,350,218201,1,8,0:0:0:0:
227,266,218361,5,2,0:0:0:0:
227,266,218441,1,2,0:0:0:0:
227,266,218521,2,0,P|298:270|370:284,1,135.600000413818,2|0,3:2|0:0,0:0:0:0:
343,173,218840,2,0,P|297:189|251:194,1,90.4000002758789,8|0,0:0|0:0,0:0:0:0:
179,12,219159,1,2,3:2:0:0:
266,118,219318,1,0,3:0:0:0:
99,96,219478,1,10,0:0:0:0:
346,34,219638,5,2,0:0:0:0:
346,34,219717,1,2,0:0:0:0:
346,34,219797,2,0,P|416:48|426:118,1,135.600000413818,6|0,3:2|0:0,0:0:0:0:
431,103,220116,1,8,0:0:0:0:
479,270,220276,2,0,P|492:309|462:351,1,90.4000002758789,2|0,0:0|3:0,0:0:0:0:
377,364,220595,1,0,3:0:0:0:
254,190,220755,1,8,0:0:0:0:
363,154,220914,5,2,0:0:0:0:
363,154,220994,1,2,0:0:0:0:
363,154,221074,2,0,L|502:183,1,135.600000413818,2|0,3:2|0:0,0:0:0:0:
495,181,221393,1,8,0:0:0:0:
369,309,221552,2,0,L|276:287,1,90.4000002758789,2|0,0:0|3:0,0:0:0:0:
110,150,221872,1,0,3:0:0:0:
94,25,222031,1,8,0:0:0:0:
277,43,222191,5,8,0:0:0:0:
268,88,222271,1,8,0:0:0:0:
259,133,222350,1,0,3:0:0:0:
326,157,222510,1,2,3:2:0:0:
476,270,222669,2,0,B|422:341|422:341|333:305,1,180.000006866455,14|0,0:0|0:0,0:0:0:0:
338,307,222989,5,0,3:0:0:0:
298,366,223148,1,2,3:2:0:0:
96,346,223308,2,0,B|36:291|36:291|45:187,1,180.000006866455,14|0,0:0|0:0,0:0:0:0:
44,193,223627,5,0,3:0:0:0:
120,181,223786,1,2,3:2:0:0:
369,86,223946,5,14,0:0:0:0:
256,40,224106,1,8,0:0:0:0:
256,40,224185,1,8,0:0:0:0:
256,40,224265,1,8,0:0:0:0:
179,132,224425,1,0,3:0:0:0:
242,233,224584,1,0,3:0:0:0:
358,204,224744,1,0,3:0:0:0:
459,362,224903,6,0,P|397:301|300:296,1,180.000006866455,6|2,3:2|0:0,0:0:0:0:
289,152,225542,2,0,P|312:99|369:88,1,120.000004577637,8|0,0:0|3:0,0:0:0:0:
508,169,226021,2,0,L|497:230,1,60.0000022888184,8|2,0:0|0:0,0:0:0:0:
420,214,226340,2,0,L|431:153,2,60.0000022888184,8|0|2,0:0|3:0|0:0,0:0:0:0:
448,286,226818,2,0,P|411:337|354:371,1,120.000004577637,8|0,0:0|3:0,0:0:0:0:
240,298,227297,1,8,0:0:0:0:
201,230,227457,6,0,P|151:262|117:311,1,120.000004577637,2|0,3:2|3:0,0:0:0:0:
63,125,228095,2,0,P|57:67|43:-3,1,120.000004577637,8|2,0:0|3:2,0:0:0:0:
143,123,228574,2,0,P|150:93|159:65,1,60.0000022888184,8|2,0:0|3:2,0:0:0:0:
255,18,228893,2,0,P|247:47|238:75,1,60.0000022888184,8|2,0:0|3:2,0:0:0:0:
331,172,229212,1,8,0:0:0:0:
116,219,229372,1,8,0:0:0:0:
188,340,229531,5,12,3:0:0:0:
236,280,229690,1,2,3:2:0:0:
265,354,229850,1,0,3:0:0:0:
464,320,230010,5,14,0:0:0:0:
48,64,230329,1,10,0:0:0:0:
464,64,230648,1,10,0:0:0:0:
48,320,230967,5,10,0:0:0:0:
48,192,231127,1,10,0:0:0:0:
464,64,231446,1,10,0:0:0:0:
464,192,231606,1,10,0:0:0:0:
464,192,232084,5,8,0:0:0:0:
464,213,232164,1,8,0:0:0:0:
464,234,232244,1,8,0:0:0:0:
464,254,232323,1,8,0:0:0:0:
464,275,232403,1,8,0:0:0:0:
464,296,232483,1,8,0:0:0:0:
464,317,232563,1,6,3:2:0:0:
256,192,232722,12,10,235116,0:0:0:0:
40,207,242137,5,2,3:2:0:0:
40,207,242217,1,8,0:0:0:0:
40,207,242297,1,8,0:0:0:0:
76,224,242376,1,8,0:0:0:0:
114,236,242456,1,8,0:0:0:0:
153,243,242536,1,8,0:0:0:0:
193,246,242616,1,2,3:2:0:0:
359,153,242775,6,0,P|398:160|447:179,1,80,14|0,0:0|0:0,0:0:0:0:
359,369,243094,1,10,0:0:0:0:
295,230,243254,2,0,P|288:269|269:318,1,80,2|8,0:0|0:0,0:0:0:0:
455,339,243573,2,0,P|462:300|481:251,1,80,2|8,3:2|0:0,0:0:0:0:
459,76,243892,5,2,3:2:0:0:
308,20,244052,1,8,0:0:0:0:
150,160,244211,1,2,0:0:0:0:
301,104,244371,1,8,0:0:0:0:
257,293,244531,5,2,0:0:0:0:
238,158,244690,1,8,0:0:0:0:
372,139,244850,1,2,3:2:0:0:
395,278,245009,2,0,P|353:238|292:223,1,120,8|0,0:0|0:0,0:0:0:0:
294,223,245328,6,0,P|279:262|257:293,1,80,10|0,0:0|0:0,0:0:0:0:
88,346,245648,1,10,0:0:0:0:
162,134,245807,2,0,P|168:175|164:213,1,80,2|8,0:0|0:0,0:0:0:0:
13,109,246126,2,0,P|39:141|55:176,1,80,2|8,3:2|0:0,0:0:0:0:
280,116,246445,6,0,L|300:29,2,80,2|8|2,3:2|0:0|0:0,0:0:0:0:
155,38,246924,1,8,0:0:0:0:
364,139,247084,1,10,0:0:0:0:
364,139,247164,1,10,0:0:0:0:
364,139,247243,2,0,L|381:57,1,80,10|0,0:0|3:0,0:0:0:0:
458,78,247563,1,2,3:2:0:0:
440,157,247722,1,0,3:0:0:0:
325,254,247882,6,0,P|347:241|385:238,2,60.0000022888184,6|0|2,3:2|0:0|0:0,0:0:0:0:
321,331,248360,1,2,0:0:0:0:
427,300,248520,1,12,0:0:0:0:
389,369,248680,1,2,0:0:0:0:
161,223,248999,6,0,P|138:203|109:195,1,60.0000022888184,10|0,0:0|3:0,0:0:0:0:
70,262,249318,2,0,P|92:281|121:289,1,60.0000022888184,10|0,0:0|3:0,0:0:0:0:
198,298,249637,1,10,0:0:0:0:
299,156,249797,5,8,0:0:0:0:
306,52,249956,1,2,3:2:0:0:
204,43,250116,1,0,3:0:0:0:
195,145,250275,1,0,3:0:0:0:
453,22,250435,5,10,0:0:0:0:
409,362,250754,1,10,0:0:0:0:
64,290,251073,5,10,0:0:0:0:
31,94,251233,1,10,0:0:0:0:
256,22,251552,5,10,0:0:0:0:
256,192,251872,1,2,0:0:0:0:
256,362,252191,1,2,0:0:0:0:
256,362,252509,5,8,0:0:0:0:
256,342,252588,1,8,0:0:0:0:
256,322,252668,1,8,0:0:0:0:
256,302,252748,1,8,0:0:0:0:
256,282,252828,1,8,0:0:0:0:
256,262,252907,1,8,0:0:0:0:
256,242,252988,6,0,P|181:248|128:317,1,160,6|8,3:2|0:0,0:0:0:0:
383,310,253467,2,0,P|371:275|319:260,1,80,2|0,3:2|0:0,0:0:0:0:
204,363,253786,5,2,3:2:0:0:
308,363,253945,1,8,0:0:0:0:
256,80,254105,1,14,0:0:0:0:
