osu file format v14

[General]
AudioFilename: audio.mp3
AudioLeadIn: 0
PreviewTime: 55277
Countdown: 0
SampleSet: Soft
StackLeniency: 0.7
Mode: 0
LetterboxInBreaks: 0
WidescreenStoryboard: 1

[Editor]
Bookmarks: 10436,20649,30862,41075,56394,66606,76819,84479,94691,104904,115117,130436,140649,150861,158521,168733,178946,189159,204478,214691,224903,232563,242775,252988
DistanceSpacing: 1
BeatDivisor: 4
GridSize: 16
TimelineZoom: 1.299998

[Metadata]
Title:hello
TitleUnicode:hello
Artist:my sound life
ArtistUnicode:my sound life
Creator:Hinsvar
Version:easy
Source:
Tags:Japanese Pop J-Pop JPop Rock JRock J-Rock solfa iyuna 茶太 Chata Featured Artist FA Mappers' Guild MPG
BeatmapID:3558121
BeatmapSetID:1734686

[Difficulty]
HPDrainRate:2
CircleSize:2.5
OverallDifficulty:2
ApproachRate:3.5
SliderMultiplier:0.88
SliderTickRate:1

[Events]
//Background and Video events
0,0,"hello there.jpg",0,0
//Break Periods
2,87232,93311
2,161274,167353
2,235316,241395
//Storyboard Layer 0 (Background)
//Storyboard Layer 1 (Fail)
//Storyboard Layer 2 (Pass)
//Storyboard Layer 3 (Foreground)
//Storyboard Layer 4 (Overlay)
//Storyboard Sound Samples

[TimingPoints]
224,319.148936170213,4,2,1,70,1,0
25755,-100,4,2,1,65,0,0
28309,-100,4,2,1,70,0,0
30862,-100,4,2,1,50,0,0
41075,-100,4,2,1,60,0,0
50170,-100,4,2,1,65,0,0
51287,-100,4,2,1,55,0,0
54319,-100,4,2,1,70,0,0
56394,-95.2380952380952,4,2,1,80,0,1
76819,-100,4,2,1,70,0,0
81926,-95.2380952380952,4,2,1,80,0,1
83521,-100,4,2,1,80,0,0
84000,-100,4,2,1,70,0,0
84479,319.148936170213,4,2,1,70,1,0
99798,-100,4,2,1,65,0,0
102351,-100,4,2,1,70,0,0
104904,-100,4,2,1,55,0,0
115117,-100,4,2,1,60,0,0
125330,-100,4,2,1,55,0,0
128361,-100,4,2,1,70,0,0
130436,-95.2380952380952,4,2,1,80,0,1
150861,-100,4,2,1,70,0,0
155968,-95.2380952380952,4,2,1,80,0,1
157564,-100,4,2,1,80,0,0
158042,-100,4,2,1,70,0,0
158521,319.148936170213,4,2,1,70,1,0
168574,-100,4,2,1,60,0,0
178467,-100,4,2,1,70,0,0
209106,-100,4,2,1,80,0,0
209584,-95.2380952380952,4,2,1,80,0,1
224903,-100,4,2,1,70,0,0
230010,-95.2380952380952,4,2,1,80,0,1
231606,-100,4,2,1,80,0,0
232084,-100,4,2,1,70,0,0
232563,319.148936170213,4,2,1,70,1,0
247882,-100,4,2,1,65,0,0
250435,-100,4,2,1,70,0,0

[Colours]
Combo1 : 152,230,66
Combo2 : 248,103,226
Combo3 : 196,133,214
Combo4 : 227,158,102

[HitObjects]
456,347,10436,6,0,P|468:292|458:203,1,132,14|2,0:0|0:0,0:0:0:0:
393,161,11234,1,2,3:2:0:0:
323,106,11553,2,0,P|305:66|309:8,2,88,2|2|2,3:2|0:0|0:0,0:0:0:0:
250,156,12511,1,2,3:2:0:0:
157,44,12989,6,0,P|97:44|40:104,1,132,10|2,0:0|0:0,0:0:0:0:
54,177,13787,1,2,3:2:0:0:
123,231,14106,2,0,P|130:273|134:333,1,88,2|2,3:2|0:0,0:0:0:0:
215,350,14745,2,0,P|234:290|267:229,1,132,2|8,0:0|0:0,0:0:0:0:
338,177,15543,6,0,L|482:205,1,132,14|2,0:0|0:0,0:0:0:0:
506,281,16341,1,2,3:2:0:0:
446,345,16660,2,0,L|358:360,1,88,2|2,0:0|0:0,0:0:0:0:
271,347,17298,2,0,P|262:287|226:212,1,132,2|10,0:0|0:0,0:0:0:0:
149,251,18096,5,14,0:0:0:0:
79,196,18415,2,0,L|61:59,1,132,10|2,0:0|3:2,0:0:0:0:
141,26,19213,1,2,3:2:0:0:
215,73,19532,1,2,0:0:0:0:
300,52,19851,1,2,0:0:0:0:
430,115,20330,1,8,0:0:0:0:
358,165,20649,6,0,P|314:229|305:287,1,132,14|2,0:0|0:0,0:0:0:0:
364,346,21447,1,2,3:2:0:0:
434,293,21766,2,0,P|447:253|449:201,2,88,2|2|2,3:2|0:0|0:0,0:0:0:0:
491,359,22724,1,2,3:2:0:0:
346,361,23202,6,0,P|285:354|234:302,1,132,10|2,0:0|0:0,0:0:0:0:
268,224,24000,1,2,3:2:0:0:
331,162,24319,2,0,P|338:120|335:66,1,88,2|2,3:2|0:0,0:0:0:0:
263,25,24958,2,0,P|225:75|216:152,1,132,2|10,0:0|0:0,0:0:0:0:
169,217,25755,5,6,3:2:0:0:
48,136,26234,2,0,L|61:48,1,88,2|2,0:0|0:0,0:0:0:0:
147,33,26872,1,10,0:0:0:0:
233,48,27192,2,0,L|246:136,2,88,10|2|0,0:0|0:0|3:0,0:0:0:0:
378,40,28309,5,10,0:0:0:0:
456,79,28628,1,10,0:0:0:0:
464,166,28947,2,0,P|427:216|364:208,1,132,10|10,0:0|0:0,0:0:0:0:
147,58,30383,2,0,P|84:50|46:100,1,132,10|6,0:0|3:2,0:0:0:0:
57,187,31181,6,0,L|143:210,1,88,2|0,3:2|3:0,0:0:0:0:
202,343,31979,2,0,L|388:322,1,176,2|0,0:0|0:0,0:0:0:0:
464,311,32936,1,2,0:0:0:0:
412,174,33415,6,0,P|416:128|430:72,2,88,2|0|0,3:2|3:0|3:0,0:0:0:0:
278,117,34532,2,0,P|219:128|154:187,1,132,2|0,0:0|3:0,0:0:0:0:
155,258,35330,1,0,3:0:0:0:
331,276,35968,5,2,3:2:0:0:
363,194,36287,2,0,P|367:124|351:50,2,132,0|2|0,3:0|0:0|3:0,0:0:0:0:
331,276,37564,2,0,P|248:290|162:336,1,176,2|2,3:2|3:2,0:0:0:0:
86,366,38521,6,0,P|60:334|51:280,1,88,2|0,3:2|3:0,0:0:0:0:
42,143,39319,2,0,P|41:99|61:60,2,88,2|2|2,0:0|0:0|0:0,0:0:0:0:
95,213,40277,2,0,P|160:213|222:191,1,132,2|0,0:0|3:0,0:0:0:0:
285,129,41075,5,2,3:2:0:0:
362,171,41394,1,2,0:3:0:0:
448,155,41713,2,0,P|481:213|465:290,1,132,2|2,3:2|0:0,0:0:0:0:
423,348,42511,1,2,0:0:0:0:
338,323,42830,2,0,P|281:305|193:309,1,132,2|2,0:0|0:3,0:0:0:0:
134,351,43628,5,2,3:2:0:0:
76,285,43947,2,0,P|85:246|93:195,1,88,2|0,0:3|3:0,0:0:0:0:
221,131,44745,2,0,P|194:71|143:28,1,132,2|2,0:0|0:3,0:0:0:0:
57,41,45543,2,0,P|48:80|40:131,1,88,0|2,3:0|0:3,0:0:0:0:
92,198,46181,5,2,3:2:0:0:
159,253,46500,2,0,P|121:306|48:322,2,132,2|2|2,0:3|0:0|3:2,0:0:0:0:
241,220,47777,2,0,P|263:182|302:166,2,88,2|0|2,0:3|3:0|0:3,0:0:0:0:
288,294,48734,6,0,P|359:287|428:288,1,132,2|2,3:2|0:0,0:0:0:0:
474,218,49532,2,0,P|473:176|479:128,1,88,2|2,0:0|0:0,0:0:0:0:
422,62,50170,1,10,0:0:0:0:
285,110,50649,2,0,P|290:153|289:197,1,88,0|0,3:0|3:0,0:0:0:0:
281,285,51287,5,6,3:2:0:0:
103,361,51926,1,8,0:0:0:0:
38,178,52564,2,0,P|82:171|127:168,1,88,0|2,3:0|3:2,0:0:0:0:
161,78,53202,2,0,P|205:85|250:88,1,88,8|0,0:0|3:0,0:0:0:0:
338,51,53841,5,6,3:2:0:0:
472,105,54319,2,0,P|481:176|480:242,1,132,10|8,0:0|0:0,0:0:0:0:
396,264,55117,2,0,P|379:227|368:178,1,88,10|10,0:0|0:0,0:0:0:0:
382,94,55755,1,10,0:0:0:0:
203,45,56394,6,0,P|117:57|57:142,1,184.799994360352,6|2,3:2|3:2,0:0:0:0:
38,220,57351,1,8,0:0:0:0:
118,265,57670,2,0,P|162:217|163:126,2,138.599995770264,2|2|8,3:2|0:0|0:0,0:0:0:0:
65,341,58947,5,2,3:2:0:0:
152,370,59266,1,8,0:0:0:0:
243,360,59585,2,0,P|259:316|255:257,1,92.3999971801759,2|8,3:2|0:0,0:0:0:0:
223,185,60224,1,2,3:2:0:0:
266,103,60543,2,0,P|359:102|412:179,1,184.799994360352,8|8,0:0|0:0,0:0:0:0:
391,260,61500,6,0,L|506:343,2,138.599995770264,2|2|8,3:2|0:0|0:0,0:0:0:0:
410,169,62777,2,0,L|468:39,2,138.599995770264,2|2|8,3:2|0:0|0:0,0:0:0:0:
324,202,64053,5,2,3:2:0:0:
291,115,64372,1,14,0:0:0:0:
112,66,65011,1,14,0:0:0:0:
109,250,65649,2,0,L|203:280,2,92.3999971801759,14|0|8,0:0|3:0|0:0,0:0:0:0:
79,162,66606,6,0,L|269:146,1,184.799994360352,6|2,3:2|3:2,0:0:0:0:
355,140,67564,1,8,0:0:0:0:
424,200,67883,2,0,P|475:176|484:92,2,138.599995770264,2|2|8,3:2|0:0|0:0,0:0:0:0:
390,286,69160,5,2,3:2:0:0:
320,346,69479,1,8,0:0:0:0:
227,352,69798,2,0,L|125:340,1,92.3999971801759,2|8,3:2|0:0,0:0:0:0:
60,287,70436,1,2,3:2:0:0:
62,196,70755,2,0,L|261:176,1,184.799994360352,8|8,0:0|0:0,0:0:0:0:
299,102,71713,6,0,P|351:55|426:56,2,138.599995770264,6|2|8,3:2|0:0|0:0,0:0:0:0:
335,187,72989,2,0,P|402:183|452:137,2,138.599995770264,0|2|8,3:0|0:0|0:0,0:0:0:0:
242,181,74266,5,0,3:0:0:0:
216,269,74585,1,14,0:0:0:0:
386,340,75224,1,14,0:0:0:0:
361,156,75862,2,0,P|376:113|406:62,2,92.3999971801759,14|0|8,0:0|3:0|0:0,0:0:0:0:
275,135,76819,6,0,P|191:106|91:105,1,176,6|8,3:2|0:0,0:0:0:0:
15,257,78096,1,2,3:2:0:0:
52,336,78415,2,0,P|135:364|235:365,1,176,2|0,3:2|3:0,0:0:0:0:
280,301,79372,5,2,3:2:0:0:
348,138,80011,2,0,L|441:128,1,88,8|2,0:0|3:2,0:0:0:0:
493,194,80649,2,0,L|512:329,2,132,2|8|2,3:2|0:0|3:2,0:0:0:0:
406,227,81926,5,14,0:0:0:0:
324,270,82245,1,10,0:0:0:0:
256,207,82564,2,0,P|190:193|152:246,1,138.599995770264,10|10,0:0|0:0,0:0:0:0:
68,285,83362,2,0,P|45:274|25:249,1,46.1999985900879,10|10,0:0|0:0,0:0:0:0:
181,42,84479,5,6,3:2:0:0:
256,192,84638,12,10,87032,0:0:0:0:
474,129,94691,6,0,P|423:100|351:88,1,132,14|2,0:0|0:0,0:0:0:0:
266,64,95489,1,2,3:2:0:0:
189,107,95808,2,0,P|176:151|179:206,2,88,2|2|2,3:2|0:0|0:0,0:0:0:0:
126,44,96766,1,2,3:2:0:0:
33,155,97244,6,0,P|35:235|60:303,1,132,10|2,0:0|0:0,0:0:0:0:
108,350,98042,1,2,3:2:0:0:
178,298,98361,2,0,L|268:307,1,88,2|2,3:2|0:0,0:0:0:0:
340,353,99000,2,0,L|481:317,1,132,10|2,0:0|3:2,0:0:0:0:
484,233,99798,5,6,3:2:0:0:
365,150,100276,2,0,P|343:188|339:243,1,88,2|2,0:0|0:0,0:0:0:0:
264,279,100915,1,10,0:0:0:0:
199,219,101234,2,0,P|193:175|171:137,2,88,10|10|0,0:0|0:0|3:0,0:0:0:0:
113,336,102351,5,10,0:0:0:0:
37,290,102670,1,10,0:0:0:0:
36,202,102989,2,0,P|42:134|55:70,1,132,10|10,0:0|0:0,0:0:0:0:
290,191,104425,2,0,P|302:255|308:321,1,132,10|6,0:0|3:2,0:0:0:0:
386,362,105223,6,0,P|419:336|478:328,1,88,10|0,0:0|3:0,0:0:0:0:
481,182,106021,1,2,3:2:0:0:
484,94,106340,1,0,3:0:0:0:
408,48,106659,2,0,P|354:82|277:82,1,132,2|8,0:0|0:0,0:0:0:0:
213,35,107457,5,2,3:2:0:0:
131,67,107776,2,0,L|37:60,1,88,8|0,0:0|3:0,0:0:0:0:
32,205,108574,2,0,L|165:191,1,132,2|8,3:2|0:0,0:0:0:0:
244,226,109372,2,0,P|257:188|268:136,1,88,2|8,3:2|0:0,0:0:0:0:
352,118,110010,5,2,3:2:0:0:
429,159,110330,2,0,P|485:122|459:61,2,132,8|2|2,0:0|3:2|0:0,0:0:0:0:
429,246,111606,2,0,P|358:302|275:264,1,176,8|8,0:0|0:0,0:0:0:0:
245,196,112564,5,2,3:2:0:0:
116,129,113042,1,2,0:0:0:0:
46,185,113361,1,0,3:0:0:0:
38,272,113681,2,0,P|55:318|102:341,1,88,2|0,3:2|3:0,0:0:0:0:
170,364,114319,2,0,P|232:351|266:294,1,132,2|10,3:2|0:0,0:0:0:0:
234,212,115117,5,6,3:2:0:0:
308,165,115436,1,8,0:0:0:0:
330,79,115755,2,0,L|190:51,1,132,0|2,3:0|3:2,0:0:0:0:
115,31,116553,1,0,3:0:0:0:
28,49,116872,2,0,L|0:189,1,132,2|8,0:0|0:0,0:0:0:0:
66,238,117670,5,2,3:2:0:0:
150,213,117989,2,0,L|144:120,1,88,8|0,0:0|3:0,0:0:0:0:
286,95,118787,2,0,L|278:239,1,132,2|8,3:2|0:0,0:0:0:0:
336,293,119585,2,0,P|378:308|433:298,1,88,0|8,3:0|0:0,0:0:0:0:
477,236,120223,5,2,3:2:0:0:
428,162,120542,2,0,P|453:94|509:78,2,132,8|2|2,0:0|3:2|0:0,0:0:0:0:
340,153,121819,2,0,P|336:107|302:76,2,88,8|0|8,0:0|3:0|0:0,0:0:0:0:
267,202,122776,6,0,P|205:205|132:224,1,132,2|2,3:2|0:0,0:0:0:0:
83,152,123574,2,0,P|95:111|101:66,1,88,0|2,3:0|3:2,0:0:0:0:
177,21,124213,1,0,3:0:0:0:
316,59,124691,2,0,P|304:100|298:145,1,88,10|10,0:0|0:0,0:0:0:0:
222,190,125330,5,6,3:2:0:0:
297,348,125968,1,8,0:0:0:0:
457,276,126606,2,0,P|459:230|449:186,1,88,0|2,3:0|3:2,0:0:0:0:
426,104,127244,2,0,P|380:102|336:112,1,88,8|0,0:0|0:0,0:0:0:0:
329,198,127883,5,14,0:0:0:0:
199,263,128361,2,0,P|139:267|79:232,1,132,10|8,0:0|0:0,0:0:0:0:
91,144,129159,2,0,P|126:119|175:113,1,88,10|10,0:0|0:0,0:0:0:0:
231,176,129798,1,10,0:0:0:0:
368,52,130436,6,0,P|407:136|418:267,1,184.799994360352,6|2,3:2|3:2,0:0:0:0:
334,260,131393,1,8,0:0:0:0:
245,233,131713,2,0,P|180:206|95:204,2,138.599995770264,2|2|8,3:2|0:0|0:0,0:0:0:0:
197,312,132989,5,2,3:2:0:0:
277,357,133308,1,8,0:0:0:0:
369,364,133627,2,0,P|412:359|462:349,1,92.3999971801759,2|8,3:2|0:0,0:0:0:0:
509,271,134266,1,2,3:2:0:0:
492,176,134585,2,0,L|330:80,1,184.799994360352,8|8,0:0|0:0,0:0:0:0:
267,147,135542,6,0,L|115:119,2,138.599995770264,2|2|8,3:2|0:0|0:0,0:0:0:0:
283,238,136819,2,0,L|131:266,2,138.599995770264,2|2|8,3:2|0:0|0:0,0:0:0:0:
335,314,138096,5,2,3:2:0:0:
416,357,138415,1,14,0:0:0:0:
499,192,139053,1,14,0:0:0:0:
416,27,139691,2,0,L|335:70,2,92.3999971801759,14|0|8,0:0|3:0|0:0,0:0:0:0:
485,86,140649,6,0,P|460:173|376:222,1,184.799994360352,6|2,3:2|3:2,0:0:0:0:
293,199,141606,1,8,0:0:0:0:
210,241,141925,2,0,P|220:310|256:379,2,138.599995770264,2|2|8,3:2|0:0|0:0,0:0:0:0:
129,287,143202,5,2,3:2:0:0:
45,247,143521,1,8,0:0:0:0:
29,155,143840,2,0,P|27:112|46:60,1,92.3999971801759,2|8,3:2|0:0,0:0:0:0:
124,22,144479,1,2,3:2:0:0:
211,52,144798,2,0,P|234:132|184:222,1,184.799994360352,8|8,0:0|0:0,0:0:0:0:
99,238,145755,6,0,L|62:389,2,138.599995770264,6|2|8,3:2|0:0|0:0,0:0:0:0:
117,147,147032,2,0,L|80:-4,2,138.599995770264,2|2|8,3:2|0:0|0:0,0:0:0:0:
202,111,148308,5,2,3:2:0:0:
287,75,148627,1,14,0:0:0:0:
439,179,149266,1,14,0:0:0:0:
280,274,149904,2,0,P|267:318|264:380,2,92.3999971801759,14|0|8,0:0|3:0|0:0,0:0:0:0:
198,241,150861,6,0,P|126:284|26:273,1,176,6|8,3:2|0:0,0:0:0:0:
12,103,152138,1,2,3:2:0:0:
77,44,152457,2,0,P|163:37|238:80,1,176,2|0,3:2|3:0,0:0:0:0:
255,167,153415,5,2,3:2:0:0:
339,321,154053,2,0,L|430:301,1,88,8|2,0:0|0:0,0:0:0:0:
462,222,154691,2,0,L|498:90,2,132,2|8|2,3:2|0:0|3:2,0:0:0:0:
369,217,155968,5,14,0:0:0:0:
328,134,156287,1,10,0:0:0:0:
235,136,156606,2,0,P|177:194|175:259,1,138.599995770264,10|10,0:0|0:0,0:0:0:0:
137,333,157404,2,0,P|152:356|177:364,1,46.1999985900879,10|10,0:0|0:0,0:0:0:0:
431,333,158521,5,6,3:2:0:0:
256,192,158680,12,2,161074,3:2:0:0:
485,149,168733,5,6,3:2:0:0:
420,89,169052,2,0,P|335:63|232:64,1,176,0|0,3:0|3:0,0:0:0:0:
223,146,170010,2,0,L|212:288,1,132,0|2,3:0|0:0,0:0:0:0:
130,308,170808,1,2,0:0:0:0:
34,198,171286,5,2,3:2:0:0:
30,109,171606,2,0,P|65:46|158:70,1,176,0|0,3:0|3:0,0:0:0:0:
241,53,172563,2,0,P|306:39|346:97,1,132,0|2,3:0|0:0,0:0:0:0:
366,169,173361,1,2,0:0:0:0:
283,288,173840,5,2,3:2:0:0:
324,365,174159,2,0,L|499:333,1,176,0|0,3:0|3:0,0:0:0:0:
509,246,175116,2,0,P|496:181|431:144,1,132,0|2,3:0|0:0,0:0:0:0:
378,204,175914,1,2,0:0:0:0:
234,184,176393,5,2,3:2:0:0:
147,198,176712,2,0,L|124:20,1,176,0|0,3:0|3:0,0:0:0:0:
37,33,177669,1,6,3:2:0:0:
51,293,178627,1,8,0:0:0:0:
134,264,178946,6,0,P|161:297|173:348,1,88,6|10,3:2|0:0,0:0:0:0:
256,366,179584,1,2,0:0:0:0:
340,340,179903,2,0,P|348:258|389:175,1,176,8|8,0:0|0:0,0:0:0:0:
468,135,180861,2,0,L|459:39,1,88,2|8,0:0|0:0,0:0:0:0:
373,29,181499,5,2,3:2:0:0:
313,93,181818,1,8,0:0:0:0:
237,47,182138,2,0,P|195:33|142:32,2,88,2|8|2,0:0|0:0|3:2,0:0:0:0:
221,133,183095,2,0,P|177:130|135:116,1,88,8|0,0:0|0:0,0:0:0:0:
67,60,183733,1,8,0:0:0:0:
21,134,184052,6,0,L|23:235,1,88,4|10,3:2|0:0,0:0:0:0:
108,242,184691,2,0,L|106:343,1,88,2|10,0:0|0:0,0:0:0:0:
188,361,185329,1,2,3:2:0:0:
316,240,185967,1,2,0:0:0:0:
376,176,186286,1,10,0:0:0:0:
462,156,186606,6,0,P|464:86|443:14,2,132,2|2|8,3:2|3:2|0:0,0:0:0:0:
496,236,187882,1,2,3:2:0:0:
471,320,188201,1,8,0:0:0:0:
392,359,188521,2,0,P|349:359|302:345,1,88,10|8,0:0|0:0,0:0:0:0:
224,314,189159,6,0,P|134:316|48:374,2,176,6|2|2,3:2|0:0|3:2,0:0:0:0:
254,231,190755,1,8,0:0:0:0:
318,171,191074,2,0,P|328:127|324:72,1,88,2|8,0:0|0:0,0:0:0:0:
264,21,191712,5,2,3:2:0:0:
185,61,192031,2,0,L|93:73,1,88,8|2,0:0|0:0,0:0:0:0:
26,123,192669,1,8,0:0:0:0:
84,188,192989,2,0,P|82:257|44:323,2,132,2|2|8,3:2|3:2|0:0,0:0:0:0:
169,166,194265,6,0,P|198:84|272:33,1,176,6|2,3:2|0:0,0:0:0:0:
356,30,195223,1,8,0:0:0:0:
438,60,195542,1,2,3:2:0:0:
487,132,195861,2,0,P|496:177|492:222,2,88,8|2|8,0:0|0:0|0:0,0:0:0:0:
400,145,196818,6,0,P|377:228|399:320,1,176,2|2,3:2|3:2,0:0:0:0:
326,368,197776,1,8,0:0:0:0:
280,292,198095,2,0,P|241:288|179:296,1,88,2|10,3:2|0:0,0:0:0:0:
129,354,198733,1,10,0:0:0:0:
52,310,199052,1,8,0:0:0:0:
34,223,199372,6,0,P|36:136|87:60,1,176,6|2,3:2|0:0,0:0:0:0:
201,148,200489,2,0,P|233:102|245:25,2,132,2|10|2,0:0|0:0|3:2,0:0:0:0:
319,232,201925,5,2,3:2:0:0:
389,284,202244,2,0,L|481:276,2,88,8|8|0,0:0|0:0|3:0,0:0:0:0:
330,350,203201,1,8,0:0:0:0:
182,34,204478,5,2,3:2:0:0:
100,67,204797,2,0,P|70:150|72:243,1,176,14|2,0:0|3:2,0:0:0:0:
131,300,205755,1,0,3:0:0:0:
213,267,206074,2,0,P|243:184|241:91,1,176,14|2,0:0|3:2,0:0:0:0:
323,63,207031,5,0,3:0:0:0:
380,129,207350,2,0,P|456:166|483:259,1,176,14|2,0:0|3:2,0:0:0:0:
430,318,208308,1,0,3:0:0:0:
346,348,208627,2,0,P|320:321|317:268,1,88,14|0,0:0|3:0,0:0:0:0:
241,225,209265,1,8,0:0:0:0:
157,264,209584,6,0,P|105:235|104:156,2,138.599995770264,6|2|8,3:2|0:0|0:0,0:0:0:0:
241,225,210861,2,0,P|293:254|294:333,2,138.599995770264,2|2|8,3:2|0:0|0:0,0:0:0:0:
205,139,212138,5,8,0:0:0:0:
263,67,212457,1,14,0:0:0:0:
81,32,213095,1,14,0:0:0:0:
46,214,213733,2,0,P|50:263|62:306,2,92.3999971801759,14|0|8,0:0|3:0|0:0,0:0:0:0:
116,154,214691,6,0,P|158:239|178:338,1,184.799994360352,6|2,3:2|3:2,0:0:0:0:
256,373,215648,1,8,0:0:0:0:
335,326,215967,2,0,P|413:317|485:319,2,138.599995770264,2|2|8,3:2|0:0|0:0,0:0:0:0:
318,234,217244,5,2,3:2:0:0:
394,182,217563,1,8,0:0:0:0:
485,190,217882,2,0,P|486:143|480:92,1,92.3999971801759,2|8,3:2|0:0,0:0:0:0:
413,34,218521,1,2,3:2:0:0:
321,32,218840,2,0,P|258:74|244:180,1,184.799994360352,8|8,0:0|0:0,0:0:0:0:
313,235,219797,6,0,P|383:261|447:264,2,138.599995770264,6|2|8,3:2|0:0|0:0,0:0:0:0:
329,143,221074,2,0,P|404:149|463:172,2,138.599995770264,2|2|8,3:2|0:0|0:0,0:0:0:0:
242,176,222350,5,0,3:0:0:0:
154,147,222669,1,14,0:0:0:0:
68,311,223308,1,14,0:0:0:0:
247,350,223946,2,0,L|341:329,2,92.3999971801759,14|8|0,0:0|0:0|3:0,0:0:0:0:
205,272,224903,6,0,P|188:190|189:84,1,176,6|8,3:2|0:0,0:0:0:0:
348,26,226180,1,2,0:0:0:0:
434,44,226499,2,0,P|451:126|450:232,1,176,2|0,3:2|3:0,0:0:0:0:
380,270,227457,5,2,3:2:0:0:
204,262,228095,2,0,P|159:269|110:291,1,88,8|0,0:0|3:0,0:0:0:0:
70,212,228733,2,0,P|131:171|208:159,2,132,2|8|2,3:2|0:0|3:2,0:0:0:0:
30,295,230010,5,14,0:0:0:0:
97,357,230329,1,10,0:0:0:0:
189,358,230648,2,0,L|330:329,1,138.599995770264,10|10,0:0|0:0,0:0:0:0:
415,313,231446,2,0,L|474:332,1,46.1999985900879,10|10,0:0|0:0,0:0:0:0:
444,63,232563,5,6,3:2:0:0:
256,192,232722,12,10,235116,0:0:0:0:
233,40,242775,6,0,P|259:108|276:181,1,132,14|2,0:0|0:0,0:0:0:0:
279,253,243573,1,2,3:2:0:0:
235,329,243892,2,0,L|143:340,2,88,2|2|2,3:2|0:0|0:0,0:0:0:0:
313,368,244850,1,2,3:2:0:0:
438,327,245328,6,0,P|469:280|457:200,1,132,10|2,0:0|0:0,0:0:0:0:
380,172,246126,1,2,3:2:0:0:
308,222,246445,2,0,L|206:199,1,88,2|2,3:2|0:0,0:0:0:0:
181,124,247084,2,0,L|41:153,1,132,10|2,0:0|3:2,0:0:0:0:
33,237,247882,5,6,3:2:0:0:
170,281,248360,2,0,P|187:321|203:379,1,88,2|2,0:0|0:0,0:0:0:0:
286,378,248999,1,10,0:0:0:0:
367,345,249318,2,0,P|384:304|396:262,2,88,10|10|2,0:0|0:0|3:2,0:0:0:0:
281,227,250435,5,10,0:0:0:0:
312,144,250754,1,10,0:0:0:0:
297,57,251073,2,0,P|236:40|148:40,1,132,10|10,0:0|0:0,0:0:0:0:
36,296,252509,1,8,0:0:0:0:
164,228,252988,6,0,P|174:296|166:359,1,132,6|2,3:2|3:2,0:0:0:0:
305,315,253945,2,0,P|303:287|308:263,1,44,8|14,0:0|0:0,0:0:0:0:
