osu file format v14

[General]
AudioFilename: audio.mp3
AudioLeadIn: 0
PreviewTime: 96084
Countdown: 0
SampleSet: Soft
StackLeniency: 0.4
Mode: 0
LetterboxInBreaks: 0
WidescreenStoryboard: 1

[Editor]
Bookmarks: 11084,21751,32417,53751,64417,85751,96417,117751,139084,160417,181751,192417,203084,213751,235084,256417,267084,277751
DistanceSpacing: 1.3
BeatDivisor: 4
GridSize: 4
TimelineZoom: 1

[Metadata]
Title:AIR
TitleUnicode:AIR
Artist:my sound life
ArtistUnicode:my sound life
Creator:Mirash
Version:Collab Extra
Source:
Tags:allein japanese pop featured artist chata fa mappers' guild mpg mini pack marathon rock portal two
BeatmapID:3722665
BeatmapSetID:1814686

[Difficulty]
HPDrainRate:7
CircleSize:4
OverallDifficulty:8
ApproachRate:9
SliderMultiplier:1.8
SliderTickRate:1

[Events]
//Background and Video events
0,0,"air.jpg",0,0
//Break Periods
//Storyboard Layer 0 (Background)
//Storyboard Layer 1 (Fail)
//Storyboard Layer 2 (Pass)
//Storyboard Layer 3 (Foreground)
//Storyboard Layer 4 (Overlay)
//Storyboard Sound Samples

[TimingPoints]
418,333.333333333333,4,2,1,40,1,0
418,-200,4,2,1,40,0,0
11084,-83.3333333333333,4,2,1,60,0,0
12251,-66.6666666666667,4,2,1,60,0,0
13084,-83.3333333333333,4,2,1,60,0,0
14917,-66.6666666666667,4,2,1,60,0,0
15751,-83.3333333333333,4,2,1,60,0,0
17584,-66.6666666666667,4,2,1,60,0,0
17917,-83.3333333333333,4,2,1,60,0,0
20251,-66.6666666666667,4,2,1,60,0,0
20584,-83.3333333333333,4,2,1,60,0,0
21417,-50,4,2,1,60,0,0
21751,-83.3333333333333,4,2,1,60,0,0
22917,-66.6666666666667,4,2,1,60,0,0
24417,-83.3333333333333,4,2,1,60,0,0
25584,-66.6666666666667,4,2,1,60,0,0
27084,-83.3333333333333,4,2,1,60,0,0
28251,-66.6666666666667,4,2,1,60,0,0
29751,-83.3333333333333,4,2,1,60,0,0
30917,-66.6666666666667,4,2,1,60,0,0
32417,-100,4,2,1,50,0,0
53751,-83.3333333333333,4,2,1,60,0,0
54917,-66.6666666666667,4,2,1,60,0,0
55251,-83.3333333333333,4,2,1,60,0,0
57584,-66.6666666666667,4,2,1,60,0,0
59084,-83.3333333333333,4,2,1,60,0,0
60251,-66.6666666666667,4,2,1,60,0,0
60584,-83.3333333333333,4,2,1,60,0,0
62751,-66.6666666666667,4,2,1,60,0,0
64417,-100,4,2,1,60,0,0
85751,-76.9230769230769,4,2,1,70,0,0
96417,-83.3333333333333,4,2,1,65,0,0
139084,-100,4,2,1,55,0,0
181751,-100,4,2,1,70,0,0
203084,-76.9230769230769,4,2,1,70,0,0
213751,-83.3333333333333,4,2,1,65,0,0
256417,-100,4,2,1,60,0,0
277751,-200,4,2,1,30,0,0
280417,-200,4,2,1,30,0,0
283084,-200,4,2,1,30,0,0
288417,-200,4,2,1,30,0,0
291084,-200,4,2,1,30,0,0
293751,-222.222222222221,4,2,1,25,0,0
296417,-222.222222222221,4,2,1,20,0,0
297251,-285.714285714284,4,2,1,20,0,0
297751,-285.714285714284,4,2,1,15,0,0
299084,-285.714285714284,4,2,1,10,0,0
300417,-285.714285714284,4,2,1,5,0,0

[Colours]
Combo1 : 62,193,157
Combo2 : 95,163,54
Combo3 : 47,225,136
Combo4 : 35,216,231

[HitObjects]
420,101,418,6,0,P|441:157|454:197,1,90,4|0,1:0|0:0,0:0:0:0:
475,256,917,1,0,0:0:0:0:
450,185,1084,2,0,P|465:157|476:143,1,45,0|0,0:0|0:0,0:0:0:0:
105,294,1584,5,2,0:3:0:0:
105,294,1917,1,0,0:0:0:0:
105,294,2251,1,0,0:0:0:0:
179,300,2417,2,0,P|203:293|223:289,1,45,0|0,0:0|0:0,0:0:0:0:
298,274,2751,2,0,P|347:273|403:276,1,90,0|4,0:0|1:0,0:0:0:0:
485,330,3417,5,0,0:0:0:0:
485,330,3584,1,0,0:0:0:0:
485,330,3751,2,0,P|497:353|504:372,1,45,0|0,0:0|0:0,0:0:0:0:
458,259,4251,2,0,P|465:226|471:165,1,90,2|2,0:3|0:3,0:0:0:0:
313,187,4917,1,0,0:0:0:0:
313,187,5084,2,0,P|304:142|300:98,1,90,4|4,0:0|0:0,0:0:0:0:
89,190,5751,5,4,1:0:0:0:
16,203,6084,1,2,0:0:0:0:
81,189,6417,1,0,0:0:0:0:
24,200,6584,1,2,0:0:0:0:
180,130,6917,6,0,P|224:140|271:148,1,90,2|2,0:3|0:3,0:0:0:0:
343,143,7584,1,2,0:3:0:0:
268,160,7751,2,0,P|223:152|179:142,1,90,4|4,0:0|0:0,0:0:0:0:
130,84,8417,6,0,P|85:76|41:66,1,90,4|0,1:0|0:0,0:0:0:0:
41,66,8917,1,0,1:0:0:0:
119,56,9084,2,0,P|144:61|178:64,1,45,0|0,1:0|0:0,0:0:0:0:
229,35,9417,1,0,1:0:0:0:
302,98,9584,1,2,0:3:0:0:
302,98,9917,1,2,0:3:0:0:
302,98,10251,1,4,0:3:0:0:
370,68,10417,2,0,P|395:81|413:91,1,45,4|0,0:0|0:0,0:0:0:0:
481,114,10751,2,0,P|471:145|455:205,1,90,4|4,0:3|1:0,0:0:0:0:
118,349,11417,6,0,P|72:278|85:241,1,107.999996704102,8|0,1:0|0:0,0:0:0:0:
175,270,11667,1,0,1:0:0:0:
250,283,11751,2,0,P|242:230|232:202,1,53.9999983520508,8|0,1:0|0:0,0:0:0:0:
196,170,11917,2,0,P|194:103|178:-2,1,161.999995056153,4|0,1:0|0:0,0:0:0:0:
163,19,12251,6,2,B|135:44|168:117|241:107|311:8,1,202.500007724762,6|0,1:0|0:0,1:1:0:0:
367,33,12584,1,0,1:0:0:0:
422,88,12751,1,10,1:0:0:0:
419,165,12917,1,2,0:1:0:0:
191,350,13084,6,0,P|171:345|127:323,1,53.9999983520508,0|0,1:0|0:0,0:0:0:0:
115,262,13251,1,8,1:0:0:0:
71,260,13334,1,8,1:0:0:0:
47,296,13417,1,8,1:0:0:0:
66,334,13501,1,8,1:0:0:0:
141,332,13584,1,8,1:0:0:0:
216,330,13667,1,8,1:0:0:0:
292,332,13751,2,0,P|355:342|411:350,1,107.999996704102,4|0,1:0|0:0,0:0:0:0:
479,179,14084,6,0,P|419:200|407:283,1,107.999996704102,8|0,1:0|0:0,0:0:0:0:
461,280,14334,1,0,1:0:0:0:
486,350,14417,2,0,P|485:308|491:283,1,53.9999983520508,8|0,1:0|0:0,0:0:0:0:
321,244,14584,2,0,P|324:178|321:67,1,161.999995056153,4|0,1:0|0:0,0:0:0:0:
304,50,14917,6,2,B|365:64|369:132|304:205|235:140,1,202.500007724762,6|0,1:0|0:0,1:1:0:0:
207,91,15251,1,0,1:0:0:0:
111,151,15417,1,10,1:0:0:0:
204,215,15584,1,2,0:1:0:0:
36,147,15751,6,0,L|31:87,1,53.9999983520508,0|0,1:0|0:0,0:0:0:0:
54,23,15917,1,2,1:3:0:0:
54,23,16001,5,8,1:0:0:0:
43,97,16084,1,8,1:0:0:0:
44,166,16167,1,8,0:3:0:0:
47,236,16251,1,2,1:3:0:0:
47,305,16334,1,8,1:0:0:0:
50,381,16417,6,0,P|50:339|46:300,1,53.9999983520508,4|0,1:0|0:0,0:0:0:0:
120,214,16584,1,0,1:0:0:0:
184,370,16751,2,0,P|187:306|187:239,1,107.999996704102,8|0,1:0|0:0,0:0:0:0:
189,187,17001,1,0,1:0:0:0:
259,227,17084,2,0,P|261:171|261:163,1,53.9999983520508,8|0,1:0|0:0,0:0:0:0:
333,259,17251,2,0,P|333:197|343:76,1,161.999995056153,4|0,1:0|0:0,0:0:0:0:
330,23,17584,6,2,B|311:54|325:116|400:151|412:207,1,202.500007724762,6|0,1:0|0:0,1:1:0:0:
469,246,17917,1,0,1:0:0:0:
331,366,18084,2,0,P|334:315|330:235,1,107.999996704102,10|2,1:0|0:1,0:0:0:0:
154,128,18417,1,8,1:0:0:0:
113,111,18501,1,8,1:0:0:0:
74,129,18584,1,8,1:0:0:0:
56,168,18667,1,8,1:0:0:0:
62,176,18751,1,4,1:2:0:0:
68,184,18834,1,0,1:0:0:0:
74,192,18917,1,0,1:0:0:0:
81,200,19001,1,0,1:0:0:0:
87,208,19084,2,0,P|71:289|67:329,1,107.999996704102,4|0,1:0|1:0,0:0:0:0:
243,365,19417,6,0,P|235:311|224:258,1,107.999996704102,8|0,1:0|0:0,0:0:0:0:
171,205,19667,1,0,1:0:0:0:
235,169,19751,2,0,P|263:177|296:187,1,53.9999983520508,8|0,1:0|0:0,0:0:0:0:
327,247,19917,2,0,P|377:218|360:83,1,161.999995056153,4|0,1:0|0:0,0:0:0:0:
431,54,20251,6,2,B|311:23|336:85|217:76,1,202.500007724762,6|0,1:0|0:0,1:1:0:0:
170,38,20584,1,0,1:0:0:0:
44,135,20751,2,0,P|53:202|54:225,1,53.9999983520508,10|0,1:0|0:0,0:0:0:0:
134,353,20917,1,0,1:0:0:0:
181,342,21001,1,0,1:0:0:0:
228,331,21084,1,8,1:0:0:0:
302,338,21167,1,8,1:0:0:0:
377,346,21251,1,8,1:0:0:0:
451,354,21334,1,8,1:0:0:0:
507,301,21417,6,0,B|473:262|526:225|451:176|451:176|458:109|541:124|516:223|508:196,1,270,4|0,1:0|0:0,0:0:0:0:
413,245,21751,6,0,B|395:236|395:236|324:267|324:267|298:254,1,107.999996704102,4|0,1:0|0:0,0:0:0:0:
214,228,22001,1,0,0:0:0:0:
214,228,22084,2,0,L|364:250,1,107.999996704102,8|0,1:0|0:0,0:0:0:0:
349,171,22334,1,0,1:0:0:0:
313,105,22417,1,8,1:0:0:0:
138,132,22584,2,0,B|49:145|49:145|107:131|107:131|120:110,1,161.999995056153,4|0,1:0|0:0,0:0:0:0:
162,61,22917,6,2,B|145:51|145:51|-21:190,1,202.500007724762,6|0,1:0|0:0,1:1:0:0:
1,189,23251,1,0,1:0:0:0:
88,356,23417,2,0,B|104:368|104:368|165:311|165:311|105:253|105:253|88:269,1,202.500007724762,10|0,1:0|0:0,0:0:0:0:
72,277,23751,2,0,L|90:377,1,67.5000025749208,0|0,1:0|0:0,0:0:0:0:
160,345,23918,1,8,1:0:0:0:
221,303,24001,1,8,1:0:0:0:
285,268,24084,1,8,1:0:0:0:
318,311,24168,1,8,1:0:0:0:
332,333,24251,1,8,1:0:0:0:
346,355,24334,1,8,1:0:0:0:
365,381,24417,6,0,L|479:355,1,107.999996704102,4|0,1:0|0:0,0:0:0:0:
326,135,24751,2,0,L|211:160,1,107.999996704102,8|0,1:0|0:0,0:0:0:0:
154,127,25001,1,0,1:0:0:0:
82,130,25084,2,0,L|61:44,1,53.9999983520508,8|0,1:0|0:0,0:0:0:0:
127,9,25251,2,0,P|199:5|233:98,1,161.999995056153,4|0,1:0|0:0,0:0:0:0:
340,114,25584,6,2,B|509:75|509:75|525:43,1,202.500007724762,6|0,1:0|0:0,1:1:0:0:
491,51,25917,1,0,1:0:0:0:
400,76,26084,2,0,L|321:95,1,67.5000025749208,10|0,1:0|0:0,0:0:0:0:
269,146,26251,2,0,L|226:215,1,67.5000025749208,2|0,0:1|0:0,0:0:0:0:
204,292,26417,1,0,1:0:0:0:
211,324,26500,1,0,0:0:0:0:
219,357,26584,2,0,L|298:346,1,67.5000025749208,2|8,1:3|1:0,0:0:0:0:
345,301,26751,2,0,P|322:266|272:257,1,67.5000025749208,8|8,1:0|0:3,0:0:0:0:
126,272,26917,5,2,1:3:0:0:
55,297,27001,1,8,1:0:0:0:
1,246,27084,2,0,P|10:195|79:166,1,107.999996704102,4|0,1:0|1:0,0:0:0:0:
163,7,27417,2,0,L|190:150,1,107.999996704102,8|0,1:0|0:0,0:0:0:0:
235,167,27667,1,0,1:0:0:0:
259,96,27751,2,0,L|327:109,1,53.9999983520508,8|0,1:0|0:0,0:0:0:0:
353,171,27917,2,0,B|416:120|416:120|522:142,1,161.999995056153,4|0,1:0|0:0,0:0:0:0:
512,209,28251,6,2,B|525:226|525:226|502:312|502:312|512:358,1,135.000005149842,6|0,1:0|0:0,1:1:0:0:
386,379,28584,1,2,1:0:0:0:
318,311,28751,1,10,1:0:0:0:
224,325,28917,1,2,0:1:0:0:
74,343,29084,1,8,1:0:0:0:
86,346,29167,1,8,1:0:0:0:
75,353,29251,1,8,1:0:0:0:
87,356,29334,1,8,1:0:0:0:
52,373,29417,1,4,1:2:0:0:
77,302,29501,1,0,1:0:0:0:
103,233,29584,1,0,1:0:0:0:
131,164,29667,1,0,1:0:0:0:
156,90,29751,6,0,B|291:127|291:127|349:106,1,161.999995056153,4|0,1:0|0:0,0:0:0:0:
375,153,30084,2,0,L|496:130,1,107.999996704102,8|0,1:0|0:0,0:0:0:0:
512,65,30334,1,0,1:0:0:0:
457,16,30417,1,8,1:0:0:0:
505,354,30584,1,4,1:0:0:0:
505,354,30917,6,2,B|410:279|411:384|299:352,1,202.500007724762,6|0,1:0|0:0,1:1:0:0:
279,367,31251,1,2,1:0:0:0:
109,287,31417,1,10,1:0:0:0:
278,141,31584,1,0,1:0:0:0:
448,221,31750,1,8,1:0:0:0:
355,227,31917,1,8,1:0:0:0:
507,157,32084,1,4,1:0:0:0:
493,126,32167,1,0,1:0:0:0:
506,94,32251,1,0,1:0:0:0:
484,67,32334,1,0,1:0:0:0:
503,55,32417,6,0,L|352:75,1,135,0|0,1:0|0:0,0:0:0:0:
356,60,32751,2,0,L|265:72,1,90,8|0,1:3|0:0,0:0:0:0:
127,100,33084,2,0,P|117:138|140:195,1,90,0|0,1:0|1:0,0:0:0:0:
207,171,33417,1,8,1:3:0:0:
1,208,33584,6,0,P|81:213|142:325,1,180,4|0,3:3|0:0,0:0:0:0:
86,360,34084,1,8,1:3:0:0:
14,341,34251,1,4,3:0:0:0:
253,281,34417,1,0,1:0:0:0:
325,262,34584,1,0,1:0:0:0:
362,381,34751,1,8,1:3:0:0:
290,362,34918,1,4,0:3:0:0:
410,308,35084,6,0,L|419:116,2,180,0|8|0,1:0|1:3|1:0,0:0:0:0:
504,343,35917,1,0,1:0:0:0:
507,270,36084,1,8,1:3:0:0:
320,267,36251,6,0,L|220:276,1,90,4|0,0:2|1:0,0:0:0:0:
152,323,36584,1,0,0:0:0:0:
33,253,36751,1,8,1:3:0:0:
134,166,36917,1,0,1:2:0:0:
161,236,37084,5,4,1:2:0:0:
52,172,37251,1,0,0:0:0:0:
195,95,37417,1,8,1:3:0:0:
304,159,37584,1,4,0:0:0:0:
211,179,37751,6,0,L|224:-5,2,180,4|8|0,1:0|1:3|1:0,0:0:0:0:
266,233,38584,1,0,1:0:0:0:
166,325,38751,1,8,1:3:0:0:
230,376,38917,2,0,P|273:377|318:338,1,90,4|0,0:3|1:0,0:0:0:0:
372,184,39251,5,0,0:0:0:0:
459,165,39417,1,8,1:3:0:0:
510,239,39584,1,4,0:3:0:0:
270,188,39751,5,0,1:0:0:0:
249,83,39917,1,0,1:0:0:0:
425,0,40084,5,8,1:3:0:0:
404,105,40250,1,4,0:3:0:0:
309,34,40417,6,0,L|158:57,1,135,0|0,1:0|0:0,0:0:0:0:
158,39,40751,2,0,L|57:54,1,90,8|0,1:3|0:0,0:0:0:0:
158,244,41084,2,0,L|247:230,1,90,0|0,1:0|1:0,0:0:0:0:
279,162,41417,1,8,1:3:0:0:
462,287,41584,6,0,P|396:275|372:163,1,180,4|0,0:0|1:0,0:0:0:0:
276,308,42084,1,8,1:0:0:0:
294,384,42251,1,0,1:0:0:0:
279,220,42417,1,0,1:0:0:0:
288,175,42501,1,0,1:0:0:0:
297,131,42584,1,0,1:0:0:0:
307,86,42667,1,0,1:0:0:0:
279,42,42751,5,8,1:3:0:0:
227,58,42834,1,8,1:3:0:0:
192,43,42917,1,8,1:3:0:0:
140,59,43000,1,8,1:3:0:0:
81,16,43084,6,0,L|124:235,2,180,4|8|0,1:0|1:3|1:0,0:0:0:0:
0,0,43917,1,0,1:0:0:0:
15,75,44084,1,8,1:3:0:0:
180,102,44251,6,0,P|229:109|282:-17,1,180,4|0,3:3|0:0,0:0:0:0:
369,63,44751,1,8,1:3:0:0:
438,94,44917,1,4,3:0:0:0:
346,236,45084,1,0,1:0:0:0:
312,156,45251,1,0,1:0:0:0:
431,237,45417,1,8,1:3:0:0:
256,263,45584,1,4,0:3:0:0:
388,168,45751,6,0,L|420:332,1,135,0|0,1:0|0:0,0:0:0:0:
428,328,46084,2,0,B|471:308|471:308|529:327,1,90,8|0,1:3|0:0,0:0:0:0:
344,322,46417,1,0,1:0:0:0:
263,366,46584,1,0,1:0:0:0:
119,260,46751,1,8,1:3:0:0:
66,317,46917,6,0,L|257:296,1,180,4|0,0:2|0:0,0:0:0:0:
305,244,47417,1,8,1:3:0:0:
232,99,47584,1,0,1:2:0:0:
319,113,47751,1,4,1:2:0:0:
169,158,47917,1,0,0:0:0:0:
92,104,48084,1,8,1:3:0:0:
22,135,48251,1,4,0:0:0:0:
117,265,48417,6,0,B|211:237|200:321|301:302,2,180,4|8|0,1:0|1:3|1:0,0:0:0:0:
0,326,49251,1,0,1:0:0:0:
72,356,49417,1,8,1:3:0:0:
37,234,49584,6,0,L|27:131,1,90,4|0,0:3|1:0,0:0:0:0:
223,88,49917,1,0,0:0:0:0:
340,104,50084,1,8,1:3:0:0:
387,44,50251,1,4,0:3:0:0:
300,7,50417,1,0,1:0:0:0:
260,160,50584,1,0,1:0:0:0:
407,219,50751,5,8,1:3:0:0:
432,123,50918,1,4,0:3:0:0:
385,185,51084,1,0,1:0:0:0:
9,192,51417,1,8,1:3:0:0:
9,192,51751,1,0,1:0:0:0:
83,209,51917,1,0,1:0:0:0:
200,171,52084,1,8,1:3:0:0:
274,188,52250,1,4,0:0:0:0:
506,169,52417,5,0,0:0:0:0:
370,137,52583,1,0,1:0:0:0:
244,269,52751,1,12,1:0:0:0:
380,301,52917,1,0,1:0:0:0:
347,224,53084,1,0,1:0:0:0:
152,346,53251,1,0,1:0:0:0:
157,292,53334,1,0,1:0:0:0:
163,239,53417,1,8,1:3:0:0:
169,184,53501,1,8,1:3:0:0:
178,130,53584,1,8,1:3:0:0:
184,77,53667,1,8,1:3:0:0:
200,62,53751,6,0,B|249:58|281:74|281:74|311:107|364:105,1,161.999995056153,4|0,1:0|0:0,0:0:0:0:
371,85,54084,1,8,1:0:0:0:
496,237,54251,1,0,0:0:0:0:
428,205,54334,1,0,1:0:0:0:
416,278,54417,2,0,P|414:221|413:200,1,53.9999983520508,8|0,1:0|0:0,0:0:0:0:
346,190,54584,2,0,P|342:272|345:365,1,161.999995056153,4|0,1:0|0:0,0:0:0:0:
340,373,54917,6,2,B|274:382|212:287|263:212,1,202.500007724762,6|0,1:0|0:0,1:1:0:0:
263,214,55251,2,0,P|261:179|240:137,1,53.9999983520508,0|0,1:0|0:0,0:0:0:0:
191,124,55417,2,0,P|183:149|183:176,1,53.9999983520508,10|0,1:0|0:0,0:0:0:0:
120,215,55584,1,2,1:1:0:0:
132,231,55667,1,0,1:0:0:0:
167,296,55751,1,0,1:0:0:0:
116,350,55834,1,0,1:0:0:0:
48,316,55917,1,8,1:0:0:0:
55,247,56001,1,8,1:0:0:0:
67,263,56084,1,8,1:0:0:0:
58,274,56167,1,8,1:0:0:0:
48,258,56251,1,8,1:0:0:0:
51,225,56334,1,8,1:0:0:0:
44,151,56417,6,0,P|38:60|34:33,1,107.999996704102,4|0,1:0|0:0,0:0:0:0:
140,17,56751,2,0,P|186:49|192:124,1,107.999996704102,8|0,1:0|0:0,0:0:0:0:
146,156,57001,1,0,1:0:0:0:
220,224,57084,2,0,P|219:162|217:145,1,53.9999983520508,8|0,1:0|0:0,0:0:0:0:
278,117,57251,2,0,B|285:78|408:80|409:22,1,161.999995056153,4|0,1:0|0:0,0:0:0:0:
398,14,57584,6,2,B|367:50|410:133|431:207|394:265,1,202.500007724762,6|0,1:0|0:0,1:1:0:0:
401,237,57917,1,0,1:0:0:0:
474,361,58084,1,10,1:0:0:0:
511,257,58251,1,2,0:1:0:0:
495,273,58334,1,0,1:0:0:0:
422,288,58417,1,0,1:0:0:0:
348,303,58501,1,0,1:0:0:0:
275,318,58584,1,2,1:3:0:0:
202,330,58667,1,8,1:0:0:0:
187,351,58751,1,8,1:0:0:0:
171,317,58917,5,2,1:3:0:0:
234,355,59001,1,8,1:0:0:0:
275,293,59084,2,0,P|266:215|263:168,1,107.999996704102,4|0,1:0|1:0,0:0:0:0:
148,83,59417,2,0,P|77:108|66:166,1,107.999996704102,8|0,1:0|0:0,0:0:0:0:
3,171,59667,1,0,1:0:0:0:
96,241,59751,2,0,P|160:212|171:204,1,53.9999983520508,8|0,1:0|0:0,0:0:0:0:
239,103,59917,2,0,P|303:99|364:102,1,107.999996704102,4|0,1:0|0:0,0:0:0:0:
399,156,60167,1,0,0:0:0:0:
484,122,60251,6,2,B|427:152|402:241|442:322,1,202.500007724762,6|0,1:0|0:0,1:1:0:0:
458,331,60584,1,0,1:0:0:0:
349,210,60751,2,0,P|292:211|242:250,1,107.999996704102,10|2,1:0|0:1,0:0:0:0:
392,62,61084,1,8,1:0:0:0:
384,74,61167,1,8,1:0:0:0:
327,92,61251,1,8,1:0:0:0:
269,76,61334,1,8,1:0:0:0:
231,30,61417,1,4,1:2:0:0:
156,14,61501,1,0,1:0:0:0:
83,34,61584,1,8,1:0:0:0:
40,95,61667,1,8,1:0:0:0:
67,166,61751,6,0,P|88:234|93:272,1,107.999996704102,4|0,1:0|1:0,0:0:0:0:
258,317,62084,2,0,P|306:280|311:199,1,107.999996704102,8|0,1:0|0:0,0:0:0:0:
263,184,62334,1,0,1:0:0:0:
353,111,62417,2,0,P|341:149|333:187,1,53.9999983520508,8|0,1:0|0:0,0:0:0:0:
168,316,62584,2,0,P|180:354|188:392,1,53.9999983520508,4|0,1:0|0:0,0:0:0:0:
168,379,62917,6,2,P|156:303|176:169,1,202.500007724762,6|0,1:0|0:0,1:1:0:0:
194,159,63251,1,0,1:0:0:0:
145,48,63417,1,10,1:0:0:0:
46,100,63584,1,0,1:0:0:0:
101,197,63751,5,8,1:0:0:0:
317,140,63917,1,8,1:0:0:0:
490,276,64084,1,4,1:0:0:0:
490,276,64417,6,0,P|401:268|327:263,1,135,4|0,1:0|0:0,0:0:0:0:
334,235,64751,2,0,P|280:245|240:249,1,90,8|0,1:3|0:0,0:0:0:0:
199,310,65084,1,0,1:0:0:0:
98,364,65251,1,0,1:0:0:0:
37,318,65417,2,0,P|38:261|34:224,1,90,8|0,1:3|0:0,0:0:0:0:
170,98,65751,6,0,P|259:90|281:89,1,90,0|0,1:0|0:0,0:0:0:0:
351,116,66084,1,8,1:3:0:0:
270,163,66251,2,0,P|225:166|180:171,1,90,4|0,3:0|1:0,0:0:0:0:
92,146,66584,1,0,1:0:0:0:
202,15,66751,1,8,1:3:0:0:
202,15,66917,1,4,0:3:0:0:
419,15,67084,6,0,P|427:64|436:113,1,90,0|0,1:0|0:0,0:0:0:0:
488,158,67417,2,0,P|463:228|438:313,1,135,8|0,1:3|0:0,0:0:0:0:
410,295,67751,2,0,P|418:344|427:393,1,90,0|0,1:0|1:0,0:0:0:0:
261,324,68084,1,8,1:3:0:0:
298,241,68251,2,0,P|280:193|173:158,1,135,4|0,0:2|0:0,0:0:0:0:
178,135,68584,2,0,P|167:183|157:229,2,90,0|8|0,0:0|1:3|1:2,0:0:0:0:
275,83,69084,1,4,1:2:0:0:
191,7,69251,1,0,0:0:0:0:
96,63,69417,1,8,1:3:0:0:
123,74,69584,1,4,0:0:0:0:
22,106,69751,6,0,P|26:165|35:234,1,90,4|0,1:0|0:0,0:0:0:0:
79,255,70084,2,0,P|133:240|216:227,1,135,8|0,1:3|0:0,0:0:0:0:
242,210,70417,2,0,P|238:269|229:338,1,90,0|0,1:0|1:0,0:0:0:0:
407,373,70751,1,8,1:3:0:0:
304,370,70917,6,0,P|331:323|320:183,1,180,4|0,0:3|0:0,0:0:0:0:
254,116,71417,1,8,1:3:0:0:
352,48,71584,1,4,0:3:0:0:
469,149,71751,1,0,1:0:0:0:
487,219,71917,1,0,1:0:0:0:
397,165,72084,1,8,1:3:0:0:
459,76,72251,1,4,0:3:0:0:
469,149,72417,1,0,1:0:0:0:
160,260,72751,6,0,P|113:249|58:242,1,90,8|0,1:3|0:0,0:0:0:0:
13,157,73084,2,0,P|49:108|133:88,1,135,0|0,1:0|0:0,0:0:0:0:
146,65,73417,1,8,1:3:0:0:
230,193,73584,2,0,P|298:175|403:136,1,180,4|0,0:0|1:0,0:0:0:0:
459,29,74084,1,8,1:0:0:0:
400,136,74251,1,0,1:0:0:0:
479,303,74417,5,8,1:3:0:0:
457,331,74501,1,8,1:3:0:0:
484,353,74584,1,8,1:3:0:0:
469,231,74751,1,8,1:3:0:0:
313,329,74918,1,8,1:3:0:0:
297,361,75001,1,8,1:3:0:0:
260,358,75084,6,0,B|257:309|260:244,1,90,4|0,1:0|0:0,0:0:0:0:
287,197,75417,2,0,P|286:124|268:11,1,180,8|0,1:3|1:0,0:0:0:0:
204,60,75917,1,0,1:0:0:0:
66,13,76084,1,8,1:3:0:0:
132,171,76251,6,0,P|116:240|106:323,1,135,4|0,3:3|0:0,0:0:0:0:
118,337,76584,1,0,0:0:0:0:
239,278,76751,1,8,1:3:0:0:
287,225,76917,1,4,3:0:0:0:
387,303,77084,2,0,P|459:327|486:333,1,90,0|0,1:0|1:0,0:0:0:0:
507,188,77417,1,8,1:3:0:0:
449,235,77584,1,4,0:3:0:0:
496,84,77751,1,0,1:0:0:0:
212,100,78084,6,0,P|171:79|123:66,1,90,8|0,1:3|0:0,0:0:0:0:
61,28,78417,2,0,P|31:61|48:179,1,135,0|0,1:0|0:0,0:0:0:0:
56,169,78751,1,8,1:3:0:0:
124,326,78917,6,0,P|184:300|302:260,1,180,4|0,0:2|0:0,0:0:0:0:
330,181,79417,1,8,1:3:0:0:
380,255,79584,1,0,1:2:0:0:
506,159,79751,2,0,P|445:174|399:191,1,90,4|0,1:2|0:0,0:0:0:0:
282,278,80084,2,0,P|196:306|113:341,1,180,8|4,1:3|1:0,0:0:0:0:
242,166,80751,6,0,P|230:109|213:67,1,90,8|0,1:3|0:0,0:0:0:0:
258,11,81084,2,0,P|321:26|357:122,1,135,0|0,1:0|0:0,0:0:0:0:
386,104,81417,1,8,1:3:0:0:
198,249,81584,2,0,P|135:234|113:102,1,180,4|0,0:3|0:0,0:0:0:0:
111,20,82084,1,8,1:3:0:0:
97,134,82251,2,0,P|82:202|66:251,1,90,4|0,0:3|1:0,0:0:0:0:
136,352,82584,1,0,1:0:0:0:
251,230,82751,1,8,1:3:0:0:
156,253,82917,1,4,0:3:0:0:
371,358,83084,6,0,P|351:289|343:252,1,90,4|0,1:0|0:0,0:0:0:0:
84,64,83417,6,0,P|73:107|59:150,1,90,8|0,1:3|0:0,0:0:0:0:
436,132,83751,5,0,1:0:0:0:
418,58,83917,1,0,1:0:0:0:
436,132,84084,1,8,1:3:0:0:
200,243,84251,5,6,1:3:0:0:
180,211,84334,1,0,1:0:0:0:
201,224,84417,1,8,0:1:0:0:
302,143,84584,5,2,1:3:0:0:
322,111,84667,1,0,1:0:0:0:
301,124,84750,1,12,1:0:0:0:
245,33,84917,5,2,1:3:0:0:
253,10,85084,5,8,1:0:0:0:
191,134,85251,5,2,1:3:0:0:
296,258,85417,5,8,1:0:0:0:
248,331,85584,5,8,1:0:0:0:
320,367,85751,6,2,B|507:333,1,175.499991966248,6|0,1:0|0:0,1:1:0:0:
460,327,86084,2,0,B|322:355,1,116.999994644165,10|0,1:0|0:0,0:0:0:0:
100,367,86417,1,8,1:3:0:0:
58,354,86501,1,8,1:3:0:0:
18,336,86584,1,10,1:3:0:0:
36,297,86667,1,8,1:3:0:0:
54,257,86751,1,8,1:0:0:0:
325,226,86917,6,2,B|413:252|413:252|493:191,1,175.499991966248,6|0,1:0|0:0,1:1:0:0:
512,200,87251,1,2,1:0:0:0:
251,187,87417,1,8,1:0:0:0:
0,157,87584,1,2,1:0:0:0:
250,282,87751,5,8,1:0:0:0:
259,230,87834,1,8,1:0:0:0:
269,178,87917,1,8,1:0:0:0:
279,125,88001,1,8,1:0:0:0:
249,112,88084,5,8,1:3:0:0:
253,140,88167,1,8,1:3:0:0:
259,169,88250,1,10,1:3:0:0:
265,198,88334,1,8,1:3:0:0:
337,231,88417,6,2,B|403:184|403:184|513:221,1,175.499991966248,6|0,1:0|0:0,1:1:0:0:
507,189,88751,2,0,L|476:70,1,116.999994644165,10|0,1:0|0:0,0:0:0:0:
0,191,89084,5,10,1:0:0:0:
256,257,89251,1,2,1:3:0:0:
512,193,89417,1,10,1:0:0:0:
256,127,89584,1,2,1:3:0:0:
112,192,89917,5,2,1:0:0:0:
255,29,90084,1,10,1:0:0:0:
399,191,90250,1,2,1:3:0:0:
249,338,90417,1,8,1:3:0:0:
252,285,90501,1,8,1:3:0:0:
255,232,90584,1,10,1:3:0:0:
259,179,90667,1,8,1:3:0:0:
263,126,90751,1,8,1:0:0:0:
512,197,90917,5,10,1:3:0:0:
512,197,91001,1,8,1:0:0:0:
512,197,91084,2,2,P|436:187|398:80,1,175.499991966248,6|0,1:0|0:0,1:1:0:0:
457,64,91417,2,0,P|438:22|347:10,1,116.999994644165,10|0,1:0|0:0,0:0:0:0:
40,109,91751,1,10,1:3:0:0:
65,147,91834,1,8,1:3:0:0:
92,184,91917,1,8,1:3:0:0:
132,160,92001,1,8,1:3:0:0:
171,136,92084,1,10,1:0:0:0:
429,351,92251,6,2,B|344:317|344:317|269:382,1,175.499991966248,6|0,1:0|0:0,1:1:0:0:
253,381,92584,1,2,1:0:0:0:
256,192,92751,1,12,1:0:0:0:
273,0,92917,1,2,1:3:0:0:
254,264,93084,5,10,1:0:0:0:
220,231,93167,1,8,1:0:0:0:
186,197,93251,1,8,1:0:0:0:
218,165,93334,1,8,1:0:0:0:
251,132,93417,1,10,1:0:0:0:
285,164,93501,1,8,1:3:0:0:
321,193,93584,1,10,1:3:0:0:
290,229,93667,1,8,1:3:0:0:
254,264,93751,6,0,L|89:285,1,116.999994644165,4|0,1:0|0:0,0:0:0:0:
216,36,94084,6,0,L|371:15,1,116.999994644165,12|0,1:0|0:0,0:0:0:0:
440,365,94417,5,8,1:3:0:0:
440,365,94584,2,0,L|275:346,1,116.999994644165,10|0,1:3|0:0,0:0:0:0:
0,384,94917,5,10,1:3:0:0:
512,0,95251,1,8,1:3:0:0:
0,384,95584,1,10,1:3:0:0:
512,0,95751,1,8,1:3:0:0:
512,0,96417,6,0,L|500:193,1,161.999995056153,4|0,1:0|0:0,0:0:0:0:
484,185,96751,2,0,B|438:157|438:157|379:191,1,107.999996704102,8|0,1:0|0:0,0:0:0:0:
254,235,97084,1,0,1:0:0:0:
183,196,97251,1,0,1:0:0:0:
106,206,97417,5,8,1:0:0:0:
250,154,97584,1,0,0:0:0:0:
339,280,97751,1,2,1:0:0:0:
195,332,97918,1,2,1:0:0:0:
159,259,98084,2,0,L|175:125,1,107.999996704102,8|0,1:0|0:0,0:0:0:0:
171,151,98334,1,2,0:1:0:0:
171,151,98417,1,2,1:0:0:0:
92,306,98584,5,2,1:0:0:0:
238,263,98751,1,8,1:0:0:0:
330,371,98917,1,2,0:1:0:0:
512,318,99084,5,4,1:0:0:0:
442,283,99251,1,0,0:0:0:0:
455,381,99417,2,0,L|494:170,1,161.999995056153,8|0,1:0|0:0,0:0:0:0:
512,197,99751,1,0,1:0:0:0:
317,86,99917,2,0,L|297:197,1,107.999996704102,0|8,1:0|1:0,0:0:0:0:
131,373,100251,6,0,P|69:364|25:209,1,215.999993408203,0|0,0:0|1:0,0:0:0:0:
110,61,100751,2,0,P|160:83|198:155,1,107.999996704102,8|0,1:0|3:0,3:3:0:0:
393,234,101084,2,0,P|443:211|481:139,1,107.999996704102,0|0,1:0|1:0,0:0:0:0:
326,3,101417,2,0,L|291:137,1,107.999996704102,8|0,1:0|0:0,0:0:0:0:
298,107,101667,1,10,1:0:0:0:
298,107,101751,5,6,1:0:0:0:
229,0,101917,1,2,0:3:0:0:
263,191,102084,2,0,L|311:394,1,161.999995056153,8|0,1:0|0:0,0:0:0:0:
328,367,102417,1,2,1:3:0:0:
481,315,102584,1,2,1:3:0:0:
361,268,102751,1,8,1:0:0:0:
208,320,102918,1,2,0:3:0:0:
300,348,103084,5,2,1:0:0:0:
204,201,103251,1,2,1:0:0:0:
91,263,103417,2,0,L|48:379,1,107.999996704102,10|0,1:0|0:0,0:0:0:0:
53,364,103667,1,2,0:1:0:0:
53,364,103751,1,2,1:0:0:0:
0,278,103917,1,2,0:1:0:0:
207,354,104084,2,0,L|343:336,1,107.999996704102,10|0,1:0|0:0,0:0:0:0:
506,289,104417,5,4,1:0:0:0:
356,217,104584,1,0,1:0:0:0:
506,289,104751,2,0,P|489:168|369:132,1,215.999993408203,8|0,1:0|1:0,0:0:0:0:
282,185,105251,1,4,1:0:0:0:
154,119,105417,2,0,L|174:13,1,107.999996704102,8|0,1:0|0:0,0:0:0:0:
250,102,105751,5,4,1:0:0:0:
217,264,105917,1,0,1:0:0:0:
29,108,106084,2,0,L|49:2,1,107.999996704102,12|0,1:0|0:0,0:0:0:0:
85,207,106417,1,0,1:0:0:0:
128,202,106501,1,0,1:0:0:0:
170,197,106584,1,8,1:0:0:0:
212,193,106667,1,8,1:0:0:0:
261,170,106751,5,8,1:3:0:0:
311,187,106834,1,8,1:3:0:0:
353,154,106917,5,8,1:3:0:0:
405,167,107001,1,8,1:3:0:0:
443,134,107084,6,0,B|438:28|438:28|492:136,2,215.999993408203,4|8|0,1:0|1:0|1:0,0:0:0:0:
511,204,107917,1,0,1:0:0:0:
246,218,108084,2,0,L|120:194,1,107.999996704102,8|0,1:0|0:0,0:0:0:0:
139,197,108334,1,0,0:0:0:0:
139,197,108417,1,2,1:0:0:0:
262,143,108584,1,2,1:0:0:0:
350,311,108751,6,0,L|526:282,1,161.999995056153,8|2,1:0|0:1,0:0:0:0:
512,247,109084,1,2,1:0:0:0:
363,215,109251,1,2,1:0:0:0:
210,278,109417,2,0,L|228:389,1,107.999996704102,8|2,1:0|0:1,0:0:0:0:
20,292,109751,5,4,1:0:0:0:
162,204,109917,1,0,0:0:0:0:
20,292,110084,2,0,B|-10:292|-44:250|20:162|111:200|143:268|63:292,1,215.999993408203,8|0,1:0|1:0,0:0:0:0:
210,278,110584,1,0,1:0:0:0:
210,278,110751,2,0,P|267:260|296:209,1,107.999996704102,8|0,1:0|0:0,0:0:0:0:
361,5,111084,5,0,0:0:0:0:
282,25,111251,1,0,1:0:0:0:
205,144,111417,1,8,1:0:0:0:
284,124,111584,1,0,3:0:0:0:
508,256,111751,1,0,1:0:0:0:
429,236,111918,1,0,1:0:0:0:
493,219,112084,1,8,1:0:0:0:
245,371,112334,5,10,1:3:0:0:
245,371,112417,1,6,1:0:0:0:
168,326,112584,1,2,0:3:0:0:
311,322,112751,2,0,B|418:274|410:389|528:359,1,215.999993408203,8|2,1:0|1:3,0:0:0:0:
258,255,113251,2,0,L|274:123,1,107.999996704102,2|8,1:3|1:0,0:0:0:0:
385,228,113584,1,2,0:3:0:0:
277,71,113751,5,2,1:0:0:0:
153,160,113917,1,2,1:0:0:0:
277,71,114084,2,0,L|436:97,1,161.999995056153,10|2,1:0|0:1,0:0:0:0:
465,101,114417,1,2,1:0:0:0:
348,0,114584,1,2,0:1:0:0:
206,132,114751,2,0,L|171:253,1,107.999996704102,10|0,1:0|0:0,0:0:0:0:
175,235,115001,1,2,0:3:0:0:
175,235,115084,5,4,1:0:0:0:
93,168,115251,1,2,1:3:0:0:
278,191,115417,2,0,P|364:202|423:320,1,215.999993408203,8|0,1:0|1:0,0:0:0:0:
271,367,115917,1,4,1:0:0:0:
243,296,116084,1,8,1:0:0:0:
512,296,116251,5,0,1:0:0:0:
484,367,116418,1,12,1:0:0:0:
16,350,116667,1,8,1:0:0:0:
31,309,116751,1,12,1:0:0:0:
47,269,116834,1,0,1:0:0:0:
64,229,116917,1,8,1:3:0:0:
82,189,117001,1,8,1:3:0:0:
109,182,117084,5,0,1:0:0:0:
105,171,117167,1,0,1:0:0:0:
101,160,117251,1,8,1:0:0:0:
97,149,117334,1,8,1:0:0:0:
93,138,117417,1,8,1:3:0:0:
89,127,117501,1,8,1:3:0:0:
86,116,117584,1,8,1:3:0:0:
82,105,117667,1,8,1:3:0:0:
91,83,117751,6,0,B|226:77|143:172|325:157,1,215.999993408203,4|8,1:0|1:0,0:0:0:0:
421,138,118251,1,0,0:0:0:0:
295,72,118417,1,0,1:0:0:0:
361,202,118584,1,0,1:0:0:0:
389,50,118751,5,8,1:0:0:0:
287,254,118917,2,0,P|301:320|311:377,1,107.999996704102,0|2,0:0|1:0,0:0:0:0:
372,278,119251,1,2,1:0:0:0:
264,182,119417,1,8,1:0:0:0:
224,311,119584,1,0,0:0:0:0:
408,348,119751,5,2,1:0:0:0:
472,237,119917,1,2,1:0:0:0:
350,208,120084,1,8,1:0:0:0:
397,271,120251,1,2,0:1:0:0:
377,106,120417,6,0,P|383:45|393:-10,1,107.999996704102,4|0,1:0|0:0,0:0:0:0:
237,152,120751,2,0,P|231:91|221:36,1,107.999996704102,8|0,1:0|0:0,0:0:0:0:
101,181,121084,1,0,1:0:0:0:
116,60,121251,1,0,1:0:0:0:
20,117,121417,5,8,1:0:0:0:
149,274,121584,1,0,0:0:0:0:
8,189,121751,2,0,P|75:199|147:221,1,107.999996704102,0|0,1:0|1:0,0:0:0:0:
256,364,122084,2,0,P|321:344|420:295,1,161.999995056153,8|0,1:0|0:0,3:3:0:0:
407,292,122417,1,8,1:0:0:0:
467,251,122501,1,8,1:0:0:0:
477,176,122584,1,8,1:0:0:0:
432,115,122667,1,8,1:0:0:0:
422,39,122751,1,8,1:0:0:0:
426,35,122834,1,8,1:3:0:0:
430,31,122917,1,8,1:3:0:0:
434,27,123001,1,10,1:0:0:0:
479,51,123084,6,0,P|415:42|336:37,1,107.999996704102,6|2,1:0|0:3,0:0:0:0:
264,180,123417,2,0,P|194:195|66:238,1,161.999995056153,8|0,1:0|0:0,0:0:0:0:
75,213,123751,2,0,P|47:260|36:326,1,107.999996704102,2|2,1:3|1:3,0:0:0:0:
270,254,124084,5,8,1:0:0:0:
181,112,124251,2,0,P|108:111|-24:178,1,215.999993408203,2|2,0:3|1:0,0:0:0:0:
242,340,124751,2,0,P|302:320|341:284,1,107.999996704102,10|0,1:0|0:0,0:0:0:0:
317,96,125084,5,2,1:0:0:0:
231,206,125251,1,2,0:1:0:0:
350,267,125417,1,10,1:0:0:0:
435,171,125584,1,0,0:0:0:0:
241,287,125751,5,4,1:0:0:0:
129,247,125917,1,0,1:0:0:0:
230,264,126084,1,8,1:0:0:0:
352,155,126251,2,0,P|417:142|467:125,1,107.999996704102,0|0,0:0|1:0,0:0:0:0:
278,102,126584,1,4,1:0:0:0:
110,121,126751,2,0,P|45:108|-5:91,1,107.999996704102,8|0,1:0|0:0,0:0:0:0:
248,14,127084,6,0,P|239:47|233:75,1,53.9999983520508,4|0,1:0|0:0,0:0:0:0:
200,133,127251,1,0,1:0:0:0:
240,182,127334,1,0,1:0:0:0:
231,213,127417,1,12,1:0:0:0:
203,302,127584,1,8,1:0:0:0:
260,381,127751,5,0,1:0:0:0:
210,324,127834,1,0,1:0:0:0:
247,258,127917,1,8,1:0:0:0:
319,282,128001,1,8,1:0:0:0:
334,355,128084,1,8,1:3:0:0:
324,347,128167,1,8,1:3:0:0:
336,340,128251,1,8,1:3:0:0:
344,349,128334,1,8,1:3:0:0:
411,380,128417,6,0,P|429:307|431:264,1,107.999996704102,4|0,1:0|0:0,0:0:0:0:
481,156,128751,2,0,P|471:89|379:12,1,161.999995056153,8|0,1:0|0:0,0:0:0:0:
378,8,129084,2,0,P|384:69|389:128,1,107.999996704102,0|0,1:0|1:0,0:0:0:0:
189,35,129417,1,8,1:0:0:0:
106,81,129584,2,0,P|100:142|95:201,1,107.999996704102,0|2,0:0|1:0,0:0:0:0:
187,347,129917,5,2,1:0:0:0:
23,268,130084,1,8,1:0:0:0:
184,224,130251,1,0,0:0:0:0:
78,358,130417,1,2,1:0:0:0:
266,315,130584,5,2,1:0:0:0:
116,264,130751,1,8,1:0:0:0:
226,153,130917,1,2,0:1:0:0:
379,239,131084,6,0,P|399:274|406:315,1,53.9999983520508,4|0,1:0|0:0,0:0:0:0:
393,358,131251,1,0,0:0:0:0:
487,267,131417,1,8,1:0:0:0:
316,182,131584,2,0,P|324:108|326:46,1,107.999996704102,0|0,0:0|1:0,0:0:0:0:
186,137,131917,2,0,P|178:63|176:1,1,107.999996704102,0|8,1:0|1:0,0:0:0:0:
44,233,132251,2,0,P|52:159|54:97,1,107.999996704102,0|0,0:0|0:0,0:0:0:0:
41,52,132584,1,0,1:0:0:0:
169,299,132751,5,12,1:0:0:0:
169,299,133084,1,8,1:3:0:0:
227,284,133167,1,8,1:3:0:0:
295,271,133251,1,8,1:3:0:0:
367,268,133334,1,8,1:3:0:0:
415,266,133417,1,8,1:0:0:0:
444,266,133501,1,8,1:0:0:0:
464,271,133584,1,8,1:0:0:0:
479,278,133667,1,10,1:3:0:0:
483,285,133751,5,6,1:0:0:0:
426,215,133917,1,2,0:3:0:0:
476,141,134084,1,8,1:0:0:0:
462,126,134251,1,0,0:0:0:0:
338,220,134417,1,2,1:3:0:0:
483,285,134584,1,2,1:3:0:0:
413,195,134751,6,0,L|348:208,1,53.9999983520508,8|0,1:0|0:0,0:0:0:0:
296,160,134917,2,0,P|231:173|51:206,1,215.999993408203,2|2,0:3|1:0,0:0:0:0:
203,63,135417,1,10,1:0:0:0:
360,120,135584,1,0,0:0:0:0:
437,117,135751,2,0,P|427:52|420:-8,1,107.999996704102,2|2,1:0|0:1,0:0:0:0:
332,51,136084,5,10,1:0:0:0:
405,186,136251,1,0,0:0:0:0:
300,336,136417,2,0,P|306:274|307:254,1,53.9999983520508,4|0,1:0|0:0,0:0:0:0:
259,225,136584,1,2,1:3:0:0:
341,132,136751,1,8,1:0:0:0:
211,50,136917,1,2,0:3:0:0:
120,157,137084,1,0,1:0:0:0:
222,140,137251,5,10,1:3:0:0:
47,102,137417,1,10,1:3:0:0:
99,259,137583,1,8,1:3:0:0:
417,308,137751,6,0,P|409:248|406:232,1,53.9999983520508,12|0,1:0|0:0,0:0:0:0:
382,373,138001,1,8,1:0:0:0:
410,361,138084,2,0,P|418:301|421:285,1,53.9999983520508,12|0,1:0|1:0,0:0:0:0:
480,221,138251,1,8,1:3:0:0:
257,44,138417,5,0,1:0:0:0:
61,191,138584,5,8,1:0:0:0:
260,334,138751,5,8,1:3:0:0:
400,203,138917,5,8,1:3:0:0:
354,135,139084,6,0,P|313:145|274:177,1,90,6|0,1:0|0:0,0:0:0:0:
201,172,139417,1,2,1:3:0:0:
318,7,139584,2,0,P|321:60|361:144,1,135,10|0,1:0|0:0,0:0:0:0:
379,143,139917,1,0,1:0:0:0:
331,290,140084,6,0,P|309:260|293:246,1,45,8|0,1:0|0:0,0:0:0:0:
280,268,140251,2,0,P|269:258|238:246,1,45,2|0,1:3|0:0,0:0:0:0:
222,262,140417,1,4,1:0:0:0:
137,359,140584,1,0,0:0:0:0:
265,346,140751,1,10,1:3:0:0:
122,283,140917,5,2,1:0:0:0:
66,338,141084,1,2,1:0:0:0:
58,240,141251,1,2,1:0:0:0:
3,293,141417,2,2,P|10:221|15:141,1,135,10|0,1:3|0:0,1:1:0:0:
7,131,141751,6,0,P|49:114|92:121,1,90,6|0,1:0|0:0,0:0:0:0:
157,161,142084,1,2,1:3:0:0:
0,4,142251,2,0,P|21:100|-5:148,1,135,10|0,1:0|0:0,0:0:0:0:
14,158,142584,1,0,1:0:0:0:
180,230,142751,6,0,P|221:214|235:208,1,45,8|0,1:0|0:0,0:0:0:0:
221,201,142917,2,0,P|262:185|276:179,1,45,2|0,1:3|0:0,0:0:0:0:
274,166,143084,1,4,1:0:0:0:
297,97,143251,1,0,0:0:0:0:
467,37,143417,1,10,1:3:0:0:
356,16,143584,1,2,1:0:0:0:
408,135,143751,5,2,1:0:0:0:
485,208,143917,1,2,1:0:0:0:
268,258,144084,1,10,1:3:0:0:
286,293,144167,1,8,1:3:0:0:
304,329,144251,1,8,1:3:0:0:
322,364,144334,1,8,1:3:0:0:
319,383,144417,5,6,1:0:0:0:
223,336,144584,1,0,0:0:0:0:
353,263,144751,1,2,1:3:0:0:
232,184,144917,2,0,P|244:117|250:38,1,135,10|0,1:0|0:0,0:0:0:0:
229,13,145251,1,0,1:0:0:0:
139,124,145417,5,8,1:0:0:0:
337,158,145584,2,0,P|384:136|421:114,1,90,2|4,1:3|1:0,0:0:0:0:
171,217,145917,1,0,0:0:0:0:
153,290,146084,2,0,P|106:312|69:334,1,90,10|2,1:3|1:0,0:0:0:0:
94,234,146417,5,2,1:0:0:0:
232,272,146584,1,2,1:0:0:0:
227,148,146751,2,2,P|222:85|219:32,1,90,10|0,1:3|0:0,1:1:0:0:
97,150,147084,5,6,1:0:0:0:
312,241,147251,2,0,P|378:267|413:288,1,90,0|2,0:0|1:3,0:0:0:0:
182,248,147584,2,0,P|139:273|54:329,1,135,10|0,1:0|0:0,0:0:0:0:
46,354,147917,1,0,1:0:0:0:
236,197,148084,5,8,1:0:0:0:
207,126,148251,2,0,P|202:63|199:10,1,90,2|4,1:3|1:0,0:0:0:0:
295,134,148584,1,0,0:0:0:0:
120,192,148751,2,0,P|62:181|11:162,1,90,10|2,1:3|1:0,0:0:0:0:
306,248,149084,2,0,P|326:298|348:386,1,135,2|0,1:0|0:0,0:0:0:0:
307,364,149417,1,10,1:3:0:0:
374,337,149501,1,8,1:3:0:0:
394,268,149584,1,8,1:3:0:0:
365,202,149667,1,8,1:3:0:0:
287,233,149751,6,0,P|297:173|299:128,1,90,6|0,1:0|0:0,0:0:0:0:
306,68,150084,1,2,1:3:0:0:
62,143,150251,2,0,P|116:126|249:102,1,180,10|0,1:0|1:0,0:0:0:0:
371,19,150751,1,8,1:0:0:0:
436,142,150917,2,0,P|484:179|513:210,1,90,2|4,1:3|1:0,0:0:0:0:
319,173,151251,1,0,0:0:0:0:
208,33,151417,2,0,P|156:37|47:50,1,135,10|0,1:3|0:0,0:0:0:0:
51,30,151751,1,2,1:0:0:0:
88,126,151917,1,2,1:0:0:0:
17,151,152084,1,10,1:3:0:0:
81,253,152251,1,0,0:0:0:0:
200,185,152417,6,0,P|238:196|257:211,1,45,6|0,1:0|0:0,0:0:0:0:
272,270,152584,2,0,P|330:253|375:207,1,90,0|2,0:0|1:3,0:0:0:0:
408,102,152917,2,0,P|444:132|459:293,1,180,10|0,1:0|1:0,0:0:0:0:
322,340,153417,1,8,1:0:0:0:
312,168,153584,2,0,P|299:111|316:61,1,90,2|4,1:3|0:0,0:0:0:0:
168,176,153917,1,0,0:0:0:0:
99,84,154084,2,0,P|130:34|177:11,1,90,10|2,1:3|1:0,0:0:0:0:
237,225,154417,6,0,P|255:274|266:324,1,90,2|2,1:0|1:0,0:0:0:0:
60,311,154751,1,10,1:3:0:0:
11,248,154917,1,8,1:3:0:0:
1,209,155001,1,8,1:3:0:0:
37,183,155084,5,6,1:0:0:0:
98,241,155251,1,0,0:0:0:0:
176,156,155417,1,2,1:3:0:0:
248,184,155584,2,0,P|319:195|364:209,1,90,10|0,1:0|0:0,0:0:0:0:
478,155,155917,1,0,1:0:0:0:
417,229,156084,1,8,1:0:0:0:
380,119,156251,2,0,P|395:63|403:23,1,90,2|4,1:3|1:0,0:0:0:0:
352,286,156584,1,0,0:0:0:0:
426,304,156751,2,0,P|476:344|512:374,1,90,10|2,1:3|1:0,0:0:0:0:
276,376,157084,5,2,1:0:0:0:
227,314,157251,1,2,1:0:0:0:
165,361,157417,1,10,1:3:0:0:
153,342,157584,1,0,0:0:0:0:
171,148,157751,5,6,1:0:0:0:
272,246,157917,2,0,P|266:167|257:132,1,90,0|2,0:0|1:3,0:0:0:0:
298,50,158251,1,10,1:0:0:0:
301,221,158417,2,0,P|293:265|292:310,1,90,0|0,0:0|1:0,0:0:0:0:
431,199,158751,1,8,1:0:0:0:
392,124,158917,2,0,P|386:45|377:10,1,90,2|4,1:3|1:0,0:0:0:0:
510,187,159251,1,0,0:0:0:0:
406,278,159417,2,0,P|413:322|414:367,1,90,10|2,1:3|1:0,0:0:0:0:
130,194,159751,6,0,P|76:205|28:219,1,90,2|0,1:0|0:0,0:0:0:0:
300,32,160084,5,10,1:3:0:0:
248,284,160251,5,8,1:3:0:0:
236,336,160334,1,8,1:3:0:0:
275,372,160417,1,6,1:0:0:0:
332,312,160584,1,0,0:0:0:0:
157,357,160751,2,0,P|108:344|51:338,1,90,2|10,1:3|1:0,0:0:0:0:
0,289,161084,1,2,0:3:0:0:
62,238,161251,1,0,1:0:0:0:
0,96,161417,5,8,1:0:0:0:
64,131,161584,2,0,P|145:145|244:121,1,180,2|0,1:3|0:0,0:0:0:0:
389,84,162084,2,0,P|344:102|327:158,1,90,10|2,1:3|1:0,0:0:0:0:
237,304,162417,2,0,L|341:289,1,90,2|2,1:0|1:0,0:0:0:0:
512,189,162751,2,0,L|294:222,1,180,10|6,1:3|1:0,0:0:0:0:
269,184,163251,5,0,0:0:0:0:
144,239,163417,2,0,L|25:221,1,90,2|10,1:3|1:0,0:0:0:0:
1,276,163751,1,0,0:0:0:0:
157,372,163917,2,0,L|276:354,1,90,0|8,1:0|1:0,0:0:0:0:
353,204,164251,5,2,1:3:0:0:
282,242,164417,1,4,1:0:0:0:
409,150,164584,1,0,0:0:0:0:
338,188,164750,1,10,1:3:0:0:
352,298,164917,5,2,1:0:0:0:
212,211,165084,1,2,1:0:0:0:
351,88,165251,1,2,1:0:0:0:
491,175,165418,1,10,1:3:0:0:
434,241,165584,1,8,1:3:0:0:
415,221,165667,1,8,1:3:0:0:
403,196,165751,6,0,L|407:77,1,90,6|0,1:0|0:0,0:0:0:0:
485,71,166084,1,2,1:3:0:0:
420,21,166251,1,10,1:0:0:0:
242,111,166417,2,0,L|144:128,1,90,0|0,0:0|1:0,0:0:0:0:
86,93,166751,1,8,1:0:0:0:
213,197,166917,2,0,P|273:204|360:309,1,180,2|0,1:3|0:0,0:0:0:0:
257,367,167417,5,10,1:3:0:0:
185,333,167584,1,2,1:0:0:0:
261,341,167751,1,2,1:0:0:0:
118,376,167917,1,2,1:0:0:0:
59,244,168084,1,10,1:3:0:0:
7,301,168251,1,8,1:3:0:0:
7,301,168334,1,8,1:3:0:0:
7,301,168417,6,0,P|52:289|106:283,1,90,6|0,1:0|0:0,0:0:0:0:
279,201,168751,1,2,1:3:0:0:
215,293,168917,1,10,1:0:0:0:
159,232,169084,1,0,0:0:0:0:
330,266,169251,2,0,P|376:260|426:256,1,90,0|8,1:0|1:0,0:0:0:0:
299,1,169584,6,0,P|222:57|217:146,1,180,2|0,1:3|0:0,0:0:0:0:
476,209,170084,2,0,P|445:159|409:151,1,90,10|2,1:3|1:0,0:0:0:0:
359,278,170417,1,10,1:3:0:0:
328,245,170500,1,8,1:3:0:0:
285,232,170583,1,8,1:3:0:0:
242,242,170667,1,8,1:3:0:0:
209,272,170750,1,10,1:3:0:0:
178,304,170834,1,8,1:3:0:0:
135,317,170917,1,8,1:3:0:0:
92,307,171001,1,8,1:3:0:0:
92,307,171084,6,0,L|79:210,1,90,6|0,1:0|0:0,0:0:0:0:
168,55,171417,1,2,1:3:0:0:
137,124,171584,1,10,1:0:0:0:
301,115,171751,1,0,0:0:0:0:
332,184,171918,1,0,1:0:0:0:
164,207,172084,1,8,1:0:0:0:
133,277,172251,1,2,1:3:0:0:
300,270,172417,6,0,L|408:253,1,90,4|0,1:0|0:0,0:0:0:0:
411,240,172667,1,0,1:0:0:0:
429,219,172751,1,10,1:3:0:0:
471,285,172917,1,0,0:0:0:0:
218,309,173084,1,2,1:0:0:0:
262,180,173251,1,2,1:0:0:0:
168,243,173417,1,10,1:3:0:0:
212,114,173584,1,0,0:0:0:0:
301,251,173751,6,0,L|409:268,1,90,6|0,1:0|0:0,0:0:0:0:
512,186,174084,1,2,1:3:0:0:
458,123,174251,1,10,1:0:0:0:
309,166,174417,1,0,0:0:0:0:
315,83,174584,1,0,1:0:0:0:
140,69,174751,1,8,1:0:0:0:
201,13,174918,1,2,1:3:0:0:
347,101,175084,5,4,0:0:0:0:
285,156,175251,1,0,0:0:0:0:
275,63,175417,1,10,1:3:0:0:
337,9,175584,1,2,1:0:0:0:
353,196,175751,5,2,1:0:0:0:
420,285,175918,1,2,1:0:0:0:
512,192,176084,1,10,1:3:0:0:
445,103,176251,1,8,1:3:0:0:
424,173,176417,2,0,L|448:289,1,90,6|0,1:0|0:0,0:0:0:0:
298,319,176751,5,2,1:3:0:0:
150,271,176917,1,10,1:0:0:0:
230,264,177084,5,0,0:0:0:0:
378,312,177250,1,0,1:0:0:0:
330,249,177417,5,8,1:0:0:0:
194,303,177584,2,0,L|-9:361,1,180,2|0,1:3|0:0,0:0:0:0:
43,227,178084,2,0,L|55:137,1,90,10|2,1:3|1:0,0:0:0:0:
421,174,178417,2,0,L|409:264,1,90,2|2,1:0|1:0,0:0:0:0:
342,293,178751,1,10,1:3:0:0:
239,208,178917,1,0,0:0:0:0:
291,60,179084,6,0,L|303:150,1,90,6|0,1:0|0:0,0:0:0:0:
329,152,179334,1,0,1:0:0:0:
343,129,179417,1,2,1:3:0:0:
405,172,179584,1,10,1:0:0:0:
389,70,179751,1,0,0:0:0:0:
220,135,179917,2,0,L|109:157,1,90,0|8,1:0|1:0,0:0:0:0:
310,267,180251,6,0,L|520:235,1,180,2|0,1:3|0:0,0:0:0:0:
189,108,180751,2,0,L|100:125,1,90,10|2,1:3|1:0,0:0:0:0:
424,329,181084,2,0,L|512:311,1,90,2|0,1:0|0:0,0:0:0:0:
173,25,181417,1,10,1:3:0:0:
128,33,181500,1,8,1:3:0:0:
84,42,181583,1,8,1:3:0:0:
40,50,181667,1,8,1:3:0:0:
40,50,181751,6,2,L|80:250,2,180,4|8|0,1:0|1:0|1:0,1:1:0:0:
203,104,182584,1,2,1:3:0:0:
149,160,182751,1,10,1:0:0:0:
288,181,182917,6,2,B|389:160|373:224|465:224,1,180,2|2,1:0|1:3,1:1:0:0:
499,75,183417,1,8,1:0:0:0:
425,95,183584,1,2,0:3:0:0:
255,88,183751,1,0,0:0:0:0:
329,68,183918,1,2,1:3:0:0:
183,12,184084,2,0,P|174:58|161:118,1,90,8|4,1:0|0:0,0:0:0:0:
129,301,184417,6,2,P|82:230|-13:200,2,180,4|8|0,1:0|1:0|1:0,1:1:0:0:
64,381,185251,1,2,1:3:0:0:
2,338,185417,1,10,1:0:0:0:
211,326,185584,2,2,L|387:369,1,180,2|0,1:0|0:0,1:1:0:0:
512,267,186084,2,0,L|402:295,1,90,8|2,1:0|0:3,0:0:0:0:
39,196,186417,1,0,0:0:0:0:
85,82,186584,1,2,1:3:0:0:
10,114,186751,1,8,1:0:0:0:
56,0,186918,1,4,0:2:0:0:
198,172,187084,6,2,P|260:178|302:62,1,180,6|8,1:0|1:0,1:1:0:0:
256,36,187584,1,2,0:3:0:0:
119,165,187751,2,0,L|143:275,1,90,2|0,1:0|1:0,0:0:0:0:
63,259,188084,1,8,1:0:0:0:
161,365,188251,2,2,L|199:181,1,180,2|2,1:3|0:3,1:1:0:0:
377,159,188751,5,10,1:0:0:0:
446,201,188917,1,4,0:3:0:0:
319,381,189084,1,2,1:0:0:0:
274,234,189251,1,2,1:3:0:0:
395,326,189417,1,8,1:0:0:0:
243,323,189584,1,4,0:0:0:0:
368,236,189751,1,4,1:0:0:0:
368,236,190084,6,0,L|352:143,1,90,10|0,1:0|0:0,0:0:0:0:
166,115,190417,2,2,L|182:208,1,90,2|0,1:0|1:0,1:1:0:0:
249,232,190751,1,8,1:0:0:0:
250,73,190917,2,2,L|39:103,1,180,2|2,0:3|0:3,1:1:0:0:
398,37,191417,1,14,1:0:0:0:
467,87,191584,1,0,0:3:0:0:
327,61,191751,1,0,1:0:0:0:
502,19,191917,1,8,1:3:0:0:
498,55,192001,1,8,1:3:0:0:
494,90,192084,1,8,1:0:0:0:
490,125,192167,1,8,1:3:0:0:
486,161,192251,1,8,1:3:0:0:
483,196,192334,1,8,1:3:0:0:
480,231,192417,5,4,1:0:0:0:
410,298,192584,1,2,0:3:0:0:
496,315,192751,1,8,1:0:0:0:
398,213,192917,1,2,0:3:0:0:
266,361,193084,1,0,1:0:0:0:
186,287,193251,2,0,P|120:277|64:271,1,90,2|10,1:3|1:0,0:0:0:0:
30,204,193584,1,2,1:0:0:0:
137,20,193751,6,2,P|137:82|95:228,1,180,2|8,1:0|1:0,1:1:0:0:
62,343,194251,1,2,0:3:0:0:
183,218,194417,2,0,P|234:198|280:186,1,90,0|2,0:0|1:3,0:0:0:0:
56,131,194751,2,0,P|25:93|-6:62,1,90,8|4,1:0|0:0,0:0:0:0:
250,27,195084,6,2,P|304:42|329:168,1,180,4|8,1:0|1:0,1:1:0:0:
243,289,195584,1,2,0:3:0:0:
406,294,195751,2,0,P|360:265|324:228,1,90,0|2,1:0|1:3,0:0:0:0:
196,157,196084,1,10,1:0:0:0:
118,284,196251,2,2,P|62:300|20:390,1,135,2|0,1:0|0:0,1:1:0:0:
26,364,196584,2,0,P|9:302|14:249,1,90,0|8,0:0|1:0,0:0:0:0:
72,202,196917,1,2,0:3:0:0:
192,326,197084,1,0,0:0:0:0:
251,261,197251,1,2,1:3:0:0:
324,309,197417,1,8,1:0:0:0:
324,309,197584,1,4,0:2:0:0:
499,133,197751,6,2,P|448:141|396:151,1,90,6|0,1:0|0:0,1:1:0:0:
266,164,198084,2,0,P|212:153|125:131,1,135,8|0,1:0|0:0,0:0:0:0:
110,106,198417,2,0,P|163:86|195:62,1,90,2|0,1:0|1:0,0:0:0:0:
294,8,198751,1,8,1:0:0:0:
356,186,198917,2,2,P|365:237|372:286,1,90,2|0,1:3|0:0,1:1:0:0:
344,112,199251,1,2,0:3:0:0:
308,339,199417,2,0,P|301:294|293:250,1,90,10|4,1:0|0:3,0:0:0:0:
425,120,199751,2,0,P|432:164|439:208,1,90,2|2,1:0|1:3,0:0:0:0:
247,183,200084,5,8,1:0:0:0:
202,120,200251,1,4,0:0:0:0:
262,15,200417,1,4,1:0:0:0:
262,15,200751,5,10,1:0:0:0:
123,129,200917,1,0,0:0:0:0:
256,254,201084,1,2,1:0:0:0:
153,310,201251,5,12,1:0:0:0:
432,142,201417,1,8,1:0:0:0:
479,205,201584,1,2,0:3:0:0:
198,93,201751,5,8,1:3:0:0:
122,94,201917,1,2,0:3:0:0:
10,267,202084,1,14,1:0:0:0:
159,336,202251,1,0,1:3:0:0:
77,183,202417,1,10,1:0:0:0:
55,355,202584,1,10,1:0:0:0:
168,231,202751,1,10,1:0:0:0:
421,360,202917,1,10,1:0:0:0:
502,334,203084,6,2,L|470:147,1,175.499991966248,6|0,1:0|0:0,1:1:0:0:
472,161,203417,2,0,B|415:183|415:183|362:138,1,116.999994644165,10|0,1:0|0:0,0:0:0:0:
401,26,203751,1,8,1:3:0:0:
332,39,203834,1,8,1:3:0:0:
263,52,203917,1,10,1:3:0:0:
193,65,204001,1,8,1:3:0:0:
124,80,204084,1,8,1:0:0:0:
260,13,204251,6,2,L|232:218,1,175.499991966248,6|0,1:0|0:0,1:1:0:0:
198,248,204584,2,0,L|230:369,1,116.999994644165,2|8,1:0|1:0,0:0:0:0:
424,321,204917,5,2,1:0:0:0:
375,214,205084,1,8,1:0:0:0:
306,199,205167,1,8,1:0:0:0:
236,186,205251,1,8,1:0:0:0:
167,173,205334,1,8,1:0:0:0:
98,160,205417,1,8,1:3:0:0:
109,162,205501,1,8,1:3:0:0:
120,164,205584,1,10,1:3:0:0:
131,166,205667,1,8,1:3:0:0:
188,117,205751,6,2,B|131:148|131:148|174:287,1,175.499991966248,6|0,1:0|0:0,1:1:0:0:
160,336,206084,2,0,L|38:290,1,116.999994644165,10|0,1:0|0:0,0:0:0:0:
209,42,206417,5,10,1:0:0:0:
365,187,206584,1,2,1:3:0:0:
239,355,206751,1,10,1:0:0:0:
8,187,206917,6,0,L|166:169,1,116.999994644165,2|0,1:3|1:0,0:0:0:0:
495,125,207251,1,10,1:0:0:0:
504,197,207417,2,0,L|346:215,1,116.999994644165,10|2,1:0|1:3,0:0:0:0:
253,20,207751,5,8,1:3:0:0:
251,95,207834,1,8,1:3:0:0:
249,170,207917,1,10,1:3:0:0:
247,246,208001,1,8,1:3:0:0:
245,321,208084,1,8,1:0:0:0:
245,309,208167,1,0,0:0:0:0:
245,297,208251,1,10,1:3:0:0:
245,285,208334,1,8,1:0:0:0:
182,241,208417,6,2,B|213:187|213:187|374:242,1,175.499991966248,6|0,1:0|0:0,1:1:0:0:
370,276,208751,2,0,L|481:218,1,116.999994644165,10|0,1:0|0:0,0:0:0:0:
187,119,209084,1,10,1:3:0:0:
182,108,209167,1,8,1:3:0:0:
177,97,209251,1,8,1:3:0:0:
143,35,209334,1,8,1:3:0:0:
81,69,209417,1,10,1:0:0:0:
272,6,209584,6,2,L|375:60,1,116.999994644165,6|0,1:0|0:0,1:1:0:0:
240,378,209917,2,0,L|136:323,1,116.999994644165,2|12,1:0|1:0,0:0:0:0:
259,190,210251,5,2,1:3:0:0:
509,330,210417,5,10,1:0:0:0:
504,259,210501,1,8,1:0:0:0:
500,189,210584,1,8,1:0:0:0:
497,119,210667,1,8,1:0:0:0:
489,48,210751,1,10,1:0:0:0:
484,58,210834,1,8,1:3:0:0:
480,68,210917,1,10,1:3:0:0:
476,79,211001,1,8,1:3:0:0:
403,102,211084,6,0,B|366:151|366:151|429:294,1,175.499991966248,4|0,1:0|0:0,0:0:0:0:
302,204,211417,2,0,L|293:332,1,116.999994644165,12|0,1:0|0:0,0:0:0:0:
109,102,211751,6,0,B|119:115|119:115|101:155,1,58.4999973220826,8|0,1:3|0:0,0:0:0:0:
210,204,211917,2,0,L|219:332,1,116.999994644165,10|0,1:3|0:0,0:0:0:0:
0,0,212251,5,10,1:3:0:0:
512,384,212585,1,8,1:3:0:0:
0,0,212918,1,10,1:3:0:0:
512,384,213085,1,8,1:3:0:0:
306,14,213751,6,0,P|245:33|174:118,1,161.999995056153,4|0,1:0|0:0,0:0:0:0:
142,99,214084,2,0,P|163:154|185:212,1,107.999996704102,8|0,1:0|0:0,0:0:0:0:
171,380,214417,1,0,1:0:0:0:
272,226,214584,1,0,1:0:0:0:
113,276,214751,1,8,1:0:0:0:
278,344,214917,1,0,0:0:0:0:
401,202,215084,6,0,P|393:139|389:91,1,107.999996704102,2|2,1:0|1:0,0:0:0:0:
368,21,215417,1,8,1:0:0:0:
368,21,215584,1,0,0:0:0:0:
481,95,215751,1,2,1:0:0:0:
401,202,215917,1,2,1:0:0:0:
293,122,216084,1,8,1:0:0:0:
368,21,216251,1,2,0:1:0:0:
507,199,216417,6,0,P|486:260|472:318,1,107.999996704102,4|0,1:0|0:0,0:0:0:0:
314,252,216751,2,0,P|237:247|142:241,1,161.999995056153,8|0,1:0|0:0,0:0:0:0:
114,245,217084,1,0,1:0:0:0:
29,197,217251,1,0,1:0:0:0:
125,140,217417,1,8,1:0:0:0:
36,279,217584,2,0,P|49:336|59:388,1,107.999996704102,0|0,0:0|0:0,0:0:0:0:
36,279,217917,5,0,1:0:0:0:
5,206,218084,2,0,P|15:152|27:100,1,107.999996704102,8|0,1:0|3:0,3:3:0:0:
40,23,218417,1,0,1:0:0:0:
139,117,218584,1,0,1:0:0:0:
248,31,218751,1,8,1:0:0:0:
248,31,218917,1,0,0:0:0:0:
411,111,219084,6,0,P|475:134|530:147,1,107.999996704102,6|2,1:0|0:3,0:0:0:0:
401,19,219417,2,0,P|343:44|312:148,1,161.999995056153,8|0,1:0|0:0,0:0:0:0:
281,159,219751,2,0,P|296:229|301:275,1,107.999996704102,2|2,1:3|1:3,0:0:0:0:
322,338,220084,1,8,1:0:0:0:
87,281,220251,6,0,P|117:220|225:212,1,161.999995056153,2|0,0:3|0:0,0:0:0:0:
217,237,220584,1,2,1:0:0:0:
245,347,220751,1,10,1:0:0:0:
396,237,220917,1,0,0:0:0:0:
298,87,221084,1,2,1:0:0:0:
301,178,221251,1,2,0:1:0:0:
399,82,221417,1,10,1:0:0:0:
289,8,221584,1,0,0:0:0:0:
169,197,221751,5,4,1:0:0:0:
31,178,221917,1,0,1:0:0:0:
14,321,222084,1,8,1:0:0:0:
151,336,222251,1,0,0:0:0:0:
319,171,222417,5,0,1:0:0:0:
211,269,222584,1,4,1:0:0:0:
112,136,222751,1,8,1:0:0:0:
233,43,222917,1,0,0:0:0:0:
219,156,223084,5,4,1:0:0:0:
219,156,223251,1,0,1:0:0:0:
499,202,223417,5,12,1:0:0:0:
499,202,223751,1,0,1:0:0:0:
464,186,223834,1,0,1:0:0:0:
426,182,223917,1,8,1:0:0:0:
389,194,224001,1,8,1:0:0:0:
334,238,224084,1,8,1:3:0:0:
265,251,224167,1,8,1:3:0:0:
200,221,224251,1,8,1:3:0:0:
144,178,224334,1,8,1:3:0:0:
75,189,224417,6,0,P|95:258|117:388,1,161.999995056153,4|0,1:0|0:0,0:0:0:0:
105,380,224751,2,0,P|177:361|242:358,1,107.999996704102,8|0,1:0|0:0,0:0:0:0:
326,295,225084,1,0,1:0:0:0:
461,369,225251,1,0,1:0:0:0:
461,369,225417,1,8,1:0:0:0:
282,355,225584,2,0,P|277:273|272:219,1,107.999996704102,0|2,0:0|1:0,0:0:0:0:
273,170,225917,1,2,1:0:0:0:
327,49,226084,6,0,P|408:39|458:33,1,107.999996704102,8|0,1:0|0:0,0:0:0:0:
177,115,226417,2,0,P|112:103|62:97,1,107.999996704102,2|2,1:0|1:0,0:0:0:0:
252,1,226751,2,0,P|252:86|242:192,1,161.999995056153,8|0,1:0|0:0,0:0:0:0:
241,197,227084,5,4,1:0:0:0:
344,348,227251,1,0,0:0:0:0:
172,279,227417,1,8,1:0:0:0:
348,225,227584,1,0,0:0:0:0:
234,375,227751,1,0,1:0:0:0:
273,282,227917,5,0,1:0:0:0:
379,92,228084,1,8,1:0:0:0:
133,93,228251,1,0,0:0:0:0:
101,162,228417,1,0,0:0:0:0:
176,158,228584,1,0,1:0:0:0:
56,98,228751,1,8,1:0:0:0:
166,23,228917,1,0,3:0:0:0:
337,134,229084,6,0,P|320:192|304:245,1,107.999996704102,0|0,1:0|1:0,0:0:0:0:
39,245,229417,2,0,P|56:303|72:356,1,107.999996704102,8|0,1:0|0:0,0:0:0:0:
145,340,229667,1,10,1:3:0:0:
196,279,229751,2,0,P|209:192|229:104,1,161.999995056153,6|0,1:0|0:0,0:0:0:0:
226,89,230084,1,8,1:0:0:0:
138,147,230251,1,0,0:0:0:0:
288,194,230417,1,2,1:3:0:0:
341,60,230584,5,2,1:3:0:0:
185,17,230751,1,8,1:0:0:0:
207,193,230917,1,2,0:3:0:0:
400,174,231084,5,2,1:0:0:0:
384,4,231251,1,2,1:0:0:0:
253,94,231417,1,10,1:0:0:0:
292,169,231584,5,0,0:0:0:0:
180,100,231751,1,2,1:0:0:0:
298,31,231917,1,2,0:1:0:0:
469,138,232084,1,10,1:0:0:0:
469,138,232251,1,0,0:0:0:0:
248,343,232417,6,0,P|177:323|51:299,1,161.999995056153,4|0,1:0|0:0,0:0:0:0:
60,315,232751,1,8,1:0:0:0:
19,248,232917,1,0,0:0:0:0:
200,141,233084,1,0,1:0:0:0:
245,227,233251,1,4,1:0:0:0:
416,145,233417,1,8,1:0:0:0:
286,21,233584,2,0,P|301:88|305:106,1,53.9999983520508,0|0,1:0|0:0,0:0:0:0:
339,140,233751,6,0,P|330:202|316:251,1,107.999996704102,12|0,1:0|0:0,0:0:0:0:
272,305,234001,1,8,1:0:0:0:
316,361,234084,2,0,P|388:325|412:281,1,107.999996704102,12|8,1:0|1:3,0:0:0:0:
409,233,234334,1,8,1:3:0:0:
437,242,234417,1,0,1:0:0:0:
427,182,234501,1,0,1:0:0:0:
414,124,234584,1,8,1:0:0:0:
402,66,234667,1,8,1:0:0:0:
388,7,234751,1,8,1:3:0:0:
381,21,234834,1,8,1:3:0:0:
375,36,234917,1,8,1:3:0:0:
368,51,235001,1,8,1:3:0:0:
358,64,235084,6,0,B|513:100|513:100|533:42,2,215.999993408203,4|8|0,1:0|1:0|1:0,0:0:0:0:
222,40,235917,1,0,1:0:0:0:
101,89,236084,1,8,1:0:0:0:
75,216,236251,1,0,0:0:0:0:
22,150,236417,1,2,1:0:0:0:
157,191,236584,1,2,1:0:0:0:
273,222,236751,2,0,B|362:175|362:175|448:251,1,215.999993408203,8|2,1:0|1:0,0:0:0:0:
467,325,237251,1,2,1:0:0:0:
324,379,237417,2,0,L|205:355,1,107.999996704102,8|2,1:0|0:1,0:0:0:0:
21,239,237751,5,4,1:0:0:0:
88,193,237917,1,0,0:0:0:0:
8,214,238084,2,0,B|126:171|110:273|216:250,1,215.999993408203,8|0,1:0|1:0,0:0:0:0:
337,189,238584,1,0,1:0:0:0:
252,90,238751,1,8,1:0:0:0:
158,0,238917,1,0,0:0:0:0:
81,104,239084,1,0,1:0:0:0:
2,203,239251,1,0,1:0:0:0:
98,137,239417,2,0,L|206:168,1,107.999996704102,8|0,1:0|0:0,3:3:0:0:
4,108,239751,5,8,1:0:0:0:
75,372,239917,1,8,1:0:0:0:
125,353,240001,1,8,1:0:0:0:
175,336,240084,1,8,1:0:0:0:
225,319,240167,1,8,1:3:0:0:
190,277,240251,1,8,1:3:0:0:
150,241,240334,1,10,1:0:0:0:
101,218,240417,2,0,L|73:329,1,107.999996704102,6|2,1:0|0:3,0:0:0:0:
283,384,240751,2,0,L|512:332,1,215.999993408203,8|2,1:0|1:3,0:0:0:0:
512,251,241251,1,2,1:3:0:0:
433,263,241417,1,8,1:0:0:0:
311,75,241584,1,2,0:3:0:0:
394,77,241751,6,0,L|362:213,1,107.999996704102,0|2,0:0|1:0,0:0:0:0:
127,222,242084,2,0,L|159:86,1,107.999996704102,10|0,1:0|0:0,0:0:0:0:
284,159,242417,1,2,1:0:0:0:
259,264,242583,1,2,0:1:0:0:
16,251,242751,1,10,1:0:0:0:
41,146,242917,1,0,0:0:0:0:
364,253,243084,5,4,1:0:0:0:
339,358,243250,1,0,1:0:0:0:
278,310,243417,1,8,1:0:0:0:
499,242,243584,1,0,0:0:0:0:
487,318,243751,1,0,1:0:0:0:
309,169,243917,1,4,1:0:0:0:
380,141,244084,1,8,1:0:0:0:
397,281,244251,1,0,0:0:0:0:
181,189,244417,6,0,L|204:61,1,107.999996704102,4|0,1:0|1:0,0:0:0:0:
208,76,244667,1,0,1:0:0:0:
200,68,244751,1,12,1:0:0:0:
208,61,244834,1,0,0:0:0:0:
199,54,244917,1,8,1:0:0:0:
206,46,245001,1,0,0:0:0:0:
193,33,245084,5,0,1:0:0:0:
166,78,245167,1,0,1:0:0:0:
175,130,245250,1,8,1:0:0:0:
217,163,245334,1,8,1:0:0:0:
269,160,245417,1,8,1:3:0:0:
331,125,245501,5,8,1:3:0:0:
400,123,245584,5,8,1:3:0:0:
448,173,245667,5,8,1:3:0:0:
459,242,245751,5,4,1:0:0:0:
478,90,245917,1,0,0:0:0:0:
376,272,246084,2,0,B|254:227|275:333|157:305,1,215.999993408203,8|0,1:0|1:0,0:0:0:0:
74,188,246584,1,0,1:0:0:0:
14,310,246751,1,8,1:0:0:0:
90,298,246917,1,0,0:0:0:0:
323,384,247084,5,2,1:0:0:0:
247,372,247250,1,2,1:0:0:0:
385,245,247417,2,0,P|473:249|505:373,1,215.999993408203,8|2,1:0|1:0,0:0:0:0:
440,377,247917,1,2,1:0:0:0:
293,288,248084,2,0,P|300:232|301:176,1,107.999996704102,8|2,1:0|0:1,0:0:0:0:
393,23,248417,5,4,1:0:0:0:
512,71,248584,1,0,0:0:0:0:
432,151,248751,1,8,1:0:0:0:
313,103,248918,1,0,0:0:0:0:
193,28,249084,5,0,1:0:0:0:
90,77,249251,1,0,1:0:0:0:
65,232,249417,1,8,1:0:0:0:
168,183,249584,5,0,0:0:0:0:
99,151,249751,5,0,0:0:0:0:
79,326,249917,1,0,1:0:0:0:
243,349,250084,2,0,L|350:329,1,107.999996704102,8|0,1:0|0:0,0:0:0:0:
505,121,250418,5,8,1:3:0:0:
441,130,250501,1,8,1:3:0:0:
376,142,250585,1,8,1:3:0:0:
312,155,250668,1,8,1:3:0:0:
321,91,250751,1,8,1:0:0:0:
327,76,250834,1,8,1:0:0:0:
332,60,250918,1,8,1:0:0:0:
337,44,251001,1,10,1:3:0:0:
389,13,251084,6,0,L|457:96,1,107.999996704102,6|2,1:0|0:3,0:0:0:0:
234,117,251417,2,0,L|19:87,1,215.999993408203,8|2,1:0|1:3,0:0:0:0:
57,12,251917,1,2,1:3:0:0:
34,219,252084,1,8,1:0:0:0:
108,206,252251,1,2,0:3:0:0:
251,278,252417,1,0,0:0:0:0:
177,291,252584,1,2,1:0:0:0:
304,210,252751,2,0,P|348:215|397:287,1,107.999996704102,10|0,1:0|0:0,0:0:0:0:
512,366,253084,2,0,L|396:382,1,107.999996704102,2|2,1:0|0:1,0:0:0:0:
466,266,253417,1,10,1:0:0:0:
506,206,253584,1,0,0:0:0:0:
265,132,253751,6,0,P|276:212|294:319,1,161.999995056153,4|0,1:0|0:0,0:0:0:0:
250,306,254084,1,8,1:0:0:0:
146,196,254251,1,2,0:3:0:0:
250,6,254417,5,0,1:0:0:0:
349,110,254584,1,10,1:3:0:0:
196,64,254751,1,10,1:3:0:0:
375,30,254917,1,8,1:3:0:0:
217,148,255084,6,0,L|90:123,1,107.999996704102,12|0,1:0|0:0,0:0:0:0:
92,104,255334,1,8,1:0:0:0:
53,233,255501,5,8,1:3:0:0:
89,222,255584,1,8,1:3:0:0:
58,200,255667,1,8,1:3:0:0:
35,237,255751,5,8,1:3:0:0:
90,258,255834,1,8,1:3:0:0:
147,273,255917,1,8,1:0:0:0:
383,277,256084,1,8,1:3:0:0:
328,298,256167,1,8,1:3:0:0:
271,313,256250,1,8,1:3:0:0:
213,329,256334,1,8,1:3:0:0:
225,312,256417,5,6,1:0:0:0:
321,381,256584,1,0,0:0:0:0:
449,337,256751,2,0,L|404:136,1,180,12|0,1:0|1:0,0:0:0:0:
120,20,257251,1,0,1:0:0:0:
63,60,257417,2,0,L|88:173,1,90,10|2,1:0|0:1,0:0:0:0:
235,232,257751,1,0,1:0:0:0:
301,171,257917,1,0,0:0:0:0:
283,44,258084,1,8,1:0:0:0:
197,17,258250,1,0,0:0:0:0:
181,122,258417,5,0,1:0:0:0:
181,122,258584,1,0,1:0:0:0:
370,81,258751,2,2,P|434:87|488:205,1,180,10|2,1:0|1:0,1:1:0:0:
427,230,259251,1,0,1:0:0:0:
279,246,259417,2,0,L|293:125,1,90,8|0,1:0|0:0,0:0:0:0:
508,371,259751,2,0,L|494:250,1,90,0|0,1:0|1:0,0:0:0:0:
420,332,260084,1,10,1:0:0:0:
352,367,260251,1,2,0:1:0:0:
178,310,260417,5,0,1:0:0:0:
246,275,260584,1,0,1:0:0:0:
164,291,260751,1,8,1:0:0:0:
164,291,261084,5,2,1:0:0:0:
324,243,261251,1,0,1:0:0:0:
134,214,261417,1,8,1:0:0:0:
300,158,261584,1,8,1:3:0:0:
339,148,261667,1,8,1:3:0:0:
378,138,261751,1,6,1:0:0:0:
504,231,261917,5,0,0:0:0:0:
466,80,262084,2,0,L|445:183,1,90,12|0,1:0|0:0,0:0:0:0:
335,311,262417,2,0,L|314:208,1,90,0|0,1:0|1:0,0:0:0:0:
443,286,262751,1,8,1:0:0:0:
426,374,262917,1,0,0:0:0:0:
233,305,263084,5,0,1:0:0:0:
158,334,263251,1,0,1:0:0:0:
86,298,263417,2,0,L|105:199,1,90,8|0,1:0|0:0,0:0:0:0:
350,29,263751,5,0,1:0:0:0:
425,0,263918,1,0,1:0:0:0:
497,54,264084,1,10,1:0:0:0:
422,83,264251,1,0,0:1:0:0:
197,20,264417,5,2,1:0:0:0:
53,51,264584,1,0,1:0:0:0:
90,194,264751,2,0,L|115:302,1,90,12|0,1:0|0:0,0:0:0:0:
350,335,265084,5,0,1:0:0:0:
433,317,265251,1,0,1:0:0:0:
412,234,265418,2,0,L|390:141,1,90,8|0,1:0|0:0,0:0:0:0:
260,99,265751,5,4,1:0:0:0:
227,206,265917,1,0,0:0:0:0:
260,99,266084,1,10,1:0:0:0:
227,206,266250,1,0,0:0:0:0:
224,75,266417,1,10,1:3:0:0:
233,114,266501,1,8,1:3:0:0:
243,152,266584,1,10,1:3:0:0:
254,190,266667,1,8,1:3:0:0:
266,228,266751,1,8,1:3:0:0:
206,348,266917,1,10,1:3:0:0:
206,348,267001,1,8,1:0:0:0:
206,348,267084,6,0,L|102:332,1,90,6|0,1:0|0:0,0:0:0:0:
0,229,267417,2,0,L|200:257,1,180,14|0,1:0|1:0,0:0:0:0:
344,310,267917,1,2,1:0:0:0:
419,337,268084,1,8,1:0:0:0:
512,256,268251,2,0,P|505:168|429:125,1,180,2|2,0:1|0:1,0:0:0:0:
335,85,268751,2,0,L|322:203,1,90,10|0,1:0|0:0,0:0:0:0:
200,209,269084,1,2,1:0:0:0:
128,181,269251,1,0,1:0:0:0:
70,128,269417,1,10,1:0:0:0:
142,156,269584,1,0,0:0:0:0:
88,247,269751,6,0,L|70:344,1,90,2|0,1:0|1:0,0:0:0:0:
196,378,270084,2,0,L|379:346,1,180,10|2,1:0|1:0,0:0:0:0:
468,276,270584,1,2,1:0:0:0:
419,210,270751,1,8,1:0:0:0:
340,227,270917,1,2,0:1:0:0:
419,242,271084,1,0,1:0:0:0:
456,169,271251,1,2,1:0:0:0:
408,103,271417,2,0,L|286:122,1,90,8|2,1:0|0:1,0:0:0:0:
26,138,271751,1,2,1:0:0:0:
98,120,271917,1,0,1:0:0:0:
28,119,272084,1,10,1:0:0:0:
100,101,272250,1,8,1:3:0:0:
153,35,272417,6,0,L|136:224,1,180,6|14,1:0|1:0,0:0:0:0:
29,310,272917,1,0,0:0:0:0:
92,363,273084,2,0,P|154:345|164:306,1,90,2|2,1:0|1:0,0:0:0:0:
287,237,273417,5,8,1:0:0:0:
328,303,273584,2,0,P|381:293|474:403,1,180,2|2,0:1|1:0,0:0:0:0:
241,376,274084,2,0,L|256:263,1,90,8|2,1:0|0:1,0:0:0:0:
328,5,274417,1,2,1:3:0:0:
339,94,274583,1,0,1:0:0:0:
350,183,274751,1,8,1:0:0:0:
350,183,275084,5,0,1:0:0:0:
427,162,275251,1,0,1:0:0:0:
271,163,275417,2,0,L|165:183,1,90,14|0,1:0|0:0,0:0:0:0:
129,323,275751,5,2,1:0:0:0:
52,302,275918,1,2,1:0:0:0:
180,261,276084,1,8,1:0:0:0:
304,317,276251,5,10,1:1:0:0:
343,326,276334,1,8,1:0:0:0:
381,338,276418,1,12,1:0:0:0:
354,224,276584,1,8,1:3:0:0:
459,365,276751,1,10,1:0:0:0:
432,251,276917,1,10,1:0:0:0:
180,261,277084,5,10,1:0:0:0:
213,115,277250,1,10,1:3:0:0:
61,210,277417,1,10,1:0:0:0:
94,64,277583,1,10,1:3:0:0:
257,201,277751,5,4,1:0:0:0:
257,201,278084,1,0,0:0:0:0:
257,201,278417,1,2,0:0:0:0:
325,162,278584,2,0,P|351:173|418:190,2,90,0|2|0,0:0|0:0|0:0,0:0:0:0:
271,108,279584,1,2,0:0:0:0:
271,108,279751,2,0,P|269:71|263:12,1,90,2|0,0:0|0:0,0:0:0:0:
97,145,280417,6,0,P|75:160|13:194,1,90,2|0,0:0|0:0,0:0:0:0:
11,268,281084,1,2,0:0:0:0:
11,268,281251,1,0,0:0:0:0:
74,311,281584,1,2,0:0:0:0:
128,257,281917,1,0,0:0:0:0:
197,294,282251,1,0,0:0:0:0:
197,294,282417,2,0,P|247:303|291:314,1,90,2|0,0:0|0:0,0:0:0:0:
400,371,283084,6,0,P|437:364|491:348,1,90,2|0,0:0|0:0,0:0:0:0:
506,276,283751,1,0,0:0:0:0:
506,276,283917,1,2,0:0:0:0:
451,223,284251,1,0,0:0:0:0:
472,153,284584,1,2,0:0:0:0:
446,83,284917,1,2,0:0:0:0:
446,83,285084,2,0,P|410:85|351:92,1,90,0|2,0:0|0:0,0:0:0:0:
231,172,285751,6,0,P|206:161|141:140,1,90,2|0,0:0|0:0,0:0:0:0:
110,77,286417,1,2,0:0:0:0:
110,77,286584,1,0,0:0:0:0:
159,13,286917,1,0,0:0:0:0:
228,50,287251,1,2,0:0:0:0:
306,31,287584,1,0,0:0:0:0:
306,31,287751,2,0,P|311:64|317:127,1,90,2|0,0:0|0:0,0:0:0:0:
264,269,288417,5,2,0:0:0:0:
264,269,288751,1,0,0:0:0:0:
284,346,289084,1,2,0:0:0:0:
284,346,289251,1,0,0:0:0:0:
264,269,289584,1,2,0:0:0:0:
309,206,289917,1,0,0:0:0:0:
386,231,290251,1,2,0:0:0:0:
386,231,290417,1,0,0:0:0:0:
397,306,290751,1,2,0:0:0:0:
230,349,291084,6,0,P|206:339|138:324,1,90,0|2,0:0|0:0,0:0:0:0:
68,336,291751,1,2,0:0:0:0:
68,336,291917,1,0,0:0:0:0:
39,265,292251,1,2,0:0:0:0:
96,211,292584,1,2,0:0:0:0:
162,259,292917,1,0,0:0:0:0:
162,259,293084,2,0,P|205:268|253:278,1,90,2|2,0:0|0:0,0:0:0:0:
419,200,293751,6,0,P|439:161|447:117,1,80.9999975280763,2|0,0:0|0:0,0:0:0:0:
420,52,294417,1,2,0:0:0:0:
420,52,294583,1,0,0:0:0:0:
353,92,294917,1,2,0:0:0:0:
284,58,295251,1,0,0:0:0:0:
218,99,295584,1,2,0:0:0:0:
218,99,295751,1,0,0:0:0:0:
143,82,296084,1,2,0:0:0:0:
24,126,296417,6,0,P|30:160|35:213,1,80.9999975280763,0|2,0:0|0:0,0:0:0:0:
53,281,297084,1,0,0:0:0:0:
53,281,297251,1,2,0:0:0:0:
115,335,297584,1,0,0:0:0:0:
115,335,297751,1,2,0:0:0:0:
193,337,298084,1,2,0:0:0:0:
246,245,298417,5,2,0:0:0:0:
246,245,298584,1,0,0:0:0:0:
316,216,298917,1,2,0:0:0:0:
316,216,299084,1,0,0:0:0:0:
393,207,299417,1,2,0:0:0:0:
393,207,299583,1,0,0:0:0:0:
465,230,299917,1,2,0:0:0:0:
465,230,300084,1,0,0:0:0:0:
507,294,300417,1,2,0:0:0:0:
507,294,300584,1,0,0:0:0:0:
