osu file format v14

[General]
AudioFilename: audio.mp3
AudioLeadIn: 0
PreviewTime:107288
Countdown: 0
SampleSet: Soft
StackLeniency: 0.5
Mode: 0
LetterboxInBreaks: 0
WidescreenStoryboard: 1

[Editor]
Bookmarks: 7460,20702,33943,47184,60426,73667,80288,93529,106771,120012,133253
DistanceSpacing: 1
BeatDivisor: 2
GridSize: 4
TimelineZoom: 1

[Metadata]
Title:02:15
TitleUnicode:02:15
Artist:my sound life
ArtistUnicode:my sound life
Creator:Kudou Chitose
Version:easy
Source:
Tags:solfa 茶太 chata depth of the sea 0215 japanese rock pop j-rock j-pop jrock jpop female vocals vocalist fa featured artist mappers guild mpg mg mrrrk
BeatmapID:3639232
BeatmapSetID:1777079

[Difficulty]
HPDrainRate:3
CircleSize:3
OverallDifficulty:3
ApproachRate:3
SliderMultiplier:0.9
SliderTickRate:1

[Events]
//Background and Video events
0,0,"bg01112.jpg",0,0
//Break Periods
//Storyboard Layer 0 (Background)
//Storyboard Layer 1 (Fail)
//Storyboard Layer 2 (Pass)
//Storyboard Layer 3 (Foreground)
//Storyboard Layer 4 (Overlay)
//Storyboard Sound Samples

[TimingPoints]
840,413.793103448276,4,2,1,50,1,0
7460,-100,4,2,1,60,0,0
20081,-100,4,2,1,70,0,0
20702,-100,4,2,1,70,0,0
33943,-100,4,2,1,60,0,0
46564,-100,4,2,1,70,0,0
47184,-100,4,2,1,80,0,1
60426,-100,4,2,1,80,0,0
63736,-100,4,2,1,80,0,0
67046,-100,4,2,1,85,0,0
70357,-100,4,2,1,90,0,0
72840,-100,4,2,1,95,0,1
73667,-100,4,2,1,50,0,0
78426,-100,4,2,1,5,0,0
78840,-100,4,2,1,60,0,0
80288,-100,4,2,1,60,0,0
86908,-100,4,2,1,60,0,0
87322,-100,4,2,1,60,0,0
91874,-100,4,2,1,70,0,0
93529,-100,4,2,1,65,0,0
106150,-100,4,2,1,65,0,0
106771,-100,4,2,1,85,0,1
120012,-100,4,2,1,85,0,0
123322,-100,4,2,1,85,0,0
126633,-100,4,2,1,90,0,0
129943,-100,4,2,1,95,0,1
131184,-100,4,2,1,100,0,1
133253,-100,4,2,1,90,0,0
134702,-100,4,2,1,5,0,0

[Colours]
Combo1 : 245,216,99
Combo2 : 120,167,245
Combo3 : 180,237,101

[HitObjects]
1,51,7874,5,8,0:0:0:0:
89,65,8288,2,0,P|96:110|90:159,1,90,8|8,0:1|0:0,0:0:0:0:
24,213,9115,1,8,0:1:0:0:
109,317,9736,2,0,P|198:332|300:310,1,180,2|2,0:0|0:0,0:0:0:0:
317,184,11184,5,8,0:0:0:0:
268,108,11598,2,0,P|222:101|175:103,1,90,8|8,0:1|0:0,0:0:0:0:
88,111,12426,1,8,0:1:0:0:
3,216,13046,2,0,P|13:305|53:384,1,180,2|2,0:0|0:0,0:0:0:0:
188,375,14495,5,8,0:0:0:0:
253,313,14908,2,0,P|253:267|238:217,1,90,8|8,0:1|0:0,0:0:0:0:
202,143,15736,1,8,0:1:0:0:
270,26,16357,2,0,P|359:18|462:46,1,180,2|2,0:0|0:0,0:0:0:0:
492,165,17805,5,8,0:0:0:0:
468,251,18219,2,0,P|424:261|380:255,1,90,8|8,0:1|0:0,0:0:0:0:
289,252,19046,2,0,B|272:193|272:193|292:150,1,90,8|8,0:0|0:0,0:0:0:0:
324,86,19874,1,2,0:0:0:0:
324,86,20081,2,0,L|350:32,1,45,8|8,0:1|0:0,0:0:0:0:
446,44,20702,1,12,0:1:0:0:
483,219,21529,6,0,B|441:235|441:235|394:234,1,90,8|8,0:1|0:0,0:0:0:0:
314,194,22357,2,0,B|268:193|268:193|226:209,1,90,8|8,0:1|0:0,0:0:0:0:
145,247,23184,1,8,0:1:0:0:
8,129,24012,5,8,0:1:0:0:
36,43,24426,2,0,P|78:28|126:27,1,90,8|8,0:0|0:1,0:0:0:0:
212,37,25253,1,8,0:0:0:0:
270,105,25667,2,0,B|276:149|276:149|260:214,1,90,8|8,0:1|0:0,0:0:0:0:
238,279,26495,1,8,0:1:0:0:
395,365,27322,6,0,B|440:373|440:373|494:369,2,90,8|8|8,0:1|0:0|0:1,0:0:0:0:
328,303,28564,1,8,0:0:0:0:
395,243,28977,2,0,P|404:198|396:151,1,90,8|8,0:1|0:0,0:0:0:0:
349,78,29805,1,8,0:1:0:0:
205,186,30633,1,8,0:1:0:0:
125,143,31046,2,0,P|79:137|26:146,2,90,8|8|8,0:0|0:1|0:0,0:0:0:0:
171,270,32495,5,8,0:0:0:0:
63,351,33115,1,8,0:0:0:0:
13,275,33529,2,0,P|6:232|14:184,1,90,8|12,0:0|0:1,0:0:0:0:
89,138,34357,1,8,1:0:0:0:
89,138,36012,5,8,1:0:0:0:
16,191,36426,2,0,P|12:235|21:284,1,90,8|8,0:1|1:0,0:0:0:0:
73,351,37253,2,0,P|97:361|123:364,1,45,8|8,0:1|0:1,0:0:0:0:
160,359,37667,1,8,1:0:0:0:
271,17,39322,6,0,P|316:10|371:16,1,90,8|8,1:0|0:1,0:0:0:0:
436,62,40150,1,8,1:0:0:0:
438,152,40564,1,8,0:1:0:0:
372,213,40977,6,0,P|408:291|493:291,1,180,8|8,1:0|1:0,0:0:0:0:
502,111,42633,1,8,1:0:0:0:
454,34,43046,2,0,P|409:27|359:33,1,90,8|8,0:1|1:0,0:0:0:0:
285,73,43874,1,8,0:1:0:0:
246,202,44495,6,0,P|193:240|113:223,1,135,2|8,0:0|1:0,0:0:0:0:
96,147,45529,2,0,B|112:104|112:104|108:53,1,90,8|8,1:0|1:0,0:0:0:0:
26,21,46357,1,2,0:0:0:0:
5,199,47184,1,12,0:1:0:0:
119,280,47805,5,2,0:0:0:0:
119,280,48012,2,0,P|168:283|239:257,1,90,8|8,0:1|0:0,0:0:0:0:
276,215,48840,2,0,P|339:207|407:227,1,135,8|2,0:1|0:0,0:0:0:0:
456,302,49874,2,0,P|454:325|429:355,1,45,8|8,0:1|0:0,0:0:0:0:
403,375,50288,2,0,P|360:382|309:366,1,90,2|2,0:0|0:0,0:0:0:0:
237,259,51322,6,0,P|231:213|243:165,1,90,8|8,0:1|0:0,0:0:0:0:
312,116,52150,2,0,P|302:52|225:16,1,135,8|2,0:1|0:0,0:0:0:0:
161,48,53184,2,0,B|138:49|138:49|106:43,1,45,8|8,0:0|0:0,0:0:0:0:
26,50,53805,1,2,0:0:0:0:
4,137,54219,5,8,0:0:0:0:
35,221,54633,2,0,P|79:226|128:203,1,90,8|8,0:1|0:0,0:0:0:0:
192,154,55460,2,0,P|246:117|318:117,1,135,8|2,0:1|0:0,0:0:0:0:
431,183,56702,1,8,0:0:0:0:
500,126,57115,2,0,P|505:81|494:35,2,90,8|8|8,0:1|0:0|0:1,0:0:0:0:
356,234,58771,5,8,0:0:0:0:
363,323,59184,2,0,L|453:346,1,90,8|8,0:1|0:0,0:0:0:0:
511,278,60012,1,8,0:0:0:0:
446,215,60426,2,0,P|410:134|411:40,1,180,12|8,0:1|0:1,0:0:0:0:
410,43,62288,5,2,0:0:0:0:
456,120,62702,2,0,P|447:164|394:206,1,90,2|2,0:0|0:0,0:0:0:0:
284,172,63736,2,0,P|195:158|99:175,1,180,8|8,0:1|0:1,0:0:0:0:
106,172,65598,5,8,0:1:0:0:
184,128,66012,2,0,P|228:130|275:158,1,90,2|8,0:0|0:1,0:0:0:0:
352,256,67046,2,0,P|328:339|240:372,2,180,4|8|8,0:1|0:1|0:1,0:0:0:0:
296,184,69115,1,8,0:0:0:0:
452,94,69943,1,8,0:0:0:0:
405,17,70357,6,0,B|362:0|362:0|310:7,1,90,8|8,0:1|0:0,0:0:0:0:
188,41,71391,1,8,0:0:0:0:
228,169,72012,1,8,0:0:0:0:
141,192,72426,1,8,0:0:0:0:
117,105,72840,2,0,B|104:62|104:62|19:30,1,135,8|8,0:0|0:0,0:0:0:0:
256,192,76357,12,0,78633,0:0:0:0:
19,30,80702,5,8,0:0:0:0:
87,88,81115,2,0,P|131:94|176:87,1,90,8|8,0:1|0:0,0:0:0:0:
240,23,81943,1,8,0:1:0:0:
339,114,82564,1,2,0:0:0:0:
436,20,83184,6,0,B|473:46|473:46|497:91,2,90,8|8|0,0:0|0:1|0:0,0:0:0:0:
345,25,84426,2,0,L|243:34,1,90,8|8,0:1|0:0,0:0:0:0:
165,43,85253,1,8,0:1:0:0:
193,175,85874,1,8,0:0:0:0:
326,154,86495,5,8,0:0:0:0:
351,240,86908,2,0,B|311:263|311:263|260:267,1,90,8|8,0:1|0:0,0:0:0:0:
178,251,87736,1,8,0:1:0:0:
31,355,88564,2,0,P|118:377|209:366,1,180,8|8,0:1|0:1,0:0:0:0:
256,291,89805,1,8,0:0:0:0:
342,316,90219,6,0,B|376:344|376:344|401:389,2,90,8|8|8,0:1|0:0|0:1,0:0:0:0:
256,291,91460,1,8,0:0:0:0:
138,358,92081,5,8,0:0:0:0:
27,280,92702,1,8,0:0:0:0:
55,194,93115,2,0,B|94:172|94:172|140:176,1,90,8|12,0:0|0:1,0:0:0:0:
229,184,93943,1,8,1:0:0:0:
229,184,95598,5,8,1:0:0:0:
261,267,96012,2,0,P|237:307|189:342,1,90,8|8,0:1|1:0,0:0:0:0:
116,355,96840,2,0,P|91:354|59:346,1,45,8|8,0:1|0:1,0:0:0:0:
31,329,97253,1,8,1:0:0:0:
243,38,98908,6,0,P|210:7|164:-1,1,90,8|8,1:0|0:1,0:0:0:0:
80,23,99736,1,8,1:0:0:0:
11,81,100150,1,8,0:1:0:0:
16,170,100564,6,0,P|98:204|188:190,1,180,8|8,1:0|1:0,0:0:0:0:
305,56,102219,1,8,1:0:0:0:
375,112,102633,2,0,P|398:151|403:201,1,90,8|8,0:1|1:0,0:0:0:0:
379,281,103460,1,8,0:1:0:0:
248,244,104081,6,0,P|181:235|115:245,1,135,2|8,0:0|1:0,0:0:0:0:
36,289,105115,1,8,0:0:0:0:
74,370,105529,1,8,0:0:0:0:
193,307,106150,2,0,B|233:287|233:287|255:195,1,135,8|12,0:1|0:1,0:0:0:0:
238,69,107391,5,2,0:0:0:0:
238,69,107598,2,0,P|283:62|348:72,1,90,8|8,0:1|0:0,0:0:0:0:
412,37,108426,2,0,P|449:91|445:173,1,135,8|2,0:1|0:0,0:0:0:0:
404,236,109460,1,8,0:1:0:0:
422,324,109874,2,0,P|398:362|358:380,1,90,2|8,0:0|0:1,0:0:0:0:
227,346,110908,6,0,B|200:309|200:309|210:254,1,90,8|8,0:1|0:0,0:0:0:0:
190,177,111736,2,0,B|199:133|199:133|241:107,1,90,8|8,0:1|0:0,0:0:0:0:
315,64,112564,1,8,0:1:0:0:
404,66,112977,2,0,L|458:66,1,45,8|12,0:0|0:0,0:0:0:0:
509,187,113805,6,0,P|473:215|431:224,1,90,8|8,0:0|0:1,0:0:0:0:
345,192,114633,1,8,0:0:0:0:
263,155,115046,2,0,P|199:160|114:203,1,135,8|2,0:1|0:0,0:0:0:0:
42,286,116288,6,0,B|59:328|59:328|100:353,1,90,8|8,0:0|0:1,0:0:0:0:
189,335,117115,1,8,0:0:0:0:
189,335,117322,2,0,B|198:290|198:290|177:202,1,135,2|8,0:0|0:0,0:0:0:0:
204,70,118564,6,0,B|291:46|291:46|348:64,1,135,8|8,0:0|0:0,0:0:0:0:
380,136,119598,1,8,0:0:0:0:
465,109,120012,2,0,P|488:196|483:293,1,180,12|8,0:1|0:1,0:0:0:0:
484,285,121874,6,0,P|449:313|406:328,1,90,2|2,0:0|0:0,0:0:0:0:
316,329,122702,1,8,0:1:0:0:
223,231,123322,2,0,P|206:143|221:51,1,180,8|8,0:1|0:1,0:0:0:0:
219,54,125184,5,2,0:0:0:0:
245,139,125598,2,0,P|237:184|203:224,1,90,2|8,0:0|0:1,0:0:0:0:
75,215,126633,2,0,P|22:285|24:378,2,180,8|8|8,0:1|0:1|0:1,0:0:0:0:
156,175,128702,1,8,0:0:0:0:
266,317,129529,1,8,0:0:0:0:
355,328,129943,5,12,0:0:0:0:
459,242,130564,2,0,L|431:198,1,45,8|12,0:0|0:0,0:0:0:0:
444,114,131184,2,0,B|421:74|421:74|335:40,2,135,8|8|8,0:1|0:0|0:0,0:0:0:0:
434,204,132840,1,8,0:1:0:0:
344,215,133253,1,12,0:1:0:0:
256,192,133460,12,2,136564,0:0:0:0:
